osu file format v14

[General]
AudioFilename: audio.mp3
AudioLeadIn: 0
PreviewTime: 56959
Countdown: 0
SampleSet: Soft
StackLeniency: 0.7
Mode: 0
LetterboxInBreaks: 0
WidescreenStoryboard: 1

[Editor]
Bookmarks: 66137
DistanceSpacing: 1.1
BeatDivisor: 4
GridSize: 8
TimelineZoom: 1.8

[Metadata]
Title:Napolitan Napolitan
TitleUnicode:ナポリタンナポリタン
Artist:Nanahira
ArtistUnicode:ななひら
Creator:My Angel RangE
Version:Hard
Source:
Tags:
BeatmapID:1371570
BeatmapSetID:647308

[Difficulty]
HPDrainRate:4.5
CircleSize:3.8
OverallDifficulty:5
ApproachRate:8
SliderMultiplier:1.93
SliderTickRate:1

[Events]
//Background and Video events
0,0,"HTR.png",0,0
//Break Periods
//Storyboard Layer 0 (Background)
//Storyboard Layer 1 (Fail)
//Storyboard Layer 2 (Pass)
//Storyboard Layer 3 (Foreground)
//Storyboard Sound Samples

[TimingPoints]
216,394.736842105263,4,2,2,60,1,0
216,-142.857142857143,4,2,2,60,0,0
6531,-100,4,2,2,60,0,0
19163,-111.111111111111,4,2,2,60,0,0
31794,-100,4,2,2,60,0,0
38110,-111.111111111111,4,2,2,60,0,0
50742,-125,4,2,2,60,0,0
57058,-90.9090909090909,4,2,2,60,0,1
68110,-90.9090909090909,4,2,2,60,0,0
69689,-86.9565217391304,4,2,2,60,0,1
82321,-100,4,2,2,60,0,0

[Colours]
Combo1 : 255,176,98
Combo2 : 236,117,19
Combo3 : 250,122,95
Combo4 : 242,24,57

[HitObjects]
92,60,6531,6,0,P|142:47|205:59,1,96.5
244,152,6926,2,0,P|193:164|131:153,1,96.5
46,211,7321,1,0,0:0:0:0:
46,211,7518,1,0,0:0:0:0:
103,311,7715,2,0,B|148:298|148:298|233:307,1,96.5
387,377,8110,6,0,P|339:380|293:368,1,96.5
304,251,8505,2,0,P|352:248|399:261,1,96.5
217,175,8900,1,0,0:0:0:0:
217,175,9097,1,0,0:0:0:0:
283,80,9294,1,0,0:0:0:0:
283,80,9492,1,0,0:0:0:0:
374,150,9689,6,0,P|422:140|485:154,1,96.5
475,263,10084,2,0,P|426:272|364:259,1,96.5
295,186,10479,1,0,0:0:0:0:
295,186,10676,1,0,0:0:0:0:
235,376,10873,2,0,L|227:280,1,96.5
122,351,11268,5,0,0:0:0:0:
122,351,11465,1,0,0:0:0:0:
15,305,11663,1,0,0:0:0:0:
15,305,11860,1,0,0:0:0:0:
116,248,12058,2,0,L|134:118,1,96.5
52,65,12452,2,0,L|42:-4,2,48.25
165,41,12847,6,0,P|218:26|288:44,1,96.5
321,128,13242,2,0,P|275:142|227:138,1,96.5
122,189,13637,2,0,P|106:234|110:281,1,96.5
203,349,14031,2,0,L|327:345,1,96.5
412,372,14426,5,0,0:0:0:0:
412,372,14623,1,0,0:0:0:0:
385,259,14821,1,0,0:0:0:0:
385,259,15018,1,0,0:0:0:0:
475,85,15215,2,0,L|471:182,1,96.5
370,130,15610,2,0,L|366:34,1,96.5
276,190,16005,6,0,L|160:181,1,96.5
97,101,16400,2,0,L|213:92,1,96.5
283,21,16794,1,0,0:0:0:0:
283,21,16992,1,0,0:0:0:0:
348,116,17189,2,0,L|337:249,1,96.5
250,285,17584,6,0,L|147:280,2,96.5
344,353,18176,1,0,0:0:0:0:
446,194,18373,2,0,P|452:241|439:288,1,96.5
351,231,18768,2,0,P|338:185|344:138,1,96.5
307,326,19163,6,0,P|226:305|136:353,1,173.699994699097
54,291,19755,1,0,0:0:0:0:
130,220,19952,2,0,P|139:160|122:103,1,86.8499973495484
77,46,20347,2,0,P|138:43|172:17,1,86.8499973495484
258,62,20742,5,0,0:0:0:0:
258,62,20939,1,0,0:0:0:0:
355,25,21137,2,0,P|359:87|340:129,1,86.8499973495484
255,150,21531,2,0,P|251:212|270:254,1,86.8499973495484
348,288,21926,2,0,L|469:278,1,86.8499973495484
386,373,22321,6,0,L|201:369,1,173.699994699097
152,283,22913,1,0,0:0:0:0:
64,339,23110,2,0,P|52:265|59:243,1,86.8499973495484
129,181,23505,2,0,P|141:107|134:85,1,86.8499973495484
43,53,23900,6,0,P|9:128|45:239,1,173.699994699097
129,181,24492,1,0,0:0:0:0:
108,283,24689,2,0,L|108:369,1,86.8499973495484
206,336,25084,2,0,L|206:250,1,86.8499973495484
283,178,25479,6,0,P|359:166|445:229,1,173.699994699097
493,304,26071,1,0,0:0:0:0:
398,346,26268,2,0,P|322:358|236:295,1,173.699994699097
180,224,26860,1,0,0:0:0:0:
33,149,27058,6,0,P|75:137|119:138,1,86.8499973495484
174,248,27452,2,0,P|132:237|89:237,1,86.8499973495484
120,338,27847,1,0,0:0:0:0:
120,338,28044,1,0,0:0:0:0:
10,210,28242,2,0,P|7:253|26:292,1,86.8499973495484
90,142,28637,6,0,L|278:136,1,173.699994699097
344,202,29229,1,0,0:0:0:0:
344,202,29426,2,0,P|357:262|346:298,1,86.8499973495484
258,236,29821,2,0,P|249:188|262:131,1,86.8499973495484
329,79,30215,6,0,P|224:58|159:103,1,173.699994699097
76,42,30808,1,0,0:0:0:0:
35,137,31005,2,0,P|21:184|46:247,1,86.8499973495484
119,270,31400,2,0,P|132:229|125:186,1,86.8499973495484
64,88,31794,6,0,P|134:69|235:144,1,193
327,194,32387,1,0,0:0:0:0:
327,194,32584,2,0,P|394:161|420:123,1,96.5
378,31,32979,2,0,P|333:13|286:18,1,96.5
234,122,33373,6,0,L|243:335,1,193
138,368,33965,1,0,0:0:0:0:
138,368,34163,2,0,L|17:351,1,96.5
39,238,34558,2,0,L|134:224,1,96.5
212,139,34952,5,0,0:0:0:0:
212,139,35150,1,0,0:0:0:0:
118,70,35347,1,0,0:0:0:0:
118,70,35545,1,0,0:0:0:0:
223,23,35742,2,0,P|287:20|332:33,1,96.5
501,46,36137,2,0,P|463:76|417:87,1,96.5
496,161,36531,6,0,L|484:362,1,193
389,286,37123,1,0,0:0:0:0:
389,286,37321,2,0,P|319:283|272:308,1,96.5
110,352,37715,2,0,P|156:365|205:365,1,96.5
57,263,38110,6,0,P|69:203|167:133,1,173.699994699097
227,209,38702,1,0,0:0:0:0:
320,162,38900,2,0,P|391:167|421:156,1,86.8499973495484
488,100,39294,2,0,P|506:37|499:0,1,86.8499973495484
402,43,39689,6,0,L|208:35,1,173.699994699097
125,20,40281,1,0,0:0:0:0:
63,104,40479,2,0,P|50:153|61:195,1,86.8499973495484
146,240,40873,2,0,P|159:289|148:331,1,86.8499973495484
50,348,41268,6,0,P|25:266|57:187,1,173.699994699097
124,106,41860,1,0,0:0:0:0:
209,166,42058,2,0,L|317:164,1,86.8499973495484
387,212,42452,2,0,P|464:221|504:247,1,86.8499973495484
478,328,42847,6,0,P|417:355|287:323,1,173.699994699097
250,257,43439,1,0,0:0:0:0:
326,185,43637,2,0,P|338:142|332:81,1,86.8499973495484
265,23,44031,2,0,P|204:22|153:48,1,86.8499973495484
123,118,44426,6,0,L|126:317,1,173.699994699097
195,369,45018,1,0,0:0:0:0:
281,311,45215,2,0,P|335:304|387:315,1,86.8499973495484
451,370,45610,2,0,P|471:321|464:274,1,86.8499973495484
393,215,46005,6,0,P|371:147|406:53,1,173.699994699097
308,14,46597,1,0,0:0:0:0:
308,14,46794,2,0,P|286:63|241:93,1,86.8499973495484
182,151,47189,2,0,P|193:210|222:253,1,86.8499973495484
288,296,47584,6,0,P|202:276|96:313,1,173.699994699097
36,358,48176,1,0,0:0:0:0:
7,258,48373,2,0,P|19:189|13:137,1,86.8499973495484
96,102,48768,2,0,P|155:116|197:105,1,86.8499973495484
267,54,49163,6,0,P|333:39|442:77,1,173.699994699097
461,169,49755,1,0,0:0:0:0:
461,169,49952,2,0,P|404:170|360:137,1,86.8499973495484
314,73,50347,2,0,P|271:68|231:85,1,86.8499973495484
182,164,50742,6,0,P|147:114|174:14,2,154.4
347,80,51926,1,0,0:0:0:0:
182,165,52321,2,0,L|198:339,2,154.4
347,80,53505,1,0,0:0:0:0:
164,45,53900,6,0,P|102:38|75:41,1,77.2
5,82,54294,2,0,P|7:131|23:167,1,77.2
100,196,54689,2,0,P|106:265|97:288,1,77.2
75,359,55084,2,0,P|126:345|155:349,1,77.2
225,294,55479,6,0,P|267:313|371:279,1,154.4
291,216,56071,1,0,0:0:0:0:
369,142,56268,2,0,P|299:112|226:132,1,154.4
96,347,57058,6,0,L|92:228,1,106.150003239441
65,127,57452,1,0,0:0:0:0:
65,127,57650,1,0,0:0:0:0:
170,76,57847,2,0,P|222:68|274:78,1,106.150003239441
273,196,58242,2,0,P|217:204|151:186,1,106.150003239441
63,246,58637,5,0,0:0:0:0:
105,354,58834,1,0,0:0:0:0:
313,307,59031,2,0,P|262:296|210:303,1,106.150003239441
418,360,59426,2,0,P|392:289|438:163,1,212.300006478882
510,74,60018,1,0,0:0:0:0:
409,14,60215,6,0,P|346:4|300:16,1,106.150003239441
130,107,60610,2,0,P|182:116|234:107,1,106.150003239441
50,21,61005,1,0,0:0:0:0:
50,21,61202,1,0,0:0:0:0:
15,132,61400,2,0,L|12:274,1,106.150003239441
54,347,61794,5,0,0:0:0:0:
54,347,61992,1,0,0:0:0:0:
140,269,62189,2,0,P|204:266|259:288,1,106.150003239441
356,247,62584,2,0,P|414:250|492:219,2,106.150003239441
328,360,63176,1,0,0:0:0:0:
328,360,63373,6,0,L|211:362,1,106.150003239441
158,263,63768,2,0,L|275:265,1,106.150003239441
371,218,64163,1,0,0:0:0:0:
371,218,64360,1,0,0:0:0:0:
380,101,64558,1,0,0:0:0:0:
380,101,64755,1,0,0:0:0:0:
290,25,64952,6,0,L|183:23,1,106.150003239441
122,123,65347,2,0,L|228:121,1,106.150003239441
317,196,65742,2,0,P|327:265|309:319,1,106.150003239441
214,353,66137,2,0,P|203:301|212:249,1,106.150003239441
255,141,66531,5,0,0:0:0:0:
255,141,66729,1,0,0:0:0:0:
163,68,66926,2,0,P|85:68|47:79,1,106.150003239441
122,172,67321,1,0,0:0:0:0:
122,172,67518,1,0,0:0:0:0:
40,254,67715,2,0,L|47:361,1,106.150003239441
277,320,68308,6,0,L|129:311,1,106.150003239441
64,105,68900,2,0,L|212:96,1,106.150003239441
389,333,69294,2,0,L|381:263,3,53.0750016197205
426,359,69689,6,0,L|433:231,1,110.97500211668
483,137,70084,1,0,0:0:0:0:
483,137,70281,1,0,0:0:0:0:
398,48,70479,2,0,P|340:49|280:29,1,110.97500211668
210,126,70873,2,0,P|245:170|256:223,1,110.97500211668
193,328,71268,5,0,0:0:0:0:
129,224,71465,1,0,0:0:0:0:
82,338,71663,2,0,L|203:327,1,110.97500211668
420,365,72058,2,0,L|310:360,1,110.97500211668
485,262,72452,1,0,0:0:0:0:
485,262,72650,1,0,0:0:0:0:
417,160,72847,6,0,P|343:144|270:174,1,110.97500211668
196,108,73242,2,0,P|186:162|205:214,1,110.97500211668
289,28,73637,1,0,0:0:0:0:
289,28,73834,1,0,0:0:0:0:
169,4,74031,1,0,0:0:0:0:
169,4,74229,1,0,0:0:0:0:
61,61,74426,6,0,L|74:192,1,110.97500211668
175,343,74821,2,0,L|186:233,1,110.97500211668
280,282,75215,1,0,0:0:0:0:
141,153,75413,2,0,P|195:143|246:164,1,110.97500211668
68,252,75808,1,0,0:0:0:0:
121,361,76005,6,0,L|253:354,1,110.97500211668
314,264,76400,2,0,L|203:258,1,110.97500211668
141,153,76794,1,0,0:0:0:0:
141,153,76992,1,0,0:0:0:0:
217,58,77189,2,0,P|282:42|342:62,1,110.97500211668
416,129,77584,6,0,P|434:182|425:236,1,110.97500211668
319,298,77979,2,0,P|310:244|327:192,1,110.97500211668
279,80,78373,2,0,P|384:91|433:186,1,221.95000423336
465,304,78965,1,0,0:0:0:0:
247,355,79163,6,0,L|358:364,1,110.97500211668
291,242,79558,2,0,L|181:251,1,110.97500211668
370,149,79952,1,0,0:0:0:0:
370,149,80150,1,0,0:0:0:0:
306,44,80347,1,0,0:0:0:0:
306,44,80544,1,0,0:0:0:0:
150,232,80939,6,0,L|31:228,2,110.97500211668
235,144,81531,2,0,L|385:139,2,110.97500211668
139,67,82123,1,0,0:0:0:0:
51,127,82321,6,0,L|57:331,1,193
156,283,82913,1,0,0:0:0:0:
230,357,83110,2,0,P|283:351|342:356,1,96.5
387,266,83505,2,0,P|380:196|394:153,1,96.5
459,94,83900,6,0,P|398:66|290:121,1,193
203,177,84492,1,0,0:0:0:0:
275,254,84689,2,0,P|280:303|254:373,1,96.5
80,298,85084,2,0,P|127:288|175:296,1,96.5
2,370,85479,6,0,P|25:299|-8:163,1,193
51,88,86071,1,0,0:0:0:0:
143,139,86268,2,0,P|185:160|233:159,1,96.5
211,54,86663,2,0,P|151:30|105:40,1,96.5
44,107,87058,6,0,L|65:304,1,193
164,261,87650,1,0,0:0:0:0:
215,353,87847,2,0,P|270:350|316:358,1,96.5
504,320,88242,2,0,P|456:324|409:318,1,96.5
460,224,88637,6,0,P|391:211|306:310,1,193
222,352,89229,1,0,0:0:0:0:
125,307,89426,2,0,P|66:308|27:288,1,96.5
94,205,89821,2,0,P|153:204|192:224,1,96.5
255,299,90215,6,0,P|235:207|289:130,1,193
356,47,90808,1,0,0:0:0:0:
251,9,91005,2,0,P|168:26|123:14,1,96.5
95,110,91400,2,0,P|132:141|154:184,1,96.5
91,269,91794,6,0,P|167:234|273:271,1,193
332,350,92387,1,0,0:0:0:0:
412,280,92584,2,0,P|424:234|420:186,1,96.5
310,56,92979,2,0,P|306:104|319:151,1,96.5
414,35,93373,6,0,L|538:27,2,96.5
310,57,93965,1,0,0:0:0:0:
207,28,94163,2,0,L|83:20,2,96.5
310,57,94755,1,0,0:0:0:0:
