osu file format v14

[General]
AudioFilename: touhou ne yenir mi.mp3
AudioLeadIn: 0
PreviewTime: 115235
Countdown: 1
SampleSet: Normal
StackLeniency: 0.7
Mode: 1
LetterboxInBreaks: 0
WidescreenStoryboard: 0

[Editor]
Bookmarks: 36121,94321,138207,162893,184836
DistanceSpacing: 0.5
BeatDivisor: 4
GridSize: 4
TimelineZoom: 2.9

[Metadata]
Title:Monosugoi Space Shuttle de Koishi ga Monosugoi Uta
TitleUnicode:物凄いスペースシャトルでこいしが物凄いうた
Artist:Nanahira
ArtistUnicode:ななひら
Creator:zigizigiefe
Version:Space Oni
Source:東方地霊殿 ~ Subterranean Animism.
Tags:Last Remote ラストリモート ハルトマンの妖怪少女 komeiji touhou chireiden TH11 sumijun kumarisu くまりす eastnewsound confetto halozy Hartmann's Youkai Girl lucky 7 extra boss theme reitaisai13
BeatmapID:1411445
BeatmapSetID:666992

[Difficulty]
HPDrainRate:4
CircleSize:6.9
OverallDifficulty:6.5
ApproachRate:3.1
SliderMultiplier:1.4
SliderTickRate:1

[Events]
//Background and Video events
0,0,"w33bs stuff.jpg",0,0
//Break Periods
2,80807,81921
2,149378,150493
2,206978,216321
2,272807,282150
//Storyboard Layer 0 (Background)
//Storyboard Layer 1 (Fail)
//Storyboard Layer 2 (Pass)
//Storyboard Layer 3 (Foreground)
//Storyboard Sound Samples

[TimingPoints]
13407,342.857142857143,4,1,0,70,1,0
13407,-125,4,1,0,70,0,0
25578,-117.647058823529,4,1,0,70,0,0
25749,-111.111111111111,4,1,0,70,0,0
30721,-108.108108108108,4,1,0,70,0,0
30892,-105.263157894737,4,1,0,70,0,0
31064,-102.564102564103,4,1,0,70,0,0
31235,-100,4,1,0,70,0,0
36721,-125,4,1,0,70,0,0
47692,-111.111111111111,4,1,0,70,0,0
53178,-100,4,1,0,70,0,0
53864,-95.2380952380952,4,1,0,73,0,0
54549,-90.9090909090909,4,1,0,75,0,0
55235,-86.9565217391304,4,1,0,78,0,0
55921,-83.3333333333333,4,1,0,80,0,0
58492,-100,4,1,0,85,0,0
58664,-100,4,1,0,85,0,0
80435,-100,4,1,0,40,0,0
83178,-100,4,1,0,60,0,0
83349,-125,4,1,0,60,0,0
94149,-111.111111111111,4,1,0,60,0,0
94235,-111.111111111111,4,1,0,80,0,0
94321,-100,4,1,0,80,0,0
105121,-100,4,1,0,70,0,0
105292,-100,4,1,0,70,0,0
110778,-95.2380952380952,4,1,0,70,0,0
111464,-90.9090909090909,4,1,0,73,0,0
112149,-86.9565217391304,4,1,0,75,0,0
112835,-83.3333333333333,4,1,0,78,0,0
113521,-80,4,1,0,80,0,0
115235,-83.3333333333333,4,1,0,80,0,0
115578,-86.9565217391304,4,1,0,80,0,0
116264,-86.9565217391304,4,1,0,80,0,1
126892,-86.9565217391304,4,1,0,80,0,0
127235,-86.9565217391304,4,1,0,80,0,1
137864,-86.9565217391304,4,1,0,80,0,0
138035,-100,4,1,0,80,0,0
149007,-100,4,1,0,40,0,0
151749,-100,4,1,0,60,0,0
151921,-125,4,1,0,60,0,0
162721,-111.111111111111,4,1,0,60,0,0
162807,-111.111111111111,4,1,0,80,0,0
162892,-100,4,1,0,80,0,0
173692,-100,4,1,0,70,0,0
173864,-100,4,1,0,70,0,0
179349,-95.2380952380952,4,1,0,70,0,0
180035,-90.9090909090909,4,1,0,73,0,0
180720,-86.9565217391304,4,1,0,75,0,0
181406,-83.3333333333333,4,1,0,78,0,0
182092,-80,4,1,0,80,0,0
183806,-83.3333333333333,4,1,0,80,0,0
184149,-86.9565217391304,4,1,0,80,0,0
184835,-86.9565217391304,4,1,0,80,0,1
195464,-86.9565217391304,4,1,0,80,0,0
195807,-86.9565217391304,4,1,0,80,0,1
206435,-86.9565217391304,4,1,0,80,0,0
206607,-100,4,1,0,40,0,0
217578,-100,4,1,0,80,0,0
227949,-97.5609756097561,4,1,0,80,0,0
228035,-95.2380952380952,4,1,0,80,0,0
228121,-93.0232558139535,4,1,0,80,0,0
228207,-90.9090909090909,4,1,0,80,0,0
228292,-88.8888888888889,4,1,0,80,0,0
228378,-86.9565217391304,4,1,0,80,0,0
228464,-85.1063829787234,4,1,0,80,0,0
228549,-83.3333333333333,4,1,0,80,0,0
228635,-81.6326530612245,4,1,0,80,0,0
228721,-80,4,1,0,80,0,0
249635,-83.3333333333333,4,1,0,80,0,0
249978,-86.9565217391304,4,1,0,80,0,0
250664,-86.9565217391304,4,1,0,80,0,1
261292,-86.9565217391304,4,1,0,80,0,0
261635,-86.9565217391304,4,1,0,80,0,1
272264,-86.9565217391304,4,1,0,80,0,0
272435,-100,4,1,0,40,0,0
283407,-100,4,1,0,70,0,0
283578,-125,4,1,0,70,0,0
305521,-111.111111111111,4,1,0,70,0,0
311007,-100,4,1,0,70,0,0
311693,-95.2380952380952,4,1,0,73,0,0
312378,-90.9090909090909,4,1,0,75,0,0
313064,-86.9565217391304,4,1,0,78,0,0
313749,-83.3333333333333,4,1,0,80,0,0
316321,-100,4,1,0,85,0,0
316492,-100,4,1,0,85,0,0
338349,-142.857142857143,4,1,0,65,0,0
359092,-142.857142857143,4,1,0,20,0,0

[HitObjects]
184,124,13407,5,0,0:0:0:0:
180,124,13749,1,0,0:0:0:0:
176,124,13921,1,8,0:0:0:0:
176,124,14007,1,8,0:0:0:0:
176,124,14092,1,8,0:0:0:0:
176,124,14264,1,0,0:0:0:0:
176,124,14435,1,8,0:0:0:0:
256,132,14778,1,4,0:0:0:0:
252,160,15121,1,0,0:0:0:0:
252,160,15292,1,0,0:0:0:0:
252,160,15464,1,8,0:0:0:0:
156,132,15635,1,8,0:0:0:0:
252,160,15807,1,0,0:0:0:0:
252,160,15978,1,8,0:0:0:0:
252,160,16149,1,0,0:0:0:0:
224,88,16492,1,0,0:0:0:0:
224,88,16835,1,8,0:0:0:0:
132,148,17521,1,0,0:0:0:0:
252,160,17864,1,0,0:0:0:0:
252,160,18035,1,0,0:0:0:0:
252,160,18207,1,8,0:0:0:0:
136,92,18378,1,0,0:0:0:0:
252,160,18549,1,8,0:0:0:0:
252,160,18721,1,8,0:0:0:0:
252,160,18892,1,0,0:0:0:0:
224,88,19235,1,0,0:0:0:0:
224,88,19578,1,8,0:0:0:0:
160,140,19749,1,0,0:0:0:0:
208,176,20092,1,0,0:0:0:0:
208,176,20264,1,0,0:0:0:0:
252,160,20607,1,0,0:0:0:0:
252,160,20778,1,0,0:0:0:0:
252,160,20949,1,8,0:0:0:0:
160,40,21121,1,8,0:0:0:0:
252,160,21292,1,0,0:0:0:0:
252,160,21464,1,8,0:0:0:0:
252,160,21635,1,0,0:0:0:0:
224,88,21978,1,0,0:0:0:0:
224,88,22321,1,8,0:0:0:0:
152,68,22492,1,0,0:0:0:0:
144,48,22835,1,8,0:0:0:0:
208,148,23007,1,0,0:0:0:0:
208,148,23349,1,8,0:0:0:0:
208,148,23521,1,0,0:0:0:0:
208,148,23692,1,8,0:0:0:0:
188,56,24035,1,0,0:0:0:0:
188,56,24207,1,8,0:0:0:0:
188,56,24378,1,0,0:0:0:0:
156,128,24549,1,8,0:0:0:0:
260,92,24721,1,0,0:0:0:0:
260,92,25064,1,8,0:0:0:0:
260,92,25235,1,0,0:0:0:0:
260,92,25578,1,8,0:0:0:0:
260,92,25749,1,0,0:0:0:0:
264,224,25835,1,0,0:0:0:0:
280,248,25921,1,0,0:0:0:0:
264,224,26007,1,0,0:0:0:0:
264,224,26092,1,0,0:0:0:0:
220,56,26178,1,0,0:0:0:0:
216,200,26264,1,0,0:0:0:0:
216,200,26435,1,8,0:0:0:0:
216,200,26778,1,0,0:0:0:0:
216,200,26864,1,0,0:0:0:0:
216,200,26949,1,0,0:0:0:0:
216,200,27121,1,8,0:0:0:0:
160,96,27464,1,0,0:0:0:0:
160,96,27549,1,0,0:0:0:0:
160,96,27635,1,0,0:0:0:0:
160,96,27721,1,0,0:0:0:0:
160,96,27807,1,8,0:0:0:0:
160,96,27978,1,0,0:0:0:0:
160,96,28149,1,8,0:0:0:0:
144,184,28492,1,12,0:0:0:0:
144,184,28664,1,0,0:0:0:0:
144,184,28835,1,0,0:0:0:0:
144,184,29007,1,12,0:0:0:0:
176,80,29178,1,0,0:0:0:0:
176,80,29349,1,0,0:0:0:0:
176,80,29521,1,12,0:0:0:0:
176,80,29692,1,0,0:0:0:0:
176,80,29864,1,12,0:0:0:0:
208,196,30207,1,12,0:0:0:0:
216,184,30549,1,12,0:0:0:0:
216,184,30721,1,0,0:0:0:0:
216,184,30892,1,0,0:0:0:0:
216,184,31064,1,0,0:0:0:0:
192,132,31235,1,4,0:0:0:0:
192,132,31407,1,8,0:0:0:0:
192,132,31578,1,0,0:0:0:0:
192,132,31664,1,0,0:0:0:0:
192,132,31749,1,8,0:0:0:0:
192,132,31921,1,0,0:0:0:0:
192,132,32092,1,8,0:0:0:0:
192,132,32264,1,0,0:0:0:0:
192,132,32349,1,0,0:0:0:0:
192,132,32435,1,8,0:0:0:0:
192,132,32607,1,0,0:0:0:0:
192,132,32778,1,8,0:0:0:0:
192,132,32949,1,0,0:0:0:0:
192,132,33035,1,0,0:0:0:0:
192,132,33121,1,8,0:0:0:0:
208,80,33207,1,8,0:0:0:0:
208,80,33292,1,0,0:0:0:0:
184,68,33464,1,8,0:0:0:0:
220,88,33635,1,8,0:0:0:0:
220,88,33721,1,0,0:0:0:0:
220,88,33807,1,8,0:0:0:0:
64,140,33892,1,8,0:0:0:0:
192,132,33978,1,0,0:0:0:0:
260,184,34064,1,0,0:0:0:0:
192,132,34149,1,8,0:0:0:0:
248,180,34235,1,0,0:0:0:0:
192,132,34321,1,0,0:0:0:0:
192,132,34407,1,0,0:0:0:0:
192,132,34492,1,8,0:0:0:0:
248,180,34578,1,0,0:0:0:0:
192,132,34664,1,0,0:0:0:0:
192,132,34749,1,0,0:0:0:0:
192,132,34835,1,8,0:0:0:0:
248,180,34921,1,0,0:0:0:0:
192,132,35007,1,0,0:0:0:0:
192,132,35092,1,0,0:0:0:0:
192,132,35178,1,8,0:0:0:0:
280,80,35264,1,8,0:0:0:0:
256,192,35349,12,0,36378,0:0:0:0:
144,196,36721,5,4,0:0:0:0:
220,188,36892,1,0,0:0:0:0:
220,188,37064,1,8,0:0:0:0:
220,188,37235,1,0,0:0:0:0:
220,188,37407,1,0,0:0:0:0:
220,188,37578,1,8,0:0:0:0:
224,188,37749,1,8,0:0:0:0:
80,160,37921,1,0,0:0:0:0:
80,160,38007,1,0,0:0:0:0:
80,160,38092,1,0,0:0:0:0:
256,192,38435,1,8,0:0:0:0:
256,192,38778,1,8,0:0:0:0:
256,192,39121,1,8,0:0:0:0:
152,192,39464,1,0,0:0:0:0:
152,192,39635,1,8,0:0:0:0:
152,192,39807,1,8,0:0:0:0:
192,128,39978,1,0,0:0:0:0:
192,128,40149,1,8,0:0:0:0:
192,128,40321,1,8,0:0:0:0:
192,128,40492,1,0,0:0:0:0:
192,128,40664,1,0,0:0:0:0:
192,128,40835,1,0,0:0:0:0:
200,128,41178,1,8,0:0:0:0:
200,132,41521,1,8,0:0:0:0:
160,96,42035,1,0,0:0:0:0:
144,196,42121,1,8,0:0:0:0:
180,96,42207,5,0,0:0:0:0:
220,188,42378,1,0,0:0:0:0:
220,188,42549,1,8,0:0:0:0:
220,188,42721,1,8,0:0:0:0:
220,188,42892,1,8,0:0:0:0:
220,188,43064,1,0,0:0:0:0:
224,188,43235,1,8,0:0:0:0:
80,160,43407,1,8,0:0:0:0:
80,160,43578,1,0,0:0:0:0:
80,160,43749,1,8,0:0:0:0:
256,192,43921,1,0,0:0:0:0:
140,72,44092,1,0,0:0:0:0:
256,192,44264,1,8,0:0:0:0:
256,192,44607,1,8,0:0:0:0:
152,192,44949,1,0,0:0:0:0:
152,192,45121,1,8,0:0:0:0:
152,192,45292,1,8,0:0:0:0:
192,128,45464,1,0,0:0:0:0:
192,128,45635,1,8,0:0:0:0:
192,128,45807,1,8,0:0:0:0:
192,128,45978,1,0,0:0:0:0:
192,128,46149,1,0,0:0:0:0:
144,196,46321,5,8,0:0:0:0:
220,188,46492,1,0,0:0:0:0:
220,188,46664,1,0,0:0:0:0:
220,188,46835,1,0,0:0:0:0:
220,188,47007,1,8,0:0:0:0:
176,96,47349,1,12,0:0:0:0:
144,196,47692,5,4,0:0:0:0:
220,188,47864,1,0,0:0:0:0:
220,188,48035,1,8,0:0:0:0:
220,188,48207,1,0,0:0:0:0:
220,188,48378,1,0,0:0:0:0:
220,188,48549,1,8,0:0:0:0:
224,188,48721,1,8,0:0:0:0:
80,160,48892,1,0,0:0:0:0:
80,160,48978,1,0,0:0:0:0:
144,196,49064,5,8,0:0:0:0:
220,188,49235,1,0,0:0:0:0:
220,188,49407,1,8,0:0:0:0:
220,188,49578,1,0,0:0:0:0:
220,188,49749,1,8,0:0:0:0:
220,188,49921,1,8,0:0:0:0:
224,188,50092,1,8,0:0:0:0:
80,160,50264,1,0,0:0:0:0:
80,160,50349,1,0,0:0:0:0:
144,196,50435,5,8,0:0:0:0:
220,188,50607,1,0,0:0:0:0:
220,188,50778,1,8,0:0:0:0:
220,188,50949,1,0,0:0:0:0:
220,188,51121,1,0,0:0:0:0:
220,188,51292,1,8,0:0:0:0:
224,188,51464,1,8,0:0:0:0:
80,160,51635,1,0,0:0:0:0:
80,160,51721,1,0,0:0:0:0:
144,196,51807,5,8,0:0:0:0:
220,188,51978,1,0,0:0:0:0:
220,188,52149,1,8,0:0:0:0:
220,188,52321,1,0,0:0:0:0:
220,188,52492,1,8,0:0:0:0:
220,188,52664,1,8,0:0:0:0:
224,188,52835,1,8,0:0:0:0:
80,160,53007,1,0,0:0:0:0:
144,196,53178,5,4,0:0:0:0:
220,188,53349,1,0,0:0:0:0:
220,188,53521,1,8,0:0:0:0:
220,188,53692,1,0,0:0:0:0:
220,188,53864,1,4,0:0:0:0:
220,188,54035,1,0,0:0:0:0:
224,188,54207,1,8,0:0:0:0:
80,160,54378,1,0,0:0:0:0:
144,196,54549,5,4,0:0:0:0:
220,188,54721,1,0,0:0:0:0:
220,188,54892,1,8,0:0:0:0:
220,188,55064,1,0,0:0:0:0:
220,188,55235,1,4,0:0:0:0:
220,188,55407,1,0,0:0:0:0:
224,188,55578,1,8,0:0:0:0:
80,160,55749,1,0,0:0:0:0:
80,160,55921,1,8,0:0:0:0:
160,92,56007,1,0,0:0:0:0:
160,92,56092,1,0,0:0:0:0:
160,92,56178,1,0,0:0:0:0:
244,68,56264,1,8,0:0:0:0:
244,68,56349,1,8,0:0:0:0:
244,68,56435,1,8,0:0:0:0:
240,72,56521,1,8,0:0:0:0:
232,72,56607,1,0,0:0:0:0:
232,72,56692,1,0,0:0:0:0:
232,72,56778,1,8,0:0:0:0:
232,72,56864,1,8,0:0:0:0:
232,72,56949,1,0,0:0:0:0:
232,72,57035,1,8,0:0:0:0:
232,72,57121,1,8,0:0:0:0:
232,72,57207,1,8,0:0:0:0:
232,72,57292,1,4,0:0:0:0:
144,196,58664,5,4,0:0:0:0:
220,188,58835,1,0,0:0:0:0:
220,188,59007,1,8,0:0:0:0:
220,188,59178,1,0,0:0:0:0:
212,100,59264,1,0,0:0:0:0:
220,188,59349,1,0,0:0:0:0:
220,188,59435,1,8,0:0:0:0:
212,100,59521,1,0,0:0:0:0:
224,188,59692,1,8,0:0:0:0:
80,160,59864,1,0,0:0:0:0:
80,160,59949,1,0,0:0:0:0:
80,160,60035,1,0,0:0:0:0:
360,84,60207,1,0,0:0:0:0:
256,192,60378,1,8,0:0:0:0:
304,88,60549,1,0,0:0:0:0:
256,192,60721,1,8,0:0:0:0:
304,88,60892,1,0,0:0:0:0:
124,96,60978,1,0,0:0:0:0:
256,192,61064,1,8,0:0:0:0:
124,96,61235,1,0,0:0:0:0:
152,192,61407,1,0,0:0:0:0:
152,192,61578,1,8,0:0:0:0:
152,192,61749,1,8,0:0:0:0:
192,128,61921,1,0,0:0:0:0:
192,128,62007,1,8,0:0:0:0:
184,68,62092,1,0,0:0:0:0:
232,88,62178,1,0,0:0:0:0:
192,128,62264,1,8,0:0:0:0:
192,128,62435,1,0,0:0:0:0:
192,128,62607,1,0,0:0:0:0:
192,80,62692,1,0,0:0:0:0:
192,128,62778,1,0,0:0:0:0:
196,64,62949,1,0,0:0:0:0:
200,128,63121,1,8,0:0:0:0:
176,72,63292,1,0,0:0:0:0:
176,72,63378,1,0,0:0:0:0:
200,132,63464,1,8,0:0:0:0:
180,72,63635,1,0,0:0:0:0:
176,72,63807,1,12,0:0:0:0:
160,96,63978,1,0,0:0:0:0:
144,196,64064,1,8,0:0:0:0:
180,96,64149,5,0,0:0:0:0:
220,188,64321,1,0,0:0:0:0:
220,188,64492,1,8,0:0:0:0:
220,188,64664,1,8,0:0:0:0:
192,124,64749,1,0,0:0:0:0:
220,188,64835,1,8,0:0:0:0:
192,124,64921,1,8,0:0:0:0:
220,188,65007,1,0,0:0:0:0:
224,188,65178,1,8,0:0:0:0:
80,160,65349,1,8,0:0:0:0:
156,148,65435,1,8,0:0:0:0:
80,160,65521,1,0,0:0:0:0:
80,160,65692,1,8,0:0:0:0:
256,192,65864,1,0,0:0:0:0:
140,72,66035,1,0,0:0:0:0:
248,112,66121,1,0,0:0:0:0:
256,192,66207,1,8,0:0:0:0:
200,128,66378,1,0,0:0:0:0:
256,192,66549,1,8,0:0:0:0:
200,128,66721,1,8,0:0:0:0:
200,112,66807,1,8,0:0:0:0:
152,192,66892,1,0,0:0:0:0:
152,192,67064,1,8,0:0:0:0:
152,192,67235,1,8,0:0:0:0:
192,128,67407,1,0,0:0:0:0:
152,52,67492,1,8,0:0:0:0:
192,128,67578,1,0,0:0:0:0:
152,52,67664,1,0,0:0:0:0:
192,128,67749,1,8,0:0:0:0:
208,124,67835,1,8,0:0:0:0:
192,128,67921,1,0,0:0:0:0:
208,124,68007,1,0,0:0:0:0:
200,112,68092,1,0,0:0:0:0:
200,112,68178,1,0,0:0:0:0:
208,124,68264,1,12,0:0:0:0:
144,196,69635,5,4,0:0:0:0:
220,188,69807,1,4,0:0:0:0:
220,188,69978,1,12,0:0:0:0:
220,188,70149,1,0,0:0:0:0:
192,40,70235,1,0,0:0:0:0:
220,188,70321,1,0,0:0:0:0:
220,188,70407,1,8,0:0:0:0:
212,100,70492,1,0,0:0:0:0:
140,64,70578,1,0,0:0:0:0:
224,188,70664,1,8,0:0:0:0:
80,160,70835,1,0,0:0:0:0:
80,160,70921,1,0,0:0:0:0:
80,160,71007,1,0,0:0:0:0:
360,84,71178,1,0,0:0:0:0:
256,192,71349,1,8,0:0:0:0:
304,88,71521,1,0,0:0:0:0:
200,124,71607,1,0,0:0:0:0:
256,192,71692,1,8,0:0:0:0:
304,88,71864,1,0,0:0:0:0:
124,96,71949,1,0,0:0:0:0:
256,192,72035,1,8,0:0:0:0:
124,96,72207,1,0,0:0:0:0:
152,192,72378,1,0,0:0:0:0:
152,192,72549,1,8,0:0:0:0:
152,192,72721,1,8,0:0:0:0:
192,128,72892,1,0,0:0:0:0:
192,128,72978,1,8,0:0:0:0:
184,68,73064,1,0,0:0:0:0:
232,88,73149,1,0,0:0:0:0:
192,128,73235,1,8,0:0:0:0:
216,144,73321,1,8,0:0:0:0:
192,128,73407,1,0,0:0:0:0:
192,128,73578,1,0,0:0:0:0:
192,80,73664,1,0,0:0:0:0:
192,128,73749,1,0,0:0:0:0:
196,64,73921,1,0,0:0:0:0:
200,128,74092,1,8,0:0:0:0:
176,72,74264,1,0,0:0:0:0:
176,72,74349,1,0,0:0:0:0:
200,132,74435,1,8,0:0:0:0:
180,72,74607,1,0,0:0:0:0:
176,72,74778,1,12,0:0:0:0:
160,96,74949,1,0,0:0:0:0:
40,120,75035,1,8,0:0:0:0:
144,196,75121,5,0,0:0:0:0:
220,188,75292,1,0,0:0:0:0:
220,188,75464,1,8,0:0:0:0:
220,188,75635,1,8,0:0:0:0:
192,124,75721,1,0,0:0:0:0:
220,188,75807,1,8,0:0:0:0:
192,124,75892,1,8,0:0:0:0:
220,188,75978,1,0,0:0:0:0:
240,128,76064,1,0,0:0:0:0:
224,188,76149,1,8,0:0:0:0:
80,160,76321,1,8,0:0:0:0:
156,148,76407,1,8,0:0:0:0:
80,160,76492,1,0,0:0:0:0:
80,160,76664,1,8,0:0:0:0:
256,192,76835,1,0,0:0:0:0:
140,72,77007,1,0,0:0:0:0:
248,112,77092,1,0,0:0:0:0:
256,192,77178,1,8,0:0:0:0:
200,128,77349,1,0,0:0:0:0:
200,40,77435,1,0,0:0:0:0:
256,192,77521,1,8,0:0:0:0:
288,116,77607,1,0,0:0:0:0:
200,128,77692,1,8,0:0:0:0:
200,112,77778,1,8,0:0:0:0:
152,192,77864,1,0,0:0:0:0:
192,128,78035,1,0,0:0:0:0:
152,192,78207,1,8,0:0:0:0:
152,192,78378,1,8,0:0:0:0:
152,52,78549,1,0,0:0:0:0:
152,52,78635,1,0,0:0:0:0:
192,128,78721,1,8,0:0:0:0:
208,124,78807,1,8,0:0:0:0:
192,128,78892,1,0,0:0:0:0:
208,124,78978,1,0,0:0:0:0:
76,184,79064,1,8,0:0:0:0:
76,184,79149,1,0,0:0:0:0:
76,184,79235,1,0,0:0:0:0:
256,192,79407,12,0,80435,0:0:0:0:
136,132,80607,5,12,0:0:0:0:
152,180,83349,5,4,0:0:0:0:
176,140,83864,1,0,0:0:0:0:
176,140,84035,1,8,0:0:0:0:
176,140,84378,1,0,0:0:0:0:
176,140,84549,1,0,0:0:0:0:
176,140,84721,1,0,0:0:0:0:
176,140,85064,1,0,0:0:0:0:
176,140,85407,1,8,0:0:0:0:
272,256,85749,1,0,0:0:0:0:
272,256,85921,1,8,0:0:0:0:
272,256,86092,1,0,0:0:0:0:
280,236,86435,1,0,0:0:0:0:
256,188,86607,1,0,0:0:0:0:
280,236,86778,1,8,0:0:0:0:
224,132,87035,1,8,0:0:0:0:
224,132,87292,1,0,0:0:0:0:
224,132,87464,1,8,0:0:0:0:
244,92,87807,1,0,0:0:0:0:
244,92,87978,1,0,0:0:0:0:
244,92,88149,1,8,0:0:0:0:
300,116,88492,1,8,0:0:0:0:
300,116,88664,1,0,0:0:0:0:
300,116,88835,1,8,0:0:0:0:
300,116,89178,1,0,0:0:0:0:
220,80,89349,1,8,0:0:0:0:
300,116,89521,1,8,0:0:0:0:
284,236,89864,1,0,0:0:0:0:
208,156,90207,1,0,0:0:0:0:
208,156,90549,1,8,0:0:0:0:
208,156,90892,1,8,0:0:0:0:
252,152,91235,1,0,0:0:0:0:
252,152,91407,1,0,0:0:0:0:
252,152,91578,1,0,0:0:0:0:
348,216,91921,1,0,0:0:0:0:
348,216,92092,1,0,0:0:0:0:
348,216,92264,1,8,0:0:0:0:
208,80,92607,1,0,0:0:0:0:
208,80,92949,1,8,0:0:0:0:
208,80,93292,1,0,0:0:0:0:
208,80,93464,1,8,0:0:0:0:
208,80,93635,1,8,0:0:0:0:
184,136,93978,1,8,0:0:0:0:
184,136,94149,1,0,0:0:0:0:
184,136,94321,1,4,0:0:0:0:
244,228,94492,1,0,0:0:0:0:
244,228,94578,1,8,0:0:0:0:
244,228,94664,1,0,0:0:0:0:
244,228,94749,1,0,0:0:0:0:
264,176,94835,1,8,0:0:0:0:
236,96,95007,1,0,0:0:0:0:
236,96,95092,1,0,0:0:0:0:
236,96,95178,1,0,0:0:0:0:
240,100,95349,1,8,0:0:0:0:
240,100,95521,1,0,0:0:0:0:
240,100,95692,1,8,0:0:0:0:
220,104,95864,1,0,0:0:0:0:
220,104,95949,1,0,0:0:0:0:
220,104,96035,1,8,0:0:0:0:
220,104,96207,1,0,0:0:0:0:
220,104,96292,1,0,0:0:0:0:
220,104,96378,1,8,0:0:0:0:
220,104,96464,1,0,0:0:0:0:
220,104,96549,1,8,0:0:0:0:
52,104,96635,1,8,0:0:0:0:
220,104,96721,1,0,0:0:0:0:
220,104,96892,1,0,0:0:0:0:
284,152,97064,1,8,0:0:0:0:
244,228,97235,1,0,0:0:0:0:
244,228,97321,1,8,0:0:0:0:
244,228,97407,1,0,0:0:0:0:
244,228,97492,1,0,0:0:0:0:
264,176,97578,1,8,0:0:0:0:
236,96,97749,1,0,0:0:0:0:
236,96,97921,1,8,0:0:0:0:
236,96,98007,1,0,0:0:0:0:
240,100,98092,1,8,0:0:0:0:
240,100,98264,1,8,0:0:0:0:
240,100,98435,1,8,0:0:0:0:
220,104,98607,1,0,0:0:0:0:
220,104,98692,1,0,0:0:0:0:
220,104,98778,1,8,0:0:0:0:
220,104,98949,1,8,0:0:0:0:
220,104,99121,1,0,0:0:0:0:
220,104,99207,1,0,0:0:0:0:
220,104,99292,1,0,0:0:0:0:
220,104,99464,1,8,0:0:0:0:
220,104,99635,1,0,0:0:0:0:
152,176,99807,1,4,0:0:0:0:
244,228,99978,1,0,0:0:0:0:
244,228,100064,1,8,0:0:0:0:
244,228,100149,1,0,0:0:0:0:
264,176,100321,1,8,0:0:0:0:
236,96,100492,1,0,0:0:0:0:
236,96,100578,1,0,0:0:0:0:
236,96,100664,1,0,0:0:0:0:
216,60,100749,1,0,0:0:0:0:
240,100,100835,1,8,0:0:0:0:
240,100,101007,1,4,0:0:0:0:
220,104,101349,1,0,0:0:0:0:
220,104,101435,1,0,0:0:0:0:
220,104,101521,1,8,0:0:0:0:
220,104,101692,1,0,0:0:0:0:
220,104,101778,1,0,0:0:0:0:
220,104,101864,1,8,0:0:0:0:
220,104,101949,1,0,0:0:0:0:
220,104,102035,1,0,0:0:0:0:
220,104,102207,1,8,0:0:0:0:
220,104,102378,1,0,0:0:0:0:
220,104,102549,1,12,0:0:0:0:
172,156,102721,1,0,0:0:0:0:
172,156,102807,1,0,0:0:0:0:
172,156,102892,1,0,0:0:0:0:
172,156,102978,1,0,0:0:0:0:
172,156,103064,1,12,0:0:0:0:
184,144,103407,1,12,0:0:0:0:
188,144,103749,1,12,0:0:0:0:
272,164,104092,1,0,0:0:0:0:
272,164,104178,1,0,0:0:0:0:
272,164,104264,1,0,0:0:0:0:
272,164,104349,1,0,0:0:0:0:
272,164,104435,1,8,0:0:0:0:
292,212,104607,1,0,0:0:0:0:
292,212,104692,1,0,0:0:0:0:
292,212,104778,1,0,0:0:0:0:
292,212,104864,1,0,0:0:0:0:
292,212,104949,1,12,0:0:0:0:
156,172,105292,1,4,0:0:0:0:
156,172,105464,1,0,0:0:0:0:
156,172,105549,1,8,0:0:0:0:
156,172,105635,1,0,0:0:0:0:
240,116,105807,1,8,0:0:0:0:
240,116,105978,1,0,0:0:0:0:
228,116,106149,1,8,0:0:0:0:
228,116,106235,1,0,0:0:0:0:
228,116,106321,1,8,0:0:0:0:
228,116,106407,1,8,0:0:0:0:
228,116,106492,1,0,0:0:0:0:
156,172,106664,1,8,0:0:0:0:
156,172,106835,1,0,0:0:0:0:
156,172,106921,1,8,0:0:0:0:
156,172,107007,1,0,0:0:0:0:
180,84,107092,1,0,0:0:0:0:
240,116,107178,1,8,0:0:0:0:
240,116,107349,1,0,0:0:0:0:
228,116,107521,1,8,0:0:0:0:
228,116,107607,1,0,0:0:0:0:
228,116,107692,1,8,0:0:0:0:
228,116,107864,1,0,0:0:0:0:
156,172,108035,1,8,0:0:0:0:
156,172,108207,1,0,0:0:0:0:
156,172,108292,1,8,0:0:0:0:
156,172,108378,1,0,0:0:0:0:
240,116,108549,1,8,0:0:0:0:
240,116,108721,1,0,0:0:0:0:
228,116,108892,1,8,0:0:0:0:
228,116,108978,1,0,0:0:0:0:
228,116,109064,1,8,0:0:0:0:
228,116,109149,1,8,0:0:0:0:
228,116,109235,1,0,0:0:0:0:
156,172,109407,1,8,0:0:0:0:
156,172,109578,1,0,0:0:0:0:
156,172,109664,1,8,0:0:0:0:
156,172,109749,1,0,0:0:0:0:
180,84,109835,1,0,0:0:0:0:
240,116,109921,1,8,0:0:0:0:
240,116,110092,1,4,0:0:0:0:
228,116,110435,1,4,0:0:0:0:
280,152,110778,1,4,0:0:0:0:
280,152,110949,1,0,0:0:0:0:
280,152,111121,1,8,0:0:0:0:
280,152,111292,1,8,0:0:0:0:
280,152,111464,1,4,0:0:0:0:
280,152,111635,1,8,0:0:0:0:
188,104,111807,1,8,0:0:0:0:
188,104,111978,1,8,0:0:0:0:
280,152,112149,1,4,0:0:0:0:
280,152,112321,1,0,0:0:0:0:
280,152,112492,1,8,0:0:0:0:
280,152,112664,1,8,0:0:0:0:
280,152,112835,1,4,0:0:0:0:
280,152,113007,1,8,0:0:0:0:
188,104,113178,1,8,0:0:0:0:
188,104,113349,1,0,0:0:0:0:
256,76,113521,1,8,0:0:0:0:
256,84,113578,1,0,0:0:0:0:
80,72,113635,1,0,0:0:0:0:
256,76,113692,1,8,0:0:0:0:
48,120,113778,1,0,0:0:0:0:
256,76,113864,1,8,0:0:0:0:
256,76,113921,1,8,0:0:0:0:
256,84,113978,1,8,0:0:0:0:
100,144,114035,1,0,0:0:0:0:
148,224,114121,1,0,0:0:0:0:
256,76,114207,1,8,0:0:0:0:
256,76,114264,1,0,0:0:0:0:
256,84,114321,1,0,0:0:0:0:
240,52,114378,1,8,0:0:0:0:
240,52,114464,1,0,0:0:0:0:
256,76,114549,1,8,0:0:0:0:
256,76,114607,1,8,0:0:0:0:
256,84,114664,1,8,0:0:0:0:
256,76,114721,1,8,0:0:0:0:
256,84,114778,1,8,0:0:0:0:
256,76,114835,1,8,0:0:0:0:
228,200,114892,1,0,0:0:0:0:
296,180,115235,5,0,0:0:0:0:
168,112,115578,5,8,0:0:0:0:
168,112,115635,1,8,0:0:0:0:
168,112,115692,1,8,0:0:0:0:
168,112,115749,1,0,0:0:0:0:
168,112,115807,1,0,0:0:0:0:
160,112,115864,1,0,0:0:0:0:
160,112,115921,1,8,0:0:0:0:
160,112,115978,1,8,0:0:0:0:
160,112,116035,1,8,0:0:0:0:
160,112,116092,1,0,0:0:0:0:
228,184,116264,1,4,0:0:0:0:
228,184,116435,1,0,0:0:0:0:
40,124,116521,1,8,0:0:0:0:
228,184,116607,1,0,0:0:0:0:
200,136,116778,1,8,0:0:0:0:
200,136,116949,1,0,0:0:0:0:
200,136,117035,1,8,0:0:0:0:
200,136,117121,1,0,0:0:0:0:
200,136,117207,1,0,0:0:0:0:
200,136,117292,1,8,0:0:0:0:
272,152,117464,1,0,0:0:0:0:
272,152,117635,1,8,0:0:0:0:
228,184,117807,1,0,0:0:0:0:
272,152,117892,1,8,0:0:0:0:
228,184,117978,1,0,0:0:0:0:
200,136,118149,1,8,0:0:0:0:
200,136,118321,1,0,0:0:0:0:
200,136,118407,1,0,0:0:0:0:
200,136,118492,1,8,0:0:0:0:
208,36,118578,1,0,0:0:0:0:
200,136,118664,1,8,0:0:0:0:
272,152,118835,1,0,0:0:0:0:
228,184,119007,1,8,0:0:0:0:
152,64,119092,1,8,0:0:0:0:
228,184,119178,1,0,0:0:0:0:
40,124,119264,1,8,0:0:0:0:
228,184,119349,1,0,0:0:0:0:
200,136,119521,1,8,0:0:0:0:
200,136,119692,1,0,0:0:0:0:
200,136,119778,1,8,0:0:0:0:
200,136,119864,1,0,0:0:0:0:
200,136,120035,1,8,0:0:0:0:
272,152,120207,1,0,0:0:0:0:
272,152,120378,1,8,0:0:0:0:
228,184,120549,1,0,0:0:0:0:
272,152,120635,1,8,0:0:0:0:
228,184,120721,1,0,0:0:0:0:
200,136,120892,1,8,0:0:0:0:
200,136,121064,1,0,0:0:0:0:
200,136,121149,1,0,0:0:0:0:
200,136,121235,1,8,0:0:0:0:
208,36,121321,1,0,0:0:0:0:
200,136,121407,1,8,0:0:0:0:
236,68,121492,1,8,0:0:0:0:
272,152,121578,1,0,0:0:0:0:
228,184,121749,1,8,0:0:0:0:
228,184,121921,1,0,0:0:0:0:
40,124,122007,1,8,0:0:0:0:
228,184,122092,1,0,0:0:0:0:
152,64,122178,1,0,0:0:0:0:
200,136,122264,1,8,0:0:0:0:
200,136,122435,1,0,0:0:0:0:
200,136,122521,1,8,0:0:0:0:
200,136,122607,1,0,0:0:0:0:
200,136,122778,1,8,0:0:0:0:
272,152,122949,1,0,0:0:0:0:
272,152,123121,1,8,0:0:0:0:
272,152,123292,1,8,0:0:0:0:
228,184,123378,1,0,0:0:0:0:
228,184,123464,1,8,0:0:0:0:
200,136,123635,1,0,0:0:0:0:
200,136,123807,1,0,0:0:0:0:
200,136,123892,1,0,0:0:0:0:
200,136,123978,1,8,0:0:0:0:
200,136,124064,1,8,0:0:0:0:
208,36,124149,1,0,0:0:0:0:
272,152,124321,1,0,0:0:0:0:
272,152,124492,5,8,0:0:0:0:
172,100,124664,1,0,0:0:0:0:
172,100,124749,1,0,0:0:0:0:
172,100,124835,1,8,0:0:0:0:
224,104,125007,1,0,0:0:0:0:
224,104,125092,1,0,0:0:0:0:
224,104,125178,1,8,0:0:0:0:
220,100,125264,1,0,0:0:0:0:
220,100,125349,1,0,0:0:0:0:
136,96,125521,1,8,0:0:0:0:
240,172,125692,1,0,0:0:0:0:
240,172,125778,1,8,0:0:0:0:
240,172,125864,1,8,0:0:0:0:
248,92,126035,1,0,0:0:0:0:
260,88,126207,1,8,0:0:0:0:
260,88,126292,1,8,0:0:0:0:
260,88,126378,1,0,0:0:0:0:
156,76,126464,1,8,0:0:0:0:
156,76,126549,1,0,0:0:0:0:
216,32,126721,1,0,0:0:0:0:
216,32,126807,1,0,0:0:0:0:
216,32,126892,1,0,0:0:0:0:
228,184,127235,1,4,0:0:0:0:
228,184,127407,1,0,0:0:0:0:
40,124,127492,1,8,0:0:0:0:
228,184,127578,1,0,0:0:0:0:
200,136,127749,1,8,0:0:0:0:
200,136,127921,1,0,0:0:0:0:
200,136,128007,1,8,0:0:0:0:
200,136,128092,1,0,0:0:0:0:
200,136,128178,1,0,0:0:0:0:
200,136,128264,1,8,0:0:0:0:
164,96,128349,1,8,0:0:0:0:
272,152,128435,1,0,0:0:0:0:
272,152,128607,1,8,0:0:0:0:
236,120,128692,1,8,0:0:0:0:
228,184,128778,1,0,0:0:0:0:
272,152,128864,1,8,0:0:0:0:
228,184,128949,1,0,0:0:0:0:
200,136,129121,1,8,0:0:0:0:
200,136,129292,1,0,0:0:0:0:
200,136,129378,1,0,0:0:0:0:
200,136,129464,1,8,0:0:0:0:
200,136,129635,1,8,0:0:0:0:
196,220,129692,1,8,0:0:0:0:
196,220,129749,1,8,0:0:0:0:
272,152,129807,1,0,0:0:0:0:
228,184,129978,1,8,0:0:0:0:
152,64,130064,1,8,0:0:0:0:
228,184,130149,1,0,0:0:0:0:
40,124,130235,1,8,0:0:0:0:
228,184,130321,1,0,0:0:0:0:
148,204,130407,1,0,0:0:0:0:
200,136,130492,1,8,0:0:0:0:
200,136,130664,1,0,0:0:0:0:
200,136,130749,1,8,0:0:0:0:
200,136,130835,1,0,0:0:0:0:
200,136,131007,1,8,0:0:0:0:
272,152,131178,1,0,0:0:0:0:
272,152,131349,1,8,0:0:0:0:
160,148,131435,1,8,0:0:0:0:
228,184,131521,1,0,0:0:0:0:
272,152,131607,1,8,0:0:0:0:
228,184,131692,1,0,0:0:0:0:
200,136,131864,1,8,0:0:0:0:
200,136,132035,1,0,0:0:0:0:
200,136,132121,1,0,0:0:0:0:
200,136,132207,1,8,0:0:0:0:
208,36,132292,1,0,0:0:0:0:
200,136,132378,1,8,0:0:0:0:
132,180,132435,1,8,0:0:0:0:
236,68,132492,1,8,0:0:0:0:
272,152,132549,1,0,0:0:0:0:
228,184,132721,1,8,0:0:0:0:
112,176,132807,1,8,0:0:0:0:
228,184,132892,1,0,0:0:0:0:
40,124,132978,1,8,0:0:0:0:
228,184,133064,1,0,0:0:0:0:
152,64,133149,1,0,0:0:0:0:
200,136,133235,1,8,0:0:0:0:
200,136,133407,1,0,0:0:0:0:
200,136,133492,1,8,0:0:0:0:
200,136,133578,1,0,0:0:0:0:
200,136,133749,1,8,0:0:0:0:
272,152,133921,1,0,0:0:0:0:
272,152,134092,1,8,0:0:0:0:
272,152,134264,1,8,0:0:0:0:
228,184,134349,5,0,0:0:0:0:
228,184,134435,1,8,0:0:0:0:
200,136,134607,1,0,0:0:0:0:
200,136,134778,1,0,0:0:0:0:
200,136,134864,1,0,0:0:0:0:
200,136,134949,1,8,0:0:0:0:
200,136,135035,1,8,0:0:0:0:
208,36,135121,1,0,0:0:0:0:
292,108,135207,1,8,0:0:0:0:
272,152,135292,1,0,0:0:0:0:
272,152,135464,5,8,0:0:0:0:
196,48,135549,1,0,0:0:0:0:
172,100,135635,1,8,0:0:0:0:
172,100,135721,1,8,0:0:0:0:
172,100,135807,1,0,0:0:0:0:
176,116,135892,1,0,0:0:0:0:
224,104,135978,1,8,0:0:0:0:
224,104,136064,1,0,0:0:0:0:
224,104,136149,1,8,0:0:0:0:
220,100,136235,1,0,0:0:0:0:
220,100,136321,1,8,0:0:0:0:
136,96,136407,1,8,0:0:0:0:
232,20,136492,1,0,0:0:0:0:
212,24,136578,1,0,0:0:0:0:
240,172,136664,1,8,0:0:0:0:
240,172,136749,1,0,0:0:0:0:
240,172,136835,1,8,0:0:0:0:
160,168,136892,1,8,0:0:0:0:
160,168,136949,1,8,0:0:0:0:
144,156,137007,1,0,0:0:0:0:
148,148,137092,1,0,0:0:0:0:
240,172,137178,1,8,0:0:0:0:
160,168,137235,1,8,0:0:0:0:
260,88,137292,1,8,0:0:0:0:
160,168,137349,1,0,0:0:0:0:
204,108,137435,1,0,0:0:0:0:
240,172,137521,1,8,0:0:0:0:
160,168,137578,1,8,0:0:0:0:
160,168,137635,1,8,0:0:0:0:
240,172,137692,1,0,0:0:0:0:
276,32,137749,1,0,0:0:0:0:
160,168,137806,1,0,0:0:0:0:
160,168,137864,1,8,0:0:0:0:
144,196,138207,5,4,0:0:0:0:
220,188,138378,1,0,0:0:0:0:
220,188,138549,1,8,0:0:0:0:
220,188,138721,1,0,0:0:0:0:
192,40,138807,1,0,0:0:0:0:
220,188,138892,1,0,0:0:0:0:
220,188,138978,1,8,0:0:0:0:
212,100,139064,1,0,0:0:0:0:
140,64,139149,1,0,0:0:0:0:
224,188,139235,1,8,0:0:0:0:
80,160,139407,1,0,0:0:0:0:
80,160,139492,1,0,0:0:0:0:
80,160,139578,1,0,0:0:0:0:
360,84,139749,1,0,0:0:0:0:
256,192,139921,1,8,0:0:0:0:
304,88,140092,1,0,0:0:0:0:
200,124,140178,1,0,0:0:0:0:
256,192,140264,1,8,0:0:0:0:
124,96,140349,1,8,0:0:0:0:
304,88,140435,1,0,0:0:0:0:
256,192,140607,1,8,0:0:0:0:
124,96,140778,1,0,0:0:0:0:
152,192,140949,1,0,0:0:0:0:
152,192,141121,1,8,0:0:0:0:
152,192,141292,1,8,0:0:0:0:
192,128,141464,1,0,0:0:0:0:
192,128,141549,1,8,0:0:0:0:
184,68,141635,1,0,0:0:0:0:
232,88,141721,1,0,0:0:0:0:
192,128,141807,1,8,0:0:0:0:
216,144,141892,1,8,0:0:0:0:
192,128,141978,1,0,0:0:0:0:
192,128,142149,1,0,0:0:0:0:
192,80,142235,1,0,0:0:0:0:
192,128,142321,1,0,0:0:0:0:
196,64,142492,1,0,0:0:0:0:
200,128,142664,1,8,0:0:0:0:
176,72,142835,1,0,0:0:0:0:
176,72,142921,1,0,0:0:0:0:
232,168,143007,1,8,0:0:0:0:
152,124,143092,1,8,0:0:0:0:
180,72,143178,1,0,0:0:0:0:
176,72,143349,1,8,0:0:0:0:
160,96,143521,1,0,0:0:0:0:
40,120,143607,1,8,0:0:0:0:
144,196,143692,5,0,0:0:0:0:
220,188,143864,1,0,0:0:0:0:
220,188,144035,1,8,0:0:0:0:
220,188,144207,1,8,0:0:0:0:
192,124,144292,1,0,0:0:0:0:
220,188,144378,1,8,0:0:0:0:
192,124,144464,1,8,0:0:0:0:
220,188,144549,1,0,0:0:0:0:
240,128,144635,1,0,0:0:0:0:
224,188,144721,1,8,0:0:0:0:
80,160,144892,1,8,0:0:0:0:
156,148,144978,1,8,0:0:0:0:
80,160,145064,1,0,0:0:0:0:
80,160,145235,1,8,0:0:0:0:
256,192,145407,1,0,0:0:0:0:
140,72,145578,1,0,0:0:0:0:
248,112,145664,1,0,0:0:0:0:
256,192,145749,1,8,0:0:0:0:
200,128,145921,1,0,0:0:0:0:
200,40,146007,1,0,0:0:0:0:
256,192,146092,1,8,0:0:0:0:
288,116,146178,1,0,0:0:0:0:
200,128,146264,1,8,0:0:0:0:
200,112,146349,1,8,0:0:0:0:
152,192,146435,1,0,0:0:0:0:
192,128,146521,1,8,0:0:0:0:
268,52,146607,1,0,0:0:0:0:
256,56,146692,1,0,0:0:0:0:
152,192,146778,1,8,0:0:0:0:
212,56,146864,1,8,0:0:0:0:
92,80,146949,1,0,0:0:0:0:
152,192,147035,1,8,0:0:0:0:
152,52,147121,1,0,0:0:0:0:
152,52,147178,1,0,0:0:0:0:
112,68,147235,1,0,0:0:0:0:
192,128,147292,1,8,0:0:0:0:
192,128,147378,1,0,0:0:0:0:
208,124,147464,1,8,0:0:0:0:
172,64,147521,1,0,0:0:0:0:
208,124,147578,1,0,0:0:0:0:
76,184,147635,1,8,0:0:0:0:
76,184,147692,1,8,0:0:0:0:
112,136,147749,1,8,0:0:0:0:
76,184,147807,1,0,0:0:0:0:
256,192,147892,12,0,148835,0:0:0:0:
180,120,149178,5,12,0:0:0:0:
152,180,151921,5,4,0:0:0:0:
176,140,152435,1,0,0:0:0:0:
176,140,152607,1,8,0:0:0:0:
176,140,152949,1,0,0:0:0:0:
176,140,153121,1,0,0:0:0:0:
176,140,153292,1,0,0:0:0:0:
176,140,153635,1,0,0:0:0:0:
176,140,153978,1,8,0:0:0:0:
272,256,154321,1,0,0:0:0:0:
272,256,154492,1,8,0:0:0:0:
272,256,154664,1,0,0:0:0:0:
280,236,155007,1,0,0:0:0:0:
256,188,155178,1,0,0:0:0:0:
280,236,155349,1,8,0:0:0:0:
224,132,155607,1,8,0:0:0:0:
224,132,155864,1,0,0:0:0:0:
224,132,156035,1,8,0:0:0:0:
244,92,156378,1,0,0:0:0:0:
244,92,156549,1,0,0:0:0:0:
244,92,156721,1,8,0:0:0:0:
300,116,157064,1,8,0:0:0:0:
300,116,157235,1,0,0:0:0:0:
300,116,157407,1,8,0:0:0:0:
300,116,157749,1,0,0:0:0:0:
220,80,157921,1,8,0:0:0:0:
300,116,158092,1,8,0:0:0:0:
284,236,158435,1,0,0:0:0:0:
208,156,158778,1,0,0:0:0:0:
208,156,159121,1,8,0:0:0:0:
208,156,159464,1,8,0:0:0:0:
252,152,159807,1,0,0:0:0:0:
252,152,159978,1,0,0:0:0:0:
252,152,160149,1,0,0:0:0:0:
348,216,160492,1,0,0:0:0:0:
348,216,160664,1,0,0:0:0:0:
348,216,160835,1,8,0:0:0:0:
208,80,161178,1,0,0:0:0:0:
208,80,161521,1,8,0:0:0:0:
208,80,161864,1,0,0:0:0:0:
208,80,162035,1,8,0:0:0:0:
208,80,162207,1,8,0:0:0:0:
184,136,162549,1,8,0:0:0:0:
184,136,162721,1,0,0:0:0:0:
184,136,162892,1,4,0:0:0:0:
244,228,163064,1,0,0:0:0:0:
244,228,163149,1,8,0:0:0:0:
244,228,163235,1,0,0:0:0:0:
244,228,163321,1,0,0:0:0:0:
264,176,163407,1,8,0:0:0:0:
236,96,163492,1,8,0:0:0:0:
236,96,163578,1,0,0:0:0:0:
236,96,163749,1,8,0:0:0:0:
240,100,163921,1,8,0:0:0:0:
240,100,164092,1,0,0:0:0:0:
240,100,164178,1,8,0:0:0:0:
172,80,164264,1,0,0:0:0:0:
220,104,164435,1,0,0:0:0:0:
220,104,164521,1,0,0:0:0:0:
220,104,164607,1,8,0:0:0:0:
220,104,164778,1,0,0:0:0:0:
220,104,164949,1,8,0:0:0:0:
220,104,165035,1,0,0:0:0:0:
220,104,165121,1,8,0:0:0:0:
220,104,165207,1,8,0:0:0:0:
220,104,165292,1,0,0:0:0:0:
220,104,165464,1,0,0:0:0:0:
284,152,165635,1,8,0:0:0:0:
244,228,165807,1,0,0:0:0:0:
244,228,165892,1,8,0:0:0:0:
244,228,165978,1,0,0:0:0:0:
264,176,166149,1,8,0:0:0:0:
152,16,166235,1,8,0:0:0:0:
236,96,166321,1,0,0:0:0:0:
244,228,166407,1,0,0:0:0:0:
236,96,166492,1,8,0:0:0:0:
236,96,166578,1,0,0:0:0:0:
240,100,166664,1,8,0:0:0:0:
240,100,166835,1,0,0:0:0:0:
164,84,166921,1,0,0:0:0:0:
240,100,167007,1,8,0:0:0:0:
220,104,167178,1,0,0:0:0:0:
220,104,167264,1,0,0:0:0:0:
220,104,167349,1,8,0:0:0:0:
196,156,167435,1,0,0:0:0:0:
220,104,167521,1,8,0:0:0:0:
220,104,167692,1,0,0:0:0:0:
220,104,167778,1,0,0:0:0:0:
220,104,167864,1,0,0:0:0:0:
220,104,168035,1,8,0:0:0:0:
220,104,168207,1,0,0:0:0:0:
152,176,168378,1,4,0:0:0:0:
244,228,168549,1,0,0:0:0:0:
244,228,168635,1,8,0:0:0:0:
244,228,168721,1,0,0:0:0:0:
216,60,168807,1,0,0:0:0:0:
264,176,168892,1,8,0:0:0:0:
236,96,169064,1,0,0:0:0:0:
236,96,169149,1,0,0:0:0:0:
236,96,169235,1,0,0:0:0:0:
240,100,169407,1,8,0:0:0:0:
240,100,169578,1,4,0:0:0:0:
220,104,169921,1,0,0:0:0:0:
220,104,170007,1,0,0:0:0:0:
220,104,170092,1,8,0:0:0:0:
220,104,170178,1,0,0:0:0:0:
220,104,170264,1,0,0:0:0:0:
220,104,170435,1,8,0:0:0:0:
220,104,170521,1,0,0:0:0:0:
220,104,170607,1,0,0:0:0:0:
220,104,170778,1,8,0:0:0:0:
220,104,170949,1,0,0:0:0:0:
220,104,171121,1,12,0:0:0:0:
172,156,171292,1,0,0:0:0:0:
172,156,171378,1,0,0:0:0:0:
172,156,171464,1,0,0:0:0:0:
172,156,171549,1,0,0:0:0:0:
172,156,171635,1,12,0:0:0:0:
184,144,171978,1,12,0:0:0:0:
188,144,172321,1,12,0:0:0:0:
272,164,172664,1,0,0:0:0:0:
272,164,172749,1,0,0:0:0:0:
272,164,172835,1,0,0:0:0:0:
272,164,172921,1,0,0:0:0:0:
272,164,173007,1,8,0:0:0:0:
292,212,173178,1,0,0:0:0:0:
292,212,173264,1,0,0:0:0:0:
292,212,173349,1,0,0:0:0:0:
292,212,173435,1,0,0:0:0:0:
292,212,173521,1,12,0:0:0:0:
156,172,173864,1,4,0:0:0:0:
156,172,174035,1,0,0:0:0:0:
156,172,174121,1,8,0:0:0:0:
156,172,174207,1,0,0:0:0:0:
240,116,174378,1,8,0:0:0:0:
240,116,174549,1,0,0:0:0:0:
228,116,174721,1,8,0:0:0:0:
228,116,174807,1,0,0:0:0:0:
228,116,174892,1,8,0:0:0:0:
228,116,175064,1,0,0:0:0:0:
156,172,175235,1,8,0:0:0:0:
180,84,175321,1,8,0:0:0:0:
156,172,175407,1,0,0:0:0:0:
156,172,175492,1,8,0:0:0:0:
156,172,175578,1,0,0:0:0:0:
240,116,175749,1,8,0:0:0:0:
240,116,175921,1,0,0:0:0:0:
228,116,176092,1,8,0:0:0:0:
228,116,176178,1,0,0:0:0:0:
228,116,176264,1,8,0:0:0:0:
180,88,176349,1,8,0:0:0:0:
228,116,176435,1,0,0:0:0:0:
156,172,176607,1,8,0:0:0:0:
200,60,176692,1,8,0:0:0:0:
156,172,176778,1,0,0:0:0:0:
156,172,176864,1,8,0:0:0:0:
156,172,176949,1,0,0:0:0:0:
180,56,177035,1,0,0:0:0:0:
240,116,177121,1,8,0:0:0:0:
240,116,177292,1,0,0:0:0:0:
228,116,177464,1,8,0:0:0:0:
228,116,177549,1,0,0:0:0:0:
228,116,177635,1,8,0:0:0:0:
228,116,177807,1,0,0:0:0:0:
156,172,177978,1,8,0:0:0:0:
156,172,178149,1,0,0:0:0:0:
156,172,178235,1,8,0:0:0:0:
156,172,178321,1,0,0:0:0:0:
180,84,178407,1,0,0:0:0:0:
240,116,178492,1,8,0:0:0:0:
240,116,178664,1,4,0:0:0:0:
228,116,179007,1,4,0:0:0:0:
280,152,179349,1,4,0:0:0:0:
280,152,179521,1,0,0:0:0:0:
280,152,179692,1,8,0:0:0:0:
280,152,179864,1,8,0:0:0:0:
280,152,180035,1,4,0:0:0:0:
280,152,180207,1,8,0:0:0:0:
188,104,180378,1,8,0:0:0:0:
188,104,180549,1,8,0:0:0:0:
280,152,180721,1,4,0:0:0:0:
280,152,180892,1,0,0:0:0:0:
280,152,181064,1,8,0:0:0:0:
280,152,181235,1,8,0:0:0:0:
280,152,181407,1,4,0:0:0:0:
280,152,181578,1,8,0:0:0:0:
188,104,181749,1,8,0:0:0:0:
188,104,181921,1,0,0:0:0:0:
256,76,182092,1,8,0:0:0:0:
80,72,182149,1,0,0:0:0:0:
256,76,182207,1,0,0:0:0:0:
256,84,182264,1,8,0:0:0:0:
48,120,182349,1,0,0:0:0:0:
256,76,182435,1,8,0:0:0:0:
256,84,182492,1,8,0:0:0:0:
256,76,182549,1,8,0:0:0:0:
100,144,182607,1,0,0:0:0:0:
148,224,182692,1,0,0:0:0:0:
256,76,182778,1,8,0:0:0:0:
256,84,182835,1,0,0:0:0:0:
256,76,182892,1,0,0:0:0:0:
240,52,182949,1,8,0:0:0:0:
240,52,183035,1,0,0:0:0:0:
256,76,183121,1,8,0:0:0:0:
256,76,183178,1,8,0:0:0:0:
256,84,183235,1,8,0:0:0:0:
256,76,183292,1,8,0:0:0:0:
256,76,183349,1,8,0:0:0:0:
256,84,183407,1,8,0:0:0:0:
228,200,183464,1,0,0:0:0:0:
296,180,183807,5,0,0:0:0:0:
168,112,184149,5,8,0:0:0:0:
168,112,184207,1,8,0:0:0:0:
168,112,184264,1,8,0:0:0:0:
168,112,184321,1,0,0:0:0:0:
160,112,184378,1,0,0:0:0:0:
168,112,184435,1,0,0:0:0:0:
160,112,184492,1,8,0:0:0:0:
160,112,184549,1,8,0:0:0:0:
160,112,184607,1,8,0:0:0:0:
160,112,184664,1,0,0:0:0:0:
228,184,184835,1,4,0:0:0:0:
228,184,185007,1,0,0:0:0:0:
40,124,185092,1,8,0:0:0:0:
228,184,185178,1,0,0:0:0:0:
200,136,185264,1,0,0:0:0:0:
200,136,185349,1,8,0:0:0:0:
200,136,185521,1,0,0:0:0:0:
200,136,185607,1,8,0:0:0:0:
200,136,185692,1,0,0:0:0:0:
200,136,185864,1,8,0:0:0:0:
272,152,186035,1,0,0:0:0:0:
272,152,186207,1,8,0:0:0:0:
228,184,186378,1,0,0:0:0:0:
272,152,186464,1,8,0:0:0:0:
228,184,186549,1,0,0:0:0:0:
208,36,186635,1,0,0:0:0:0:
200,136,186721,1,8,0:0:0:0:
200,136,186892,1,0,0:0:0:0:
200,136,186978,1,0,0:0:0:0:
200,136,187064,1,8,0:0:0:0:
200,136,187235,1,8,0:0:0:0:
272,152,187407,1,0,0:0:0:0:
228,184,187578,1,8,0:0:0:0:
152,64,187664,1,8,0:0:0:0:
228,184,187749,1,0,0:0:0:0:
40,124,187835,1,8,0:0:0:0:
228,184,187921,1,0,0:0:0:0:
200,136,188092,1,8,0:0:0:0:
200,136,188264,1,0,0:0:0:0:
200,136,188349,1,8,0:0:0:0:
200,136,188435,1,0,0:0:0:0:
200,136,188607,1,8,0:0:0:0:
272,152,188778,1,0,0:0:0:0:
272,152,188949,1,8,0:0:0:0:
228,184,189121,1,0,0:0:0:0:
272,152,189207,1,8,0:0:0:0:
228,184,189292,1,0,0:0:0:0:
200,136,189378,1,0,0:0:0:0:
200,136,189464,1,8,0:0:0:0:
200,136,189635,1,0,0:0:0:0:
200,136,189807,1,8,0:0:0:0:
208,36,189892,1,0,0:0:0:0:
200,136,189978,1,8,0:0:0:0:
236,68,190064,1,8,0:0:0:0:
272,152,190149,1,0,0:0:0:0:
228,184,190321,1,8,0:0:0:0:
228,184,190492,1,0,0:0:0:0:
40,124,190578,1,8,0:0:0:0:
228,184,190664,1,0,0:0:0:0:
200,136,190835,1,8,0:0:0:0:
152,64,190921,1,8,0:0:0:0:
200,136,191007,1,0,0:0:0:0:
200,136,191092,1,8,0:0:0:0:
200,136,191178,1,0,0:0:0:0:
200,136,191349,1,8,0:0:0:0:
272,152,191521,1,0,0:0:0:0:
272,152,191692,1,8,0:0:0:0:
272,152,191864,1,8,0:0:0:0:
228,184,191949,1,0,0:0:0:0:
200,136,192035,1,8,0:0:0:0:
200,136,192121,1,8,0:0:0:0:
228,184,192207,1,0,0:0:0:0:
200,136,192378,1,0,0:0:0:0:
200,136,192549,1,8,0:0:0:0:
200,136,192635,1,8,0:0:0:0:
212,36,192721,1,0,0:0:0:0:
272,152,192892,1,0,0:0:0:0:
272,152,193064,5,8,0:0:0:0:
172,100,193235,1,0,0:0:0:0:
172,100,193321,1,0,0:0:0:0:
172,100,193407,1,8,0:0:0:0:
224,104,193492,1,0,0:0:0:0:
224,104,193578,1,0,0:0:0:0:
224,104,193749,1,8,0:0:0:0:
220,100,193835,1,0,0:0:0:0:
220,100,193921,1,0,0:0:0:0:
136,96,194092,1,8,0:0:0:0:
240,172,194264,1,0,0:0:0:0:
240,172,194349,1,8,0:0:0:0:
240,172,194435,1,8,0:0:0:0:
248,92,194607,1,0,0:0:0:0:
260,88,194778,1,8,0:0:0:0:
260,88,194864,1,8,0:0:0:0:
260,88,194949,1,0,0:0:0:0:
156,76,195035,1,8,0:0:0:0:
156,76,195121,1,0,0:0:0:0:
216,32,195292,1,0,0:0:0:0:
216,32,195378,1,0,0:0:0:0:
216,32,195464,1,0,0:0:0:0:
228,184,195807,1,4,0:0:0:0:
228,184,195978,1,0,0:0:0:0:
40,124,196064,1,8,0:0:0:0:
228,184,196149,1,0,0:0:0:0:
200,136,196235,1,0,0:0:0:0:
200,136,196321,1,8,0:0:0:0:
200,136,196492,1,0,0:0:0:0:
200,136,196578,1,8,0:0:0:0:
200,136,196664,1,0,0:0:0:0:
200,136,196835,1,8,0:0:0:0:
272,152,197007,1,0,0:0:0:0:
168,104,197092,1,0,0:0:0:0:
272,152,197178,1,8,0:0:0:0:
228,184,197349,1,0,0:0:0:0:
272,152,197435,1,8,0:0:0:0:
228,184,197521,1,0,0:0:0:0:
208,36,197607,1,0,0:0:0:0:
200,136,197692,1,8,0:0:0:0:
200,136,197864,1,0,0:0:0:0:
200,136,197949,1,0,0:0:0:0:
200,136,198035,1,8,0:0:0:0:
200,136,198207,1,8,0:0:0:0:
160,204,198264,1,8,0:0:0:0:
160,204,198321,1,8,0:0:0:0:
272,152,198378,1,0,0:0:0:0:
228,184,198549,1,8,0:0:0:0:
152,64,198635,1,8,0:0:0:0:
228,184,198721,1,0,0:0:0:0:
40,124,198807,1,8,0:0:0:0:
228,184,198892,1,0,0:0:0:0:
220,76,198978,1,0,0:0:0:0:
200,136,199064,1,8,0:0:0:0:
200,136,199235,1,0,0:0:0:0:
200,136,199321,1,8,0:0:0:0:
200,136,199407,1,0,0:0:0:0:
200,136,199578,1,8,0:0:0:0:
272,152,199749,1,0,0:0:0:0:
168,92,199835,1,0,0:0:0:0:
272,152,199921,1,8,0:0:0:0:
228,184,200092,1,0,0:0:0:0:
272,152,200178,1,8,0:0:0:0:
228,184,200264,1,0,0:0:0:0:
200,136,200349,1,0,0:0:0:0:
200,136,200435,1,8,0:0:0:0:
200,136,200607,1,0,0:0:0:0:
200,136,200778,1,8,0:0:0:0:
208,36,200864,1,0,0:0:0:0:
200,136,200949,1,8,0:0:0:0:
200,88,201007,1,8,0:0:0:0:
236,68,201064,1,8,0:0:0:0:
272,152,201121,1,0,0:0:0:0:
228,184,201292,1,8,0:0:0:0:
228,184,201464,1,0,0:0:0:0:
40,124,201549,1,8,0:0:0:0:
228,184,201635,1,0,0:0:0:0:
200,136,201807,1,8,0:0:0:0:
152,64,201892,1,8,0:0:0:0:
200,136,201978,1,0,0:0:0:0:
200,136,202064,1,8,0:0:0:0:
200,136,202149,1,0,0:0:0:0:
200,56,202235,1,0,0:0:0:0:
200,136,202321,1,8,0:0:0:0:
272,152,202492,1,0,0:0:0:0:
272,152,202664,1,8,0:0:0:0:
272,152,202835,1,8,0:0:0:0:
228,184,202921,5,0,0:0:0:0:
228,184,203007,1,8,0:0:0:0:
200,136,203092,1,8,0:0:0:0:
200,136,203178,1,0,0:0:0:0:
200,136,203349,1,0,0:0:0:0:
128,104,203435,1,0,0:0:0:0:
200,136,203521,1,8,0:0:0:0:
200,136,203607,1,8,0:0:0:0:
208,36,203692,1,0,0:0:0:0:
272,152,203864,1,0,0:0:0:0:
272,152,204035,5,8,0:0:0:0:
196,48,204121,1,0,0:0:0:0:
172,100,204207,1,8,0:0:0:0:
172,100,204292,1,8,0:0:0:0:
172,100,204378,1,0,0:0:0:0:
176,116,204464,1,0,0:0:0:0:
224,104,204549,1,8,0:0:0:0:
224,104,204635,1,0,0:0:0:0:
224,104,204721,1,8,0:0:0:0:
220,100,204807,1,0,0:0:0:0:
220,100,204892,1,8,0:0:0:0:
136,96,204978,1,8,0:0:0:0:
232,20,205064,1,0,0:0:0:0:
212,24,205149,1,0,0:0:0:0:
240,172,205235,1,8,0:0:0:0:
240,172,205321,1,0,0:0:0:0:
240,172,205407,1,8,0:0:0:0:
160,168,205464,1,0,0:3:0:0:
144,156,205521,1,0,0:0:0:0:
160,168,205578,1,8,0:3:0:0:
148,148,205664,1,0,0:0:0:0:
240,172,205749,1,8,0:0:0:0:
260,88,205807,1,8,0:0:0:0:
160,168,205864,1,8,0:0:0:0:
160,168,205921,1,0,0:0:0:0:
204,108,206007,1,0,0:0:0:0:
240,172,206092,1,8,0:0:0:0:
160,168,206149,1,8,0:0:0:0:
240,172,206207,1,8,0:0:0:0:
160,168,206264,1,0,0:0:0:0:
160,168,206321,1,0,0:0:0:0:
276,32,206378,1,0,0:0:0:0:
160,168,206435,1,8,0:0:0:0:
236,136,206778,1,4,0:0:0:0:
144,196,217749,5,4,0:0:0:0:
220,188,217921,1,0,0:0:0:0:
220,188,218092,1,8,0:0:0:0:
220,188,218264,1,0,0:0:0:0:
220,188,218435,1,0,0:0:0:0:
220,188,218607,1,8,0:0:0:0:
308,48,218778,1,0,0:0:0:0:
224,188,218864,1,8,0:0:0:0:
80,160,218949,1,0,0:0:0:0:
80,160,219035,1,0,0:0:0:0:
144,196,219121,5,8,0:0:0:0:
220,188,219292,1,0,0:0:0:0:
220,188,219464,1,8,0:0:0:0:
220,188,219635,1,0,0:0:0:0:
196,80,219721,1,0,0:0:0:0:
220,188,219807,1,8,0:0:0:0:
112,120,219978,1,0,0:0:0:0:
220,188,220064,1,8,0:0:0:0:
224,188,220149,1,0,0:0:0:0:
192,64,220235,1,8,0:0:0:0:
80,160,220321,1,0,0:0:0:0:
80,160,220407,1,0,0:0:0:0:
144,196,220492,5,8,0:0:0:0:
220,188,220664,1,0,0:0:0:0:
220,188,220835,1,8,0:0:0:0:
208,96,220921,1,8,0:0:0:0:
220,188,221007,1,0,0:0:0:0:
208,96,221092,1,0,0:0:0:0:
220,188,221178,1,8,0:0:0:0:
220,188,221349,1,8,0:0:0:0:
204,64,221521,1,0,0:0:0:0:
224,188,221607,1,8,0:0:0:0:
80,160,221692,1,0,0:0:0:0:
80,160,221778,1,0,0:0:0:0:
144,196,221864,5,8,0:0:0:0:
152,96,221949,1,8,0:0:0:0:
220,188,222035,1,0,0:0:0:0:
152,96,222121,1,0,0:0:0:0:
220,188,222207,1,8,0:0:0:0:
152,96,222292,1,0,0:0:0:0:
152,96,222378,1,8,0:0:0:0:
152,96,222464,1,0,0:0:0:0:
220,188,222549,1,8,0:0:0:0:
152,76,222635,1,8,0:0:0:0:
220,188,222721,1,0,0:0:0:0:
180,56,222807,1,0,0:0:0:0:
224,188,222892,1,8,0:0:0:0:
180,56,222978,1,8,0:0:0:0:
264,40,223064,1,0,0:0:0:0:
156,64,223149,1,0,0:0:0:0:
144,196,223235,5,8,0:0:0:0:
164,136,223292,1,8,0:0:0:0:
164,136,223349,1,8,0:0:0:0:
220,188,223407,1,0,0:0:0:0:
248,104,223492,1,0,0:0:0:0:
144,196,223578,5,8,0:0:0:0:
164,136,223664,1,8,0:0:0:0:
164,136,223749,1,0,0:0:0:0:
224,40,223835,1,0,0:0:0:0:
144,196,223921,5,8,0:0:0:0:
164,136,223978,1,8,0:0:0:0:
164,136,224035,1,8,0:0:0:0:
220,188,224092,1,0,0:0:0:0:
180,68,224178,1,0,0:0:0:0:
144,196,224264,5,8,0:0:0:0:
164,136,224349,1,0,0:0:0:0:
80,160,224435,1,8,0:0:0:0:
184,48,224521,1,0,0:0:0:0:
144,196,224607,5,8,0:0:0:0:
164,136,224664,1,8,0:0:0:0:
164,136,224721,1,8,0:0:0:0:
220,188,224778,1,0,0:0:0:0:
236,48,224864,1,0,0:0:0:0:
144,196,224949,5,8,0:0:0:0:
164,136,225035,1,8,0:0:0:0:
220,188,225121,1,0,0:0:0:0:
224,80,225207,1,0,0:0:0:0:
144,196,225292,5,8,0:0:0:0:
164,136,225349,1,8,0:0:0:0:
220,188,225406,1,8,0:0:0:0:
164,136,225464,1,0,0:0:0:0:
72,80,225549,1,0,0:0:0:0:
144,196,225635,5,8,0:0:0:0:
164,136,225721,1,0,0:0:0:0:
164,136,225807,1,8,0:0:0:0:
72,68,225892,1,0,0:0:0:0:
144,196,225978,5,8,0:0:0:0:
164,136,226035,1,8,0:0:0:0:
164,136,226092,1,8,0:0:0:0:
160,92,226149,1,0,0:0:0:0:
160,92,226235,1,0,0:0:0:0:
144,196,226321,5,8,0:0:0:0:
164,136,226378,1,8,0:0:0:0:
164,136,226435,1,8,0:0:0:0:
244,68,226492,1,0,0:0:0:0:
240,72,226578,1,0,0:0:0:0:
144,196,226664,5,8,0:0:0:0:
164,136,226721,1,8,0:0:0:0:
164,136,226778,1,8,0:0:0:0:
232,72,226835,1,0,0:0:0:0:
232,72,226921,1,0,0:0:0:0:
144,196,227007,5,8,0:0:0:0:
164,136,227064,1,8,0:0:0:0:
164,136,227121,1,8,0:0:0:0:
144,196,227178,5,8,0:0:0:0:
164,136,227235,1,8,0:0:0:0:
164,136,227292,1,8,0:0:0:0:
232,72,227349,1,0,0:0:0:0:
208,176,227521,1,0,0:0:0:0:
208,176,227607,1,8,0:0:0:0:
208,176,227692,1,0,0:0:0:0:
208,176,227864,1,0,0:0:0:0:
208,176,227949,1,8,0:0:0:0:
208,176,228035,1,0,0:0:0:0:
232,72,228121,1,0,0:0:0:0:
232,72,228207,1,0,0:0:0:0:
232,72,228292,1,0,0:0:0:0:
236,68,228378,1,8,0:0:0:0:
236,68,228464,1,8,0:0:0:0:
236,68,228549,1,8,0:0:0:0:
104,136,228635,1,8,0:0:0:0:
232,72,228721,1,4,0:0:0:0:
144,152,228892,1,8,0:0:0:0:
144,152,229064,1,0,0:0:0:0:
144,152,229235,1,8,0:0:0:0:
144,152,229321,1,8,0:0:0:0:
144,152,229407,1,0,0:0:0:0:
144,152,229578,1,8,0:0:0:0:
144,152,229664,1,0,0:0:0:0:
144,152,229835,1,0,0:0:0:0:
144,160,229921,1,8,0:0:0:0:
208,176,230092,1,0,0:0:0:0:
208,176,230264,1,8,0:0:0:0:
208,176,230435,1,0,0:0:0:0:
208,176,230521,1,0,0:0:0:0:
200,172,230607,1,8,0:0:0:0:
208,176,230692,1,8,0:0:0:0:
208,176,230778,1,0,0:0:0:0:
216,96,230949,1,8,0:0:0:0:
216,96,231035,1,0,0:0:0:0:
216,96,231207,1,0,0:0:0:0:
216,96,231292,1,8,0:0:0:0:
216,96,231378,1,8,0:0:0:0:
216,96,231464,1,0,0:0:0:0:
172,132,231635,1,8,0:0:0:0:
172,132,231807,1,0,0:0:0:0:
172,132,231892,1,0,0:0:0:0:
172,132,231978,1,8,0:0:0:0:
172,132,232149,1,0,0:0:0:0:
172,132,232321,1,8,0:0:0:0:
172,132,232407,1,0,0:0:0:0:
172,132,232578,1,0,0:0:0:0:
172,132,232664,1,8,0:0:0:0:
200,184,232835,1,0,0:0:0:0:
200,184,233007,1,8,0:0:0:0:
200,184,233092,1,8,0:0:0:0:
200,184,233178,1,0,0:0:0:0:
196,184,233349,1,8,0:0:0:0:
196,184,233521,1,0,0:0:0:0:
196,184,233607,1,8,0:0:0:0:
196,184,233692,1,8,0:0:0:0:
192,184,233778,1,8,0:0:0:0:
184,180,233864,1,0,0:0:0:0:
216,108,234035,1,8,0:0:0:0:
216,108,234121,1,8,0:0:0:0:
208,108,234207,1,0,0:0:0:0:
260,212,234378,1,8,0:0:0:0:
260,212,234549,1,0,0:0:0:0:
260,212,234635,1,0,0:0:0:0:
260,212,234721,1,0,0:0:0:0:
264,200,234892,1,8,0:0:0:0:
264,204,235064,1,0,0:0:0:0:
264,204,235149,1,0,0:0:0:0:
260,204,235235,1,8,0:0:0:0:
260,204,235321,1,8,0:0:0:0:
256,204,235407,1,0,0:0:0:0:
164,136,235578,1,8,0:0:0:0:
164,136,235749,1,0,0:0:0:0:
152,52,235835,1,0,0:0:0:0:
152,52,235921,1,8,0:0:0:0:
272,88,236092,1,0,0:0:0:0:
152,52,236178,1,0,0:0:0:0:
272,88,236264,1,8,0:0:0:0:
272,88,236349,1,0,0:0:0:0:
272,88,236435,1,8,0:0:0:0:
272,88,236521,1,8,0:0:0:0:
272,88,236607,1,0,0:0:0:0:
204,96,236778,1,0,0:0:0:0:
200,100,236949,1,8,0:0:0:0:
224,168,237121,1,0,0:0:0:0:
216,168,237207,1,8,0:0:0:0:
224,168,237292,1,0,0:0:0:0:
216,168,237464,1,8,0:0:0:0:
180,56,237635,1,0,0:0:0:0:
180,56,237721,1,0,0:0:0:0:
176,56,237807,1,8,0:0:0:0:
180,56,237892,1,8,0:0:0:0:
180,48,237978,1,0,0:0:0:0:
140,128,238149,1,8,0:0:0:0:
140,128,238321,1,0,0:0:0:0:
140,128,238492,1,8,0:0:0:0:
140,128,238578,1,8,0:0:0:0:
140,128,238664,1,8,0:0:0:0:
140,128,238749,1,8,0:0:0:0:
140,128,238835,1,0,0:0:0:0:
228,196,239007,1,0,0:0:0:0:
228,196,239092,1,0,0:0:0:0:
228,196,239178,1,8,0:0:0:0:
228,196,239264,1,0,0:0:0:0:
224,192,239349,1,8,0:0:0:0:
224,192,239435,1,8,0:0:0:0:
224,192,239521,1,8,0:0:0:0:
224,192,239607,1,8,0:0:0:0:
224,192,239692,1,4,0:0:0:0:
176,140,239864,1,8,0:0:0:0:
176,140,240035,1,0,0:0:0:0:
176,140,240207,1,8,0:0:0:0:
200,84,240292,1,8,0:0:0:0:
200,84,240378,1,0,0:0:0:0:
232,136,240549,1,8,0:0:0:0:
232,136,240635,1,0,0:0:0:0:
232,136,240721,1,8,0:0:0:0:
232,136,240807,1,8,0:0:0:0:
232,136,240892,1,0,0:0:0:0:
256,204,241064,1,8,0:0:0:0:
256,204,241235,1,0,0:0:0:0:
256,204,241321,1,8,0:0:0:0:
256,204,241407,1,0,0:0:0:0:
256,204,241578,1,8,0:0:0:0:
256,204,241749,1,0,0:0:0:0:
256,204,241835,1,0,0:0:0:0:
256,204,241921,1,8,0:0:0:0:
256,204,242007,1,0,0:0:0:0:
256,204,242092,1,8,0:0:0:0:
256,204,242178,1,8,0:0:0:0:
256,204,242264,1,0,0:0:0:0:
256,204,242349,1,8,0:0:0:0:
252,208,242435,1,0,0:0:0:0:
200,116,242607,1,8,0:0:0:0:
200,116,242692,1,8,0:0:0:0:
200,116,242778,1,0,0:0:0:0:
200,116,242949,1,0,0:0:0:0:
200,116,243121,1,8,0:0:0:0:
204,112,243292,1,0,0:0:0:0:
200,116,243378,1,8,0:0:0:0:
200,116,243464,1,0,0:0:0:0:
200,116,243549,1,0,0:0:0:0:
200,116,243635,1,8,0:0:0:0:
180,160,243807,1,0,0:0:0:0:
212,72,243978,1,8,0:0:0:0:
212,72,244064,1,8,0:0:0:0:
212,72,244149,1,0,0:0:0:0:
208,72,244321,1,8,0:0:0:0:
208,72,244492,1,0,0:0:0:0:
208,72,244578,1,8,0:0:0:0:
208,72,244664,1,0,0:0:0:0:
204,72,244749,1,0,0:0:0:0:
204,72,244835,1,8,0:0:0:0:
204,72,244921,1,0,0:0:0:0:
204,72,245007,1,8,0:0:0:0:
204,124,245178,1,8,0:0:0:0:
204,124,245264,1,8,0:0:0:0:
204,124,245349,1,0,0:0:0:0:
184,164,245435,1,0,0:0:0:0:
184,164,245521,1,0,0:0:0:0:
184,164,245607,1,0,0:0:0:0:
184,164,245692,1,8,0:0:0:0:
184,164,245778,1,8,0:0:0:0:
184,164,245864,1,0,0:0:0:0:
184,164,245949,1,0,0:0:0:0:
184,164,246035,1,0,0:0:0:0:
184,164,246121,1,0,0:0:0:0:
180,164,246207,1,8,0:0:0:0:
176,164,246292,1,8,0:0:0:0:
268,172,246378,1,0,0:0:0:0:
268,160,246464,1,0,0:0:0:0:
204,124,246549,1,8,0:0:0:0:
204,124,246635,1,8,0:0:0:0:
204,124,246721,1,0,0:0:0:0:
184,164,246807,1,0,0:0:0:0:
184,164,246892,1,0,0:0:0:0:
184,164,246978,1,0,0:0:0:0:
184,164,247064,1,8,0:0:0:0:
184,164,247149,1,8,0:0:0:0:
184,164,247235,1,0,0:0:0:0:
184,164,247321,1,0,0:0:0:0:
184,164,247407,1,0,0:0:0:0:
184,164,247492,1,0,0:0:0:0:
180,164,247578,1,8,0:0:0:0:
176,164,247664,1,8,0:0:0:0:
248,76,247749,1,8,0:0:0:0:
248,76,247835,1,8,0:0:0:0:
292,184,247921,1,0,0:0:0:0:
304,192,248007,1,0,0:0:0:0:
296,192,248092,1,8,0:0:0:0:
296,192,248178,1,0,0:0:0:0:
296,192,248264,1,8,0:0:0:0:
296,192,248349,1,0,0:0:0:0:
296,192,248435,1,8,0:0:0:0:
148,104,248521,1,8,0:0:0:0:
148,104,248607,1,0,0:0:0:0:
144,96,248692,1,0,0:0:0:0:
144,96,248778,1,8,0:0:0:0:
144,96,248864,1,0,0:0:0:0:
144,96,248949,1,8,0:0:0:0:
144,96,249035,1,0,0:0:0:0:
148,96,249121,1,8,0:0:0:0:
148,96,249207,1,8,0:0:0:0:
148,96,249292,1,0,0:0:0:0:
296,180,249635,5,0,0:0:0:0:
168,112,249978,5,8,0:0:0:0:
168,112,250035,1,8,0:0:0:0:
168,112,250092,1,8,0:0:0:0:
168,112,250149,1,0,0:0:0:0:
168,112,250207,1,0,0:0:0:0:
160,112,250264,1,0,0:0:0:0:
160,112,250321,1,8,0:0:0:0:
228,184,250664,1,4,0:0:0:0:
228,184,250835,1,0,0:0:0:0:
40,124,250921,1,8,0:0:0:0:
228,184,251007,1,0,0:0:0:0:
200,136,251092,1,0,0:0:0:0:
200,136,251178,1,8,0:0:0:0:
200,136,251349,1,0,0:0:0:0:
200,136,251435,1,8,0:0:0:0:
200,136,251521,1,0,0:0:0:0:
200,136,251692,1,8,0:0:0:0:
272,152,251864,1,0,0:0:0:0:
204,96,251949,1,0,0:0:0:0:
272,152,252035,1,8,0:0:0:0:
228,184,252207,1,0,0:0:0:0:
272,152,252292,1,8,0:0:0:0:
228,184,252378,1,0,0:0:0:0:
200,136,252549,1,8,0:0:0:0:
200,136,252721,1,0,0:0:0:0:
200,136,252807,1,0,0:0:0:0:
200,136,252892,1,8,0:0:0:0:
208,36,252978,1,0,0:0:0:0:
200,136,253064,1,8,0:0:0:0:
204,108,253149,1,8,0:0:0:0:
272,152,253235,1,0,0:0:0:0:
228,184,253407,1,8,0:0:0:0:
152,64,253492,1,8,0:0:0:0:
228,184,253578,1,0,0:0:0:0:
40,124,253664,1,8,0:0:0:0:
228,184,253749,1,0,0:0:0:0:
200,136,253921,1,8,0:0:0:0:
200,136,254092,1,0,0:0:0:0:
200,136,254178,1,8,0:0:0:0:
200,136,254264,1,0,0:0:0:0:
200,136,254435,1,8,0:0:0:0:
272,152,254607,1,0,0:0:0:0:
184,48,254692,1,0,0:0:0:0:
272,152,254778,1,8,0:0:0:0:
228,184,254949,1,0,0:0:0:0:
272,152,255035,1,8,0:0:0:0:
228,184,255121,1,0,0:0:0:0:
200,136,255207,1,0,0:0:0:0:
200,136,255292,1,8,0:0:0:0:
200,136,255464,1,0,0:0:0:0:
200,136,255635,1,8,0:0:0:0:
208,36,255721,1,0,0:0:0:0:
200,136,255807,1,8,0:0:0:0:
236,68,255892,1,8,0:0:0:0:
272,152,255978,1,0,0:0:0:0:
228,184,256149,1,8,0:0:0:0:
228,184,256321,1,0,0:0:0:0:
40,124,256407,1,8,0:0:0:0:
228,184,256492,1,0,0:0:0:0:
152,64,256578,1,0,0:0:0:0:
200,136,256664,1,8,0:0:0:0:
200,136,256835,1,0,0:0:0:0:
200,136,256921,1,8,0:0:0:0:
200,136,257007,1,0,0:0:0:0:
200,136,257178,1,8,0:0:0:0:
272,152,257349,1,0,0:0:0:0:
220,76,257435,1,0,0:0:0:0:
272,152,257521,1,8,0:0:0:0:
272,152,257692,1,8,0:0:0:0:
228,184,257778,1,0,0:0:0:0:
228,184,257864,1,8,0:0:0:0:
200,136,258035,1,0,0:0:0:0:
200,136,258207,1,0,0:0:0:0:
148,72,258292,1,0,0:0:0:0:
200,136,258378,1,8,0:0:0:0:
200,136,258464,1,8,0:0:0:0:
208,36,258549,1,0,0:0:0:0:
200,136,258635,1,8,0:0:0:0:
272,152,258721,1,0,0:0:0:0:
272,152,258892,5,8,0:0:0:0:
172,100,259064,1,0,0:0:0:0:
172,100,259149,1,0,0:0:0:0:
172,100,259235,1,8,0:0:0:0:
224,104,259321,1,0,0:0:0:0:
224,104,259407,1,0,0:0:0:0:
224,104,259578,1,8,0:0:0:0:
220,100,259664,1,0,0:0:0:0:
220,100,259749,1,0,0:0:0:0:
160,104,259835,1,0,0:0:0:0:
136,96,259921,1,8,0:0:0:0:
240,172,260092,1,0,0:0:0:0:
240,172,260178,1,8,0:0:0:0:
240,172,260264,1,8,0:0:0:0:
248,92,260435,1,0,0:0:0:0:
260,88,260607,1,8,0:0:0:0:
260,88,260692,1,8,0:0:0:0:
260,88,260778,1,0,0:0:0:0:
156,76,260864,1,8,0:0:0:0:
156,76,260949,1,0,0:0:0:0:
216,32,261121,1,0,0:0:0:0:
216,32,261207,1,0,0:0:0:0:
216,32,261292,1,0,0:0:0:0:
228,184,261635,1,4,0:0:0:0:
228,184,261807,1,0,0:0:0:0:
40,124,261892,1,8,0:0:0:0:
228,184,261978,1,0,0:0:0:0:
200,136,262064,1,0,0:0:0:0:
200,136,262149,1,8,0:0:0:0:
200,136,262321,1,0,0:0:0:0:
200,136,262407,1,8,0:0:0:0:
200,136,262492,1,0,0:0:0:0:
200,136,262664,1,8,0:0:0:0:
272,152,262835,1,0,0:0:0:0:
204,96,262921,1,0,0:0:0:0:
272,152,263007,1,8,0:0:0:0:
228,184,263178,1,0,0:0:0:0:
272,152,263264,1,8,0:0:0:0:
228,184,263349,1,0,0:0:0:0:
168,168,263435,1,0,0:0:0:0:
200,136,263521,1,8,0:0:0:0:
200,136,263692,1,0,0:0:0:0:
200,136,263778,1,0,0:0:0:0:
200,136,263864,1,8,0:0:0:0:
208,36,263949,1,0,0:0:0:0:
200,136,264035,1,8,0:0:0:0:
204,108,264092,1,8,0:0:0:0:
88,116,264149,1,8,0:0:0:0:
272,152,264207,1,0,0:0:0:0:
228,184,264378,1,8,0:0:0:0:
152,64,264464,1,8,0:0:0:0:
228,184,264549,1,0,0:0:0:0:
40,124,264635,1,8,0:0:0:0:
228,184,264721,1,0,0:0:0:0:
256,100,264807,1,0,0:0:0:0:
200,136,264892,1,8,0:0:0:0:
200,136,265064,1,0,0:0:0:0:
200,136,265149,1,8,0:0:0:0:
200,136,265235,1,0,0:0:0:0:
200,136,265407,1,8,0:0:0:0:
272,152,265578,1,0,0:0:0:0:
184,48,265664,1,0,0:0:0:0:
272,152,265749,1,8,0:0:0:0:
216,108,265835,1,8,0:0:0:0:
228,184,265921,1,0,0:0:0:0:
272,152,266007,1,8,0:0:0:0:
228,184,266092,1,0,0:0:0:0:
200,136,266264,1,8,0:0:0:0:
200,136,266435,1,0,0:0:0:0:
200,136,266607,1,8,0:0:0:0:
208,36,266692,1,0,0:0:0:0:
200,136,266778,1,8,0:0:0:0:
88,116,266835,1,8,0:0:0:0:
204,108,266892,1,8,0:0:0:0:
272,152,266949,1,0,0:0:0:0:
228,184,267121,1,8,0:0:0:0:
228,184,267292,1,0,0:0:0:0:
40,124,267378,1,8,0:0:0:0:
228,184,267464,1,0,0:0:0:0:
152,64,267549,1,0,0:0:0:0:
200,136,267635,1,8,0:0:0:0:
200,136,267807,1,0,0:0:0:0:
200,136,267892,1,8,0:0:0:0:
200,136,267978,1,0,0:0:0:0:
200,136,268149,1,8,0:0:0:0:
272,152,268321,1,0,0:0:0:0:
220,76,268407,1,0,0:0:0:0:
272,152,268492,1,8,0:0:0:0:
272,152,268664,1,8,0:0:0:0:
228,184,268749,5,0,0:0:0:0:
228,184,268835,1,8,0:0:0:0:
164,120,268921,1,8,0:0:0:0:
200,136,269007,1,0,0:0:0:0:
200,136,269178,1,0,0:0:0:0:
148,72,269264,1,0,0:0:0:0:
200,136,269349,1,8,0:0:0:0:
200,136,269435,1,8,0:0:0:0:
208,36,269521,1,0,0:0:0:0:
200,136,269607,1,8,0:0:0:0:
272,152,269692,1,0,0:0:0:0:
272,152,269864,5,8,0:0:0:0:
196,48,269949,1,0,0:0:0:0:
172,100,270035,1,8,0:0:0:0:
172,100,270121,1,8,0:0:0:0:
172,100,270207,1,0,0:0:0:0:
176,116,270292,1,0,0:0:0:0:
224,104,270378,1,8,0:0:0:0:
224,104,270464,1,0,0:0:0:0:
224,104,270549,1,8,0:0:0:0:
220,100,270635,1,0,0:0:0:0:
220,100,270721,1,8,0:0:0:0:
136,96,270807,1,8,0:0:0:0:
232,20,270892,1,0,0:0:0:0:
212,24,270978,1,0,0:0:0:0:
240,172,271064,1,8,0:0:0:0:
240,172,271149,1,0,0:0:0:0:
240,172,271235,1,8,0:0:0:0:
160,168,271292,1,0,0:3:0:0:
144,156,271349,1,0,0:0:0:0:
160,168,271407,1,8,0:3:0:0:
148,148,271492,1,0,0:0:0:0:
240,172,271578,1,8,0:0:0:0:
160,168,271635,1,8,0:0:0:0:
260,88,271692,1,8,0:0:0:0:
160,168,271749,1,0,0:0:0:0:
204,108,271835,1,0,0:0:0:0:
240,172,271921,1,8,0:0:0:0:
160,168,271978,1,0,0:0:0:0:
160,168,272035,1,0,0:0:0:0:
240,172,272092,1,8,0:0:0:0:
160,168,272149,1,8,0:0:0:0:
160,168,272207,1,8,0:0:0:0:
276,32,272264,1,0,0:0:0:0:
168,176,272607,1,4,0:0:0:0:
144,196,283578,5,4,0:0:0:0:
220,188,283749,1,0,0:0:0:0:
220,188,283921,1,8,0:0:0:0:
220,188,284092,1,0,0:0:0:0:
220,188,284264,1,0,0:0:0:0:
220,188,284435,1,8,0:0:0:0:
224,188,284607,1,8,0:0:0:0:
80,160,284778,1,0,0:0:0:0:
80,160,284864,1,0,0:0:0:0:
80,160,284949,1,0,0:0:0:0:
256,192,285292,1,8,0:0:0:0:
256,192,285635,1,8,0:0:0:0:
256,192,285978,1,8,0:0:0:0:
152,192,286321,1,0,0:0:0:0:
152,192,286492,1,8,0:0:0:0:
152,192,286664,1,8,0:0:0:0:
192,128,286835,1,0,0:0:0:0:
192,128,287007,1,8,0:0:0:0:
192,128,287178,1,8,0:0:0:0:
192,128,287349,1,0,0:0:0:0:
192,128,287521,1,0,0:0:0:0:
192,128,287692,1,0,0:0:0:0:
200,128,288035,1,8,0:0:0:0:
200,132,288378,1,8,0:0:0:0:
160,96,288892,1,0,0:0:0:0:
144,196,288978,1,8,0:0:0:0:
180,96,289064,5,0,0:0:0:0:
220,188,289235,1,0,0:0:0:0:
220,188,289407,1,8,0:0:0:0:
220,188,289578,1,8,0:0:0:0:
220,188,289749,1,8,0:0:0:0:
220,188,289921,1,0,0:0:0:0:
224,188,290092,1,8,0:0:0:0:
80,160,290264,1,8,0:0:0:0:
80,160,290435,1,0,0:0:0:0:
80,160,290607,1,8,0:0:0:0:
256,192,290778,1,0,0:0:0:0:
140,72,290949,1,0,0:0:0:0:
256,192,291121,1,8,0:0:0:0:
256,192,291464,1,8,0:0:0:0:
152,192,291807,1,0,0:0:0:0:
152,192,291978,1,8,0:0:0:0:
152,192,292149,1,8,0:0:0:0:
192,128,292321,1,0,0:0:0:0:
192,128,292492,1,8,0:0:0:0:
192,128,292664,1,8,0:0:0:0:
192,128,292835,1,0,0:0:0:0:
192,128,293007,1,0,0:0:0:0:
144,196,293178,5,8,0:0:0:0:
220,188,293349,1,0,0:0:0:0:
220,188,293521,1,0,0:0:0:0:
220,188,293692,1,0,0:0:0:0:
220,188,293864,1,8,0:0:0:0:
176,96,294207,1,8,0:0:0:0:
144,196,294549,5,4,0:0:0:0:
220,188,294721,1,0,0:0:0:0:
220,188,294892,1,8,0:0:0:0:
220,188,295064,1,0,0:0:0:0:
220,188,295235,1,0,0:0:0:0:
220,188,295407,1,8,0:0:0:0:
224,188,295578,1,8,0:0:0:0:
80,160,295749,1,0,0:0:0:0:
80,160,295835,1,0,0:0:0:0:
80,160,295921,1,0,0:0:0:0:
256,192,296264,1,8,0:0:0:0:
256,192,296607,1,8,0:0:0:0:
256,192,296949,1,8,0:0:0:0:
152,192,297292,1,0,0:0:0:0:
152,192,297464,1,8,0:0:0:0:
152,192,297635,1,8,0:0:0:0:
192,128,297807,1,0,0:0:0:0:
192,128,297978,1,8,0:0:0:0:
192,128,298149,1,8,0:0:0:0:
192,128,298321,1,0,0:0:0:0:
192,128,298492,1,0,0:0:0:0:
192,128,298664,1,0,0:0:0:0:
200,128,299007,1,8,0:0:0:0:
200,132,299349,1,8,0:0:0:0:
160,96,299864,1,0,0:0:0:0:
144,196,299949,1,8,0:0:0:0:
180,96,300035,5,0,0:0:0:0:
220,188,300207,1,0,0:0:0:0:
220,188,300378,1,8,0:0:0:0:
220,188,300549,1,8,0:0:0:0:
220,188,300721,1,8,0:0:0:0:
220,188,300892,1,0,0:0:0:0:
224,188,301064,1,8,0:0:0:0:
80,160,301235,1,8,0:0:0:0:
80,160,301407,1,0,0:0:0:0:
80,160,301578,1,8,0:0:0:0:
256,192,301749,1,0,0:0:0:0:
140,72,301921,1,0,0:0:0:0:
256,192,302092,1,8,0:0:0:0:
256,192,302435,1,8,0:0:0:0:
152,192,302778,1,0,0:0:0:0:
152,192,302949,1,8,0:0:0:0:
152,192,303121,1,8,0:0:0:0:
192,128,303292,1,0,0:0:0:0:
192,128,303464,1,8,0:0:0:0:
192,128,303635,1,8,0:0:0:0:
192,128,303807,1,0,0:0:0:0:
192,128,303978,1,0,0:0:0:0:
144,196,304149,5,8,0:0:0:0:
220,188,304321,5,0,0:0:0:0:
220,188,304492,1,0,0:0:0:0:
220,188,304664,1,0,0:0:0:0:
220,188,304835,1,8,0:0:0:0:
176,96,305178,1,8,0:0:0:0:
144,196,305521,5,4,0:0:0:0:
220,188,305692,1,0,0:0:0:0:
220,188,305864,1,8,0:0:0:0:
220,188,306035,1,0,0:0:0:0:
220,188,306207,1,0,0:0:0:0:
220,188,306378,1,8,0:0:0:0:
224,188,306549,1,8,0:0:0:0:
80,160,306721,1,0,0:0:0:0:
80,160,306807,1,0,0:0:0:0:
144,196,306892,5,8,0:0:0:0:
220,188,307064,1,0,0:0:0:0:
220,188,307235,1,8,0:0:0:0:
220,188,307407,1,0,0:0:0:0:
220,188,307578,1,8,0:0:0:0:
220,188,307749,1,8,0:0:0:0:
224,188,307921,1,8,0:0:0:0:
80,160,308092,1,0,0:0:0:0:
80,160,308178,1,0,0:0:0:0:
144,196,308264,5,8,0:0:0:0:
220,188,308435,1,0,0:0:0:0:
220,188,308607,1,8,0:0:0:0:
220,188,308778,1,0,0:0:0:0:
220,188,308949,1,0,0:0:0:0:
220,188,309121,1,8,0:0:0:0:
224,188,309292,1,8,0:0:0:0:
80,160,309464,1,0,0:0:0:0:
80,160,309549,1,0,0:0:0:0:
144,196,309635,5,8,0:0:0:0:
220,188,309807,1,0,0:0:0:0:
220,188,309978,1,8,0:0:0:0:
220,188,310149,1,0,0:0:0:0:
220,188,310321,1,8,0:0:0:0:
220,188,310492,1,8,0:0:0:0:
224,188,310664,1,8,0:0:0:0:
80,160,310835,1,0,0:0:0:0:
144,196,311007,5,4,0:0:0:0:
220,188,311178,1,0,0:0:0:0:
220,188,311349,1,8,0:0:0:0:
220,188,311521,1,0,0:0:0:0:
220,188,311692,1,4,0:0:0:0:
220,188,311864,1,0,0:0:0:0:
224,188,312035,1,8,0:0:0:0:
80,160,312207,1,0,0:0:0:0:
144,196,312378,5,4,0:0:0:0:
220,188,312549,1,0,0:0:0:0:
220,188,312721,1,8,0:0:0:0:
220,188,312892,1,0,0:0:0:0:
220,188,313064,1,4,0:0:0:0:
220,188,313235,1,0,0:0:0:0:
224,188,313407,1,8,0:0:0:0:
80,160,313578,1,0,0:0:0:0:
80,160,313749,1,8,0:0:0:0:
160,92,313835,1,0,0:0:0:0:
160,92,313921,1,0,0:0:0:0:
160,92,314007,1,0,0:0:0:0:
244,68,314092,1,8,0:0:0:0:
244,68,314178,1,8,0:0:0:0:
244,68,314264,1,8,0:0:0:0:
240,72,314349,1,8,0:0:0:0:
232,72,314435,1,0,0:0:0:0:
232,72,314521,1,0,0:0:0:0:
232,72,314607,1,8,0:0:0:0:
232,72,314692,1,8,0:0:0:0:
232,72,314778,1,0,0:0:0:0:
232,72,314864,1,8,0:0:0:0:
232,72,314949,1,8,0:0:0:0:
232,72,315035,1,8,0:0:0:0:
232,72,315121,1,4,0:0:0:0:
144,196,316492,5,4,0:0:0:0:
220,188,316664,1,0,0:0:0:0:
220,188,316835,1,8,0:0:0:0:
220,188,317007,1,0,0:0:0:0:
212,100,317092,1,0,0:0:0:0:
220,188,317178,1,0,0:0:0:0:
220,188,317264,1,8,0:0:0:0:
212,100,317349,1,0,0:0:0:0:
224,188,317521,1,8,0:0:0:0:
244,64,317607,1,8,0:0:0:0:
80,160,317692,1,0,0:0:0:0:
80,160,317778,1,0,0:0:0:0:
80,160,317864,1,0,0:0:0:0:
360,84,318035,1,0,0:0:0:0:
256,192,318207,1,8,0:0:0:0:
304,88,318378,1,0,0:0:0:0:
232,76,318464,1,0,0:0:0:0:
256,192,318549,1,8,0:0:0:0:
304,88,318721,1,0,0:0:0:0:
124,96,318807,1,0,0:0:0:0:
256,192,318892,1,8,0:0:0:0:
232,76,318978,1,8,0:0:0:0:
124,96,319064,1,0,0:0:0:0:
152,192,319235,1,0,0:0:0:0:
152,192,319407,1,8,0:0:0:0:
152,192,319578,1,8,0:0:0:0:
192,128,319749,1,0,0:0:0:0:
192,128,319835,1,8,0:0:0:0:
184,68,319921,1,0,0:0:0:0:
232,88,320007,1,0,0:0:0:0:
192,128,320092,1,8,0:0:0:0:
236,164,320178,1,8,0:0:0:0:
192,128,320264,1,0,0:0:0:0:
192,128,320435,1,0,0:0:0:0:
192,80,320521,1,0,0:0:0:0:
192,128,320607,1,0,0:0:0:0:
196,64,320778,1,0,0:0:0:0:
200,128,320949,1,8,0:0:0:0:
176,72,321121,1,0,0:0:0:0:
176,72,321207,1,0,0:0:0:0:
200,132,321292,1,8,0:0:0:0:
180,72,321464,1,0,0:0:0:0:
176,72,321635,1,12,0:0:0:0:
160,96,321807,1,0,0:0:0:0:
144,196,321892,1,8,0:0:0:0:
180,96,321978,5,0,0:0:0:0:
220,188,322149,1,0,0:0:0:0:
220,188,322321,1,8,0:0:0:0:
220,188,322492,1,8,0:0:0:0:
192,124,322578,1,0,0:0:0:0:
220,188,322664,1,8,0:0:0:0:
192,124,322749,1,8,0:0:0:0:
220,188,322835,1,0,0:0:0:0:
204,76,322921,1,0,0:0:0:0:
224,188,323007,1,8,0:0:0:0:
80,160,323178,1,8,0:0:0:0:
156,148,323264,1,8,0:0:0:0:
80,160,323349,1,0,0:0:0:0:
80,160,323521,1,8,0:0:0:0:
256,192,323692,1,0,0:0:0:0:
140,72,323864,1,0,0:0:0:0:
248,112,323949,1,0,0:0:0:0:
256,192,324035,1,8,0:0:0:0:
248,64,324121,1,8,0:0:0:0:
200,128,324207,1,0,0:0:0:0:
256,192,324378,1,8,0:0:0:0:
120,156,324464,1,0,0:0:0:0:
200,128,324549,1,8,0:0:0:0:
200,112,324635,1,8,0:0:0:0:
152,192,324721,1,0,0:0:0:0:
152,192,324892,1,8,0:0:0:0:
152,192,325064,1,8,0:0:0:0:
152,52,325235,1,8,0:0:0:0:
152,52,325321,1,0,0:0:0:0:
192,128,325407,1,8,0:0:0:0:
192,128,325492,1,8,0:0:0:0:
192,128,325578,1,0,0:0:0:0:
208,124,325664,1,0,0:0:0:0:
192,128,325749,1,8,0:0:0:0:
208,124,325835,1,8,0:0:0:0:
200,112,325921,1,8,0:0:0:0:
200,112,326007,1,8,0:0:0:0:
208,124,326092,1,4,0:0:0:0:
144,196,327464,5,4,0:0:0:0:
220,188,327635,1,4,0:0:0:0:
220,188,327807,1,12,0:0:0:0:
220,188,327978,1,0,0:0:0:0:
192,40,328064,1,0,0:0:0:0:
220,188,328149,1,0,0:0:0:0:
220,188,328235,1,8,0:0:0:0:
212,100,328321,1,0,0:0:0:0:
140,64,328407,1,0,0:0:0:0:
224,188,328492,1,8,0:0:0:0:
80,160,328664,1,0,0:0:0:0:
80,160,328749,1,0,0:0:0:0:
80,160,328835,1,0,0:0:0:0:
360,84,329007,1,0,0:0:0:0:
256,192,329178,1,8,0:0:0:0:
304,88,329349,1,0,0:0:0:0:
200,124,329435,1,0,0:0:0:0:
256,192,329521,1,8,0:0:0:0:
124,96,329607,1,8,0:0:0:0:
304,88,329692,1,0,0:0:0:0:
256,192,329864,1,8,0:0:0:0:
124,96,330035,1,0,0:0:0:0:
88,152,330121,1,0,0:0:0:0:
152,192,330207,1,0,0:0:0:0:
152,192,330378,1,8,0:0:0:0:
152,192,330549,1,8,0:0:0:0:
192,128,330721,1,0,0:0:0:0:
192,128,330807,1,8,0:0:0:0:
184,68,330892,1,0,0:0:0:0:
232,88,330978,1,0,0:0:0:0:
192,128,331064,1,8,0:0:0:0:
216,144,331149,1,8,0:0:0:0:
192,128,331235,1,0,0:0:0:0:
192,128,331407,1,0,0:0:0:0:
192,80,331492,1,0,0:0:0:0:
192,128,331578,1,0,0:0:0:0:
196,64,331749,1,0,0:0:0:0:
200,128,331921,1,8,0:0:0:0:
176,72,332092,1,0,0:0:0:0:
176,72,332178,1,0,0:0:0:0:
200,132,332264,1,8,0:0:0:0:
224,128,332349,1,8,0:0:0:0:
180,72,332435,1,0,0:0:0:0:
176,72,332607,1,12,0:0:0:0:
160,96,332778,1,0,0:0:0:0:
40,120,332864,1,8,0:0:0:0:
144,196,332949,5,0,0:0:0:0:
220,188,333121,1,0,0:0:0:0:
220,188,333292,1,8,0:0:0:0:
220,188,333464,1,8,0:0:0:0:
192,124,333549,1,0,0:0:0:0:
220,188,333635,1,8,0:0:0:0:
192,124,333721,1,8,0:0:0:0:
220,188,333807,1,0,0:0:0:0:
240,128,333892,1,0,0:0:0:0:
224,188,333978,1,8,0:0:0:0:
80,160,334149,1,8,0:0:0:0:
156,148,334235,1,8,0:0:0:0:
80,160,334321,1,0,0:0:0:0:
80,160,334492,1,8,0:0:0:0:
256,192,334664,1,0,0:0:0:0:
140,72,334835,1,0,0:0:0:0:
248,112,334921,1,0,0:0:0:0:
256,192,335007,1,8,0:0:0:0:
200,40,335092,1,8,0:0:0:0:
200,128,335178,1,0,0:0:0:0:
256,192,335349,1,8,0:0:0:0:
288,116,335435,1,0,0:0:0:0:
200,128,335521,1,8,0:0:0:0:
200,112,335607,1,8,0:0:0:0:
152,192,335692,1,0,0:0:0:0:
192,128,335864,1,0,0:0:0:0:
152,192,336035,1,8,0:0:0:0:
152,192,336207,1,8,0:0:0:0:
152,52,336378,1,0,0:0:0:0:
152,52,336464,1,0,0:0:0:0:
192,128,336549,1,8,0:0:0:0:
208,124,336635,1,8,0:0:0:0:
192,128,336721,1,0,0:0:0:0:
208,124,336807,1,0,0:0:0:0:
76,184,336892,1,8,0:0:0:0:
76,184,336978,1,0,0:0:0:0:
76,184,337064,1,0,0:0:0:0:
256,192,337235,12,0,338264,0:0:0:0:
228,136,338435,5,4,0:0:0:0:
228,136,338949,1,0,0:0:0:0:
224,140,339121,1,8,0:0:0:0:
224,140,339464,1,0,0:0:0:0:
224,140,339635,1,8,0:0:0:0:
220,140,339807,1,0,0:0:0:0:
172,68,340149,1,0,0:0:0:0:
172,68,340492,1,8,0:0:0:0:
168,64,341178,1,8,0:0:0:0:
168,64,341521,1,0,0:0:0:0:
168,64,341692,1,8,0:0:0:0:
168,64,341864,1,0,0:0:0:0:
168,64,342035,1,8,0:0:0:0:
168,64,342207,1,8,0:0:0:0:
168,64,342378,1,8,0:0:0:0:
168,64,342549,1,0,0:0:0:0:
128,140,342892,1,0,0:0:0:0:
128,140,343235,1,8,0:0:0:0:
128,140,343578,1,0,0:0:0:0:
128,140,343921,1,8,0:0:0:0:
248,104,344435,1,0,0:0:0:0:
248,104,344607,1,8,0:0:0:0:
236,108,344949,1,0,0:0:0:0:
232,108,345121,1,8,0:0:0:0:
236,108,345292,1,0,0:0:0:0:
192,124,345635,1,0,0:0:0:0:
192,124,345978,1,8,0:0:0:0:
200,124,346664,1,0,0:0:0:0:
200,124,347178,1,0,0:0:0:0:
196,216,347349,1,8,0:0:0:0:
204,176,347521,1,0,0:0:0:0:
200,180,347692,1,0,0:0:0:0:
196,180,347864,1,0,0:0:0:0:
192,180,348035,1,8,0:0:0:0:
168,88,348378,1,0,0:0:0:0:
168,88,348721,1,8,0:0:0:0:
160,88,348892,1,0,0:0:0:0:
156,92,349064,1,0,0:0:0:0:
228,136,349407,5,4,0:0:0:0:
224,140,349921,1,8,0:0:0:0:
228,136,350092,1,0,0:0:0:0:
48,120,350264,1,8,0:0:0:0:
224,140,350435,1,8,0:0:0:0:
224,140,350607,1,8,0:0:0:0:
220,140,350778,1,0,0:0:0:0:
172,68,351121,1,0,0:0:0:0:
172,68,351464,1,8,0:0:0:0:
168,64,352149,1,8,0:0:0:0:
168,64,352664,1,0,0:0:0:0:
168,64,352835,1,8,0:0:0:0:
260,136,353007,1,8,0:0:0:0:
168,64,353178,1,8,0:0:0:0:
168,64,353349,1,8,0:0:0:0:
168,64,353521,1,0,0:0:0:0:
128,140,353864,1,0,0:0:0:0:
128,140,354207,1,8,0:0:0:0:
128,140,354549,1,0,0:0:0:0:
128,140,354892,1,8,0:0:0:0:
248,104,355407,1,0,0:0:0:0:
248,104,355578,1,8,0:0:0:0:
236,108,355921,1,0,0:0:0:0:
232,108,356092,1,0,0:0:0:0:
236,108,356264,1,0,0:0:0:0:
192,124,356607,1,0,0:0:0:0:
192,124,356949,1,8,0:0:0:0:
200,124,357635,1,0,0:0:0:0:
264,112,357978,1,0,0:0:0:0:
200,124,358149,1,8,0:0:0:0:
264,112,358235,1,8,0:0:0:0:
196,216,358321,1,8,0:0:0:0:
204,176,358492,1,0,0:0:0:0:
192,180,358664,1,8,0:0:0:0:
196,180,358835,1,8,0:0:0:0:
200,180,359007,1,0,0:0:0:0:
256,192,359178,12,0,363121,0:0:0:0:
256,192,363464,12,0,372721,0:0:0:0:
