osu file format v14

[General]
AudioFilename: monosugoi.mp3
AudioLeadIn: 0
PreviewTime: 183775
Countdown: 0
SampleSet: Soft
StackLeniency: 0.7
Mode: 0
LetterboxInBreaks: 0
WidescreenStoryboard: 0

[Editor]
Bookmarks: 151718,173489,249604
DistanceSpacing: 0.6
BeatDivisor: 4
GridSize: 4
TimelineZoom: 3.248961

[Metadata]
Title:Monosugoi Space Shuttle de Koishi ga Monosugoi Uta
TitleUnicode:物凄いスペースシャトルでこいしが物凄いうた
Artist:Nanahira
ArtistUnicode:ななひら
Creator:l______l
Version:Monosugoi Tragic Extra
Source:
Tags:Touhou
BeatmapID:1282889
BeatmapSetID:607383

[Difficulty]
HPDrainRate:6
CircleSize:4
OverallDifficulty:7.7
ApproachRate:9
SliderMultiplier:1.6
SliderTickRate:1

[Events]
//Background and Video events
0,0,"maxresdefault.jpg",0,0
//Break Periods
2,36890,47061
2,206604,217118
2,272432,282946
//Storyboard Layer 0 (Background)
//Storyboard Layer 1 (Fail)
//Storyboard Layer 2 (Pass)
//Storyboard Layer 3 (Foreground)
//Storyboard Sound Samples

[TimingPoints]
13376,342.856331009258,4,2,1,30,1,0
13376,-133.333333333333,4,2,1,30,0,0
25720,-100,4,2,1,30,0,0
26406,-100,4,3,1,30,0,0
26748,-100,4,2,1,20,0,0
27177,-166.666666666667,4,2,1,30,0,0
31549,-100,4,2,1,35,0,0
35407,-100,4,2,1,30,0,0
36692,-100,4,3,1,50,0,0
47661,-83.3333333333333,4,1,1,40,0,0
53147,-100,4,2,1,40,0,0
57261,-100,4,3,1,40,0,0
58633,-100,4,2,1,50,0,0
66518,-133.333333333333,4,1,2,40,0,0
66775,-100,4,2,1,50,0,0
68239,-100,4,2,1,50,0,0
74747,-100,4,3,1,70,0,0
74918,-100,4,2,1,70,0,0
79890,-133.333333333333,4,2,1,50,0,0
80575,-100,4,1,1,50,0,0
81947,-100,4,1,2,50,0,0
82118,-100,4,2,1,50,0,0
83318,-133.333333333333,4,2,1,40,0,0
88375,-133.333333333333,4,1,1,10,0,0
88804,-133.333333333333,4,2,1,40,0,0
93947,-100,4,2,1,40,0,0
102518,-83.3333333333333,4,2,1,50,0,0
102690,-100,4,2,1,50,0,0
104918,-100,4,3,1,60,0,0
105261,-100,4,1,1,55,0,0
110061,-83.3333333333333,4,1,1,65,0,0
110747,-100,4,1,1,65,0,0
115204,-100,4,2,1,65,0,0
116232,-100,4,2,1,50,0,1
124461,-100,4,2,1,5,0,1
124890,-100,4,2,1,15,0,1
125318,-100,4,2,1,25,0,1
125490,-100,4,2,1,40,0,1
127547,-100,4,2,1,50,0,1
129518,-166.666666666667,4,1,2,50,0,1
129861,-166.666666666667,4,1,2,5,0,1
129947,-100,4,2,1,50,0,0
137832,-100,4,3,1,60,0,0
138175,-100,4,3,1,60,0,0
139889,-83.3333333333333,4,1,1,60,0,0
139975,-83.3333333333333,4,1,1,5,0,0
140232,-83.3333333333333,4,1,1,60,0,0
140318,-83.3333333333333,4,1,1,5,0,0
140575,-83.3333333333333,4,1,1,60,0,0
140661,-83.3333333333333,4,1,1,5,0,0
140918,-100,4,2,1,60,0,0
142289,-83.3333333333333,4,1,1,60,0,0
142375,-83.3333333333333,4,1,1,5,0,0
142632,-83.3333333333333,4,1,1,60,0,0
142718,-83.3333333333333,4,1,1,5,0,0
142975,-83.3333333333333,4,1,1,60,0,0
143061,-83.3333333333333,4,1,1,5,0,0
143318,-100,4,1,1,50,0,0
145718,-83.3333333333333,4,1,1,50,0,0
145804,-83.3333333333333,4,1,1,5,0,0
146061,-83.3333333333333,4,1,1,50,0,0
146147,-83.3333333333333,4,1,1,5,0,0
146404,-100,4,1,1,50,0,0
147775,-100,4,1,1,60,0,0
149147,-100,4,1,1,40,0,0
150518,-100,4,1,2,50,0,0
150689,-100,4,2,1,50,0,0
151889,-133.333333333333,4,2,1,40,0,0
158061,-133.333333333333,4,2,1,40,0,0
162518,-100,4,2,1,30,0,0
173832,-100,4,2,1,60,0,1
178632,-83.3333333333333,4,1,1,60,0,1
178718,-83.3333333333333,4,1,1,5,0,1
178975,-83.3333333333333,4,1,1,60,0,1
179061,-83.3333333333333,4,1,1,5,0,1
179318,-100,4,2,1,50,0,1
183432,-100,4,2,1,50,0,1
183775,-100,4,2,1,50,0,1
187204,-133.333333333333,4,2,1,40,0,1
187718,-100,4,2,1,50,0,1
193032,-133.333333333333,4,2,1,50,0,1
194061,-133.333333333333,4,2,1,5,0,1
194232,-100,4,2,1,60,0,1
198175,-133.333333333333,4,2,1,50,0,1
198689,-100,4,2,1,50,0,1
203232,-100,4,2,1,5,0,1
203404,-100,4,2,1,50,0,0
204346,-100,4,1,1,70,0,0
205375,-100,4,1,1,50,0,0
206404,-100,4,3,1,70,0,0
217718,-100,4,3,1,70,0,0
218061,-100,4,2,1,40,0,0
221318,-100,4,3,1,40,0,0
223204,-100,4,3,1,45,0,0
223804,-100,4,3,1,50,0,0
224575,-100,4,3,1,45,0,0
225175,-100,4,3,1,55,0,0
226289,-100,4,2,1,45,0,0
226804,-100,4,2,1,55,0,0
227318,-100,4,2,1,65,0,0
228004,-100,4,2,1,55,0,0
228689,-100,4,1,1,50,0,0
233489,-133.333333333333,4,2,1,40,0,0
234004,-100,4,2,1,50,0,0
235118,-100,4,1,1,50,0,0
236918,-100,4,1,1,40,0,0
237518,-100,4,2,1,50,0,0
238804,-133.333333333333,4,2,1,50,0,0
239318,-100,4,2,1,35,0,0
240946,-166.666666666667,4,2,1,35,0,0
241289,-100,4,2,1,35,0,0
241804,-100,4,1,1,50,0,0
245146,-100,4,1,1,25,0,0
245318,-100,4,2,1,40,0,0
245661,-100,4,3,1,40,0,0
246004,-100,4,2,1,40,0,0
246346,-100,4,3,1,40,0,0
246689,-100,4,2,1,40,0,0
247032,-133.333333333333,4,2,1,40,0,0
247289,-100,4,2,1,50,0,0
248489,-100,4,1,1,70,0,0
249604,-100,4,1,1,70,0,0
250289,-100,4,3,2,55,0,0
250461,-100,4,2,1,55,0,0
253032,-133.333333333333,4,2,1,40,0,0
253546,-100,4,2,1,50,0,0
258861,-133.333333333333,4,2,1,40,0,0
259889,-100,4,2,1,50,0,0
264003,-133.333333333333,4,2,1,40,0,0
264518,-100,4,2,1,50,0,0
270003,-100,4,1,1,70,0,0
271203,-100,4,2,1,40,0,0
272232,-100,4,3,1,70,0,0
283546,-100,4,3,1,70,0,0
283718,-100,4,2,1,40,0,0
287489,-100,4,2,1,40,0,0
288003,-133.333333333333,4,2,1,40,0,0
288861,-100,4,2,1,40,0,0
294175,-100,4,3,1,70,0,0
294518,-100,4,3,2,75,0,0
294689,-100,4,2,2,40,0,0
297261,-100,4,2,1,50,0,0
302061,-83.3333333333333,4,1,1,60,0,0
302746,-100,4,1,1,60,0,0
305146,-83.3333333333333,4,3,1,60,0,0
305489,-83.3333333333333,4,2,1,50,0,0
309603,-83.3333333333333,4,2,1,50,0,0
310975,-100,4,2,1,50,0,0
313718,-100,4,2,1,50,0,0
315089,-100,4,3,1,60,0,0
316460,-100,4,2,1,50,0,1
321603,-100,4,3,1,60,0,1
321775,-100,4,2,1,60,0,1
324003,-83.3333333333333,4,1,1,60,0,1
324518,-100,4,2,1,50,0,1
324860,-100,4,2,1,50,0,1
325032,-100,4,1,1,50,0,1
325546,-100,4,2,1,50,0,1
327432,-100,4,2,1,60,0,1
329146,-83.3333333333333,4,1,1,60,0,1
330175,-100,4,2,1,50,0,1
331546,-83.3333333333333,4,1,1,60,0,1
332575,-100,4,3,1,60,0,1
332746,-100,4,2,1,50,0,1
334975,-83.3333333333333,4,1,1,60,0,1
335489,-100,4,2,1,50,0,1
337889,-100,4,2,1,5,0,1
338060,-133.333333333333,4,2,1,50,0,1
338403,-133.333333333333,4,2,1,60,0,1
358375,-133.333333333333,4,3,1,30,0,0
358975,-133.333333333333,4,3,1,5,0,0
359318,-100,4,3,1,50,0,0
361032,-100,4,2,1,60,0,0
362403,-100,4,2,1,70,0,0
363432,-100,4,2,1,80,0,0
364460,-100,4,2,1,75,0,0
365318,-100,4,2,1,65,0,0
366175,-100,4,2,1,55,0,0
366860,-100,4,2,1,35,0,0
367546,-100,4,2,1,25,0,0
368575,-100,4,2,1,55,0,0
369089,-100,4,2,1,75,0,0
370289,-100,4,2,1,35,0,0
370975,-100,4,2,1,25,0,0
371660,-100,4,2,1,15,0,0
372003,-100,4,2,1,5,0,0

[HitObjects]
68,96,13376,6,0,P|128:104|152:168,1,120.000004577637,8|8,0:0|0:0,0:0:0:0:
204,244,13890,1,8,0:0:0:0:
208,240,13975,1,8,0:0:0:0:
212,236,14061,1,8,0:0:0:0:
256,120,14233,2,0,L|312:172,1,60.0000022888184,8|0,0:0|0:0,0:0:0:0:
404,240,14747,1,4,0:0:0:0:
412,248,15433,5,4,0:0:0:0:
296,144,16118,2,0,P|248:184|248:248,1,120.000004577637,4|8,0:0|0:0,0:0:0:0:
264,344,16804,1,4,0:0:0:0:
264,344,17490,2,0,P|216:344|180:288,1,120.000004577637,8|0,0:0|0:0,0:0:0:0:
108,204,18004,2,0,P|132:180|220:156,1,120.000004577637,8|0,0:0|0:0,0:0:0:0:
280,152,18518,1,4,0:0:0:0:
100,212,18861,2,0,P|136:200|196:136,1,120.000004577637,8|0,0:0|0:0,0:0:0:0:
308,60,19547,1,8,0:0:0:0:
264,168,19890,1,4,0:0:0:0:
400,176,20233,1,4,0:0:0:0:
384,188,20747,6,0,L|276:260,1,120.000004577637,8|0,0:0|0:0,0:0:0:0:
196,200,21261,1,8,0:0:0:0:
228,344,21433,1,4,0:0:0:0:
160,284,21604,2,0,L|100:308,1,60.0000022888184,8|0,0:0|0:0,0:0:0:0:
24,336,21947,1,4,0:0:0:0:
32,328,22461,6,0,L|80:268,1,60.0000022888184,8|0,0:0|0:0,0:0:0:0:
84,264,22804,1,8,0:0:0:0:
160,208,22975,2,0,B|152:148|152:148|128:140|132:108|120:36|120:36|184:80|216:80|224:112|224:112|272:128,1,360.000013732911,4|0,0:0|0:0,0:0:0:0:
260,196,24347,1,8,0:0:0:0:
272,204,24690,1,8,0:0:0:0:
268,212,25033,1,8,0:0:0:0:
260,208,25375,1,12,0:0:0:0:
308,96,25718,5,8,0:0:0:0:
300,100,25804,1,8,0:0:0:0:
292,100,25890,1,8,0:0:0:0:
284,96,25975,1,8,0:0:0:0:
284,88,26061,1,8,0:0:0:0:
288,84,26147,1,8,0:0:0:0:
296,84,26233,1,8,0:0:0:0:
300,92,26318,1,8,0:0:0:0:
300,100,26404,2,0,L|356:120,1,40,4|0,0:0|0:0,0:0:0:0:
416,204,26747,5,8,0:0:0:0:
388,196,26833,1,8,0:0:0:0:
364,208,26918,1,8,0:0:0:0:
352,232,27004,1,8,0:0:0:0:
368,264,27090,1,8,0:0:0:0:
260,308,27433,5,8,0:0:0:0:
260,308,27518,1,8,0:0:0:0:
260,308,27604,1,8,0:0:0:0:
240,156,27775,1,0,0:0:0:0:
172,224,27947,2,0,P|148:204|140:168,1,47.9999985351563,8|0,0:0|0:0,0:0:0:0:
196,92,28461,6,0,L|256:108,1,47.9999985351563,8|4,0:0|0:0,0:0:0:0:
372,96,28804,1,8,0:0:0:0:
296,204,28975,1,4,0:0:0:0:
340,76,29147,1,8,0:0:0:0:
232,104,29318,1,8,0:0:0:0:
404,180,29490,6,0,P|404:208|392:232,1,47.9999985351563,8|0,0:0|0:0,0:0:0:0:
376,312,29833,2,0,L|304:312,1,71.9999978027344,8|0,0:0|0:0,0:0:0:0:
304,312,30175,2,0,B|264:284|240:280|243:283|236:280,1,71.9999978027344,4|0,0:0|0:0,0:0:0:0:
239,281,30518,2,0,P|200:300|215:265,1,95.9999970703126,4|8,0:0|0:0,0:0:0:0:
336,200,31204,1,12,0:0:0:0:
344,176,31547,5,8,0:0:0:0:
340,172,31633,1,8,0:0:0:0:
336,168,31718,2,0,P|296:156|252:160,1,80,8|8,0:0|0:0,0:0:0:0:
232,168,31975,1,8,0:0:0:0:
212,180,32061,2,0,L|156:112,1,80,8|0,0:0|0:0,0:0:0:0:
104,52,32404,1,4,0:0:0:0:
131,192,32575,2,0,L|167:100,2,80,8|2|8,0:0|0:0|0:0,0:0:0:0:
132,224,33004,5,8,0:0:0:0:
140,256,33090,2,0,P|160:292|208:312,1,80,8|0,0:0|0:0,0:0:0:0:
324,308,33433,1,8,0:0:0:0:
276,164,33604,1,8,0:0:0:0:
232,244,33775,1,4,0:0:0:0:
352,304,33947,5,8,0:0:0:0:
384,288,34033,1,8,0:0:0:0:
412,268,34118,1,8,0:0:0:0:
436,248,34204,1,8,0:0:0:0:
460,216,34290,1,12,0:0:0:0:
468,184,34375,1,8,0:0:0:0:
464,144,34461,1,8,0:0:0:0:
444,120,34547,1,8,0:0:0:0:
416,96,34633,1,8,0:0:0:0:
388,76,34718,1,12,0:0:0:0:
356,68,34804,6,8,L|352:100,1,20
312,68,34890,2,8,L|316:96,1,20,12|8,0:0|0:0,0:0:0:0:
276,80,34975,2,8,L|292:108,1,20
244,96,35061,2,8,L|272:112,1,20
216,120,35147,2,8,L|240:136,1,20
200,152,35233,2,8,L|224:164,1,20,12|8,0:0|0:0,0:0:0:0:
188,184,35318,1,12,0:0:0:0:
176,224,35404,6,2,L|148:216,28,20
204,232,36690,5,12,0:0:0:0:
160,248,47661,6,0,L|216:212,1,47.9999985351563,4|0,0:0|0:0,0:0:0:0:
352,208,49033,6,0,L|292:192,1,47.9999985351563,4|0,0:0|0:0,0:0:0:0:
140,128,50404,2,0,L|184:109,1,47.9999985351563,4|0,0:0|0:0,0:0:0:0:
360,40,51775,2,0,L|408:88,1,47.9999985351563,4|0,0:0|0:0,0:0:0:0:
464,136,52033,1,8,0:0:0:0:
244,136,53147,2,0,L|204:172,1,40,4|0,0:0|0:0,0:0:0:0:
148,220,53318,1,8,0:0:0:0:
144,224,53490,1,0,0:0:0:0:
304,216,53661,2,0,L|344:256,1,40,4|0,0:0|0:0,0:0:0:0:
376,308,53833,1,8,0:0:0:0:
384,316,54004,1,4,0:0:0:0:
432,216,54175,5,8,0:0:0:0:
332,140,54347,1,4,0:0:0:0:
432,128,54518,1,8,0:0:0:0:
344,224,54690,1,4,0:0:0:0:
408,120,54861,1,8,0:0:0:0:
352,228,55033,1,4,0:0:0:0:
392,108,55204,1,8,0:0:0:0:
328,212,55375,1,4,0:0:0:0:
432,136,55547,1,8,0:0:0:0:
300,108,55718,6,0,P|248:100|200:112,1,80,4|0,0:0|0:0,0:0:0:0:
188,116,55975,1,8,0:0:0:0:
160,136,56061,1,8,0:0:0:0:
140,168,56147,1,8,0:0:0:0:
128,204,56233,1,8,0:0:0:0:
132,240,56318,1,12,0:0:0:0:
148,268,56404,1,12,0:0:0:0:
176,296,56490,1,8,0:0:0:0:
212,304,56575,1,8,0:0:0:0:
248,304,56661,1,8,0:0:0:0:
284,296,56747,6,8,L|276:260,1,20,12|8,0:0|0:0,0:0:0:0:
316,284,56833,2,8,L|304:252,1,20
348,272,56918,2,8,L|336:244,1,20
384,256,57004,2,8,L|368:232,1,20
412,236,57090,2,8,L|392:208,1,20
436,212,57261,5,12,0:0:0:0:
124,80,58633,6,0,P|172:92|204:108,1,80,8|0,0:0|0:0,0:0:0:0:
384,108,58975,2,0,P|344:136|320:172,1,80,8|0,0:0|0:0,0:0:0:0:
192,204,59318,1,0,0:0:0:0:
372,288,59490,1,0,0:0:0:0:
244,296,59661,2,0,P|208:316|160:312,1,80
144,308,59918,1,0,0:0:0:0:
108,296,60004,2,0,L|96:208,1,80
176,76,60347,5,8,0:0:0:0:
108,192,60518,1,8,0:0:0:0:
104,100,60690,1,0,0:0:0:0:
220,208,60861,2,0,P|264:192|288:168,1,80,4|8,0:0|0:0,0:0:0:0:
324,64,61204,1,0,0:0:0:0:
464,152,61375,1,4,0:0:0:0:
424,48,61547,1,8,0:0:0:0:
456,156,61718,6,0,P|412:180|384:220,1,80,8|0,0:0|0:0,0:0:0:0:
352,312,62061,1,4,0:0:0:0:
352,312,62233,1,0,0:0:0:0:
260,152,62404,1,0,0:0:0:0:
260,152,62490,1,0,0:0:0:0:
260,152,62575,1,0,0:0:0:0:
204,288,62747,2,0,P|244:268|284:272,1,80,4|0,0:0|0:0,0:0:0:0:
444,256,63090,2,0,P|400:228|356:216,1,80,4|0,0:0|0:0,0:0:0:0:
256,152,63433,2,0,P|296:124|332:120,1,80,4|0,0:0|0:0,0:0:0:0:
444,96,63775,1,4,0:0:0:0:
328,64,63947,6,0,L|324:28,2,20
272,48,64118,2,0,L|276:136,1,80,4|0,0:0|0:0,0:0:0:0:
180,272,64461,1,4,0:0:0:0:
200,160,64633,1,0,0:0:0:0:
200,160,64718,1,0,0:0:0:0:
200,160,64804,1,4,0:0:0:0:
200,272,64975,2,0,P|240:272|284:288,1,80,0|4,0:0|0:0,0:0:0:0:
376,216,65318,2,0,L|400:236,2,20,4|0|0,0:0|0:0|0:0,0:0:0:0:
344,196,65490,2,0,L|368:116,1,80,4|0,0:0|0:0,0:0:0:0:
256,128,65833,5,8,0:0:0:0:
456,172,66004,1,8,0:0:0:0:
384,84,66175,2,0,L|364:164,1,80,4|0,0:0|0:0,0:0:0:0:
344,272,66518,2,0,P|372:300|336:288,1,90.0000034332277,6|0,0:0|0:0,0:0:0:0:
260,228,66861,1,8,0:0:0:0:
192,280,67033,1,8,0:0:0:0:
244,180,67204,1,4,0:0:0:0:
320,260,67375,1,4,0:0:0:0:
384,164,67547,6,0,P|344:112|280:104,1,120,4|0,0:0|0:0,0:0:0:0:
156,144,67890,2,0,L|196:188,1,40,8|0,0:0|0:0,0:0:0:0:
360,244,68061,2,0,L|312:208,1,40,8|0,0:0|0:0,0:0:0:0:
256,192,68233,1,12,0:0:0:0:
256,192,68318,12,0,69432,0:0:0:0:
280,148,69604,6,0,P|328:160|356:184,1,80,8|8,0:0|0:0,0:0:0:0:
416,264,69947,1,8,0:0:0:0:
336,320,70118,2,0,P|288:304|232:308,1,80,8|8,0:0|0:0,0:0:0:0:
176,220,70461,1,8,0:0:0:0:
40,240,70633,2,8,P|79:249|112:272,1,80,8|0,0:0|0:0,0:0:0:0:
136,292,70890,1,0,0:0:0:0:
160,308,70975,2,0,L|232:256,1,80,8|0,0:0|0:0,0:0:0:0:
396,248,71318,6,0,P|352:212|336:184,1,80,4|0,0:0|0:0,0:0:0:0:
208,172,71661,2,4,P|248:148|264:116,1,80,4|0,0:0|0:0,0:0:0:0:
392,88,72004,2,0,P|352:64|328:32,1,80,4|0,0:0|0:0,0:0:0:0:
176,80,72347,1,8,0:0:0:0:
176,80,72518,1,8,0:0:0:0:
100,176,72690,1,4,0:0:0:0:
96,32,72861,1,8,0:0:0:0:
188,168,73033,6,0,P|232:156|276:160,1,80,8|0,0:0|0:0,0:0:0:0:
352,68,73375,1,0,0:0:0:0:
360,72,73461,1,0,0:0:0:0:
352,76,73547,1,0,0:0:0:0:
408,184,73718,2,0,P|364:204|336:236,1,80,4|0,0:0|0:0,0:0:0:0:
208,264,74061,2,0,P|256:288|284:328,1,80,4|0,0:0|0:0,0:0:0:0:
376,336,74404,2,0,L|456:336,1,80,4|0,0:0|0:0,0:0:0:0:
480,336,74747,1,4,0:0:0:0:
436,208,74918,6,0,L|400:208,2,20,8|0|0,0:0|0:0|0:0,0:0:0:0:
464,244,75090,2,0,L|368:244,1,80,8|0,0:0|0:0,0:0:0:0:
292,256,75432,2,0,P|268:196|196:180,1,120,8|0,0:0|0:0,0:0:0:0:
184,184,75775,1,8,0:0:0:0:
108,68,75947,1,0,0:0:0:0:
44,252,76118,1,8,0:0:0:0:
44,252,76290,1,0,0:0:0:0:
140,168,76461,2,0,L|192:168,1,40,8|0,0:0|0:0,0:0:0:0:
184,232,76632,2,0,P|240:196|240:160,1,80,8|8,0:0|0:0,0:0:0:0:
288,124,76975,5,0,0:0:0:0:
436,140,77147,2,0,P|388:176|356:276,1,160,8|0,0:0|0:0,0:0:0:0:
356,288,77661,1,8,0:0:0:0:
176,152,77832,1,8,0:0:0:0:
136,272,78004,1,8,0:0:0:0:
192,168,78175,1,4,0:0:0:0:
244,272,78347,1,4,0:0:0:0:
72,192,78518,1,8,0:0:0:0:
232,72,78690,5,0,0:0:0:0:
252,64,78775,1,0,0:0:0:0:
276,64,78861,1,0,0:0:0:0:
304,72,78947,1,0,0:0:0:0:
324,88,79032,1,0,0:0:0:0:
344,112,79118,1,0,0:0:0:0:
356,144,79204,2,0,P|356:192|328:236,1,80,8|0,0:0|0:0,0:0:0:0:
312,312,79547,2,0,P|264:280|220:280,1,80,8|4,0:0|0:0,0:0:0:0:
44,280,79890,2,0,B|64:264|64:264|64:248|80:244|80:244|80:228|96:224|96:224|100:208|116:204|116:204|116:192|132:188|132:188|164:152,1,180.000006866455,4|0,0:0|0:0,0:0:0:0:
208,144,80575,5,8,0:0:0:0:
288,248,80747,1,8,0:0:0:0:
288,248,80918,1,0,0:0:0:0:
336,108,81090,1,0,0:0:0:0:
340,96,81261,5,8,0:0:0:0:
292,284,81432,1,8,0:0:0:0:
292,284,81604,1,0,0:0:0:0:
184,148,81775,1,0,0:0:0:0:
328,188,81947,6,0,L|364:188,1,30.0000011444092,4|0,0:0|0:0,0:0:0:0:
480,192,82118,1,12,0:0:0:0:
336,128,82290,1,4,0:0:0:0:
472,204,82461,1,4,0:0:0:0:
336,116,82632,5,4,0:0:0:0:
464,204,82804,1,4,0:0:0:0:
384,140,82975,1,4,0:0:0:0:
292,216,83147,1,4,0:0:0:0:
216,312,83318,6,4,L|336:312,1,120.000004577637,12|4,0:0|0:0,0:0:0:0:
372,312,83832,1,4,0:0:0:0:
440,280,84004,2,0,P|400:256|380:184,1,120.000004577637,8|0,0:0|0:0,0:0:0:0:
388,168,84518,1,4,0:0:0:0:
308,208,84690,2,0,P|284:156|212:164,1,120.000004577637,8|0,0:0|0:0,0:0:0:0:
248,208,85204,1,4,0:0:0:0:
208,300,85375,2,0,L|112:228,1,120.000004577637,8|0,0:0|0:0,0:0:0:0:
88,208,85890,5,4,0:0:0:0:
156,96,86061,2,0,P|236:96|280:112,1,120.000004577637,8|0,0:0|0:0,0:0:0:0:
316,216,86575,1,4,0:0:0:0:
416,128,86747,2,0,P|448:148|464:188,1,60.0000022888184,0|8,0:0|0:0,0:0:0:0:
472,200,87004,1,12,0:0:0:0:
476,232,87090,2,0,P|416:260|404:276,1,60.0000022888184,8|0,0:0|0:0,0:0:0:0:
344,328,87432,2,0,B|304:288|304:288|320:228|256:192|256:192|248:260,1,240.000009155274,4|0,0:0|0:0,0:0:0:0:
160,300,88461,6,0,L|156:320,6,15.0000005722046,0|0|0|8|0|0|0,0:0|0:0|0:0|0:0|0:0|0:0|0:0,0:0:0:0:
104,300,88804,2,0,P|144:240|200:260,1,120.000004577637,4|0,0:0|0:0,0:0:0:0:
288,180,89318,2,0,B|332:104|332:104|344:164,1,150.000005722046,4|0,0:0|0:0,0:0:0:0:
360,272,89832,1,8,0:0:0:0:
368,272,90004,2,0,P|404:264|432:224,1,60.0000022888184,4|0,0:0|0:0,0:0:0:0:
456,160,90347,1,4,0:0:0:0:
384,84,90518,2,0,P|356:116|276:128,1,120.000004577637,8|0,0:0|0:0,0:0:0:0:
264,124,91032,1,4,0:0:0:0:
256,60,91204,2,0,P|196:96|204:152,1,120.000004577637,8|0,0:0|0:0,0:0:0:0:
256,192,91632,12,0,93775,0:0:0:0:
184,124,93947,6,0,B|216:96|216:96|208:136,1,80,8|0,0:0|0:0,0:0:0:0:
132,264,94290,1,4,0:0:0:0:
128,172,94461,1,0,0:0:0:0:
292,248,94632,1,4,0:0:0:0:
224,164,94804,6,0,P|208:208|208:252,1,80,0|4,0:0|0:0,0:0:0:0:
288,324,95147,1,0,0:0:0:0:
360,148,95318,1,4,0:0:0:0:
384,256,95490,2,0,L|464:256,1,80,0|4,0:0|0:0,0:0:0:0:
492,256,95832,1,0,0:0:0:0:
456,132,96004,5,4,0:0:0:0:
416,344,96175,1,0,0:0:0:0:
492,256,96347,1,4,0:0:0:0:
392,324,96518,1,0,0:0:0:0:
376,208,96690,2,0,L|320:188,1,40,0|4,0:0|0:0,0:0:0:0:
260,184,96861,2,0,P|220:228|144:228,1,120,8|0,0:0|0:0,0:0:0:0:
136,232,97204,1,4,0:0:0:0:
112,80,97375,1,0,0:0:0:0:
60,168,97547,1,4,0:0:0:0:
192,140,97718,5,0,0:0:0:0:
112,80,97890,1,4,0:0:0:0:
96,192,98061,1,0,0:0:0:0:
128,108,98232,1,4,0:0:0:0:
228,228,98404,1,0,0:0:0:0:
224,124,98575,2,0,P|252:92|304:84,1,80,8|0,0:0|0:0,0:0:0:0:
300,88,98832,1,0,0:0:0:0:
300,88,98918,1,0,0:0:0:0:
336,232,99090,1,12,0:0:0:0:
336,240,99432,6,0,L|364:268,1,40,8|0,0:0|0:0,0:0:0:0:
332,328,99604,2,0,L|272:264,1,80,4|0,0:0|0:0,0:0:0:0:
128,176,99947,2,0,P|156:144|216:140,1,80,8|0,0:0|0:0,0:0:0:0:
372,196,100290,1,8,0:0:0:0:
324,72,100461,1,4,0:0:0:0:
308,284,100632,2,0,B|288:332|288:332|272:312|240:292|196:328|216:360,1,160,8|0,0:0|0:0,0:0:0:0:
184,212,101147,6,0,P|144:236|124:268,1,80,8|0,0:0|0:0,0:0:0:0:
48,344,101490,1,0,0:0:0:0:
48,344,101575,1,0,0:0:0:0:
48,344,101661,1,0,0:0:0:0:
84,168,101832,1,8,0:0:0:0:
144,264,102004,1,8,0:0:0:0:
188,88,102175,1,8,0:0:0:0:
232,192,102347,1,8,0:0:0:0:
240,192,102432,1,8,0:0:0:0:
248,192,102518,2,0,L|316:192,1,47.9999985351563,8|0,0:0|0:0,0:0:0:0:
408,140,102690,5,4,0:0:0:0:
408,140,102775,1,4,0:0:0:0:
408,140,102861,1,4,0:0:0:0:
344,284,103032,1,12,0:0:0:0:
188,200,103375,6,0,L|240:184,1,40,8|0,0:0|0:0,0:0:0:0:
420,192,103547,2,0,L|348:220,1,40,8|0,0:0|0:0,0:0:0:0:
288,132,103718,1,4,0:0:0:0:
256,192,103804,12,0,104747,0:0:0:0:
256,192,104918,5,12,0:0:0:0:
252,192,105261,2,0,L|196:192,1,40,8|0,0:0|0:0,0:0:0:0:
80,196,105518,1,4,0:0:0:0:
64,196,105775,1,4,0:0:0:0:
208,64,106118,1,8,0:0:0:0:
272,148,106290,1,8,0:0:0:0:
328,44,106461,1,4,0:0:0:0:
348,56,106632,6,0,L|388:76,1,40,8|0,0:0|0:0,0:0:0:0:
488,124,106890,1,4,0:0:0:0:
496,132,107147,1,4,0:0:0:0:
396,288,107490,1,8,0:0:0:0:
308,348,107661,1,8,0:0:0:0:
296,236,107832,1,4,0:0:0:0:
268,248,108004,6,0,L|228:268,1,40,8|0,0:0|0:0,0:0:0:0:
132,304,108261,1,4,0:0:0:0:
120,312,108518,1,4,0:0:0:0:
264,124,108861,1,8,0:0:0:0:
316,228,109032,1,8,0:0:0:0:
196,212,109204,1,4,0:0:0:0:
180,192,109375,6,0,L|148:156,1,40,8|0,0:0|0:0,0:0:0:0:
80,64,109632,1,4,0:0:0:0:
68,48,109890,1,4,0:0:0:0:
264,92,110061,6,0,L|232:136,1,47.9999985351563,4|0,0:0|0:0,0:0:0:0:
136,344,110404,2,0,L|168:288,1,47.9999985351563,4|0,0:0|0:0,0:0:0:0:
372,252,110747,6,0,P|320:236|280:236,1,80,8|4,0:0|0:0,0:0:0:0:
200,136,111090,1,4,0:0:0:0:
192,308,111261,1,4,0:0:0:0:
220,176,111432,1,8,0:0:0:0:
292,268,111604,1,4,0:0:0:0:
152,232,111775,1,4,0:0:0:0:
336,72,111947,1,4,0:0:0:0:
320,172,112118,1,8,0:0:0:0:
148,64,112290,1,4,0:0:0:0:
148,64,112461,5,4,0:0:0:0:
128,196,112632,1,4,0:0:0:0:
212,132,112804,1,8,0:0:0:0:
72,116,112975,1,4,0:0:0:0:
188,288,113147,1,4,0:0:0:0:
88,148,113318,1,4,0:0:0:0:
168,256,113490,2,0,L|184:280,28,20,8|0|0|0|0|0|0|0|0|0|0|0|0|0|0|0|0|0|0|0|0|0|0|0|0|0|0|0|0,0:0|0:0|0:0|0:0|0:0|0:0|0:0|0:0|0:0|0:0|0:0|0:0|0:0|0:0|0:0|0:0|0:0|0:0|0:0|0:0|0:0|0:0|0:0|0:0|0:0|0:0|0:0|0:0|0:0,0:0:0:0:
120,172,114861,5,12,0:0:0:0:
236,88,115204,6,0,P|268:100|292:124,1,60.0000022888184,4|0,0:0|0:0,0:0:0:0:
432,128,115547,2,0,P|396:152|380:184,1,60.0000022888184,4|0,0:0|0:0,0:0:0:0:
272,224,115890,2,0,P|312:248|324:264,1,60.0000022888184,4|0,0:0|0:0,0:0:0:0:
436,288,116232,2,0,L|360:328,1,80,8|4,0:0|0:0,0:0:0:0:
244,248,116575,1,4,0:0:0:0:
224,348,116747,1,8,0:0:0:0:
312,308,116918,1,0,0:0:0:0:
312,308,117004,1,0,0:0:0:0:
312,308,117090,1,8,0:0:0:0:
208,180,117261,5,4,0:0:0:0:
148,296,117432,2,0,P|96:272|64:224,1,80,8|0,0:0|0:0,0:0:0:0:
116,172,117775,1,8,0:0:0:0:
124,160,117861,1,0,0:0:0:0:
136,144,117947,2,4,B|184:80|204:64|204:64|208:120,1,160,0|4,0:0|0:0,0:0:0:0:
204,232,118461,1,4,0:0:0:0:
312,248,118632,1,4,0:0:0:0:
264,128,118804,1,8,0:0:0:0:
328,240,118975,6,0,P|396:248|424:304,1,120,8|0,0:0|0:0,0:0:0:0:
440,320,119318,1,4,0:0:0:0:
428,164,119490,1,8,0:0:0:0:
336,336,119661,1,8,0:0:0:0:
400,216,119832,1,8,0:0:0:0:
244,76,120004,1,8,0:0:0:0:
248,180,120175,1,8,0:0:0:0:
312,120,120347,5,4,0:0:0:0:
136,128,120518,1,8,0:0:0:0:
136,136,120604,1,8,0:0:0:0:
136,144,120690,2,0,L|136:228,1,80,8|0,0:0|0:0,0:0:0:0:
132,280,121032,2,0,B|196:256|196:256|280:256,1,120,8|0,0:0|0:0,0:0:0:0:
280,256,121375,1,0,0:0:0:0:
296,256,121461,2,0,P|337:280|329:232,1,120
256,96,121890,5,8,0:0:0:0:
208,184,122061,1,8,0:0:0:0:
340,164,122232,1,8,0:0:0:0:
252,116,122404,1,4,0:0:0:0:
164,72,122575,2,0,P|128:88|104:128,1,80
160,224,122918,1,8,0:0:0:0:
160,224,123004,1,8,0:0:0:0:
160,224,123090,5,8,0:0:0:0:
36,176,123261,1,4,0:0:0:0:
64,304,123432,2,0,P|148:304|212:360,1,160,4|0,0:0|0:0,0:0:0:0:
284,300,123947,1,8,0:0:0:0:
288,296,124032,1,8,0:0:0:0:
292,292,124118,2,0,L|352:232,1,80,8|0,0:0|0:0,0:0:0:0:
416,136,124461,2,0,L|452:144,20,20,8|0|0|0|0|0|0|0|0|0|0|0|0|0|0|0|0|0|0|0|4,0:0|0:0|0:0|0:0|0:0|0:0|0:0|0:0|0:0|0:0|0:0|0:0|0:0|0:0|0:0|0:0|0:0|0:0|0:0|0:0|0:0,0:0:0:0:
452,52,125490,5,8,0:0:0:0:
380,224,125661,1,12,0:0:0:0:
288,104,125832,1,8,0:0:0:0:
280,112,125918,1,8,0:0:0:0:
272,120,126004,2,0,L|236:160,1,40,8|0,0:0|0:0,0:0:0:0:
160,228,126175,1,4,0:0:0:0:
180,336,126347,6,0,P|216:312|256:308,1,80,8|0,0:0|0:0,0:0:0:0:
380,312,126690,1,4,0:0:0:0:
460,236,126861,2,0,P|432:204|384:176,1,80,8|0,0:0|0:0,0:0:0:0:
384,72,127204,1,12,0:0:0:0:
396,88,127547,5,8,0:0:0:0:
300,180,127718,1,8,0:0:0:0:
304,88,127890,1,4,0:0:0:0:
416,220,128061,2,0,P|372:248|344:304,1,80,8|0,0:0|0:0,0:0:0:0:
272,328,128404,1,8,0:0:0:0:
272,328,128490,1,8,0:0:0:0:
272,328,128575,1,8,0:0:0:0:
244,212,128747,1,4,0:0:0:0:
180,288,128918,5,4,0:0:0:0:
272,308,129090,1,0,0:0:0:0:
320,160,129261,1,12,0:0:0:0:
304,160,129604,2,0,L|224:160,1,71.9999978027344
216,160,129947,6,0,P|160:160|200:192,1,120,8|0,0:0|0:0,0:0:0:0:
164,264,130290,1,4,0:0:0:0:
92,196,130461,1,8,0:0:0:0:
144,288,130632,1,8,0:0:0:0:
188,196,130804,1,4,0:0:0:0:
256,344,130975,1,4,0:0:0:0:
288,200,131147,2,0,L|340:220,1,40,8|0,0:0|0:0,0:0:0:0:
404,244,131318,2,0,L|360:164,1,80,8|0,0:0|0:0,0:0:0:0:
312,76,131661,5,12,0:0:0:0:
308,68,132004,1,12,0:0:0:0:
296,68,132347,1,12,0:0:0:0:
300,80,132690,1,14,0:0:0:0:
224,200,133032,5,8,0:0:0:0:
136,152,133204,1,8,0:0:0:0:
144,264,133375,2,0,P|104:240|76:196,1,80,4|0,0:0|0:0,0:0:0:0:
88,80,133718,1,8,0:0:0:0:
88,80,133804,1,8,0:0:0:0:
88,80,133890,1,8,0:0:0:0:
40,140,134061,5,4,0:0:0:0:
144,140,134232,1,8,0:0:0:0:
248,140,134404,1,12,0:0:0:0:
400,328,134747,5,8,0:0:0:0:
400,320,134918,2,0,B|400:264|400:264|312:192,1,160,4|0,0:0|0:0,0:0:0:0:
244,148,135432,1,12,0:0:0:0:
256,192,135518,12,0,136718,0:0:0:0:
244,180,136804,6,0,L|268:204,22,20,12|0|0|0|0|0|0|0|0|0|0|0|0|0|0|0|0|0|0|0|0|0|0,0:0|0:0|0:0|0:0|0:0|0:0|0:0|0:0|0:0|0:0|0:0|0:0|0:0|0:0|0:0|0:0|0:0|0:0|0:0|0:0|0:0|0:0|0:0,0:0:0:0:
276,216,137832,1,12,0:0:0:0:
160,300,138175,6,0,L|128:224,1,80,8|0,0:0|0:0,0:0:0:0:
152,56,138518,1,8,0:0:0:0:
68,116,138689,1,8,0:0:0:0:
192,148,138861,1,8,0:0:0:0:
192,148,139032,1,4,0:0:0:0:
264,256,139204,1,8,0:0:0:0:
268,252,139289,1,8,0:0:0:0:
272,248,139375,2,0,L|328:188,1,80,8|0,0:0|0:0,0:0:0:0:
416,104,139889,6,0,L|352:104,1,47.9999985351563,4|0,0:0|0:0,0:0:0:0:
216,44,140232,2,0,L|236:88,1,47.9999985351563,4|0,0:0|0:0,0:0:0:0:
348,236,140575,2,0,L|300:216,1,47.9999985351563,4|0,0:0|0:0,0:0:0:0:
216,248,140918,6,0,P|232:208|264:176,1,80,8|0,0:0|0:0,0:0:0:0:
384,132,141261,1,4,0:0:0:0:
288,48,141432,1,4,0:0:0:0:
312,184,141604,1,8,0:0:0:0:
396,72,141775,1,8,0:0:0:0:
388,256,141947,2,0,P|344:268|308:292,1,80,4|0,0:0|0:0,0:0:0:0:
220,316,142289,6,0,L|184:272,1,47.9999985351563,4|0,0:0|0:0,0:0:0:0:
44,140,142632,2,0,L|116:140,1,47.9999985351563,4|0,0:0|0:0,0:0:0:0:
276,168,142975,2,0,L|288:112,1,47.9999985351563,4|0,0:0|0:0,0:0:0:0:
184,108,143318,5,4,0:0:0:0:
392,76,143489,1,8,0:0:0:0:
392,76,143575,1,8,0:0:0:0:
392,76,143661,1,8,0:0:0:0:
360,176,143832,2,0,P|320:200|292:240,1,80,8|0,0:0|0:0,0:0:0:0:
188,220,144175,1,8,0:0:0:0:
320,316,144347,1,4,0:0:0:0:
216,320,144518,1,8,0:0:0:0:
216,320,144604,1,8,0:0:0:0:
216,320,144689,5,8,0:0:0:0:
108,264,144861,2,0,P|112:220|140:184,1,80,8|0,0:0|0:0,0:0:0:0:
240,236,145204,1,4,0:0:0:0:
104,64,145375,1,8,0:0:0:0:
100,164,145547,1,4,0:0:0:0:
264,80,145718,6,0,L|312:112,1,47.9999985351563,4|0,0:0|0:0,0:0:0:0:
408,348,146061,2,0,L|352:308,1,47.9999985351563,4|0,0:0|0:0,0:0:0:0:
432,192,146404,6,0,P|384:184|344:192,1,80,8|12,0:0|0:0,0:0:0:0:
316,200,146661,1,4,0:0:0:0:
292,224,146747,1,12,0:0:0:0:
264,248,146832,1,4,0:0:0:0:
232,256,146918,1,12,0:0:0:0:
196,256,147004,1,4,0:0:0:0:
168,240,147089,1,12,0:0:0:0:
144,216,147175,6,0,L|168:192,1,20,4|0,0:0|0:0,0:0:0:0:
124,196,147261,2,0,L|148:180,1,20,4|0,0:0|0:0,0:0:0:0:
112,176,147347,2,0,L|140:164,1,20,4|0,0:0|0:0,0:0:0:0:
104,148,147432,2,0,L|136:144,1,20,4|0,0:0|0:0,0:0:0:0:
104,120,147518,2,0,L|132:128,1,20,4|0,0:0|0:0,0:0:0:0:
116,92,147604,2,0,L|136:108,1,20,4|0,0:0|0:0,0:0:0:0:
140,72,147689,2,0,L|148:104,1,20,4|0,0:0|0:0,0:0:0:0:
172,56,147775,5,12,0:0:0:0:
388,80,149147,5,8,0:0:0:0:
296,280,149318,1,8,0:0:0:0:
296,280,149489,1,0,0:0:0:0:
412,228,149661,1,0,0:0:0:0:
412,208,149832,5,8,0:0:0:0:
312,328,150004,1,8,0:0:0:0:
308,324,150175,1,0,0:0:0:0:
264,132,150347,1,0,0:0:0:0:
172,96,150518,6,0,L|128:112,1,40,4|0,0:0|0:0,0:0:0:0:
28,128,150689,1,12,0:0:0:0:
108,212,150861,1,4,0:0:0:0:
48,136,151032,1,4,0:0:0:0:
112,232,151204,5,0,0:0:0:0:
36,152,151375,1,4,0:0:0:0:
120,244,151547,1,4,0:0:0:0:
84,340,151718,1,4,0:0:0:0:
228,276,151889,6,0,P|252:244|192:192,1,120.000004577637,8|0,0:0|0:0,0:0:0:0:
168,184,152404,1,4,0:0:0:0:
88,112,152575,2,0,P|116:92|200:104,1,120.000004577637,8|0,0:0|0:0,0:0:0:0:
224,120,153089,1,4,0:0:0:0:
324,164,153261,2,0,P|368:168|388:104,1,120.000004577637,8|0,0:0|0:0,0:0:0:0:
376,60,153775,1,4,0:0:0:0:
420,120,153947,2,0,B|444:208|444:208|412:204,1,120.000004577637,8|0,0:0|0:0,0:0:0:0:
384,216,154461,1,4,0:0:0:0:
296,208,154632,2,0,P|264:240|264:320,1,120.000004577637,8|0,0:0|0:0,0:0:0:0:
284,336,155147,1,4,0:0:0:0:
380,280,155318,5,4,0:0:0:0:
404,264,155489,2,0,P|424:232|392:164,1,120.000004577637,8|0,0:0|0:0,0:0:0:0:
340,76,156004,2,0,P|276:104|248:152,1,120.000004577637,8|0,0:0|0:0,0:0:0:0:
240,248,156518,1,4,0:0:0:0:
120,148,156689,1,12,0:0:0:0:
120,312,157032,5,4,0:0:0:0:
132,312,157204,1,4,0:0:0:0:
144,312,157375,2,0,L|160:332,12,15.0000005722046,4|0|0|0|0|0|0|0|0|0|0|0|0,0:0|0:0|0:0|0:0|0:0|0:0|0:0|0:0|0:0|0:0|0:0|0:0|0:0,0:0:0:0:
248,260,158061,2,0,P|208:216|148:200,1,120.000004577637,8|0,0:0|0:0,0:0:0:0:
120,204,158575,1,4,0:0:0:0:
28,236,158747,2,0,L|84:120,1,120.000004577637,8|0,0:0|0:0,0:0:0:0:
100,88,159261,1,4,0:0:0:0:
216,76,159432,2,0,P|256:92|312:152,1,120.000004577637,8|0,0:0|0:0,0:0:0:0:
324,180,159947,1,4,0:0:0:0:
256,192,160032,12,0,162176,0:0:0:0:
220,312,162518,6,0,L|296:272,1,80,8|4,0:0|0:0,0:0:0:0:
400,320,162861,1,4,0:0:0:0:
400,144,163032,1,0,0:0:0:0:
400,144,163118,1,0,0:0:0:0:
400,144,163204,1,4,0:0:0:0:
336,248,163375,1,0,0:0:0:0:
484,224,163547,1,4,0:0:0:0:
484,224,163632,1,0,0:0:0:0:
484,224,163718,1,0,0:0:0:0:
356,64,163889,6,0,P|300:96|264:136,1,80,4|0,0:0|0:0,0:0:0:0:
248,224,164232,2,0,B|168:156|168:156|184:232,1,160,4|4,0:0|0:0,0:0:0:0:
216,304,164747,1,4,0:0:0:0:
272,104,164918,1,4,0:0:0:0:
128,172,165089,1,4,0:0:0:0:
128,172,165175,1,0,0:0:0:0:
128,172,165261,1,4,0:0:0:0:
204,236,165432,6,0,L|284:212,1,80,0|4,0:0|0:0,0:0:0:0:
316,112,165775,1,0,0:0:0:0:
392,280,165947,1,4,0:0:0:0:
400,176,166118,2,0,L|480:156,1,80,0|4,0:0|0:0,0:0:0:0:
488,140,166375,1,0,0:0:0:0:
488,104,166461,2,0,P|452:80|404:68,1,80,0|4,0:0|0:0,0:0:0:0:
220,92,166804,5,0,0:0:0:0:
220,92,166889,1,0,0:0:0:0:
220,92,166975,2,0,P|256:116|284:168,1,80,4|0,0:0|0:0,0:0:0:0:
432,156,167318,2,0,P|376:192|360:236,1,80,4|0,0:0|0:0,0:0:0:0:
244,236,167661,2,0,P|284:272|296:316,1,80,4|0,0:0|0:0,0:0:0:0:
400,276,168004,5,4,0:0:0:0:
320,176,168175,1,4,0:0:0:0:
288,324,168347,1,12,0:0:0:0:
328,176,168518,1,4,0:0:0:0:
272,328,168689,2,0,P|236:312|184:312,1,80,12|0,0:0|0:0,0:0:0:0:
84,280,169032,2,0,P|100:204|136:164,1,120,4|0,0:0|0:0,0:0:0:0:
144,160,169375,1,0,0:0:0:0:
164,148,169461,2,0,P|216:136|316:152,1,120,4|0,0:0|0:0,0:0:0:0:
300,148,169889,5,8,0:0:0:0:
208,236,170061,1,8,0:0:0:0:
316,172,170232,1,4,0:0:0:0:
396,308,170404,1,8,0:0:0:0:
460,208,170575,5,8,0:0:0:0:
460,208,170661,1,8,0:0:0:0:
460,208,170747,1,8,0:0:0:0:
340,184,170918,1,4,0:0:0:0:
312,184,171089,2,0,L|232:184,1,80,8|0,0:0|0:0,0:0:0:0:
160,188,171432,5,8,0:0:0:0:
148,188,171518,1,8,0:0:0:0:
136,188,171604,1,8,0:0:0:0:
104,64,171947,5,4,0:0:0:0:
48,316,172289,1,4,0:0:0:0:
168,180,172632,5,8,0:0:0:0:
180,172,172718,1,8,0:0:0:0:
196,168,172804,1,8,0:0:0:0:
212,168,172889,1,8,0:0:0:0:
228,172,172975,1,8,0:0:0:0:
404,216,173147,2,0,L|352:260,1,40,8|0,0:0|0:0,0:0:0:0:
240,272,173318,2,0,L|280:244,1,40,8|0,0:0|0:0,0:0:0:0:
444,284,173489,1,4,0:0:0:0:
292,320,173832,6,0,L|240:288,1,40,8|0,0:0|0:0,0:0:0:0:
172,236,174089,1,4,0:0:0:0:
156,224,174347,1,4,0:0:0:0:
156,60,174689,1,8,0:0:0:0:
84,116,174861,1,8,0:0:0:0:
208,144,175032,1,4,0:0:0:0:
228,144,175204,6,0,L|272:148,1,40,8|0,0:0|0:0,0:0:0:0:
400,148,175461,1,4,0:0:0:0:
424,148,175718,1,4,0:0:0:0:
300,248,176061,1,8,0:0:0:0:
136,304,176232,1,8,0:0:0:0:
248,336,176404,1,4,0:0:0:0:
240,312,176575,6,0,L|224:268,1,40,8|0,0:0|0:0,0:0:0:0:
184,152,176832,1,4,0:0:0:0:
176,120,177089,1,4,0:0:0:0:
96,256,177432,1,8,0:0:0:0:
84,96,177604,1,8,0:0:0:0:
20,168,177775,1,4,0:0:0:0:
44,172,177947,6,0,L|88:184,1,40,8|0,0:0|0:0,0:0:0:0:
248,236,178204,1,4,0:0:0:0:
268,244,178461,1,4,0:0:0:0:
448,296,178632,6,0,L|404:248,1,47.9999985351563,4|0,0:0|0:0,0:0:0:0:
244,48,178975,2,0,L|244:104,1,47.9999985351563,4|0,0:0|0:0,0:0:0:0:
280,236,179318,6,0,L|312:208,1,40,8|0,0:0|0:0,0:0:0:0:
408,108,179575,1,4,0:0:0:0:
416,88,179832,1,4,0:0:0:0:
284,152,180004,1,8,0:0:0:0:
440,224,180175,1,8,0:0:0:0:
408,96,180347,1,4,0:0:0:0:
312,296,180518,1,4,0:0:0:0:
312,160,180689,1,4,0:0:0:0:
412,240,180861,1,8,0:0:0:0:
336,172,181032,5,4,0:0:0:0:
320,348,181204,1,12,0:0:0:0:
404,184,181375,5,4,0:0:0:0:
252,324,181547,1,12,0:0:0:0:
428,252,181718,5,4,0:0:0:0:
232,260,181889,1,12,0:0:0:0:
398,310,182061,6,0,L|416:320,28,20,10|0|0|0|0|0|0|0|0|0|0|0|0|0|0|0|0|0|0|0|0|0|0|0|0|0|0|0|0,0:0|0:0|0:0|0:0|0:0|0:0|0:0|0:0|0:0|0:0|0:0|0:0|0:0|0:0|0:0|0:0|0:0|0:0|0:0|0:0|0:0|0:0|0:0|0:0|0:0|0:0|0:0|0:0|0:0,0:0:0:0:
304,260,183432,1,12,0:0:0:0:
348,76,183775,6,0,P|304:100|272:144,1,80,8|0,0:0|0:0,0:0:0:0:
132,212,184118,2,0,L|240:220,1,80,8|0,0:0|0:0,0:0:0:0:
376,320,184461,2,0,P|344:280|312:264,1,80,8|0,0:0|0:0,0:0:0:0:
214,198,184804,2,0,P|166:150|133:215,1,160,4|0,0:0|0:0,0:0:0:0:
204,312,185318,1,8,0:0:0:0:
204,316,185404,1,8,0:0:0:0:
204,316,185489,1,8,0:0:0:0:
376,204,185661,1,4,0:0:0:0:
280,240,185832,1,4,0:0:0:0:
400,320,186004,5,12,0:0:0:0:
168,232,186175,2,0,B|204:252|204:252|236:304,1,80,8|0,0:0|0:0,0:0:0:0:
348,152,186518,2,0,B|316:188|316:188|300:240,1,80,8|0,0:0|0:0,0:0:0:0:
168,76,186861,2,0,B|208:104|208:104|232:148,1,80,8|0,0:0|0:0,0:0:0:0:
96,212,187204,2,0,B|132:224|132:224|148:220|156:232|156:232|172:228|180:240|180:240|196:236|204:248|204:248|212:256,1,120.000004577637,4|8,0:0|0:0,0:0:0:0:
248,304,187718,2,0,P|292:300|280:264,1,80,8|0,0:0|0:0,0:0:0:0:
216,152,188061,2,0,P|280:148|316:164,1,80,8|0,0:0|0:0,0:0:0:0:
400,56,188404,5,4,0:0:0:0:
372,208,188575,1,4,0:0:0:0:
436,152,188747,2,0,B|452:192|452:192|436:240,1,80,8|0,0:0|0:0,0:0:0:0:
356,320,189089,2,0,L|268:320,1,80,8|0,0:0|0:0,0:0:0:0:
120,260,189432,2,0,L|208:260,1,80,8|0,0:0|0:0,0:0:0:0:
336,304,189775,2,0,L|256:304,1,80,8|0,0:0|0:0,0:0:0:0:
120,260,190118,2,0,P|84:272|124:280,1,80,8|0,0:0|0:0,0:0:0:0:
216,296,190461,1,4,0:0:0:0:
236,296,190632,1,4,0:0:0:0:
256,296,190804,6,0,L|364:296,1,80,8|0,0:0|0:0,0:0:0:0:
460,208,191147,1,4,0:0:0:0:
432,352,191318,1,4,0:0:0:0:
360,252,191489,1,4,0:0:0:0:
460,208,191661,1,8,0:0:0:0:
272,292,191832,1,4,0:0:0:0:
264,112,192004,1,4,0:0:0:0:
264,112,192347,5,8,0:0:0:0:
264,112,192518,2,0,B|160:112|160:112|212:148,1,160,4|0,0:0|0:0,0:0:0:0:
232,264,193032,2,0,B|204:260|184:280|184:308|204:328|232:336|260:328|272:304|272:304|272:160|272:160|284:184|312:172|284:212|344:188,1,360.000013732911,4|0,0:0|0:0,0:0:0:0:
360,116,194232,6,0,P|432:104|444:184,1,160,8|0,0:0|0:0,0:0:0:0:
364,208,194746,1,8,0:0:0:0:
296,256,194918,1,4,0:0:0:0:
228,304,195089,1,12,0:0:0:0:
92,288,195261,2,0,P|120:248|168:228,1,80,8|0,0:0|0:0,0:0:0:0:
248,160,195604,2,0,P|200:136|168:132,1,80,12|0,0:0|0:0,0:0:0:0:
112,44,195946,1,8,0:0:0:0:
56,168,196118,1,8,0:0:0:0:
112,68,196289,5,4,0:0:0:0:
124,264,196461,1,0,0:0:0:0:
152,136,196632,2,0,L|220:188,1,80,8|0,0:0|0:0,0:0:0:0:
312,116,196975,1,4,0:0:0:0:
200,312,197146,1,0,0:0:0:0:
320,232,197318,6,0,L|400:232,1,80,8|0,0:0|0:0,0:0:0:0:
424,232,197661,1,4,0:0:0:0:
440,232,197832,1,4,0:0:0:0:
456,232,198004,1,12,0:0:0:0:
376,168,198175,6,0,B|396:160|396:160|404:148|420:152|420:152|428:140|444:144|444:144|452:132|468:136|468:136|484:120,1,120.000004577637,4|0,0:0|0:0,0:0:0:0:
460,56,198689,2,0,B|432:72|432:72|348:56,1,80,8|0,0:0|0:0,0:0:0:0:
264,56,199032,2,0,B|276:108|276:108|300:136,1,80,8|0,0:0|0:0,0:0:0:0:
448,136,199375,1,4,0:0:0:0:
332,276,199546,1,0,0:0:0:0:
468,180,199718,1,4,0:0:0:0:
468,180,199804,1,0,0:0:0:0:
468,180,199889,5,0,0:0:0:0:
328,156,200061,1,4,0:0:0:0:
284,336,200232,1,4,0:0:0:0:
196,208,200404,2,0,L|276:232,1,80,4|0,0:0|0:0,0:0:0:0:
432,204,200746,1,8,0:0:0:0:
364,320,200918,1,0,0:0:0:0:
364,320,201004,1,0,0:0:0:0:
364,320,201089,1,4,0:0:0:0:
304,96,201261,1,4,0:0:0:0:
304,96,201604,5,4,0:0:0:0:
304,96,201775,2,0,L|368:160,1,80,12|0,0:0|0:0,0:0:0:0:
484,224,202118,2,0,P|428:232|392:276,1,80,8|0,0:0|0:0,0:0:0:0:
324,316,202461,1,4,0:0:0:0:
296,304,202632,1,4,0:0:0:0:
272,292,202804,1,4,0:0:0:0:
244,280,202975,2,0,B|160:232|160:232|176:272|164:316,1,160,8|0,0:0|0:0,0:0:0:0:
100,320,203489,6,0,P|40:276|56:192,1,160,8|0,0:0|0:0,0:0:0:0:
160,220,204004,1,8,0:0:0:0:
160,220,204089,1,8,0:0:0:0:
164,224,204175,1,8,0:0:0:0:
336,120,204346,1,4,0:0:0:0:
296,288,204518,1,4,0:0:0:0:
184,88,204689,1,4,0:0:0:0:
436,144,204861,5,4,0:0:0:0:
152,280,205032,1,4,0:0:0:0:
268,56,205204,1,4,0:0:0:0:
416,309,205375,2,8,L|436:312,20,20,12|8|8|8|8|8|8|8|8|8|8|8|8|8|8|8|8|8|8|8|8,0:0|0:0|0:0|0:0|0:0|0:0|0:0|0:0|0:0|0:0|0:0|0:0|0:0|0:0|0:0|0:0|0:0|0:0|0:0|0:0|0:0,0:0:0:0:
340,300,206404,5,12,0:0:0:0:
400,112,217718,5,14,0:0:0:0:
340,272,218061,5,4,0:0:0:0:
340,272,218232,1,4,0:0:0:0:
220,280,218404,2,0,L|248:232,1,40,8|0,0:0|0:0,0:0:0:0:
272,184,218575,1,4,0:0:0:0:
244,96,218746,6,0,P|200:124|184:168,1,80,8|0,0:0|0:0,0:0:0:0:
128,248,219089,2,0,L|128:200,1,40,8|0,0:0|0:0,0:0:0:0:
144,100,219261,1,4,0:0:0:0:
144,100,219432,1,8,0:0:0:0:
292,240,219604,5,4,0:0:0:0:
392,116,219775,1,4,0:0:0:0:
284,120,219946,2,0,L|364:196,1,80,8|0,0:0|0:0,0:0:0:0:
420,232,220289,1,4,0:0:0:0:
420,244,220461,2,0,L|392:280,1,40,8|0,0:0|0:0,0:0:0:0:
348,316,220632,5,4,0:0:0:0:
336,316,220804,1,4,0:0:0:0:
324,316,220975,2,0,L|232:316,1,80,8|0,0:0|0:0,0:0:0:0:
160,304,221318,2,0,P|136:272|132:220,1,80,8|0,0:0|0:0,0:0:0:0:
144,208,221575,1,12,0:0:0:0:
164,192,221661,1,8,0:0:0:0:
188,184,221746,1,12,0:0:0:0:
216,184,221832,1,8,0:0:0:0:
244,192,221918,1,12,0:0:0:0:
268,204,222004,5,8,0:0:0:0:
288,216,222089,1,12,0:0:0:0:
312,220,222175,1,8,0:0:0:0:
336,216,222261,1,12,0:0:0:0:
368,204,222346,2,0,L|392:252,2,40,4|8|0,0:0|0:0|0:0,0:0:0:0:
420,156,222604,2,0,L|440:204,2,40,4|8|0,0:0|0:0|0:0,0:0:0:0:
440,96,222861,5,12,0:0:0:0:
428,56,222946,1,8,0:0:0:0:
388,40,223032,1,12,0:0:0:0:
336,44,223118,1,8,0:0:0:0:
276,60,223204,2,0,L|260:32,3,26.6666666666667,4|8|0|0,0:0|0:0|0:0|0:0,0:0:0:0:
244,104,223461,1,12,0:0:0:0:
232,120,223546,1,12,0:0:0:0:
224,132,223632,1,12,0:0:0:0:
216,144,223718,1,12,0:0:0:0:
204,168,223804,2,0,L|216:200,4,20,4|0|8|0|0,0:0|0:0|0:0|0:0|0:0,0:0:0:0:
156,176,224061,5,12,0:0:0:0:
128,200,224146,1,8,0:0:0:0:
108,224,224232,1,12,0:0:0:0:
104,256,224318,1,8,0:0:0:0:
116,284,224404,1,12,0:0:0:0:
144,308,224489,1,8,0:0:0:0:
188,312,224575,2,0,L|192:340,4,20,4|0|8|0|0,0:0|0:0|0:0|0:0|0:0,0:0:0:0:
232,296,224832,5,12,0:0:0:0:
268,280,224918,1,12,0:0:0:0:
296,268,225004,1,12,0:0:0:0:
324,252,225089,1,12,0:0:0:0:
356,236,225175,2,4,L|368:268,4,20,12|4|12|4|4,0:0|0:0|0:0|0:0|0:0,0:0:0:0:
384,196,225432,1,12,0:0:0:0:
376,152,225518,1,12,0:0:0:0:
348,128,225604,1,12,0:0:0:0:
300,116,225689,2,0,L|276:160,2,40,12|0|0,0:0|0:0|0:0,0:0:0:0:
260,72,225946,2,0,L|260:48,4,20,8|0|0|0|0,0:0|0:0|0:0|0:0|0:0,0:0:0:0:
228,168,226289,5,4,0:0:0:0:
160,224,226461,1,4,0:0:0:0:
100,284,226632,1,4,0:0:0:0:
48,340,226804,2,0,L|36:364,8,20,8|0|0|0|0|0|0|0|0,0:0|0:0|0:0|0:0|0:0|0:0|0:0|0:0|0:0,0:0:0:0:
360,244,227318,6,0,P|308:204|272:196,1,80,8|0,0:0|0:0,0:0:0:0:
148,164,227661,1,4,0:0:0:0:
112,72,227832,1,4,0:0:0:0:
216,52,228004,1,8,0:0:0:0:
236,44,228089,1,8,0:0:0:0:
260,40,228175,1,8,0:0:0:0:
280,40,228261,1,8,0:0:0:0:
296,48,228346,1,12,0:0:0:0:
264,216,228518,1,12,0:0:0:0:
376,140,228689,6,0,L|284:128,1,80
168,64,229032,1,12,0:0:0:0:
76,200,229204,1,6,0:0:0:0:
88,224,229289,1,2,0:0:0:0:
112,248,229375,1,2,0:0:0:0:
144,268,229461,1,2,0:0:0:0:
176,280,229546,1,6,0:0:0:0:
212,288,229632,1,6,0:0:0:0:
244,292,229718,1,2,0:0:0:0:
284,288,229804,1,2,0:0:0:0:
316,280,229889,6,8,L|368:280,1,40,8|0,0:0|0:0,0:0:0:0:
472,160,230061,2,8,L|432:200,1,40,12|0,0:0|0:0,0:0:0:0:
336,256,230232,2,8,L|380:256,1,40,8|0,0:0|0:0,0:0:0:0:
444,120,230404,2,8,L|412:172,1,40,12|0,0:0|0:0,0:0:0:0:
332,152,230575,5,6,0:0:0:0:
304,128,230661,1,2,0:0:0:0:
272,116,230746,1,2,0:0:0:0:
240,108,230832,1,2,0:0:0:0:
204,104,230918,1,6,0:0:0:0:
172,108,231004,1,6,0:0:0:0:
136,120,231089,1,2,0:0:0:0:
112,144,231175,1,2,0:0:0:0:
88,172,231261,2,8,L|48:220,1,40,8|0,0:0|0:0,0:0:0:0:
8,312,231432,6,0,L|56:296,1,40,12|0,0:0|0:0,0:0:0:0:
84,288,231604,1,6,0:0:0:0:
120,276,231689,1,2,0:0:0:0:
156,280,231775,1,2,0:0:0:0:
188,296,231861,1,6,0:0:0:0:
228,316,231946,2,0,L|240:360,3,40,8|2|12|0,0:0|0:0|0:0|0:0,0:0:0:0:
320,264,232289,2,0,L|328:225,3,40,8|2|8|0,0:0|0:0|0:0|0:0,0:0:0:0:
376,268,232632,5,0,0:0:0:0:
404,256,232718,1,6,0:0:0:0:
432,232,232804,1,2,0:0:0:0:
452,200,232889,1,2,0:0:0:0:
452,164,232975,1,2,0:0:0:0:
436,132,233061,1,6,0:0:0:0:
416,104,233146,1,6,0:0:0:0:
388,84,233232,1,6,0:0:0:0:
356,72,233318,1,2,0:0:0:0:
324,64,233404,1,2,0:0:0:0:
292,64,233489,2,0,L|160:64,1,120.000004577637,4|0,0:0|0:0,0:0:0:0:
236,164,234004,5,8,0:0:0:0:
216,164,234089,1,8,0:0:0:0:
199,164,234175,2,0,L|115:185,1,80,4|0,0:0|0:0,0:0:0:0:
48,172,234517,1,8,0:0:0:0:
48,180,234603,1,8,0:0:0:0:
48,188,234689,2,0,L|52:268,1,80,4|0,0:0|0:0,0:0:0:0:
212,232,235033,5,2,0:0:0:0:
236,188,235119,1,6,0:0:0:0:
276,160,235204,1,6,0:0:0:0:
324,152,235290,1,6,0:0:0:0:
372,160,235376,1,2,0:0:0:0:
412,192,235461,1,6,0:0:0:0:
424,244,235547,1,2,0:0:0:0:
392,288,235633,1,6,0:0:0:0:
344,320,235719,5,6,0:0:0:0:
296,328,235804,1,6,0:0:0:0:
248,304,235890,1,2,0:0:0:0:
204,284,235976,1,6,0:0:0:0:
156,304,236061,1,2,0:0:0:0:
112,332,236147,1,6,0:0:0:0:
68,308,236233,1,6,0:0:0:0:
52,264,236319,1,2,0:0:0:0:
56,216,236404,1,6,0:0:0:0:
80,176,236490,1,6,0:0:0:0:
116,148,236576,1,6,0:0:0:0:
164,136,236661,5,2,0:0:0:0:
208,144,236746,1,6,0:0:0:0:
372,96,236918,1,2,0:0:0:0:
364,104,237004,1,2,0:0:0:0:
356,116,237089,2,0,L|320:156,1,40,4|0,0:0|0:0,0:0:0:0:
240,256,237261,2,0,L|312:244,1,40,4|0,0:0|0:0,0:0:0:0:
456,224,237432,2,0,P|436:200|404:196,1,40,4|0,0:0|0:0,0:0:0:0:
236,120,237604,2,0,P|200:136|172:184,1,80,4|0,0:0|0:0,0:0:0:0:
172,192,237946,5,4,0:0:0:0:
36,332,238118,1,4,0:0:0:0:
296,312,238289,1,4,0:0:0:0:
108,120,238461,1,4,0:0:0:0:
168,344,238632,1,4,0:0:0:0:
276,152,238804,2,0,B|300:152|300:152|308:144|316:152|316:152|324:144|332:152|332:152|340:144|348:152|348:152|360:144|368:152|368:152|392:152,1,120.000004577637,8|0,0:0|0:0,0:0:0:0:
468,48,239318,5,8,0:0:0:0:
460,56,239404,1,8,0:0:0:0:
452,64,239489,2,0,L|416:104,1,40,4|0,0:0|0:0,0:0:0:0:
448,260,239661,2,0,L|392:248,1,40,4|0,0:0|0:0,0:0:0:0:
280,184,239832,2,0,L|300:224,1,40,4|0,0:0|0:0,0:0:0:0:
400,336,240004,2,0,L|352:324,1,40,4|0,0:0|0:0,0:0:0:0:
216,356,240175,2,0,P|244:324|284:308,2,80,4|8|4,0:0|0:0|0:0,0:0:0:0:
112,248,240518,2,0,P|160:272|196:312,1,80,4|0,0:0|0:0,0:0:0:0:
216,212,240775,2,0,L|188:172,1,40,4|0,0:0|0:0,0:0:0:0:
240,304,240946,6,0,P|252:272|292:288,1,71.9999978027344,4|0,0:0|0:0,0:0:0:0:
324,304,241289,6,0,P|368:264|376:232,1,80,4|0,0:0|0:0,0:0:0:0:
464,184,241546,2,0,L|388:136,1,80,8|0,0:0|0:0,0:0:0:0:
328,88,241804,1,6,0:0:0:0:
296,96,241889,1,2,0:0:0:0:
268,116,241975,1,6,0:0:0:0:
252,148,242061,1,6,0:0:0:0:
240,180,242146,1,6,0:0:0:0:
252,216,242232,1,2,0:0:0:0:
272,240,242318,1,2,0:0:0:0:
304,260,242404,1,6,0:0:0:0:
336,268,242489,5,6,0:0:0:0:
368,256,242575,1,2,0:0:0:0:
392,232,242661,1,6,0:0:0:0:
380,200,242746,1,6,0:0:0:0:
352,196,242832,1,6,0:0:0:0:
324,204,242918,1,2,0:0:0:0:
296,224,243004,1,6,0:0:0:0:
272,248,243089,1,6,0:0:0:0:
244,276,243175,5,6,0:0:0:0:
228,300,243261,1,6,0:0:0:0:
196,320,243346,1,2,0:0:0:0:
160,324,243432,1,2,0:0:0:0:
128,320,243518,1,2,0:0:0:0:
100,304,243604,1,2,0:0:0:0:
80,276,243689,1,6,0:0:0:0:
68,248,243775,1,6,0:0:0:0:
72,212,243861,1,6,0:0:0:0:
80,192,243946,5,2,0:0:0:0:
92,180,244032,1,6,0:0:0:0:
104,172,244118,1,6,0:0:0:0:
116,164,244204,1,6,0:0:0:0:
124,156,244289,1,6,0:0:0:0:
132,148,244375,1,2,0:0:0:0:
144,140,244461,1,6,0:0:0:0:
168,124,244546,2,0,L|212:112,1,40,6|0,0:0|0:0,0:0:0:0:
380,96,244718,2,0,L|316:96,1,40,4|0,0:0|0:0,0:0:0:0:
248,176,244889,6,0,L|300:184,1,40,6|0,0:0|0:0,0:0:0:0:
428,196,245146,1,14,0:0:0:0:
248,232,245318,2,0,P|296:240|344:272,1,80,8|0,0:0|0:0,0:0:0:0:
436,264,245661,1,12,0:0:0:0:
352,348,245832,1,12,0:0:0:0:
244,176,246004,2,0,P|292:184|340:216,1,80,8|0,0:0|0:0,0:0:0:0:
432,208,246346,1,4,0:0:0:0:
348,292,246518,1,12,0:0:0:0:
320,172,246689,1,4,0:0:0:0:
400,232,246861,1,12,0:0:0:0:
224,280,247032,6,0,B|188:280|188:280|176:276|164:280|164:280|152:276|140:280|140:280|124:276|112:280|112:280,1,90.0000034332277,8|0,0:0|0:0,0:0:0:0:
0,272,247461,1,6,0:0:0:0:
4,232,247547,1,2,0:0:0:0:
20,204,247633,1,2,0:0:0:0:
44,184,247718,1,6,0:0:0:0:
76,172,247804,1,2,0:0:0:0:
104,176,247889,1,6,0:0:0:0:
128,192,247975,1,6,0:0:0:0:
156,216,248061,2,0,L|252:216,1,80,4|4,0:0|0:0,0:0:0:0:
344,84,248404,6,0,L|324:128,1,40,4|0,0:0|0:0,0:0:0:0:
344,300,248576,2,0,L|327:263,1,40,4|0,0:0|0:0,0:0:0:0:
368,84,248747,2,0,L|348:128,1,40,4|0,0:0|0:0,0:0:0:0:
368,300,248919,2,0,L|351:263,1,40,4|0,0:0|0:0,0:0:0:0:
396,84,249089,2,0,L|376:128,1,40,4|0,0:0|0:0,0:0:0:0:
400,304,249261,1,14,0:0:0:0:
408,92,249604,6,0,P|360:100|328:136,1,80,4|0,0:0|0:0,0:0:0:0:
196,88,249946,2,0,P|220:128|216:172,1,80,4|0,0:0|0:0,0:0:0:0:
304,272,250289,2,0,B|268:296|268:296|196:288,1,80,4|0,0:0|0:0,0:0:0:0:
124,188,250632,1,8,0:0:0:0:
256,104,250804,1,4,0:0:0:0:
256,104,250889,1,0,0:0:0:0:
256,104,250975,1,0,0:0:0:0:
304,208,251146,6,0,P|264:240|236:300,1,80,8|0,0:0|0:0,0:0:0:0:
144,344,251489,1,4,0:0:0:0:
164,136,251661,1,4,0:0:0:0:
72,220,251832,1,8,0:0:0:0:
72,220,251918,1,0,0:0:0:0:
72,220,252004,1,0,0:0:0:0:
220,240,252175,2,0,L|332:240,1,80
400,240,252518,1,8,0:0:0:0:
424,240,252689,1,8,0:0:0:0:
452,240,252861,5,4,0:0:0:0:
408,128,253032,2,0,B|398:131|398:131|381:126|367:135|367:135|356:130|342:139|342:139|327:131|316:143|316:143|302:135|288:149|288:149|272:152,1,120.000004577637,0|8,0:0|0:0,0:0:0:0:
140,272,253546,1,4,0:0:0:0:
304,300,253718,2,0,B|332:256|332:256|296:256,1,80,8|0,0:0|0:0,0:0:0:0:
164,276,254061,1,10,0:0:0:0:
172,276,254146,1,10,0:0:0:0:
176,276,254232,1,8,0:0:0:0:
252,140,254404,1,4,0:0:0:0:
140,140,254575,1,2,0:0:0:0:
144,136,254661,5,2,0:0:0:0:
148,132,254746,2,0,L|224:80,1,80,10|0,0:0|0:0,0:0:0:0:
356,64,255089,2,0,P|328:120|288:140,1,80,8|0,0:0|0:0,0:0:0:0:
156,84,255432,5,14,0:0:0:0:
156,92,255518,1,14,0:0:0:0:
156,92,255603,1,4,0:0:0:0:
272,168,255775,5,14,0:0:0:0:
276,172,255861,1,14,0:0:0:0:
272,176,255946,1,4,0:0:0:0:
136,240,256118,5,14,0:0:0:0:
132,244,256203,1,14,0:0:0:0:
140,244,256289,1,4,0:0:0:0:
296,268,256461,5,0,0:0:0:0:
400,160,256632,2,0,P|448:112|384:76,1,160,8|4,0:0|0:0,0:0:0:0:
208,212,257146,1,4,0:0:0:0:
244,88,257318,1,4,0:0:0:0:
80,236,257489,1,8,0:0:0:0:
268,312,257661,1,4,0:0:0:0:
128,104,257832,5,8,0:0:0:0:
128,104,257918,1,8,0:0:0:0:
128,104,258003,1,8,0:0:0:0:
436,216,258175,5,4,0:0:0:0:
304,144,258346,5,0,0:0:0:0:
304,144,258432,1,0,0:0:0:0:
308,148,258518,2,0,P|328:192|312:244,1,80,8|0,0:0|0:0,0:0:0:0:
224,276,258861,2,0,B|212:228|188:200|144:180|144:180|144:224|148:260|176:292|176:292|108:280|88:348|88:348,1,360.000013732911,4|0,0:0|0:0,0:0:0:0:
64,136,260061,6,0,P|100:112|144:108,1,80,4|4,0:0|0:0,0:0:0:0:
296,200,260403,1,4,0:0:0:0:
264,68,260575,1,8,0:0:0:0:
192,148,260746,1,4,0:0:0:0:
396,168,260918,5,8,0:0:0:0:
400,160,261003,1,8,0:0:0:0:
404,152,261089,1,4,0:0:0:0:
244,280,261261,1,4,0:0:0:0:
328,68,261603,1,14,0:0:0:0:
64,104,261946,5,2,0:0:0:0:
72,116,262118,1,2,0:0:0:0:
80,128,262289,2,0,P|120:160|152:164,1,80,2|0,0:0|0:0,0:0:0:0:
232,80,262632,1,8,0:0:0:0:
72,300,262803,1,8,0:0:0:0:
224,232,262975,1,8,0:0:0:0:
224,232,263061,1,8,0:0:0:0:
224,232,263146,1,8,0:0:0:0:
68,164,263318,6,0,P|120:164|156:144,1,80,8|2,0:0|0:0,0:0:0:0:
224,56,263661,2,0,B|184:56|184:56|136:92,1,80,8|2,0:0|0:0,0:0:0:0:
228,152,264003,2,0,B|244:152|244:152|260:144|276:152|276:152|292:144|308:152|308:152|324:144|340:152|340:152|352:148,1,120.000004577637,4|0,0:0|0:0,0:0:0:0:
412,244,264518,2,0,P|352:280|328:280,1,80,8|0,0:0|0:0,0:0:0:0:
248,216,264861,1,4,0:0:0:0:
168,320,265032,1,4,0:0:0:0:
244,288,265203,1,8,0:0:0:0:
96,168,265375,2,0,P|132:136|176:128,1,80,8|4,0:0|0:0,0:0:0:0:
388,76,265718,6,0,P|344:100|332:144,1,80,4|0,0:0|0:0,0:0:0:0:
188,160,266061,2,0,L|256:216,1,80,4|0,0:0|0:0,0:0:0:0:
408,208,266403,2,0,B|396:240|396:240|340:280,1,80,4|0,0:0|0:0,0:0:0:0:
256,344,266746,2,0,P|208:320|188:280,1,80,4|0,0:0|0:0,0:0:0:0:
172,208,267089,1,14,0:0:0:0:
180,196,267432,5,8,0:0:0:0:
188,188,267603,2,0,P|232:172|280:180,1,80,8|0,0:0|0:0,0:0:0:0:
392,240,267946,1,8,0:0:0:0:
360,104,268118,1,8,0:0:0:0:
216,256,268289,1,8,0:0:0:0:
216,256,268461,1,4,0:0:0:0:
152,176,268632,1,8,0:0:0:0:
92,104,268803,1,12,0:0:0:0:
200,104,269146,5,12,0:0:0:0:
92,104,269318,1,8,0:0:0:0:
100,104,269403,1,8,0:0:0:0:
108,104,269489,2,0,L|216:104,1,80,8|4,0:0|0:0,0:0:0:0:
352,60,269832,1,4,0:0:0:0:
348,216,270003,1,4,0:0:0:0:
216,116,270175,1,4,0:0:0:0:
424,128,270346,1,8,0:0:0:0:
196,40,270518,1,4,0:0:0:0:
200,304,270689,1,4,0:0:0:0:
200,64,270861,5,4,0:0:0:0:
88,180,271032,1,12,0:0:0:0:
352,240,271203,2,0,L|384:228,20,20
288,268,272232,5,0,0:0:0:0:
84,92,283546,5,4,0:0:0:0:
312,128,283718,2,0,P|276:160|264:200,1,80,8|0,0:0|0:0,0:0:0:0:
264,196,284061,1,0,0:0:0:0:
304,320,284232,5,4,0:0:0:0:
248,248,284403,1,4,0:0:0:0:
192,368,284575,1,4,0:0:0:0:
136,304,284746,2,0,L|84:304,1,40,8|0,0:0|0:0,0:0:0:0:
28,304,284918,1,4,0:0:0:0:
112,224,285261,6,0,B|132:196|132:196|132:144,1,80,4|0,0:0|0:0,0:0:0:0:
136,56,285603,2,0,P|184:64|216:96,1,80,4|0,0:0|0:0,0:0:0:0:
256,196,285946,2,0,P|292:168|304:124,1,80,4|0,0:0|0:0,0:0:0:0:
432,56,286289,5,8,0:0:0:0:
432,68,286461,2,0,L|432:156,1,80,4|0,0:0|0:0,0:0:0:0:
440,280,286803,2,0,P|396:268|348:284,1,80,8|8,0:0|0:0,0:0:0:0:
324,180,287146,1,8,0:0:0:0:
240,248,287318,1,4,0:0:0:0:
324,116,287489,6,0,L|232:116,1,80,8|0,0:0|0:0,0:0:0:0:
232,116,287832,1,8,0:0:0:0:
108,152,288003,2,0,P|144:200|116:256,1,120.000004577637,0|8,0:0|0:0,0:0:0:0:
96,216,288861,5,8,0:0:0:0:
108,208,288946,1,8,0:0:0:0:
120,200,289032,1,8,0:0:0:0:
208,84,289203,1,8,0:0:0:0:
320,120,289375,1,8,0:0:0:0:
284,272,289546,1,12,0:0:0:0:
248,88,289718,1,8,0:0:0:0:
352,128,289889,5,8,0:0:0:0:
320,260,290061,1,12,0:0:0:0:
300,72,290232,1,4,0:0:0:0:
388,112,290403,1,4,0:0:0:0:
372,240,290575,5,12,0:0:0:0:
344,64,290746,1,4,0:0:0:0:
428,136,290918,1,4,0:0:0:0:
216,160,291089,5,12,0:0:0:0:
468,84,291432,5,14,0:0:0:0:
440,196,291775,6,0,P|392:212|344:256,1,80,4|0,0:0|0:0,0:0:0:0:
328,328,292118,2,0,P|292:288|248:280,1,80,4|0,0:0|0:0,0:0:0:0:
140,264,292461,1,4,0:0:0:0:
268,168,292632,1,4,0:0:0:0:
152,100,292803,1,8,0:0:0:0:
160,264,292975,1,8,0:0:0:0:
164,264,293061,1,8,0:0:0:0:
164,264,293146,1,8,0:0:0:0:
236,56,293318,6,0,L|268:88,1,40
360,180,293489,1,4,0:0:0:0:
376,200,293661,1,4,0:0:0:0:
392,224,293832,1,12,0:0:0:0:
252,128,294175,5,14,0:0:0:0:
64,336,294518,5,8,0:0:0:0:
100,236,294689,5,8,0:0:0:0:
112,232,294775,1,8,0:0:0:0:
128,228,294861,1,8,0:0:0:0:
192,144,295032,1,8,0:0:0:0:
304,256,295203,1,8,0:0:0:0:
164,340,295375,1,8,0:0:0:0:
344,228,295546,1,4,0:0:0:0:
132,104,295718,2,0,L|152:152,1,40
180,224,295889,1,4,0:0:0:0:
396,52,296232,5,6,0:0:0:0:
328,280,296575,5,6,0:0:0:0:
120,88,296918,5,6,0:0:0:0:
116,264,297261,5,8,0:0:0:0:
132,268,297346,1,8,0:0:0:0:
152,268,297432,2,0,P|192:260|236:236,1,80,4|0,0:0|0:0,0:0:0:0:
196,128,297775,2,8,P|244:136|288:160,1,80,4|8,0:0|0:0,0:0:0:0:
364,264,298118,1,8,0:0:0:0:
340,60,298289,1,12,0:0:0:0:
440,156,298461,2,0,L|344:156,1,80,8|4,0:0|0:0,0:0:0:0:
244,160,298975,5,4,0:0:0:0:
136,160,299318,1,4,0:0:0:0:
248,72,299832,6,0,L|276:120,1,40,8|0,0:0|0:0,0:0:0:0:
256,208,300003,2,0,B|296:192|296:192|356:192,1,80,8|0,0:0|0:0,0:0:0:0:
392,72,300346,1,4,0:0:0:0:
448,188,300518,2,0,P|412:232|408:288,1,80,4|0,0:0|0:0,0:0:0:0:
328,316,300861,1,4,0:0:0:0:
316,316,301032,2,0,L|224:316,1,80,4|0,0:0|0:0,0:0:0:0:
192,192,301375,5,4,0:0:0:0:
96,304,301546,1,4,0:0:0:0:
76,188,301718,1,4,0:0:0:0:
288,256,301889,1,8,0:0:0:0:
224,80,302061,6,0,L|268:112,1,47.9999985351563,4|0,0:0|0:0,0:0:0:0:
420,240,302403,2,0,L|360:208,1,47.9999985351563,4|0,0:0|0:0,0:0:0:0:
304,280,302746,5,2,0:0:0:0:
296,280,302832,1,2,0:0:0:0:
288,280,302918,2,0,B|232:280|232:280|244:252,1,80,8|0,0:0|0:0,0:0:0:0:
312,180,303261,2,0,P|268:164|220:176,1,80,8|0,0:0|0:0,0:0:0:0:
172,264,303603,1,8,0:0:0:0:
136,104,303775,1,8,0:0:0:0:
56,204,303946,1,8,0:0:0:0:
140,124,304118,5,4,0:0:0:0:
268,224,304289,1,4,0:0:0:0:
304,52,304461,1,8,0:0:0:0:
176,176,304632,1,8,0:0:0:0:
416,328,304803,1,8,0:0:0:0:
416,328,305146,6,0,L|372:292,1,47.9999985351563,4|0,0:0|0:0,0:0:0:0:
204,208,305489,6,0,L|260:168,1,47.9999985351563,4|0,0:0|0:0,0:0:0:0:
396,144,306861,2,0,L|344:100,1,47.9999985351563,4|0,0:0|0:0,0:0:0:0:
248,44,308232,2,0,L|204:88,1,47.9999985351563,4|0,0:0|0:0,0:0:0:0:
312,168,309603,2,0,L|348:208,1,47.9999985351563,4|0,0:0|0:0,0:0:0:0:
404,268,309861,1,4,0:0:0:0:
236,224,310975,2,0,P|216:272|176:296,1,80,4|0,0:0|0:0,0:0:0:0:
72,348,311318,5,8,0:0:0:0:
128,232,311489,1,8,0:0:0:0:
184,280,311661,5,4,0:0:0:0:
28,296,311832,1,4,0:0:0:0:
140,332,312003,5,8,0:0:0:0:
60,236,312175,1,8,0:0:0:0:
120,96,312346,5,4,0:0:0:0:
212,224,312518,1,4,0:0:0:0:
288,108,312689,5,8,0:0:0:0:
360,240,312861,1,8,0:0:0:0:
448,156,313032,5,4,0:0:0:0:
396,304,313203,1,4,0:0:0:0:
332,208,313375,1,8,0:0:0:0:
272,356,313546,1,8,0:0:0:0:
240,248,313718,5,6,0:0:0:0:
220,220,313803,1,6,0:0:0:0:
184,208,313889,1,6,0:0:0:0:
152,212,313975,1,2,0:0:0:0:
120,228,314061,1,10,0:0:0:0:
108,260,314146,1,10,0:0:0:0:
120,296,314232,1,10,0:0:0:0:
144,320,314318,1,2,0:0:0:0:
176,344,314403,1,6,0:0:0:0:
208,352,314489,6,0,L|212:320,1,20,4|0,0:0|0:0,0:0:0:0:
244,352,314575,2,0,L|244:316,1,20,4|0,0:0|0:0,0:0:0:0:
276,348,314661,2,0,L|276:320,1,20
308,344,314746,2,0,L|300:312,1,20,8|0,0:0|0:0,0:0:0:0:
344,336,314832,2,0,L|332:308,1,20,8|0,0:0|0:0,0:0:0:0:
376,324,314918,2,0,L|364:300,1,20
408,308,315003,2,0,L|388:280,1,20
436,284,315089,5,14,0:0:0:0:
376,336,316460,6,0,B|340:328|340:328|300:276,1,80,4|0,0:0|0:0,0:0:0:0:
228,196,316803,1,8,0:0:0:0:
392,144,316975,2,0,B|368:124|368:124|304:104,1,80,4|4,0:0|0:0,0:0:0:0:
188,56,317318,1,8,0:0:0:0:
56,120,317489,2,0,P|108:148|124:192,1,80,0|8,0:0|0:0,0:0:0:0:
120,192,317746,1,8,0:0:0:0:
112,216,317832,2,0,B|108:248|108:248|136:292,1,80,8|0,0:0|0:0,0:0:0:0:
364,312,318175,6,0,B|324:284|324:284|304:240,1,80,4|0,0:0|0:0,0:0:0:0:
156,224,318518,2,0,B|192:200|192:200|216:160,1,80,4|0,0:0|0:0,0:0:0:0:
360,136,318860,2,0,B|320:112|320:112|288:64,1,80,4|8,0:0|0:0,0:0:0:0:
200,40,319203,1,8,0:0:0:0:
380,52,319375,1,4,0:0:0:0:
224,192,319546,1,4,0:0:0:0:
212,72,319718,1,4,0:0:0:0:
212,72,319889,1,8,0:0:0:0:
116,148,320060,5,8,0:0:0:0:
296,252,320232,1,8,0:0:0:0:
296,252,320318,1,8,0:0:0:0:
296,252,320403,1,8,0:0:0:0:
100,296,320575,2,0,P|144:252|180:248,1,80,4|0,0:0|0:0,0:0:0:0:
184,96,320918,2,0,P|232:128|240:168,1,80,4|0,0:0|0:0,0:0:0:0:
324,296,321260,2,0,B|360:280|360:280|400:224,1,80,4|0,0:0|0:0,0:0:0:0:
440,176,321603,1,6,0:0:0:0:
440,148,321775,5,8,0:0:0:0:
424,148,321860,1,8,0:0:0:0:
408,148,321946,2,0,L|352:148,1,40,8|0,0:0|0:0,0:0:0:0:
240,152,322118,1,8,0:0:0:0:
312,44,322289,1,4,0:0:0:0:
360,276,322460,1,8,0:0:0:0:
360,276,322546,1,8,0:0:0:0:
360,276,322632,1,8,0:0:0:0:
316,80,322803,5,4,0:0:0:0:
220,236,322975,1,4,0:0:0:0:
420,184,323146,1,8,0:0:0:0:
420,184,323232,1,8,0:0:0:0:
420,184,323318,1,8,0:0:0:0:
176,92,323489,5,4,0:0:0:0:
280,304,323660,1,4,0:0:0:0:
128,228,323832,1,12,0:0:0:0:
112,88,324003,6,0,L|160:120,1,47.9999985351563,4|0,0:0|0:0,0:0:0:0:
368,184,324346,2,0,L|308:152,1,47.9999985351563,4|0,0:0|0:0,0:0:0:0:
252,124,324518,5,4,0:0:0:0:
440,152,324689,1,4,0:0:0:0:
292,200,324860,5,8,0:0:0:0:
420,72,325032,1,4,0:0:0:0:
368,184,325203,1,4,0:0:0:0:
324,56,325375,1,4,0:0:0:0:
452,152,325546,1,8,0:0:0:0:
196,136,325718,6,0,L|224:176,1,40,8|0,0:0|0:0,0:0:0:0:
352,308,325889,2,0,L|296:300,1,40,8|0,0:0|0:0,0:0:0:0:
160,280,326060,1,4,0:0:0:0:
256,192,326146,12,0,327260,0:0:0:0:
392,252,327432,6,0,P|352:224|300:220,1,80,4|0,0:0|0:0,0:0:0:0:
208,204,327775,1,4,0:0:0:0:
308,104,327946,1,8,0:0:0:0:
80,132,328118,6,0,P|128:128|176:144,1,80,4|0,0:0|0:0,0:0:0:0:
308,104,328460,1,8,0:0:0:0:
224,220,328632,1,8,0:0:0:0:
228,228,328718,1,8,0:0:0:0:
232,236,328803,1,0,0:0:0:0:
128,84,328975,1,8,0:0:0:0:
72,248,329146,6,0,L|128:232,1,47.9999985351563,4|0,0:0|0:0,0:0:0:0:
372,104,329489,2,0,L|352:168,1,47.9999985351563,4|0,0:0|0:0,0:0:0:0:
356,328,329832,2,0,L|308:308,1,47.9999985351563,4|0,0:0|0:0,0:0:0:0:
240,200,330175,6,0,L|192:176,2,40,4|2|4,0:0|0:0|0:0,0:0:0:0:
348,60,330518,1,4,0:0:0:0:
368,324,330689,1,4,0:0:0:0:
452,156,330860,5,8,0:0:0:0:
248,72,331032,1,4,0:0:0:0:
216,236,331203,1,4,0:0:0:0:
316,164,331375,1,4,0:0:0:0:
144,128,331546,6,0,L|156:176,1,47.9999985351563,4|0,0:0|0:0,0:0:0:0:
204,348,331889,2,0,L|144:328,1,47.9999985351563,4|0,0:0|0:0,0:0:0:0:
356,232,332232,2,0,L|404:212,1,47.9999985351563,4|0,0:0|0:0,0:0:0:0:
384,80,332575,1,0,0:0:0:0:
240,76,332746,5,8,0:0:0:0:
232,84,332832,1,8,0:0:0:0:
224,96,332918,2,8,L|184:148,1,40
124,220,333089,1,12,0:0:0:0:
120,120,333260,1,8,0:0:0:0:
332,256,333432,1,4,0:0:0:0:
168,220,333603,1,4,0:0:0:0:
368,316,333775,1,8,0:0:0:0:
308,144,333946,5,8,0:0:0:0:
308,144,334032,1,8,0:0:0:0:
308,144,334118,1,8,0:0:0:0:
220,324,334289,1,4,0:0:0:0:
440,252,334460,1,4,0:0:0:0:
172,200,334632,1,8,0:0:0:0:
172,200,334718,1,8,0:0:0:0:
172,200,334803,1,8,0:0:0:0:
276,92,334975,6,0,L|304:140,1,47.9999985351563,4|0,0:0|0:0,0:0:0:0:
348,344,335318,2,0,L|312:296,1,47.9999985351563,4|0,0:0|0:0,0:0:0:0:
268,236,335489,1,6,0:0:0:0:
392,256,335660,1,6,0:0:0:0:
264,216,335832,1,6,0:0:0:0:
396,224,336003,1,6,0:0:0:0:
252,188,336175,1,6,0:0:0:0:
424,104,336346,5,6,0:0:0:0:
416,88,336432,1,6,0:0:0:0:
400,80,336518,1,2,0:0:0:0:
384,76,336603,1,2,0:0:0:0:
368,76,336689,1,6,0:0:0:0:
352,84,336775,1,6,0:0:0:0:
340,96,336860,1,2,0:0:0:0:
244,184,337032,6,0,P|292:200|320:220,1,80,4|8,0:0|0:0,0:0:0:0:
328,236,337289,1,8,0:0:0:0:
336,256,337375,1,8,0:0:0:0:
464,180,337546,1,4,0:0:0:0:
396,344,337718,1,4,0:0:0:0:
488,272,337889,1,2,0:0:0:0:
320,252,338060,6,0,P|276:288|232:256,1,120.000004577637,12|4,0:0|0:0,0:0:0:0:
108,176,338746,1,8,0:0:0:0:
124,176,338918,2,0,L|208:176,1,60.0000022888184,8|0,0:0|0:0,0:0:0:0:
276,68,339260,1,8,0:0:0:0:
304,276,339432,1,12,0:0:0:0:
340,168,339603,2,0,L|416:168,1,60.0000022888184,8|0,0:0|0:0,0:0:0:0:
456,168,340118,1,2,0:0:0:0:
488,168,340460,1,2,0:0:0:0:
392,52,340803,5,8,0:0:0:0:
384,64,341146,2,0,L|300:160,1,120.000004577637,8|0,0:0|0:0,0:0:0:0:
216,152,341660,2,0,P|232:212|300:224,1,120.000004577637,8|0,0:0|0:0,0:0:0:0:
368,232,342175,1,2,0:0:0:0:
456,176,342346,1,2,0:0:0:0:
436,320,342518,1,8,0:0:0:0:
288,312,342860,6,0,P|280:256|220:268,1,120.000004577637,2|8,0:0|0:0,0:0:0:0:
56,184,343546,2,0,P|100:216|136:160,1,120.000004577637,2|8,0:0|0:0,0:0:0:0:
224,156,344232,6,0,B|268:112|268:112|328:104,1,120.000004577637,8|2,0:0|0:0,0:0:0:0:
416,96,344746,1,8,0:0:0:0:
416,96,344918,1,8,0:0:0:0:
340,184,345089,1,4,0:0:0:0:
316,56,345260,1,8,0:0:0:0:
396,156,345432,1,8,0:0:0:0:
248,224,345603,1,10,0:0:0:0:
248,224,346118,6,0,L|116:224,1,120.000004577637,8|0,0:0|0:0,0:0:0:0:
88,128,346632,2,0,B|92:96|92:96|148:100|196:96|224:48|224:48|208:136|208:136|244:120|292:128|284:104|332:128|300:168,1,390.00001487732,4|2,0:0|0:0,0:0:0:0:
440,272,348003,2,0,B|396:216|396:216|396:276,1,120.000004577637,2|2,0:0|0:0,0:0:0:0:
404,348,348689,1,10,0:0:0:0:
404,360,349032,1,10,0:0:0:0:
460,152,349375,5,4,0:0:0:0:
420,152,349889,1,4,0:0:0:0:
404,152,350060,2,0,L|320:152,1,60.0000022888184,4|8,0:0|0:0,0:0:0:0:
208,152,350403,1,8,0:0:0:0:
316,152,350575,1,8,0:0:0:0:
240,48,350746,5,4,0:0:0:0:
208,248,351089,1,4,0:0:0:0:
136,136,351432,1,4,0:0:0:0:
368,284,352118,5,2,0:0:0:0:
368,284,352632,1,2,0:0:0:0:
192,280,352975,2,0,P|224:244|252:236,1,60.0000022888184,2|0,0:0|0:0,0:0:0:0:
368,168,353318,2,0,P|332:148|304:144,1,60.0000022888184,2|0,0:0|0:0,0:0:0:0:
200,80,353832,5,2,0:0:0:0:
180,96,354175,1,2,0:0:0:0:
168,112,354518,1,2,0:0:0:0:
152,128,354860,1,10,0:0:0:0:
224,296,355375,6,0,P|280:264|336:292,1,120.000004577637,4|2,0:0|0:0,0:0:0:0:
456,252,355889,1,2,0:0:0:0:
352,300,356060,1,2,0:0:0:0:
448,352,356232,1,10,0:0:0:0:
372,288,356403,1,2,0:0:0:0:
340,136,356575,5,2,0:0:0:0:
136,164,357089,6,0,B|92:200|92:200|144:236,1,120.000004577637,2|2,0:0|0:0,0:0:0:0:
320,92,357603,2,2,B|368:128|368:128|312:164,1,120.000004577637
208,204,358118,1,10,0:0:0:0:
216,220,358204,1,10,0:0:0:0:
224,236,358289,1,10,0:0:0:0:
112,252,358460,5,12,0:0:0:0:
256,324,358631,1,12,0:0:0:0:
256,192,358975,12,0,363347,0:0:0:0:
256,192,363432,12,0,372004,0:0:0:0:
