osu file format v14

[General]
AudioFilename: koishi.mp3
AudioLeadIn: 0
PreviewTime: 249628
Countdown: 0
SampleSet: Normal
StackLeniency: 0.7
Mode: 0
LetterboxInBreaks: 0
WidescreenStoryboard: 1

[Editor]
Bookmarks: 89685,129628,224513
DistanceSpacing: 1.5
BeatDivisor: 4
GridSize: 4
TimelineZoom: 2.999999

[Metadata]
Title:Monosugoi Space Shuttle de Koishi ga Monosugoi Uta
TitleUnicode:物凄いスペースシャトルでこいしが物凄いうた
Artist:Nanahira
ArtistUnicode:ななひら
Creator:Peplsxx
Version:Subconscious Addiction
Source:東方地霊殿 ~ Subterranean Animism.
Tags:Komeji Touhou Nanahira Subterranean Animism chireiden ラストリモート Last Remote ハルトマンの妖怪少女 Hartmann's Youkai Girl space shuttle 古明地こいし こめいじ zun team shanghai alice
BeatmapID:1440655
BeatmapSetID:483442

[Difficulty]
HPDrainRate:6
CircleSize:4
OverallDifficulty:8
ApproachRate:9.4
SliderMultiplier:2
SliderTickRate:1

[Events]
//Background and Video events
0,0,"BG.jpg",0,0
//Break Periods
2,80113,82802
2,148685,151373
2,272456,283030
//Storyboard Layer 0 (Background)
//Storyboard Layer 1 (Fail)
//Storyboard Layer 2 (Pass)
//Storyboard Layer 3 (Foreground)
//Storyboard Sound Samples

[TimingPoints]
28,342.857142857143,4,1,1,70,1,0
13742,-100,4,1,1,50,0,0
14770,-133.333333333333,4,2,1,60,0,0
22656,-153.846153846153,4,2,1,60,0,0
24199,-117.647058823529,4,1,1,70,0,0
25056,-83.3333333333333,4,1,1,70,0,0
25742,-133.333333333333,4,1,1,65,0,0
28485,-100,4,1,1,70,0,0
46999,-200,4,1,1,70,0,0
47342,-66.6666666666667,4,1,1,70,0,0
47685,-200,4,1,1,70,0,0
53170,-100,4,1,1,75,0,0
56941,-100,4,1,1,70,0,0
58656,-80,4,1,1,80,0,0
83170,-200,4,1,1,60,0,0
85656,-133.333333333333,4,1,1,60,0,0
90456,-133.333333333333,4,1,1,10,0,0
90542,-133.333333333333,4,1,1,60,0,0
90799,-133.333333333333,4,1,1,10,0,0
90885,-133.333333333333,4,1,1,60,0,0
91142,-133.333333333333,4,1,1,10,0,0
91228,-133.333333333333,4,1,1,60,0,0
91485,-133.333333333333,4,1,1,10,0,0
91570,-133.333333333333,4,1,1,60,0,0
93970,-100,4,1,1,70,0,0
102798,-100,4,1,1,65,0,0
103742,-100,4,1,1,70,0,0
104942,-80,4,1,1,90,0,1
105028,-66.6666666666667,4,1,1,30,0,1
105285,-100,4,1,1,80,0,1
108456,-83.3333333333333,4,1,1,80,0,1
110085,-133.333333333333,4,1,1,80,0,1
110770,-83.3333333333333,4,1,1,80,0,1
114885,-83.3333333333333,4,1,1,100,0,0
116256,-83.3333333333333,4,1,1,100,0,1
122085,-83.3333333333333,4,1,1,30,0,1
122256,-83.3333333333333,4,1,1,100,0,1
127228,-200,4,1,1,100,0,1
127570,-83.3333333333333,4,1,1,100,0,1
136828,-153.846153846153,4,1,1,70,0,0
138199,-100,4,1,1,80,0,0
151913,-133.333333333333,4,1,1,50,0,0
162370,-133.333333333333,4,1,1,20,0,0
162542,-100,4,1,1,70,0,0
164942,-100,4,1,1,80,0,0
173513,-76.9230769230769,4,1,1,80,0,0
173685,-76.9230769230769,4,1,1,10,0,0
173856,-76.9230769230769,4,1,1,80,0,1
178656,-133.333333333333,4,1,1,80,0,1
179342,-100,4,1,1,80,0,1
183799,-76.9230769230769,4,1,1,75,0,0
184828,-76.9230769230769,4,1,1,80,0,1
189970,-76.9230769230769,4,1,1,80,0,1
193057,-76.9230769230769,4,1,1,75,0,1
199913,-76.9230769230769,4,1,1,50,0,1
200256,-76.9230769230769,4,1,1,65,0,1
200599,-76.9230769230769,4,1,1,80,0,1
200942,-76.9230769230769,4,1,1,100,0,1
201456,-76.9230769230769,4,1,1,80,0,1
206770,-100,4,1,1,50,0,0
223228,-83.3333333333333,4,1,1,70,0,0
228542,-83.3333333333333,4,1,1,80,0,0
234199,-83.3333333333333,4,1,1,86,0,0
236856,-83.3333333333333,4,1,1,80,0,0
237285,-83.3333333333333,4,1,1,90,0,0
245170,-133.333333333333,4,1,1,80,0,0
245342,-76.9230769230769,4,1,1,80,0,0
247399,-66.6666666666667,4,1,1,80,0,0
248620,-66.6666666666667,4,1,1,40,0,0
248663,-66.6666666666667,4,1,1,80,0,0
248706,-66.6666666666667,4,1,1,40,0,0
248749,-66.6666666666667,4,1,1,80,0,0
248792,-66.6666666666667,4,1,1,40,0,0
248835,-66.6666666666667,4,1,1,80,0,0
248878,-66.6666666666667,4,1,1,40,0,0
248920,-66.6666666666667,4,1,1,80,0,0
248963,-66.6666666666667,4,1,1,40,0,0
249006,-66.6666666666667,4,1,1,80,0,0
249049,-66.6666666666667,4,1,1,40,0,0
249092,-66.6666666666667,4,1,1,80,0,0
249135,-66.6666666666667,4,1,1,40,0,0
249178,-66.6666666666667,4,1,1,80,0,0
249220,-66.6666666666667,4,1,1,40,0,0
249263,-66.6666666666667,4,1,1,80,0,0
249456,-83.3333333333333,4,1,1,80,0,0
250656,-76.9230769230769,4,1,1,75,0,1
269856,-66.6666666666667,4,1,1,75,0,1
271228,-133.333333333333,4,1,1,80,0,1
272599,-100,4,1,1,50,0,0
283570,-133.333333333333,4,1,1,50,0,0
288370,-133.333333333333,4,1,1,70,0,0
288713,-133.333333333333,4,1,1,60,0,0
299856,-133.333333333333,4,1,1,80,0,0
302085,-133.333333333333,4,1,1,100,0,0
305513,-200,4,1,1,60,0,0
306885,-166.666666666667,4,1,1,60,0,0
308256,-142.857142857143,4,1,1,60,0,0
309628,-125,4,1,1,60,0,0
310999,-100,4,1,1,60,0,0
316485,-83.3333333333333,4,1,1,65,0,0
322999,-83.3333333333333,4,1,1,70,0,0
327456,-83.3333333333333,4,1,1,80,0,1
338428,-133.333333333333,4,1,1,50,0,0
341170,-133.333333333333,4,1,1,85,0,0
344256,-133.333333333333,4,1,1,75,0,0
349399,-133.333333333333,4,1,1,55,0,0

[Colours]
Combo1 : 230,255,2
Combo2 : 41,97,243
Combo3 : 239,100,33
Combo4 : 47,244,111

[HitObjects]
191,205,13742,6,0,P|210:265|265:293,1,100,8|0,0:2|0:0,0:0:0:0:
275,128,13999,1,0,0:0:0:0:
275,128,14085,2,0,P|214:115|162:148,1,100,8|0,0:2|0:0,0:0:0:0:
299,240,14428,2,0,P|342:194|338:133,1,100,8|0,0:2|0:0,0:0:0:0:
84,208,14770,5,8,2:0:0:0:
292,316,14942,1,0,0:0:0:0:
292,316,15113,2,0,P|244:292|232:268,1,75.0000028610231
212,88,15456,1,8,0:0:0:0:
328,172,15628,1,0,0:0:0:0:
212,88,15799,2,0,L|152:168,1,75.0000028610231
160,332,16142,6,0,P|144:280|104:260,1,75.0000028610231,8|0,0:2|0:0,0:0:0:0:
0,332,16485,2,0,P|53:344|90:319,1,75.0000028610231,8|0,0:2|0:0,0:0:0:0:
76,200,16828,2,0,P|38:239|41:284,1,75.0000028610231,8|0,0:2|0:0,0:0:0:0:
224,312,17170,1,0,0:0:0:0:
388,272,17513,5,8,0:0:0:0:
376,176,17685,1,0,0:0:0:0:
376,176,17856,2,0,P|296:168|276:136,1,112.500004291535
260,104,18199,2,0,L|224:204,1,75.0000028610231,8|0,0:0|0:0,0:0:0:0:
144,208,18542,1,0,0:0:0:0:
204,284,18713,1,0,0:0:0:0:
344,280,18885,6,0,B|336:232|336:232|360:204,1,75.0000028610231,8|0,0:0|0:0,0:0:0:0:
232,160,19228,2,0,B|251:115|251:115|286:104,1,75.0000028610231,8|0,0:0|0:0,0:0:0:0:
144,60,19570,2,0,B|169:101|169:101|158:136,1,75.0000028610231,8|0,0:0|0:0,0:0:0:0:
324,164,19913,2,0,B|352:208|352:208|272:208,1,112.500004291535,8|0,0:0|0:0,0:0:0:0:
276,240,20256,6,0,P|268:296|244:320,2,75.0000028610231,4|0|0,0:0|0:0|0:0,0:0:0:0:
296,72,20770,1,8,0:0:0:0:
464,168,20942,1,0,0:0:0:0:
268,176,21113,1,8,0:0:0:0:
416,52,21285,1,8,0:0:0:0:
372,268,21456,1,4,0:0:0:0:
200,328,21628,2,0,P|183:295|192:260,1,75.0000028610231,8|0,0:0|0:0,0:0:0:0:
120,168,21970,2,0,P|155:158|175:128,1,75.0000028610231,8|0,0:0|0:0,0:0:0:0:
68,248,22313,6,0,P|48:300|20:304,1,75.0000028610231,4|0,3:0|0:0,0:0:0:0:
188,236,22656,1,8,0:0:0:0:
332,296,22828,1,0,0:0:0:0:
184,328,22999,2,0,P|136:304|124:280,1,64.9999970245363
304,100,23342,2,0,P|328:136|340:172,1,64.9999970245363
144,128,23685,1,8,0:0:0:0:
224,296,23856,1,0,0:0:0:0:
368,204,24028,1,8,0:0:0:0:
424,96,24199,6,0,P|408:60|368:32,1,85.0000016212464,8|0,0:0|0:0,0:0:0:0:
232,60,24542,1,0,0:0:0:0:
316,200,24713,1,8,2:0:0:0:
128,236,24885,1,8,2:0:0:0:
216,144,25056,6,0,P|288:124|308:76,1,119.999996337891,4|0,3:0|0:0,0:0:0:0:
272,268,25399,2,0,P|244:332|248:392,1,119.999996337891,4|0,3:0|0:0,0:0:0:0:
124,172,25742,5,8,3:0:0:0:
148,128,25828,1,0,0:0:0:0:
168,84,25913,2,0,L|144:52,4,37.5000014305115
296,176,26428,1,0,0:0:0:0:
204,280,26599,1,0,0:0:0:0:
172,300,26685,1,0,0:0:0:0:
136,312,26770,1,0,0:0:0:0:
100,304,26856,1,0,0:0:0:0:
68,284,26942,1,0,0:0:0:0:
376,292,27113,6,0,P|403:267|407:230,1,75.0000028610231,8|0,0:2|0:0,0:0:0:0:
296,176,27456,2,0,P|303:211|333:233,1,75.0000028610231,8|0,0:2|0:0,0:0:0:0:
436,168,27799,2,0,P|400:156|367:171,1,75.0000028610231,8|0,0:2|0:0,0:0:0:0:
236,52,28142,2,0,P|200:84|148:80,1,75.0000028610231,4|0,0:0|0:0,0:0:0:0:
80,192,28485,6,0,P|104:240|168:264,1,100
168,260,28742,1,0,0:0:0:0:
204,252,28828,1,0,0:0:0:0:
336,120,28999,1,0,0:0:0:0:
432,92,29170,2,0,P|432:144|404:192,1,100
192,92,29513,5,0,0:0:0:0:
92,184,29685,1,0,0:0:0:0:
204,220,29856,2,0,B|216:160|216:160|252:136,1,100,4|0,0:0|0:0,0:0:0:0:
332,144,30199,2,0,B|352:88|352:88|400:60,1,100,4|0,0:0|0:0,0:0:0:0:
284,200,30542,2,0,B|272:260|272:260|236:284,1,100,4|0,0:0|0:0,0:0:0:0:
156,276,30885,2,0,B|136:332|136:332|88:360,1,100,4|0,0:0|0:0,0:0:0:0:
144,116,31228,6,0,P|192:164|224:168,1,100,8|0,0:0|0:0,0:0:0:0:
376,64,31570,1,8,0:0:0:0:
392,72,31656,1,0,0:0:0:0:
408,80,31742,1,0,0:0:0:0:
424,88,31828,1,0,0:0:0:0:
440,96,31913,2,0,P|404:172|352:192,1,100,8|0,0:0|0:0,0:0:0:0:
304,236,32256,1,0,0:0:0:0:
464,320,32428,1,0,0:0:0:0:
392,176,32599,6,0,P|344:140|288:136,1,100
120,148,32942,1,8,0:0:0:0:
121,172,33027,1,0,0:0:0:0:
123,196,33113,1,0,0:0:0:0:
125,220,33199,1,0,0:0:0:0:
128,240,33285,2,0,P|200:236|216:184,1,100,8|0,0:0|0:0,0:0:0:0:
305,133,33628,2,0,L|329:189,2,50
220,92,33970,6,0,L|148:72,2,50
320,88,34313,2,0,L|384:44,2,50
152,232,34656,2,0,L|92:256,2,50
368,260,34999,2,0,L|372:328,2,50
256,192,35342,12,0,36370,0:0:0:0:
128,64,36713,6,0,P|144:112|120:168,1,100,4|0,0:0|0:0,0:0:0:0:
220,80,37056,2,0,P|280:108|348:100,1,100
432,124,37399,1,0,0:0:0:0:
364,224,37570,1,0,0:0:0:0:
432,124,37742,1,0,0:0:0:0:
228,40,37913,1,0,0:0:0:0:
228,40,37999,1,0,0:0:0:0:
228,40,38085,6,0,P|208:156|220:216,1,150,8|0,0:0|0:0,0:0:0:0:
160,192,38428,2,0,P|136:96|96:56,1,150,8|0,0:0|0:0,0:0:0:0:
80,112,38770,2,0,P|172:128|232:152,1,150,8|0,0:0|0:0,0:0:0:0:
268,112,39113,2,0,P|244:56|308:72,1,150,8|0,0:0|0:0,0:0:0:0:
384,116,39456,1,0,0:0:0:0:
416,212,39628,1,0,0:0:0:0:
356,292,39799,1,0,0:0:0:0:
256,272,39970,1,0,0:0:0:0:
424,256,40142,5,0,0:0:0:0:
380,164,40313,1,0,0:0:0:0:
280,148,40485,1,0,0:0:0:0:
208,220,40656,1,0,0:0:0:0:
168,340,40828,6,0,P|116:284|116:208,1,150,8|0,0:0|0:0,0:0:0:0:
144,172,41170,2,0,P|228:224|308:184,1,150,8|0,0:0|0:0,0:0:0:0:
280,148,41513,2,0,P|264:88|360:116,1,200,8|0,0:0|0:0,0:0:0:0:
112,72,42028,5,0,0:0:0:0:
124,80,42113,1,0,0:0:0:0:
132,92,42199,2,0,P|132:160|96:172,1,100
316,76,42542,1,0,0:0:0:0:
252,172,42713,1,0,0:0:0:0:
316,76,42885,2,0,P|360:144|360:176,1,100
356,288,43228,5,0,0:0:0:0:
252,172,43399,1,0,0:0:0:0:
104,160,43570,2,0,P|120:112|176:88,1,100
336,219,43913,2,0,P|316:267|268:283,1,100
176,160,44256,2,0,B|184:224|184:224|136:248|136:248|164:284,1,150
236,304,44599,2,0,B|252:244|252:244|360:212,1,150
448,176,44942,5,0,0:0:0:0:
392,96,45113,1,0,0:0:0:0:
292,100,45285,1,0,0:0:0:0:
248,192,45456,1,0,0:0:0:0:
368,232,45628,5,0,0:0:0:0:
388,136,45799,1,0,0:0:0:0:
324,60,45970,1,0,0:0:0:0:
228,84,46142,1,0,0:0:0:0:
256,176,46313,5,0,0:0:0:0:
155,273,46485,1,0,0:0:0:0:
256,176,46656,1,0,0:0:0:0:
400,256,46828,1,0,0:0:0:0:
360,84,46999,6,0,L|448:96,1,75
320,80,47342,6,0,L|380:224,1,150.000005722046
256,188,47685,5,0,0:0:0:0:
256,188,49056,5,0,0:0:0:0:
344,96,50428,5,0,0:0:0:0:
252,220,51799,6,0,P|276:252|220:212,1,300
256,192,53170,5,4,0:0:0:0:
220,156,53342,1,0,0:0:0:0:
224,108,53513,1,0,0:0:0:0:
264,76,53685,1,0,0:0:0:0:
388,112,53856,5,4,0:0:0:0:
424,184,54028,1,0,0:0:0:0:
404,260,54199,1,0,0:0:0:0:
344,312,54370,1,0,0:0:0:0:
300,168,54542,5,4,0:0:0:0:
220,108,54713,1,0,0:0:0:0:
132,156,54885,1,0,0:0:0:0:
156,252,55056,1,0,0:0:0:0:
288,268,55228,5,4,0:0:0:0:
228,152,55399,1,0,0:0:0:0:
328,72,55570,1,0,0:0:0:0:
444,132,55742,1,0,0:0:0:0:
504,260,55913,6,0,L|480:216,7,50,4|0|0|0|0|0|0|0,0:0|0:0|0:0|0:0|0:0|0:0|0:0|0:0,0:0:0:0:
456,176,56599,1,0,0:0:0:0:
420,140,56685,1,0,0:0:0:0:
372,128,56770,1,0,0:0:0:0:
340,164,56856,1,0,0:0:0:0:
308,216,56942,1,0,0:0:0:0:
260,256,57028,1,0,0:0:0:0:
200,256,57113,1,0,0:0:0:0:
148,224,57199,1,0,0:0:0:0:
256,192,57285,12,0,58313,0:0:0:0:
216,108,58656,6,0,P|168:112|116:48,1,125,4|0,3:0|0:0,0:0:0:0:
276,164,58999,2,0,P|244:224|172:216,1,125,8|0,0:0|0:0,0:0:0:0:
332,76,59342,2,0,P|405:104|436:164,1,125,0|0,3:0|0:0,0:0:0:0:
320,228,59685,2,0,P|320:320|288:364,1,125,8|0,0:0|0:0,0:0:0:0:
256,364,59942,1,0,0:0:0:0:
208,368,60028,2,0,P|140:336|104:276,1,125
223,46,60370,5,8,0:0:0:0:
248,232,60542,1,0,0:0:0:0:
64,212,60713,5,8,0:0:0:0:
119,52,60885,1,0,0:0:0:0:
336,84,61056,5,8,0:0:0:0:
256,296,61228,1,0,0:0:0:0:
352,328,61399,6,0,P|364:252|400:208,1,125,4|0,0:0|0:0,0:0:0:0:
336,84,61742,2,0,P|312:164|272:208,1,125,8|0,0:0|0:0,0:0:0:0:
176,280,62085,1,0,0:0:0:0:
136,116,62256,1,0,0:0:0:0:
232,164,62428,1,8,0:0:0:0:
60,224,62599,1,0,0:0:0:0:
396,240,62770,6,0,B|374:293|374:293|345:250|345:250|347:253|312:301|285:304,1,187.5,8|0,3:0|0:0,0:0:0:0:
204,256,63113,2,0,B|168:210|168:210|220:206|220:206|216:207|192:152|203:127,1,187.5,8|0,0:0|0:0,0:0:0:0:
276,104,63456,2,0,B|333:96|333:96|312:139|352:164,1,125,8|0,0:0|0:0,0:0:0:0:
108,304,63799,1,4,3:0:0:0:
288,300,63970,5,0,0:0:0:0:
268,280,64056,1,0,0:0:0:0:
256,260,64142,2,0,P|256:208|324:184,1,125,8|0,0:0|0:0,0:0:0:0:
476,257,64485,2,0,P|480:185|444:137,1,125,8|0,0:0|0:0,0:0:0:0:
228,72,64828,5,8,0:0:0:0:
451,143,64999,1,0,0:0:0:0:
284,180,65170,1,8,0:0:0:0:
420,40,65342,1,8,0:0:0:0:
384,216,65513,6,0,L|387:359,1,125,8|0,0:0|0:0,0:0:0:0:
248,344,65856,1,8,0:0:0:0:
384,216,66028,1,0,0:0:0:0:
248,136,66199,2,0,B|212:168|212:168|260:204|260:204|208:228,1,125,8|0,0:0|0:0,0:0:0:0:
64,152,66542,1,8,0:0:0:0:
160,288,66713,1,8,0:0:0:0:
248,136,66885,2,0,P|220:124|228:40,1,125,4|0,3:0|0:0,0:0:0:0:
336,64,67228,5,8,0:0:0:0:
376,228,67399,1,0,0:0:0:0:
336,64,67570,5,0,0:0:0:0:
376,228,67742,1,0,0:0:0:0:
256,292,67913,1,8,0:0:0:0:
224,284,67999,1,0,0:0:0:0:
192,264,68085,1,0,0:0:0:0:
168,228,68170,1,0,0:0:0:0:
152,184,68256,1,0,0:0:0:0:
256,192,68428,12,0,69285,0:0:0:0:
148,100,69628,5,4,3:0:0:0:
348,40,69799,1,0,0:0:0:0:
188,256,69970,2,0,P|208:196|276:204,1,125,8|0,0:0|0:0,0:0:0:0:
400,136,70313,1,0,0:0:0:0:
440,308,70485,1,0,0:0:0:0:
332,180,70656,2,0,P|304:132|240:116,1,125,8|0,0:0|0:0,0:0:0:0:
212,124,70913,1,0,0:0:0:0:
188,144,70999,1,0,0:0:0:0:
272,332,71170,5,0,0:0:0:0:
416,240,71342,1,8,0:0:0:0:
264,196,71513,5,0,0:0:0:0:
124,120,71685,1,8,0:0:0:0:
252,72,71856,5,0,0:0:0:0:
156,260,72028,1,8,0:0:0:0:
396,160,72199,1,0,0:0:0:0:
344,72,72370,6,0,P|272:120|240:168,1,125,4|0,0:0|0:0,0:0:0:0:
144,100,72713,2,0,L|212:216,1,125,8|0,0:0|0:0,0:0:0:0:
260,312,73056,5,0,0:0:0:0:
420,104,73228,1,0,0:0:0:0:
308,368,73399,1,8,0:0:0:0:
120,220,73570,1,0,0:0:0:0:
224,120,73742,6,0,B|268:83|268:83|273:135|273:135|273:131|326:105|352:115,1,187.5,8|0,0:0|0:0,0:0:0:0:
401,196,74085,2,0,B|411:253|411:253|363:232|363:232|367:233|362:293|341:310,1,187.5,8|0,0:0|0:0,0:0:0:0:
266,296,74428,2,0,B|211:276|211:276|250:248|227:207,1,125,8|0,0:0|0:0,0:0:0:0:
460,316,74770,1,4,3:0:0:0:
148,320,74942,1,0,0:0:0:0:
124,308,75028,1,0,0:0:0:0:
108,288,75113,2,0,P|100:240|148:168,1,125,8|0,0:0|0:0,0:0:0:0:
196,52,75456,1,8,0:0:0:0:
344,200,75628,1,0,0:0:0:0:
76,256,75799,6,0,P|36:153|49:108,1,125,8|0,0:0|0:0,0:0:0:0:
276,80,76142,1,8,0:0:0:0:
388,272,76313,1,8,0:0:0:0:
240,332,76485,6,0,B|164:300|164:300|148:252,1,125,8|0,0:0|0:0,0:0:0:0:
212,140,76828,2,0,B|296:172|296:172|340:232,1,125,8|0,0:0|0:0,0:0:0:0:
352,360,77170,1,8,0:0:0:0:
476,228,77342,1,0,0:0:0:0:
316,200,77513,2,0,P|256:228|192:208,1,125,12|0,0:0|0:0,0:0:0:0:
188,48,77856,5,8,0:0:0:0:
168,108,78028,1,0,0:0:0:0:
144,168,78199,1,8,0:0:0:0:
120,228,78370,1,0,0:0:0:0:
296,352,78542,6,0,L|360:304,6,62.5
140,196,79228,1,8,0:0:0:0:
332,65,79399,1,8,0:0:0:0:
253,284,79570,1,8,0:0:0:0:
189,60,79742,1,8,0:0:0:0:
372,204,79913,1,8,0:0:0:0:
260,192,83342,6,0,B|168:152|168:152|264:96,2,200,4|0|0,0:0|0:0|0:0,0:0:0:0:
412,168,85056,2,0,L|364:268,1,100
192,104,85742,2,0,P|188:180|192:196,2,75.0000028610231,8|0|0,0:0|0:0|0:0,0:0:0:0:
292,72,86256,1,0,0:0:0:0:
336,152,86428,1,0,0:0:0:0:
192,104,86770,5,0,0:0:0:0:
184,248,87028,2,0,P|216:264|304:252,1,112.500004291535,8|0,0:0|0:0,0:0:0:0:
184,248,87456,2,0,P|280:229|322:114,1,225.000008583069
144,240,88142,1,4,0:0:0:0:
200,72,88485,6,0,B|248:72|248:72|280:112,1,75.0000028610231
372,216,88828,1,8,0:0:0:0:
104,88,89170,1,0,0:0:0:0:
148,224,89342,2,0,P|184:176|204:164,1,75.0000028610231
348,88,89685,1,0,0:0:0:0:
408,204,89856,2,0,P|360:252|328:272,1,75.0000028610231
144,224,90199,6,0,P|112:176|152:104,1,112.500004291535,4|0,0:0|0:0,0:0:0:0:
168,80,90542,2,0,P|188:128|248:160,1,112.500004291535
280,160,90885,2,0,P|296:104|344:76,1,112.500004291535
396,64,91228,2,0,L|396:180,1,112.500004291535
392,236,91570,2,0,P|381:280|215:219,2,300.000011444092
208,148,93113,5,0,0:0:0:0:
320,60,93285,2,0,L|380:132,1,75.0000028610231,4|0,0:0|0:0,0:0:0:0:
208,148,93628,1,0,0:0:0:0:
376,232,93970,5,4,0:0:0:0:
320,60,94142,1,0,0:0:0:0:
260,176,94313,2,0,P|248:256|220:260,1,100,8|0,0:0|0:0,0:0:0:0:
128,168,94656,2,0,P|120:116|152:84,1,100
272,80,94999,5,8,0:0:0:0:
436,116,95170,1,0,0:0:0:0:
376,48,95342,5,0,0:0:0:0:
400,260,95513,1,0,0:0:0:0:
222,154,95685,2,0,P|260:111|316:102,1,100,8|0,2:0|0:0,0:0:0:0:
240,240,96027,2,0,P|184:228|148:184,1,100,8|0,2:0|0:0,0:0:0:0:
305,181,96370,2,0,P|323:236|303:289,1,100,8|0,2:0|0:0,0:0:0:0:
128,288,96713,5,0,0:0:0:0:
232,88,96885,1,0,0:0:0:0:
216,272,97056,2,0,P|240:324|288:336,1,100
440,272,97399,2,0,P|412:224|352:212,1,100
148,168,97742,5,0,0:0:0:0:
0,260,97913,1,0,0:0:0:0:
202,223,98085,1,0,0:0:0:0:
56,80,98256,1,0,0:0:0:0:
284,184,98428,2,0,P|297:128|272:77,1,100,4|0,0:0|0:0,0:0:0:0:
202,223,98770,2,0,P|244:262|301:266,1,100
213,132,99113,2,0,P|159:149|127:196,1,100
104,320,99456,5,8,2:0:0:0:
368,264,99628,1,8,2:0:0:0:
160,72,99799,1,8,2:0:0:0:
120,260,99970,1,0,0:0:0:0:
296,64,100142,2,0,L|340:176,1,100,8|0,2:0|0:0,0:0:0:0:
208,296,100485,1,8,2:0:0:0:
160,136,100656,1,8,2:0:0:0:
296,64,100828,5,8,2:0:0:0:
140,196,100999,1,0,3:0:0:0:
208,296,101170,2,0,P|256:248|256:196,1,100,8|8,2:0|2:0,0:0:0:0:
200,68,101513,1,8,2:0:0:0:
416,224,101685,1,8,2:0:0:0:
304,144,101856,2,0,P|228:156|200:176,1,100,8|0,2:0|0:0,0:0:0:0:
128,276,102199,1,8,2:0:0:0:
200,68,102370,5,0,0:0:0:0:
272,264,102542,1,8,2:0:0:0:
384,212,102713,1,8,2:0:0:0:
412,176,102799,1,0,0:0:0:0:
404,128,102885,1,8,2:0:0:0:
380,85,102970,1,0,0:0:0:0:
333,71,103056,1,8,2:0:0:0:
116,204,103399,5,8,2:0:0:0:
348,324,103742,5,8,2:0:0:0:
436,220,104085,1,8,2:0:0:0:
416,196,104170,1,0,0:0:0:0:
388,180,104256,1,0,0:0:0:0:
356,176,104342,1,0,0:0:0:0:
320,184,104428,1,8,0:0:0:0:
172,216,104599,5,8,2:0:0:0:
136,192,104685,1,0,0:0:0:0:
116,160,104770,1,0,0:0:0:0:
104,128,104856,1,0,0:0:0:0:
108,92,104942,2,0,P|140:124|224:128,1,125,8|0,0:0|0:0,0:0:0:0:
384,56,105285,5,8,0:0:0:0:
364,44,105370,1,0,0:0:0:0:
272,248,105542,1,8,0:0:0:0:
296,236,105628,1,0,0:0:0:0:
280,96,105799,2,0,P|200:64|180:76,1,100,8|0,0:0|0:0,0:0:0:0:
104,232,106142,1,0,0:0:0:0:
316,324,106313,1,0,0:0:0:0:
408,136,106485,1,0,0:0:0:0:
184,88,106656,5,8,0:0:0:0:
164,104,106742,1,0,0:0:0:0:
344,204,106913,1,8,0:0:0:0:
344,180,106999,1,0,0:0:0:0:
112,208,107170,2,0,P|80:268|92:296,1,100,8|0,0:0|0:0,0:0:0:0:
284,340,107513,1,0,0:0:0:0:
444,268,107685,1,0,0:0:0:0:
388,92,107856,1,0,0:0:0:0:
120,124,108028,5,8,0:0:0:0:
140,140,108113,1,0,0:0:0:0:
312,72,108285,1,8,0:0:0:0:
316,48,108370,1,0,0:0:0:0:
116,228,108542,2,0,P|152:296|196:336,1,119.999996337891,8|0,0:0|0:0,0:0:0:0:
428,244,108885,1,0,0:0:0:0:
312,72,109056,1,0,0:0:0:0:
140,140,109228,1,0,0:0:0:0:
288,324,109399,5,8,0:0:0:0:
316,312,109485,1,0,0:0:0:0:
352,164,109656,1,8,0:0:0:0:
324,148,109742,1,0,0:0:0:0:
412,308,109913,1,8,0:0:0:0:
176,152,110085,2,0,P|152:200|152:228,1,75.0000028610231
199,272,110428,2,0,P|218:240|224:204,1,75.0000028610231
200,60,110770,6,0,P|146:70|93:113,1,119.999996337891,12|0,0:0|0:0,3:0:0:0:
72,144,111028,1,0,0:0:0:0:
60,184,111113,1,0,0:0:0:0:
160,80,111285,2,0,P|212:48|272:48,1,119.999996337891
416,168,111628,1,0,0:0:0:0:
352,328,111799,1,0,0:0:0:0:
160,284,111970,1,0,0:0:0:0:
480,128,112142,6,0,P|456:78|401:38,1,119.999996337891,12|0,0:0|0:0,3:0:0:0:
365,26,112400,1,0,0:0:0:0:
323,24,112485,1,0,0:0:0:0:
450,94,112657,2,0,P|494:135|509:193,1,119.999996337891
264,100,112999,1,0,0:0:0:0:
400,288,113170,1,0,0:0:0:0:
168,304,113342,1,0,0:0:0:0:
256,192,113513,12,0,114885,3:0:0:0:
332,292,115228,6,0,P|345:236|316:180,1,119.999996337891,4|0,3:0|0:0,0:0:0:0:
112,216,115570,2,0,P|154:255|221:257,1,119.999996337891
288,72,115913,2,0,P|234:89|199:144,1,119.999996337891
180,332,116256,5,0,3:0:0:0:
352,252,116428,1,0,0:0:0:0:
399,92,116599,2,0,P|339:64|279:76,1,119.999996337891,8|0,0:0|0:0,0:0:0:0:
248,88,116856,1,0,0:0:0:0:
212,120,116942,2,0,P|192:184|216:244,1,119.999996337891
472,264,117285,5,8,0:0:0:0:
368,96,117456,1,0,0:0:0:0:
144,128,117628,2,0,P|109:173|113:236,1,119.999996337891,4|0,3:0|0:0,0:0:0:0:
304,284,117971,2,0,P|281:231|221:202,1,119.999996337891,4|0,0:0|0:0,0:0:0:0:
80,344,118314,2,0,P|136:350|190:314,1,119.999996337891,4|0,0:0|0:0,0:0:0:0:
280,96,118656,1,0,0:0:0:0:
440,220,118828,5,0,0:0:0:0:
280,96,118999,2,0,P|212:128|224:184,1,119.999996337891,4|0,3:0|0:0,0:0:0:0:
240,208,119256,1,0,0:0:0:0:
272,248,119342,2,0,P|352:243|365:205,1,119.999996337891,8|0,3:0|0:0,0:0:0:0:
432,128,119685,5,0,3:0:0:0:
160,176,119856,1,0,0:0:0:0:
236,56,120028,1,8,0:0:0:0:
428,276,120199,1,0,0:0:0:0:
388,64,120370,2,4,P|332:108|276:124,1,119.999996337891,8|0,2:0|0:0,3:0:0:0:
64,120,120713,2,0,P|136:164|184:168,1,119.999996337891,8|0,2:0|0:0,0:0:0:0:
384,188,121056,2,0,P|328:240|284:256,1,119.999996337891,8|0,2:0|0:0,0:0:0:0:
80,280,121399,2,0,P|148:336|204:332,1,119.999996337891,8|0,2:0|0:0,0:0:0:0:
356,116,121742,6,0,P|300:68|324:164,1,239.999992675781,4|8,3:0|0:0,0:0:0:0:
444,212,122256,1,8,2:0:0:0:
176,108,122428,1,8,2:0:0:0:
356,116,122599,1,0,0:0:0:0:
96,252,122770,1,8,2:0:0:0:
344,192,122942,1,0,0:0:0:0:
176,344,123113,1,8,2:0:0:0:
96,68,123285,1,8,2:0:0:0:
268,156,123456,2,0,P|284:236|312:264,1,119.999996337891,8|8,2:0|0:0,0:0:0:0:
456,60,123799,5,0,3:0:0:0:
420,320,123970,1,0,0:0:0:0:
188,220,124142,2,0,P|200:152|148:104,1,119.999996337891
312,180,124485,6,0,P|336:276|368:316,1,119.999996337891,4|0,0:0|0:0,0:0:0:0:
112,56,124828,1,0,0:0:0:0:
372,88,124999,1,0,0:0:0:0:
184,188,125170,2,0,P|124:248|132:280,1,119.999996337891,0|0,3:0|0:0,0:0:0:0:
320,328,125513,1,0,0:0:0:0:
112,120,125685,5,8,2:0:0:0:
284,164,125856,2,0,P|320:228|368:256,1,119.999996337891,8|0,2:0|0:0,0:0:0:0:
488,132,126199,2,0,P|431:53|385:45,1,119.999996337891,8|0,2:0|0:0,0:0:0:0:
144,64,126542,1,8,2:0:0:0:
180,296,126713,1,0,0:0:0:0:
304,92,126885,2,0,P|316:172|344:220,1,119.999996337891,8|0,2:0|0:0,0:0:0:0:
180,140,127228,5,0,3:0:0:0:
396,304,127400,1,0,0:0:0:0:
180,296,127571,2,0,P|216:240|280:232,1,119.999996337891,8|0,0:0|0:0,0:0:0:0:
320,232,127828,1,0,0:0:0:0:
368,252,127913,2,0,P|400:321|468:323,1,119.999996337891,0|0,3:0|0:0,0:0:0:0:
460,116,128256,5,8,0:0:0:0:
264,52,128428,1,0,0:0:0:0:
204,240,128599,2,0,P|227:293|287:322,1,119.999996337891,4|0,0:0|0:0,0:0:0:0:
232,136,128942,2,0,P|176:130|122:166,1,119.999996337891,4|0,0:0|0:0,0:0:0:0:
312,220,129285,2,0,P|347:175|343:112,1,119.999996337891,4|0,3:0|0:0,0:0:0:0:
172,80,129628,1,0,0:0:0:0:
412,156,129799,5,0,0:0:0:0:
168,204,129970,2,0,P|192:268|232:308,1,119.999996337891,4|0,0:0|0:0,0:0:0:0:
280,296,130228,1,0,0:0:0:0:
328,276,130313,2,0,P|324:184|344:156,1,119.999996337891,8|0,0:0|0:0,0:0:0:0:
440,100,130656,1,0,0:0:0:0:
304,40,130828,1,0,0:0:0:0:
484,232,130999,2,0,P|424:288|356:268,1,119.999996337891,8|0,0:0|0:0,0:0:0:0:
160,180,131342,5,8,2:0:0:0:
376,128,131513,1,0,0:0:0:0:
220,76,131685,1,8,2:0:0:0:
460,284,131856,1,0,0:0:0:0:
424,64,132028,1,8,2:0:0:0:
304,292,132199,1,0,0:0:0:0:
136,240,132370,2,0,P|84:188|92:132,1,119.999996337891,8|0,2:0|0:0,0:0:0:0:
332,340,132713,6,0,P|412:316|448:252,1,119.999996337891,4|0,3:0|0:0,0:0:0:0:
460,120,133056,1,8,2:0:0:0:
204,232,133228,1,8,2:0:0:0:
364,240,133399,1,0,0:0:0:0:
192,88,133570,1,8,2:0:0:0:
332,340,133742,1,0,0:0:0:0:
136,324,133913,1,8,2:0:0:0:
112,140,134085,6,0,P|164:208|200:232,1,119.999996337891,8|0,2:0|0:0,0:0:0:0:
376,116,134428,1,8,2:0:0:0:
160,80,134599,1,0,0:0:0:0:
256,304,134770,2,0,P|296:244|352:224,1,119.999996337891
280,36,135113,1,0,0:0:0:0:
156,200,135285,1,0,0:0:0:0:
357,108,135456,5,4,3:0:0:0:
246,261,135628,1,0,0:0:0:0:
429,201,135799,1,0,0:0:0:0:
242,146,135970,1,0,0:0:0:0:
357,290,136142,5,4,3:0:0:0:
421,57,136313,1,0,0:0:0:0:
225,210,136485,1,0,0:0:0:0:
476,218,136656,1,0,0:0:0:0:
267,65,136828,1,4,3:0:0:0:
256,192,136999,12,0,137856,0:0:0:0:
132,176,138199,5,4,0:0:0:0:
196,76,138370,1,0,0:0:0:0:
316,60,138542,1,0,0:0:0:0:
416,128,138713,1,0,0:0:0:0:
180,240,138885,2,0,B|136:164|84:144,1,100,4|0,0:0|0:0,0:0:0:0:
376,172,139228,2,0,P|380:76|400:48,1,100
332,48,139485,1,0,0:0:0:0:
272,68,139570,2,0,P|280:160|248:192,1,100,8|0,2:0|0:0,0:0:0:0:
352,316,139913,5,8,2:0:0:0:
136,120,140085,1,0,0:0:0:0:
224,312,140256,5,8,2:0:0:0:
248,120,140428,1,0,0:0:0:0:
124,240,140599,5,8,2:0:0:0:
408,232,140771,1,0,0:0:0:0:
324,64,140942,2,0,P|332:136|316:172,1,100,4|0,0:0|0:0,0:0:0:0:
192,320,141285,1,0,0:0:0:0:
124,184,141456,1,0,0:0:0:0:
280,48,141628,6,0,P|336:128|328:160,1,100,4|0,0:0|0:0,0:0:0:0:
124,184,141970,2,0,P|200:244|220:240,1,100
324,292,142313,1,8,2:0:0:0:
432,160,142485,1,0,0:0:0:0:
256,140,142656,1,8,2:0:0:0:
416,204,142828,1,0,0:0:0:0:
228,48,142999,1,8,2:0:0:0:
172,264,143170,1,0,0:0:0:0:
208,308,143256,5,0,0:0:0:0:
264,320,143342,2,0,P|344:304|364:284,1,100
388,248,143599,1,0,0:0:0:0:
392,192,143685,1,4,0:0:0:0:
304,64,143856,1,0,0:0:0:0:
168,136,144028,1,0,0:0:0:0:
248,268,144199,1,0,0:0:0:0:
228,176,144370,5,4,0:0:0:0:
352,36,144542,1,0,0:0:0:0:
488,156,144713,1,0,0:0:0:0:
384,280,144885,1,0,0:0:0:0:
156,316,145056,2,0,P|132:264|80:228,1,100,8|0,2:0|0:0,0:0:0:0:
296,176,145399,2,0,P|312:116|284:64,1,100,8|0,2:0|0:0,0:0:0:0:
456,248,145742,2,0,P|428:320|392:332,1,100,8|0,2:0|0:0,0:0:0:0:
188,260,146085,2,0,P|148:200|156:152,1,100
340,72,146428,5,8,0:0:0:0:
372,104,146513,1,0,0:0:0:0:
392,144,146599,1,0,0:0:0:0:
392,188,146685,1,0,0:0:0:0:
372,232,146770,5,8,0:0:0:0:
328,200,146856,1,0,0:0:0:0:
288,200,146942,1,0,0:0:0:0:
256,240,147028,1,0,0:0:0:0:
196,220,147113,2,0,L|172:188,6,25,8|0|0|0|0|0|0,0:0|0:0|0:0|0:0|0:0|0:0|0:0,0:0:0:0:
168,280,147456,2,0,L|192:312,6,25,8|0|0|0|0|0|0,0:0|0:0|0:0|0:0|0:0|0:0|0:0,0:0:0:0:
180,76,147799,5,8,2:0:0:0:
368,144,147970,1,8,2:0:0:0:
176,184,148142,1,8,2:0:0:0:
308,36,148313,1,8,2:0:0:0:
288,228,148485,1,8,2:0:0:0:
136,96,151913,6,0,B|340:136|340:136|256:200,2,300.000011444092,4|0|0,0:0|0:0|0:0,0:0:0:0:
96,240,153628,2,0,P|128:288|144:304,1,75.0000028610231
336,168,153970,1,0,0:0:0:0:
160,64,154313,6,0,P|152:128|164:156,1,75.0000028610231,8|0,0:0|0:0,0:0:0:0:
280,188,154656,2,0,P|280:128|356:112,1,150.000005722046
404,252,155170,1,0,0:0:0:0:
120,144,155342,2,0,B|112:208|112:208|128:228,1,75.0000028610231
168,200,155599,1,8,0:0:0:0:
200,220,155685,2,0,P|240:220|284:192,1,75.0000028610231,8|0,2:0|0:0,0:0:0:0:
340,136,156028,2,0,L|408:300,2,150.000005722046
120,80,157056,6,0,L|88:176,1,75.0000028610231,4|0,0:0|0:0,0:0:0:0:
60,280,157399,1,0,0:0:0:0:
436,184,157742,1,0,0:0:0:0:
308,80,157913,2,0,P|312:136|340:168,1,75.0000028610231
436,308,158256,1,0,0:0:0:0:
296,332,158428,2,0,P|232:332|208:308,1,75.0000028610231
131,181,158770,5,8,2:0:0:0:
248,115,158942,1,0,0:0:0:0:
263,38,159113,5,8,2:0:0:0:
365,181,159284,1,0,0:0:0:0:
456,177,159456,5,8,2:0:0:0:
318,283,159628,1,0,0:0:0:0:
292,352,159799,5,8,2:0:0:0:
201,213,159970,1,0,0:0:0:0:
280,148,160142,2,0,P|321:199|292:112,1,300.000011444092,4|0,0:0|0:0,0:0:0:0:
100,216,161170,1,0,0:0:0:0:
380,296,161513,2,0,L|348:200,1,75.0000028610231
212,232,161856,1,0,0:0:0:0:
380,296,162028,1,0,0:0:0:0:
220,304,162199,2,0,P|160:284|144:252,1,75.0000028610231
200,84,162542,6,0,B|256:72|256:72|300:108,1,100
432,140,162885,1,4,0:0:0:0:
276,248,163056,1,0,0:0:0:0:
292,144,163228,5,8,2:0:0:0:
124,264,163399,1,0,0:0:0:0:
172,156,163570,6,0,B|172:40|172:40,1,100
276,248,163913,2,0,B|276:132|276:132,1,100,8|0,2:0|0:0,0:0:0:0:
452,96,164256,2,0,P|506:155|516:220,1,100,4|0,0:0|0:0,0:0:0:0:
348,110,164599,2,0,P|372:33|423:-7,1,100,8|0,2:0|0:0,0:0:0:0:
417,190,164942,2,0,P|338:207|278:184,1,100,8|0,2:0|0:0,0:0:0:0:
96,56,165285,5,8,2:0:0:0:
300,96,165456,1,8,2:0:0:0:
236,236,165628,2,0,P|244:300|220:328,1,100,8|0,2:0|0:0,0:0:0:0:
128,224,165970,2,0,P|120:160|144:132,1,100,8|0,2:0|0:0,0:0:0:0:
300,96,166313,1,8,2:0:0:0:
472,236,166485,1,8,2:0:0:0:
328,280,166656,1,8,2:0:0:0:
436,80,166828,1,0,0:0:0:0:
240,140,166999,6,0,B|276:204|276:204|236:204,1,100,4|0,0:0|0:0,0:0:0:0:
132,88,167342,2,0,B|169:24|169:24|189:59,1,100
136,200,167685,2,0,B|62:199|62:199|82:164,1,100
332,64,168028,1,8,2:0:0:0:
256,272,168199,1,8,2:0:0:0:
396,244,168370,2,0,B|416:184|416:184|476:164,1,100,8|0,2:0|0:0,0:0:0:0:
244,104,168713,2,0,B|224:164|224:164|164:184,1,100,8|0,2:0|0:0,0:0:0:0:
64,232,169056,2,0,P|48:288|120:264,1,150,8|0,2:0|0:0,0:0:0:0:
152,240,169399,1,0,0:0:0:0:
300,80,169570,5,8,2:0:0:0:
420,284,169742,2,0,B|448:300|448:300|444:224,1,100,8|0,2:0|0:0,0:0:0:0:
440,76,170085,5,8,2:0:0:0:
260,228,170256,2,0,B|256:264|256:264|216:176,1,100,8|0,2:0|0:0,0:0:0:0:
156,48,170599,1,8,2:0:0:0:
136,220,170770,1,8,2:0:0:0:
336,184,170942,1,0,0:0:0:0:
148,108,171113,5,8,2:0:0:0:
228,288,171285,1,8,2:0:0:0:
268,316,171370,1,0,0:0:0:0:
316,320,171456,2,8,P|376:296|400:240,1,100,8|8,2:0|2:0,2:0:0:0:
244,80,171970,5,8,2:0:0:0:
124,300,172313,5,8,2:0:0:0:
380,224,172656,5,8,2:0:0:0:
336,208,172742,1,0,0:0:0:0:
292,188,172828,1,0,0:0:0:0:
248,168,172913,1,0,0:0:0:0:
212,148,172999,1,8,0:0:0:0:
108,252,173170,5,8,2:0:0:0:
156,272,173256,1,0,0:0:0:0:
204,292,173342,1,0,0:0:0:0:
252,308,173427,1,0,0:0:0:0:
300,320,173513,2,0,P|336:300|336:212,1,129.999994049073,8|0,0:0|0:0,0:0:0:0:
360,88,173856,5,8,0:0:0:0:
344,64,173942,1,0,0:0:0:0:
92,76,174113,1,8,0:0:0:0:
88,108,174199,1,0,0:0:0:0:
128,248,174370,1,8,0:0:0:0:
228,136,174542,2,0,L|168:-8,1,129.999994049073
308,308,174885,1,0,0:0:0:0:
228,136,175056,1,0,0:0:0:0:
424,200,175228,5,8,0:0:0:0:
440,240,175313,1,0,0:0:0:0:
236,188,175485,1,8,0:0:0:0:
212,212,175570,1,0,0:0:0:0:
380,312,175742,1,8,0:0:0:0:
308,96,175913,2,0,B|196:16,1,129.999994049073,0|0,0:3|0:3,0:3:0:0:
128,256,176256,1,0,0:0:0:0:
352,192,176428,1,0,0:0:0:0:
64,44,176599,5,8,0:0:0:0:
40,36,176685,1,0,0:0:0:0:
208,200,176856,1,8,0:0:0:0:
240,212,176942,1,0,0:0:0:0:
236,48,177113,1,8,0:0:0:0:
88,160,177285,2,0,B|44:236|44:236|68:304,1,129.999994049073
244,336,177628,1,0,0:0:0:0:
408,188,177799,1,0,0:0:0:0:
212,84,177970,5,8,0:0:0:0:
188,112,178056,1,0,0:0:0:0:
280,268,178228,1,8,0:0:0:0:
320,256,178313,1,0,0:0:0:0:
440,136,178485,1,8,0:0:0:0:
300,72,178656,6,0,P|304:120|288:148,1,75.0000028610231
221,166,178999,2,0,P|216:129|232:96,1,75.0000028610231
336,308,179342,5,12,0:0:0:0:
360,324,179428,1,0,0:0:0:0:
148,288,179599,1,8,0:0:0:0:
112,300,179685,1,0,0:0:0:0:
360,184,179856,2,0,B|384:252|384:252|412:232,1,100,8|0,0:0|0:0,0:0:0:0:
236,96,180199,1,0,0:0:0:0:
64,168,180370,1,0,0:0:0:0:
200,308,180542,1,0,0:0:0:0:
420,320,180713,5,12,0:0:0:0:
452,296,180799,1,0,0:0:0:0:
288,192,180970,1,8,0:0:0:0:
252,176,181056,1,0,0:0:0:0:
424,72,181228,2,0,B|354:45|354:45|356:100,1,100,8|0,0:0|0:0,0:0:0:0:
216,248,181570,1,0,0:0:0:0:
376,352,181742,1,0,0:0:0:0:
468,204,181913,1,0,0:0:0:0:
256,192,182085,12,0,183456,0:0:0:0:
176,176,183799,6,4,B|136:252|136:252|192:252,1,129.999994049073,4|0,3:0|0:0,3:0:0:0:
309,130,184142,2,0,B|264:58|264:58|236:106,1,129.999994049073
282,269,184485,2,0,B|367:265|367:265|339:217,1,129.999994049073
116,152,184828,5,4,3:0:0:0:
224,316,184999,1,0,0:0:0:0:
420,140,185170,2,0,P|420:60|380:8,1,129.999994049073,8|0,0:0|0:0,0:0:0:0:
144,76,185513,1,0,0:0:0:0:
292,128,185685,1,0,0:0:0:0:
328,160,185770,1,0,0:0:0:0:
348,200,185856,2,0,P|332:272|268:300,1,129.999994049073,8|0,0:0|0:0,0:0:0:0:
106,200,186199,6,4,B|23:159|23:159|72:124,1,129.999994049073,4|0,3:0|0:0,3:0:0:0:
250,154,186542,2,0,B|256:246|256:246|201:221,1,129.999994049073
140,52,186885,2,0,B|216:1|216:1|223:61,1,129.999994049073
160,312,187228,1,0,0:0:0:0:
376,212,187399,1,0,0:0:0:0:
100,144,187570,5,4,0:0:0:0:
280,328,187742,1,0,0:0:0:0:
312,128,187913,2,0,P|268:80|184:84,1,129.999994049073,8|0,0:0|0:0,0:0:0:0:
100,264,188256,1,0,0:0:0:0:
312,128,188428,1,0,0:0:0:0:
351,129,188513,1,0,0:0:0:0:
385,141,188599,2,0,P|444:192|432:253,1,129.999994049073,8|0,0:0|0:0,0:0:0:0:
352,336,188942,5,8,2:0:0:0:
216,236,189113,1,0,0:0:0:0:
112,336,189285,5,8,2:0:0:0:
296,160,189456,1,0,0:0:0:0:
412,256,189628,5,8,2:0:0:0:
212,92,189800,1,0,0:0:0:0:
108,144,189971,5,8,2:0:0:0:
332,48,190143,1,0,0:0:0:0:
356,192,190313,2,0,P|372:264|332:320,1,129.999994049073
100,212,190656,5,4,0:0:0:0:
272,324,190828,1,8,2:0:0:0:
276,196,190999,1,8,2:0:0:0:
100,328,191170,1,0,0:0:0:0:
272,68,191342,1,8,2:0:0:0:
88,68,191513,1,0,0:0:0:0:
272,324,191685,1,8,2:0:0:0:
100,212,191856,1,8,2:0:0:0:
348,308,192028,2,0,P|404:244|392:184,1,129.999994049073,8|0,2:0|0:0,0:0:0:0:
336,80,192370,6,0,P|268:132|264:192,1,129.999994049073,4|0,3:0|0:0,0:0:0:0:
256,332,192713,1,0,0:0:0:0:
376,128,192885,1,0,0:0:0:0:
128,116,193056,2,0,P|144:192|184:236,1,129.999994049073,4|0,3:0|0:0,0:0:0:0:
392,240,193399,1,0,0:0:0:0:
312,56,193570,1,0,0:0:0:0:
240,272,193742,6,0,P|320:312|356:280,1,129.999994049073,0|0,3:0|0:0,0:0:0:0:
372,84,194085,1,0,0:0:0:0:
160,212,194256,5,8,2:0:0:0:
364,188,194428,1,8,2:0:0:0:
164,324,194599,1,0,0:0:0:0:
232,68,194770,1,8,2:0:0:0:
68,204,194942,1,0,0:0:0:0:
296,232,195113,2,0,B|276:320|276:320|324:300,1,129.999994049073,8|0,2:0|0:0,0:0:0:0:
440,160,195456,2,0,B|460:72|460:72|412:92,1,129.999994049073,8|0,2:0|0:0,0:0:0:0:
184,160,195799,5,4,0:0:0:0:
292,320,195970,1,0,0:0:0:0:
332,320,196056,1,0,0:0:0:0:
376,304,196142,2,0,P|416:248|416:176,1,129.999994049073,8|0,0:0|0:0,0:0:0:0:
232,40,196485,1,0,3:0:0:0:
288,232,196656,1,0,0:0:0:0:
336,96,196828,1,8,0:0:0:0:
116,64,196999,1,0,0:0:0:0:
100,236,197170,6,4,B|79:326|79:326|137:310,1,129.999994049073,4|0,3:0|0:0,3:0:0:0:
226,153,197513,2,0,B|158:90|158:90|143:148,1,129.999994049073
236,302,197856,2,0,B|323:275|323:275|281:231,1,129.999994049073
160,92,198199,1,0,0:0:0:0:
236,302,198370,1,0,0:0:0:0:
396,276,198542,6,0,P|352:224|352:152,1,129.999994049073,4|0,0:0|0:0,0:0:0:0:
136,112,198885,2,0,P|240:72|256:44,1,129.999994049073,8|0,0:0|0:0,0:0:0:0:
416,108,199228,1,0,0:0:0:0:
264,256,199399,1,0,0:0:0:0:
312,132,199570,2,0,P|320:52|260:36,1,129.999994049073
168,132,199913,5,8,2:0:0:0:
376,208,200085,1,0,0:0:0:0:
416,88,200256,5,8,2:0:0:0:
188,216,200428,1,0,0:0:0:0:
272,120,200599,5,8,2:0:0:0:
376,320,200770,1,0,0:0:0:0:
436,216,200942,5,8,2:0:0:0:
196,320,201113,1,0,0:0:0:0:
256,232,201285,2,0,B|344:200|344:200|296:188,1,129.999994049073,8|0,2:0|0:0,0:0:0:0:
112,140,201628,5,4,0:0:0:0:
400,88,201799,1,8,2:0:0:0:
200,136,201971,1,8,2:0:0:0:
380,192,202143,1,0,0:0:0:0:
152,72,202314,1,8,2:0:0:0:
348,320,202485,1,0,0:0:0:0:
392,136,202657,1,8,2:0:0:0:
156,284,202828,1,8,2:0:0:0:
216,164,202999,2,0,P|208:104|144:64,1,129.999994049073
64,204,203342,5,0,0:0:0:0:
228,336,203513,1,0,0:0:0:0:
368,232,203685,2,0,P|348:160|384:108,1,129.999994049073
368,232,204028,5,4,3:0:0:0:
187,180,204200,1,0,0:0:0:0:
368,115,204371,1,0,0:0:0:0:
254,272,204542,1,0,0:0:0:0:
256,88,204714,5,4,3:0:0:0:
450,232,204885,1,0,0:0:0:0:
202,232,205057,1,0,0:0:0:0:
395,73,205228,1,0,0:0:0:0:
324,322,205400,1,4,3:0:0:0:
256,192,205570,12,0,206428,0:0:0:0:
301,269,206770,5,0,0:0:0:0:
211,269,206942,1,0,0:0:0:0:
166,191,207113,1,0,0:0:0:0:
211,114,207285,1,0,0:0:0:0:
256,191,207456,5,0,0:0:0:0:
211,269,207628,1,0,0:0:0:0:
121,268,207799,1,0,0:0:0:0:
76,191,207970,1,0,0:0:0:0:
76,191,208056,1,0,0:0:0:0:
76,191,208142,2,0,L|32:116,3,50,8|0|0|0,0:0|0:0|0:0|0:0,0:0:0:0:
100,84,208485,2,0,L|144:159,3,50,8|0|0|0,0:0|0:0|0:0|0:0,0:0:0:0:
204,120,208828,2,0,L|160:45,3,50,8|0|0|0,0:0|0:0|0:0|0:0,0:0:0:0:
224,8,209170,2,0,L|268:83,3,50,8|0|0|0,0:0|0:0|0:0|0:0,0:0:0:0:
284,104,209513,6,0,L|284:212,1,100
396,276,209856,2,0,L|396:156,1,100
160,40,210199,2,0,L|160:160,1,100
264,288,210542,1,0,0:0:0:0:
264,108,210713,1,0,0:0:0:0:
48,232,210885,2,0,L|76:308,3,50,8|0|0|0,0:0|0:0|0:0|0:0,0:0:0:0:
120,208,211228,2,0,L|92:132,3,50,8|0|0|0,0:0|0:0|0:0|0:0,0:0:0:0:
188,184,211570,2,0,L|216:260,3,50,8|0|0|0,0:0|0:0|0:0|0:0,0:0:0:0:
228,280,211913,2,0,P|296:324|336:324,1,100
324,272,212170,5,0,0:0:0:0:
336,216,212256,2,0,P|385:217|427:192,1,100,4|0,0:0|0:0,0:0:0:0:
168,148,212599,2,0,P|228:116|284:128,1,100
336,168,212942,2,0,P|404:196|456:176,1,100
412,108,213285,2,0,P|352:76|296:88,1,100
256,120,213628,1,0,0:0:0:0:
192,184,213799,1,0,0:0:0:0:
196,272,213970,1,0,0:0:0:0:
264,332,214142,1,0,0:0:0:0:
352,316,214313,6,0,L|412:360,3,50,8|0|0|0,0:0|0:0|0:0|0:0,0:0:0:0:
356,240,214656,2,0,L|392:188,3,50,8|0|0|0,0:0|0:0|0:0|0:0,0:0:0:0:
272,284,214999,2,0,P|216:248|160:232,1,100,4|0,0:0|0:0,0:0:0:0:
276,184,215342,2,0,P|232:128|192:104,1,100
112,184,215685,2,0,P|72:224|60:280,1,100
160,280,216028,2,0,P|184:340|232:356,1,100
296,324,216370,5,0,0:0:0:0:
340,244,216542,1,0,0:0:0:0:
304,164,216713,1,0,0:0:0:0:
256,240,216885,1,0,0:0:0:0:
392,120,217056,2,0,B|420:64|420:64|304:20|180:104,1,300,8|0,0:0|0:0,0:0:0:0:
204,280,217742,5,4,0:0:0:0:
156,204,217913,1,0,0:0:0:0:
200,124,218085,1,0,0:0:0:0:
288,120,218256,1,0,0:0:0:0:
348,188,218428,2,0,L|300:284,3,100
268,304,219028,1,0,0:0:0:0:
224,312,219113,1,4,0:0:0:0:
180,248,219285,5,0,0:0:0:0:
176,160,219456,1,0,0:0:0:0:
252,108,219628,1,0,0:0:0:0:
332,148,219799,2,0,L|372:268,3,100
356,288,220399,1,0,0:0:0:0:
320,316,220485,1,4,0:0:0:0:
232,308,220656,5,0,0:0:0:0:
176,240,220828,1,0,0:0:0:0:
204,156,220999,1,0,0:0:0:0:
288,128,221170,2,0,L|368:216,3,100
368,244,221770,1,0,0:0:0:0:
344,284,221856,1,4,0:0:0:0:
256,264,222028,5,0,0:0:0:0:
196,196,222199,2,0,B|168:120|168:120|192:92,1,100
312,120,222542,1,0,0:0:0:0:
340,148,222628,1,0,0:0:0:0:
368,176,222713,1,0,0:0:0:0:
396,204,222799,1,0,0:0:0:0:
424,232,222885,2,0,B|408:284|408:284|352:300,1,100
224,272,223228,6,0,L|180:288,4,29.9999990844727,0|0|0|0|0,3:0|0:0|0:0|0:0|0:0,0:0:0:0:
264,240,223485,1,0,0:0:0:0:
244,192,223570,2,0,P|180:180|140:140,1,100,8|0,0:0|0:0,0:0:0:0:
304,84,223913,6,0,L|344:68,4,29.9999990844727,0|0|0|0|0,3:0|0:0|0:0|0:0|0:0,0:0:0:0:
264,120,224170,1,0,0:0:0:0:
304,156,224256,2,0,P|348:180|360:248,1,119.999996337891,8|0,0:0|0:0,0:0:0:0:
292,344,224599,6,0,L|316:372,4,29.9999990844727,0|0|0|0|0,3:0|0:0|0:0|0:0|0:0,0:0:0:0:
248,320,224856,1,0,0:0:0:0:
264,272,224942,2,0,P|264:204|212:172,1,119.999996337891,8|0,0:0|0:0,0:0:0:0:
68,172,225285,6,0,L|40:132,4,29.9999990844727,0|0|0|0|0,3:0|0:0|0:0|0:0|0:0,0:0:0:0:
56,228,225542,1,0,0:0:0:0:
104,244,225628,2,0,P|180:236|204:272,1,119.999996337891,8|0,0:0|0:0,0:0:0:0:
256,192,225970,12,0,227342,0:0:0:0:
200,248,227685,6,0,B|168:224|168:224|180:192,1,59.9999981689454,4|0,0:0|0:0,0:0:0:0:
244,132,227856,2,0,B|276:112|276:112|304:164,1,59.9999981689454
332,228,228028,2,0,B|320:264|320:264|276:264,1,59.9999981689454
224,200,228199,2,0,P|180:156|180:108,1,59.9999981689454
196,48,228370,2,0,P|232:40|300:48,2,59.9999981689454
88,164,228713,5,0,3:0:0:0:
344,248,228885,1,0,0:0:0:0:
328,260,228970,1,0,0:0:0:0:
304,272,229056,2,0,P|244:280|188:244,1,119.999996337891,8|0,0:0|0:0,0:0:0:0:
136,124,229399,1,0,0:0:0:0:
312,60,229570,1,0,0:0:0:0:
92,240,229742,2,0,P|168:240|216:212,1,119.999996337891,8|0,0:0|0:0,0:0:0:0:
240,200,229999,1,0,0:0:0:0:
264,168,230085,1,0,3:0:0:0:
332,296,230256,5,0,0:0:0:0:
180,140,230428,1,8,0:0:0:0:
404,140,230599,1,0,0:0:0:0:
384,168,230685,1,0,0:0:0:0:
360,188,230770,2,0,P|272:216|224:208,1,119.999996337891,0|0,3:0|0:0,0:0:0:0:
48,204,231113,1,8,0:0:0:0:
200,332,231285,1,8,0:0:0:0:
432,232,231456,5,8,0:0:0:0:
422,200,231541,1,0,0:0:0:0:
413,168,231627,1,8,0:0:0:0:
403,137,231713,1,0,0:0:0:0:
364,120,231799,2,0,L|344:48,3,59.9999981689454,8|0|8|0,0:0|0:0|0:0|0:0,0:0:0:0:
324,156,232142,5,8,0:0:0:0:
333,187,232227,1,0,0:0:0:0:
342,219,232313,1,8,0:0:0:0:
352,250,232399,1,0,0:0:0:0:
312,284,232485,2,0,L|332:356,3,59.9999981689454,8|0|8|0,0:0|0:0|0:0|0:0,0:0:0:0:
248,316,232828,2,0,L|204:160,1,119.999996337891,8|0,0:0|0:0,0:0:0:0:
196,152,233085,1,0,0:0:0:0:
164,112,233170,6,0,B|132:180|132:180|200:184,1,119.999996337891,8|0,0:0|0:0,0:0:0:0:
400,328,233513,2,0,B|441:275|441:275|433:223,1,119.999996337891,8|8,0:0|0:0,0:0:0:0:
376,228,233770,1,0,0:0:0:0:
316,232,233856,2,0,B|308:180|308:180|352:124,1,119.999996337891,8|0,0:0|0:0,0:0:0:0:
200,56,234113,5,0,0:0:0:0:
200,56,234199,2,0,L|104:136,1,119.999996337891,8|0,0:0|0:0,0:0:0:0:
92,252,234456,5,0,0:0:0:0:
92,252,234542,2,0,L|188:172,1,119.999996337891,8|0,0:0|0:0,0:0:0:0:
356,48,234885,2,0,L|464:140,1,119.999996337891,8|0,0:0|0:0,0:0:0:0:
444,180,235142,1,0,0:0:0:0:
436,236,235228,2,0,L|328:144,1,119.999996337891,8|0,0:0|0:0,0:0:0:0:
192,72,235570,6,0,P|152:68|116:28,2,79.9999975585938,8|0|0,3:0|0:0|0:0,0:0:0:0:
256,156,235913,2,0,P|296:156|332:200,2,79.9999975585938,8|0|0,0:0|0:0|0:0,0:0:0:0:
152,164,236256,2,0,P|152:220|184:236,2,79.9999975585938,8|0|0,0:0|0:0|0:0,0:0:0:0:
280,88,236599,2,0,P|300:40|288:8,2,79.9999975585938,8|0|0,0:0|0:0|0:0,0:0:0:0:
204,328,236942,5,8,0:0:0:0:
396,232,237113,1,0,0:0:0:0:
128,188,237285,5,8,0:0:0:0:
296,320,237456,1,0,0:0:0:0:
380,184,237628,2,0,P|316:164|272:124,1,119.999996337891,8|0,0:0|0:0,0:0:0:0:
256,192,237885,1,0,0:0:0:0:
236,252,237970,2,0,P|196:176|192:104,1,119.999996337891,8|0,0:0|0:0,0:0:0:0:
292,44,238313,1,0,0:0:0:0:
396,232,238485,1,8,0:0:0:0:
400,240,238570,1,0,0:0:0:0:
400,240,238656,2,0,P|344:272|280:260,1,119.999996337891
132,312,238999,6,0,P|112:252|144:192,1,119.999996337891
164,168,239256,1,0,0:0:0:0:
208,156,239342,2,0,P|308:160|336:120,1,119.999996337891,8|0,0:0|0:0,0:0:0:0:
464,44,239685,5,0,3:0:0:0:
467,79,239770,1,0,0:0:0:0:
448,110,239856,1,0,0:0:0:0:
416,125,239942,1,0,0:0:0:0:
381,123,240028,1,8,0:0:0:0:
176,232,240199,5,8,0:0:0:0:
144,204,240285,1,0,0:0:0:0:
132,164,240371,1,0,0:0:0:0:
144,124,240457,1,0,0:0:0:0:
176,96,240542,1,8,0:0:0:0:
220,92,240628,1,0,0:0:0:0:
260,108,240713,2,0,B|304:176|304:176|304:260,1,119.999996337891,8|0,0:0|0:0,0:0:0:0:
176,320,241056,6,0,B|248:356|248:356|296:328,1,119.999996337891,4|0,0:0|0:0,0:0:0:0:
320,316,241313,1,0,0:0:0:0:
320,272,241399,1,8,0:0:0:0:
356,252,241485,1,0,0:0:0:0:
356,212,241570,1,0,0:0:0:0:
384,180,241656,1,0,0:0:0:0:
360,144,241742,2,0,B|320:136|320:136|328:96|328:96|252:104,1,119.999996337891,8|0,0:0|0:0,0:0:0:0:
136,168,242085,5,12,0:0:0:0:
376,300,242256,1,8,0:0:0:0:
416,276,242342,1,0,0:0:0:0:
444,240,242428,2,0,P|460:180|440:120,1,119.999996337891
208,44,242770,5,0,0:0:0:0:
252,256,242942,1,0,0:0:0:0:
204,264,243028,1,0,0:0:0:0:
160,252,243113,2,0,P|120:236|72:144,1,119.999996337891,8|0,0:0|0:0,0:0:0:0:
232,84,243456,1,8,0:0:0:0:
324,300,243628,1,8,0:0:0:0:
432,192,243799,6,0,P|432:120|384:72,1,119.999996337891,4|0,0:0|0:0,0:0:0:0:
116,320,244142,1,0,0:0:0:0:
324,300,244313,1,0,0:0:0:0:
204,76,244485,2,0,P|116:104|104:144,1,119.999996337891,8|0,0:0|0:0,0:0:0:0:
104,176,244742,1,0,0:0:0:0:
112,220,244828,2,0,P|172:288|244:292,1,119.999996337891,8|0,0:0|0:0,0:0:0:0:
420,240,245170,6,0,L|468:260,1,37.5000014305115,8|0,0:0|0:0,0:0:0:0:
360,296,245342,1,0,0:0:0:0:
316,280,245428,1,0,0:0:0:0:
272,256,245513,2,0,P|224:200|208:136,1,129.999994049073,8|0,0:0|0:0,0:0:0:0:
348,120,245856,5,0,0:0:0:0:
112,304,246028,1,0,0:0:0:0:
136,72,246199,2,0,P|200:40|272:40,1,129.999994049073,8|0,0:0|0:0,0:0:0:0:
272,256,246542,2,0,L|228:316,1,64.9999970245363,0|0,3:0|0:0,0:0:0:0:
300,340,246713,1,0,0:0:0:0:
336,304,246799,1,0,0:0:0:0:
356,268,246885,2,0,P|372:188|352:140,1,129.999994049073,8|0,0:0|0:0,0:0:0:0:
172,264,247228,5,8,0:0:0:0:
452,260,247399,1,0,0:0:0:0:
356,56,247570,2,0,P|240:72|200:104,1,150.000005722046,8|0,0:0|0:0,0:0:0:0:
112,208,247913,5,8,0:0:0:0:
144,188,247999,1,0,0:0:0:0:
180,176,248085,1,8,0:0:0:0:
216,168,248170,1,0,0:0:0:0:
252,172,248256,1,8,0:0:0:0:
288,184,248342,1,0,0:0:0:0:
320,204,248428,1,8,0:0:0:0:
348,228,248513,1,0,0:0:0:0:
364,188,248599,6,0,L|420:164,1,37.5000014305115,8|0,0:0|0:0,0:0:0:0:
356,144,248685,2,0,L|392:112,1,37.5000014305115
336,104,248770,2,0,L|360:60,1,37.5000014305115,8|0,0:0|0:0,0:0:0:0:
300,76,248856,2,0,L|304:24,1,37.5000014305115,8|0,0:0|0:0,0:0:0:0:
260,60,248942,2,0,L|252:16,1,37.5000014305115,8|0,0:0|0:0,0:0:0:0:
216,52,249028,2,0,L|192:24,1,37.5000014305115
172,52,249113,2,0,L|132:24,1,37.5000014305115,8|0,0:0|0:0,0:0:0:0:
128,68,249199,2,0,L|84:48,1,37.5000014305115
92,96,249285,2,0,P|55:87|92:236,1,300.000011444092,8|0,0:0|0:0,0:0:0:0:
292,248,249970,6,0,P|404:264|376:156,1,239.999992675781,4|0,0:0|0:0,0:0:0:0:
240,128,250485,1,0,0:0:0:0:
124,228,250656,2,0,P|136:296|200:328,1,129.999994049073,0|0,3:0|0:0,0:0:0:0:
224,340,250913,1,0,0:0:0:0:
280,348,250999,2,0,P|347:336|380:272,1,129.999994049073,0|0,3:0|0:0,0:0:0:0:
184,132,251342,1,0,3:0:0:0:
296,36,251513,1,0,0:0:0:0:
400,148,251685,1,0,0:0:0:0:
292,248,251856,1,0,0:0:0:0:
120,216,252028,6,0,B|88:132|176:100,1,129.999994049073,8|0,2:0|0:0,0:0:0:0:
292,248,252370,2,0,B|235:317|163:257,1,129.999994049073,8|0,2:0|0:0,0:0:0:0:
240,88,252713,2,0,B|328:102|312:194,1,129.999994049073,8|0,2:0|0:0,0:0:0:0:
120,216,253056,2,0,P|72:264|144:284,1,129.999994049073,4|0,0:0|0:0,0:0:0:0:
275,319,253399,6,0,P|359:234|351:208,1,129.999994049073,0|0,3:0|0:0,0:0:0:0:
484,28,253742,1,0,0:0:0:0:
284,84,253913,1,0,0:0:0:0:
360,242,254085,1,0,3:0:0:0:
124,188,254256,1,0,0:0:0:0:
88,224,254342,1,0,0:0:0:0:
88,272,254428,2,0,P|112:344|168:356,1,129.999994049073
328,300,254770,5,8,2:0:0:0:
456,204,254942,1,0,0:0:0:0:
264,200,255113,5,8,2:0:0:0:
152,88,255285,1,0,0:0:0:0:
380,40,255456,5,8,2:0:0:0:
484,124,255628,1,0,0:0:0:0:
336,140,255799,5,8,2:0:0:0:
192,256,255970,1,0,0:0:0:0:
440,332,256142,2,0,B|496:280|496:280|288:232,1,259.999988098145,4|0,0:0|0:0,0:0:0:0:
112,152,256656,5,8,2:0:0:0:
408,152,256828,1,8,2:0:0:0:
212,80,256999,1,0,0:0:0:0:
276,336,257170,1,8,2:0:0:0:
356,76,257342,1,0,0:0:0:0:
412,308,257513,1,8,2:0:0:0:
188,248,257685,1,8,2:0:0:0:
420,120,257856,2,0,P|464:152|440:232,1,129.999994049073,4|0,0:0|0:0,0:0:0:0:
260,196,258199,5,0,0:0:0:0:
148,72,258370,1,0,0:0:0:0:
120,80,258456,1,0,0:0:0:0:
96,92,258542,2,0,P|48:160|56:212,1,129.999994049073
220,328,258885,5,0,3:0:0:0:
208,164,259056,1,0,0:0:0:0:
364,252,259228,2,0,B|408:184|408:184|384:124,1,129.999994049073
152,276,259570,5,0,3:0:0:0:
304,188,259742,1,0,0:0:0:0:
108,136,259913,2,0,B|120:56|120:56|184:36,1,129.999994049073,0|8,0:0|2:0,0:0:0:0:
376,48,260256,5,8,2:0:0:0:
204,192,260428,1,0,0:0:0:0:
456,180,260599,1,8,2:0:0:0:
232,84,260770,1,8,2:0:0:0:
348,224,260942,2,0,B|376:300|324:344,1,129.999994049073,8|0,2:0|0:0,0:0:0:0:
160,252,261285,2,0,P|144:168|172:124,1,129.999994049073,8|0,2:0|0:0,0:0:0:0:
376,80,261628,6,0,B|412:160|412:160|456:180,1,129.999994049073,0|0,3:0|0:0,0:0:0:0:
260,216,261970,2,0,B|260:292|260:292|220:332,1,129.999994049073
160,324,262228,1,0,0:0:0:0:
104,308,262313,2,0,B|92:232|92:232|124:180,1,129.999994049073,0|0,3:0|0:0,0:0:0:0:
232,83,262656,1,0,0:0:0:0:
376,304,262828,1,0,0:0:0:0:
184,164,262999,6,0,B|130:210|130:210|139:281,1,129.999994049073,8|0,2:0|0:0,0:0:0:0:
300,176,263342,2,0,B|286:106|286:106|220:78,1,129.999994049073,8|0,2:0|0:0,0:0:0:0:
244,256,263685,2,0,B|311:279|311:279|367:236,1,129.999994049073,8|0,2:0|0:0,0:0:0:0:
412,48,264028,2,0,P|472:64|472:124,1,129.999994049073
292,204,264370,5,0,3:0:0:0:
168,92,264542,1,0,0:0:0:0:
140,104,264628,1,0,0:0:0:0:
120,128,264713,2,0,P|96:204|108:256,1,129.999994049073
332,312,265056,1,0,3:0:0:0:
456,144,265228,1,0,0:0:0:0:
432,108,265313,1,0,0:0:0:0:
396,88,265399,2,0,P|300:92|264:136,1,129.999994049073
472,292,265742,5,8,2:0:0:0:
280,188,265913,1,0,0:0:0:0:
452,176,266085,5,8,2:0:0:0:
204,296,266256,1,0,0:0:0:0:
376,272,266428,5,8,2:0:0:0:
240,88,266599,1,0,0:0:0:0:
380,108,266770,5,8,2:0:0:0:
260,364,266942,1,0,0:0:0:0:
469,264,267113,2,0,P|481:192|441:148,1,129.999994049073
148,56,267456,5,4,0:0:0:0:
332,188,267628,1,8,2:0:0:0:
348,36,267799,1,8,2:0:0:0:
188,228,267970,1,0,0:0:0:0:
448,152,268142,1,8,2:0:0:0:
256,340,268313,1,0,0:0:0:0:
212,76,268485,1,8,2:0:0:0:
420,272,268656,1,8,2:0:0:0:
111,309,268828,2,0,P|119:261|195:229,1,129.999994049073,8|0,2:0|0:0,0:0:0:0:
384,216,269170,5,0,0:0:0:0:
256,340,269342,1,0,0:0:0:0:
187,227,269513,2,0,P|251:158|311:187,1,129.999994049073
423,179,269856,5,4,3:0:0:0:
303,325,270028,1,0,0:0:0:0:
314,133,270199,1,0,0:0:0:0:
416,299,270370,1,0,0:0:0:0:
247,226,270542,5,4,3:0:0:0:
455,103,270713,1,0,0:0:0:0:
358,332,270885,1,0,0:0:0:0:
285,92,271056,1,0,0:0:0:0:
487,254,271228,1,4,3:0:0:0:
256,192,271399,12,0,272256,0:0:0:0:
208,208,283570,6,0,P|192:148|216:120,1,75.0000028610231,4|0,0:0|0:0,0:0:0:0:
292,164,283913,2,0,P|308:224|284:252,1,75.0000028610231
232,300,284256,2,0,P|160:304|144:284,1,75.0000028610231
204,216,284599,2,0,P|268:188|272:176,1,75.0000028610231
276,140,284856,1,0,0:0:0:0:
252,100,284942,2,0,P|188:128|184:140,1,75.0000028610231,8|0,0:0|0:0,0:0:0:0:
156,236,285285,5,8,0:0:0:0:
256,284,285456,1,0,0:0:0:0:
312,188,285628,1,8,0:0:0:0:
212,136,285799,1,0,0:0:0:0:
256,284,285970,2,0,P|336:312|352:304,1,75.0000028610231,8|0,0:0|0:0,0:0:0:0:
432,316,286313,5,0,0:0:0:0:
460,208,286485,1,0,0:0:0:0:
424,100,286656,2,0,P|384:52|348:52,1,75.0000028610231
280,112,286999,1,0,0:0:0:0:
232,212,287170,1,0,0:0:0:0:
312,292,287342,2,0,P|340:236|364:224,1,75.0000028610231
436,150,287685,5,8,0:0:0:0:
348,78,287856,1,0,0:0:0:0:
264,154,288028,1,8,0:0:0:0:
348,230,288199,1,0,0:0:0:0:
348,78,288370,2,0,P|276:62|248:66,1,75.0000028610231,8|0,0:0|0:0,0:0:0:0:
192,136,288713,1,0,0:0:0:0:
304,140,288885,5,0,0:0:0:0:
328,152,288970,1,0,0:0:0:0:
344,172,289056,2,0,P|340:232|324:244,1,75.0000028610231,4|0,0:0|0:0,0:0:0:0:
232,188,289399,2,0,P|188:184|156:212,1,75.0000028610231
220,300,289742,2,0,P|264:304|296:276,1,75.0000028610231
328,184,290085,2,0,P|304:148|264:132,1,75.0000028610231
172,176,290428,5,8,0:0:0:0:
117,275,290599,1,8,0:0:0:0:
218,327,290770,1,8,0:0:0:0:
270,229,290942,1,0,0:0:0:0:
117,275,291113,2,0,P|68:224|72:200,1,75.0000028610231,8|0,0:0|0:0,0:0:0:0:
270,229,291456,2,0,P|288:168|280:148,1,75.0000028610231,8|0,0:0|0:0,0:0:0:0:
204,84,291799,5,8,0:0:0:0:
172,192,291970,1,0,0:0:0:0:
270,229,292142,2,0,P|334:201|350:177,1,75.0000028610231,8|0,0:0|0:0,0:0:0:0:
252,72,292485,5,8,0:0:0:0:
144,36,292656,1,8,0:0:0:0:
176,144,292828,2,0,P|112:136|92:120,1,75.0000028610231
172,220,293170,5,8,0:0:0:0:
283,207,293342,1,8,0:0:0:0:
291,317,293513,1,8,0:0:0:0:
177,326,293685,1,8,0:0:0:0:
283,207,293856,2,0,P|299:143|281:120,1,75.0000028610231
144,80,294199,1,0,3:0:0:0:
312,288,294542,5,4,0:0:0:0:
204,252,294713,1,0,0:0:0:0:
304,196,294885,2,0,P|264:152|220:152,1,75.0000028610231
204,252,295228,1,0,0:0:0:0:
304,196,295399,1,0,0:0:0:0:
208,140,295570,1,0,0:0:0:0:
104,188,295742,5,0,0:0:0:0:
88,208,295828,1,0,0:0:0:0:
76,232,295913,2,0,P|60:284|72:320,1,75.0000028610231,8|0,0:0|0:0,0:0:0:0:
172,264,296256,1,8,0:0:0:0:
272,316,296428,1,0,0:0:0:0:
364,256,296599,1,8,0:0:0:0:
272,316,296770,1,0,0:0:0:0:
172,264,296942,2,0,P|208:232|204:208,1,75.0000028610231,8|0,0:0|0:0,0:0:0:0:
124,132,297285,5,0,0:0:0:0:
204,52,297456,1,0,0:0:0:0:
288,128,297628,1,0,0:0:0:0:
208,208,297799,1,0,0:0:0:0:
124,132,297970,5,0,0:0:0:0:
288,128,298142,1,0,0:0:0:0:
204,52,298313,1,0,0:0:0:0:
208,208,298485,1,0,0:0:0:0:
300,276,298656,6,0,P|324:236|368:224,1,75.0000028610231,8|0,0:0|0:0,0:0:0:0:
372,116,298999,2,0,P|412:140|424:184,1,75.0000028610231,8|0,0:0|0:0,0:0:0:0:
428,276,299342,2,0,P|404:316|360:328,1,75.0000028610231,8|0,0:0|0:0,0:0:0:0:
260,256,299685,1,0,0:0:0:0:
328,168,299856,5,0,0:0:0:0:
336,144,299942,1,0,0:0:0:0:
324,120,300028,2,0,P|256:100|240:120,1,75.0000028610231,8|0,0:0|0:0,0:0:0:0:
184,180,300370,1,0,0:0:0:0:
268,256,300542,1,0,0:0:0:0:
160,288,300713,1,8,0:0:0:0:
184,180,300885,5,0,0:0:0:0:
132,80,301056,1,0,0:0:0:0:
244,96,301228,1,0,0:0:0:0:
300,192,301399,2,0,P|328:232|332:264,1,75.0000028610231,8|0,0:0|0:0,0:0:0:0:
224,296,301742,2,0,P|196:256|192:224,1,75.0000028610231,8|0,0:0|0:0,0:0:0:0:
244,132,302085,5,8,0:0:0:0:
224,296,302256,1,8,0:0:0:0:
332,257,302428,1,0,0:0:0:0:
140,168,302599,1,0,0:0:0:0:
204,76,302770,5,8,0:0:0:0:
312,40,302942,1,0,0:0:0:0:
284,148,303113,1,8,0:0:0:0:
392,112,303285,1,8,0:0:0:0:
204,76,303456,5,0,0:0:0:0:
312,40,303628,1,8,0:0:0:0:
392,112,303799,1,8,0:0:0:0:
284,148,303970,1,0,0:0:0:0:
176,112,304142,6,0,P|144:144|128:184,1,75.0000028610231,8|0,0:0|0:0,0:0:0:0:
232,220,304485,2,0,P|264:272|288:284,1,75.0000028610231,8|0,0:0|0:0,0:0:0:0:
320,88,304828,1,8,0:0:0:0:
148,316,305170,5,4,0:0:0:0:
320,212,305513,6,0,P|371:206|295:253,1,300
261,231,306885,6,0,P|210:288|256:197,1,359.999989013672
288,176,308256,6,0,P|245:91|331:180,1,419.999987182618,0|0,0:0|0:0,0:3:0:0:
280,240,309628,6,0,P|271:298|262:203,1,480,4|0,0:0|0:0,0:0:0:0:
380,84,310999,5,4,0:0:0:0:
404,112,311170,1,0,0:0:0:0:
404,148,311342,1,8,0:0:0:0:
388,180,311513,1,0,0:0:0:0:
272,252,311685,5,4,0:0:0:0:
212,260,311856,1,0,0:0:0:0:
152,244,312028,1,8,0:0:0:0:
108,204,312199,1,0,0:0:0:0:
232,100,312370,5,4,0:0:0:0:
288,168,312542,1,0,0:0:0:0:
296,256,312713,1,8,0:0:0:0:
232,320,312885,1,0,0:0:0:0:
88,192,313056,5,4,0:0:0:0:
180,112,313228,1,0,0:0:0:0:
300,104,313399,1,8,0:0:0:0:
392,180,313570,1,0,0:0:0:0:
390,347,313742,1,4,0:0:0:0:
343,336,313828,1,0,0:0:0:0:
302,316,313913,1,0,0:0:0:0:
271,279,313999,1,0,0:0:0:0:
245,243,314085,5,0,0:0:0:0:
230,202,314170,1,0,0:0:0:0:
224,155,314256,1,0,0:0:0:0:
235,109,314342,1,0,0:0:0:0:
256,67,314428,5,0,0:0:0:0:
292,36,314513,1,0,0:0:0:0:
333,21,314599,1,0,0:0:0:0:
380,21,314685,1,0,0:0:0:0:
416,47,314770,5,0,0:0:0:0:
426,93,314856,1,0,0:0:0:0:
405,135,314942,1,0,0:0:0:0:
364,155,315028,1,0,0:0:0:0:
256,192,315113,12,0,316142,0:0:0:0:
208,88,316485,6,0,P|152:136|144:196,1,119.999996337891,12|0,0:0|0:0,0:0:0:0:
300,236,316828,2,0,P|344:288|344:352,1,119.999996337891
156,272,317170,1,8,0:0:0:0:
192,124,317342,1,0,0:0:0:0:
436,204,317513,2,0,P|368:187|326:137,1,119.999996337891
304,120,317770,1,0,0:0:0:0:
268,88,317856,2,0,P|208:32|144:32,1,119.999996337891,8|0,0:0|0:0,0:0:0:0:
136,148,318199,5,8,0:0:0:0:
316,248,318370,1,0,0:0:0:0:
304,120,318542,5,8,0:0:0:0:
112,296,318713,1,0,0:0:0:0:
264,344,318885,5,8,0:0:0:0:
192,112,319056,1,0,0:0:0:0:
264,344,319228,5,8,0:0:0:0:
180,232,319399,1,0,0:0:0:0:
356,172,319570,1,0,0:0:0:0:
180,232,319742,1,0,0:0:0:0:
324,92,319913,6,0,P|396:100|452:148,1,119.999996337891,8|0,0:0|0:0,0:0:0:0:
196,152,320256,2,0,P|136:176|96:216,1,119.999996337891
332,316,320599,6,0,B|364:280|364:280|348:252|348:252|392:252,1,119.999996337891,8|0,0:0|0:0,0:0:0:0:
200,228,320942,2,0,B|215:273|215:273|247:273|247:273|225:311,1,119.999996337891,8|0,0:0|0:0,0:0:0:0:
356,160,321285,2,0,B|308:150|308:150|292:178|292:178|270:140,1,119.999996337891,8|0,0:0|0:0,0:0:0:0:
412,328,321628,1,0,3:0:0:0:
176,252,321799,5,0,0:0:0:0:
192,208,321885,1,0,0:0:0:0:
216,176,321970,2,0,P|280:236|292:288,1,119.999996337891,12|0,0:0|0:0,0:0:0:0:
96,76,322313,5,8,0:0:0:0:
360,160,322485,1,0,0:0:0:0:
100,272,322656,2,0,P|112:192|140:140,1,119.999996337891,8|0,0:0|0:0,0:0:0:0:
272,48,322999,1,8,0:0:0:0:
440,272,323170,1,8,0:0:0:0:
173,163,323342,6,0,P|113:123|113:67,1,119.999996337891,8|0,0:0|0:0,0:0:0:0:
336,128,323685,2,0,P|396:168|396:224,1,119.999996337891,8|0,0:0|0:0,0:0:0:0:
176,300,324028,5,8,0:0:0:0:
268,88,324199,1,0,0:0:0:0:
136,92,324370,5,8,0:0:0:0:
332,300,324542,1,8,0:0:0:0:
360,88,324713,5,0,0:0:0:0:
168,172,324885,1,8,0:0:0:0:
372,144,325056,1,8,0:0:0:0:
144,112,325228,1,0,0:0:0:0:
332,300,325399,1,8,0:0:0:0:
280,116,325570,1,0,0:0:0:0:
164,240,325742,5,8,0:0:0:0:
200,264,325828,1,0,0:0:0:0:
240,268,325913,1,0,0:0:0:0:
280,252,325999,1,0,0:0:0:0:
304,216,326085,1,0,0:0:0:0:
256,192,326256,12,0,327113,0:0:0:0:
132,144,327456,5,8,0:0:0:0:
336,72,327628,1,8,0:0:0:0:
300,276,327799,1,8,0:0:0:0:
248,168,327970,1,0,0:0:0:0:
392,184,328142,1,8,0:0:0:0:
144,220,328313,1,0,0:0:0:0:
120,188,328399,1,0,0:0:0:0:
104,152,328485,2,0,P|104:84|148:52,1,119.999996337891,8|0,0:0|0:0,0:0:0:0:
192,48,328742,5,0,0:0:0:0:
232,60,328828,1,8,0:0:0:0:
316,264,328999,1,0,0:0:0:0:
200,304,329170,5,8,0:0:0:0:
168,140,329342,1,0,0:0:0:0:
352,96,329513,5,8,0:0:0:0:
404,288,329685,1,0,0:0:0:0:
200,304,329856,6,0,B|184:296|184:296|172:272|172:272|148:292|148:292|132:268|132:268|88:280,1,119.999996337891,8|0,0:0|0:0,0:0:0:0:
168,68,330199,1,8,0:0:0:0:
380,192,330370,1,8,0:0:0:0:
200,304,330542,1,0,0:0:0:0:
288,212,330713,1,8,0:0:0:0:
148,192,330885,1,8,0:0:0:0:
376,268,331056,1,0,0:0:0:0:
324,48,331228,1,8,0:0:0:0:
148,192,331399,1,0,0:0:0:0:
376,268,331570,6,0,B|380:220|380:220|412:220|412:220|364:180,1,119.999996337891,8|0,0:0|0:0,0:0:0:0:
184,56,331913,2,0,B|180:104|180:104|148:104|148:104|196:144,1,119.999996337891,8|0,0:0|0:0,0:0:0:0:
280,168,332256,2,0,B|284:120|284:120|316:120|316:120|268:80,1,119.999996337891,8|0,0:0|0:0,0:0:0:0:
260,336,332599,1,0,3:0:0:0:
368,224,332770,5,0,0:0:0:0:
392,184,332856,1,0,0:0:0:0:
404,140,332942,2,0,P|380:68|312:52,1,119.999996337891,8|0,0:0|0:0,0:0:0:0:
80,72,333285,2,0,L|180:168,1,119.999996337891,8|0,0:0|0:0,0:0:0:0:
0,208,333628,2,0,L|100:304,1,119.999996337891,8|0,0:0|0:0,0:0:0:0:
316,128,333970,5,8,0:0:0:0:
204,272,334142,1,8,0:0:0:0:
252,56,334313,2,0,L|176:160,1,119.999996337891,8|0,0:0|0:0,0:0:0:0:
376,204,334656,2,0,L|300:308,1,119.999996337891,8|0,0:0|0:0,0:0:0:0:
360,68,334999,2,0,L|284:172,1,119.999996337891,8|0,0:0|0:0,0:0:0:0:
108,88,335342,5,8,0:0:0:0:
264,272,335513,1,0,0:0:0:0:
378,175,335685,5,8,0:0:0:0:
282,60,335857,1,8,0:0:0:0:
167,157,336028,1,8,0:0:0:0:
264,272,336199,1,8,0:0:0:0:
296,120,336370,5,8,0:0:0:0:
254,130,336456,1,0,0:0:0:0:
230,164,336542,1,8,0:0:0:0:
234,206,336628,1,0,0:0:0:0:
264,236,336713,1,8,0:0:0:0:
306,239,336799,1,0,0:0:0:0:
341,215,336885,1,8,0:0:0:0:
351,175,336970,1,0,0:0:0:0:
333,136,337056,2,0,P|272:88|208:80,1,119.999996337891,8|0,0:0|0:0,0:0:0:0:
116,168,337399,5,8,0:0:0:0:
224,312,337570,1,0,0:0:0:0:
376,208,337742,2,0,P|448:168|352:180,1,239.999992675781,8|0,0:0|0:0,0:0:0:0:
160,216,338428,6,0,B|120:180|120:180|140:136,1,75.0000028610231,8|0,2:0|0:0,0:0:0:0:
212,84,338770,1,0,0:0:0:0:
316,132,338942,1,8,2:0:0:0:
204,328,339285,1,8,2:0:0:0:
116,256,339456,1,8,2:0:0:0:
224,228,339628,1,0,0:0:0:0:
332,292,339799,6,0,B|376:252|376:252|364:220,1,75.0000028610231,8|0,2:0|0:0,0:0:0:0:
244,224,340142,2,0,B|256:282|256:282|290:287,1,75.0000028610231,8|0,2:0|0:0,0:0:0:0:
352,184,340485,2,0,B|295:165|295:165|273:192,1,75.0000028610231,8|0,2:0|0:0,0:0:0:0:
116,256,340828,5,0,0:0:0:0:
136,144,340999,1,0,0:0:0:0:
236,196,341170,1,8,2:0:0:0:
288,96,341342,1,0,0:0:0:0:
288,96,341513,2,0,P|344:140|348:164,1,75.0000028610231,0|8,0:0|2:0,0:0:0:0:
356,252,341856,5,8,2:0:0:0:
356,252,342028,1,0,0:0:0:0:
252,296,342199,1,8,2:0:0:0:
180,212,342370,1,0,0:0:0:0:
276,152,342542,6,0,P|320:96|320:64,1,75.0000028610231,8|0,2:0|0:0,0:0:0:0:
344,244,342885,2,0,P|300:300|300:332,1,75.0000028610231,8|0,2:0|0:0,0:0:0:0:
364,160,343228,2,0,P|420:204|452:204,1,75.0000028610231,8|0,2:0|0:0,0:0:0:0:
272,216,343570,2,0,P|216:172|184:172,1,75.0000028610231,8|0,2:0|0:0,0:0:0:0:
156,76,343913,5,4,0:0:0:0:
376,120,344256,1,8,2:0:0:0:
408,228,344428,1,8,2:0:0:0:
312,288,344599,1,0,0:0:0:0:
408,228,344770,1,8,2:0:0:0:
376,120,344942,1,0,0:0:0:0:
312,288,345113,1,8,2:0:0:0:
376,120,345285,2,0,P|320:116|288:136,1,75.0000028610231,8|0,2:0|0:0,0:0:0:0:
360,204,345628,1,8,2:0:0:0:
360,204,345970,5,0,0:0:0:0:
248,208,346142,1,8,2:0:0:0:
300,308,346313,2,0,P|372:304|384:288,1,75.0000028610231
392,196,346656,2,0,B|392:108|392:108|328:68,1,150.000005722046,8|0,2:0|0:0,0:0:0:0:
264,196,347342,2,0,B|264:304|264:304|320:332,1,150.000005722046,8|0,2:0|0:0,0:0:0:0:
192,96,348028,6,8,P|124:100|152:156,2,150.000005722046,8|8|8,2:0|2:0|2:0,2:0:0:0:
268,180,348885,1,0,0:0:0:0:
184,256,349056,1,8,0:0:0:0:
380,148,349399,6,0,P|424:216|428:284,1,150.000005722046,4|0,0:0|0:0,0:0:0:0:
320,248,349913,1,8,2:0:0:0:
380,152,350085,1,8,2:0:0:0:
276,160,350256,1,0,0:0:0:0:
204,240,350428,2,0,P|144:216|136:184,1,75.0000028610231,8|0,2:0|0:0,0:0:0:0:
198,40,350770,6,0,P|258:20|298:24,1,75.0000028610231,8|0,2:0|0:0,0:0:0:0:
198,152,351113,2,0,P|150:110|134:73,1,75.0000028610231,8|0,2:0|0:0,0:0:0:0:
294,88,351456,2,0,P|281:149|257:182,1,75.0000028610231,8|0,2:0|0:0,0:0:0:0:
228,288,351799,5,0,0:0:0:0:
148,208,351970,1,0,0:0:0:0:
200,108,352142,2,0,P|252:136|296:132,1,75.0000028610231,8|0,2:0|0:0,0:0:0:0:
296,248,352485,2,0,P|304:180|328:152,1,75.0000028610231
404,120,352828,1,8,2:0:0:0:
408,232,352999,1,0,0:0:0:0:
306,175,353170,1,0,0:0:0:0:
304,80,353342,5,0,0:0:0:0:
216,148,353513,2,0,L|156:220,1,75.0000028610231,8|0,2:0|0:0,0:0:0:0:
276,240,353856,2,0,L|224:308,1,75.0000028610231,8|0,2:0|0:0,0:0:0:0:
392,228,354199,6,0,L|320:168,1,75.0000028610231,8|0,2:0|0:0,0:0:0:0:
416,100,354542,2,0,L|344:40,1,75.0000028610231,8|0,2:0|0:0,0:0:0:0:
264,112,354885,1,4,0:0:0:0:
259,279,355228,1,8,2:0:0:0:
305,118,355399,1,8,2:0:0:0:
173,221,355570,1,0,0:0:0:0:
339,215,355742,1,8,2:0:0:0:
202,122,355913,1,8,2:0:0:0:
259,279,356085,5,0,0:0:0:0:
268,164,356256,2,8,P|308:120|352:120,2,75.0000028610231,8|8|8,2:0|2:0|2:0,2:0:0:0:
96,312,356942,1,0,0:0:0:0:
268,164,357285,2,0,P|328:196|340:224,1,75.0000028610231,4|0,0:0|0:0,0:0:0:0:
240,268,357628,1,8,2:0:0:0:
372,88,357970,1,8,2:0:0:0:
404,196,358142,1,0,0:0:0:0:
296,172,358313,1,8,2:0:0:0:
100,64,358656,6,0,P|100:136|168:200,1,150.000005722046,4|0,0:0|0:0,0:0:0:0:
