osu file format v14

[General]
AudioFilename: audio.mp3
AudioLeadIn: 0
PreviewTime: 115196
Countdown: 0
SampleSet: Soft
StackLeniency: 0.2
Mode: 2
LetterboxInBreaks: 0
WidescreenStoryboard: 0

[Editor]
Bookmarks: 14825,36768,58711,83396,105339,116311,138254,151968,173911,184882,206825,228768,250711,272654,283625,305568,316539,338482,359054
DistanceSpacing: 1.7
BeatDivisor: 8
GridSize: 4
TimelineZoom: 4

[Metadata]
Title:Monosugoi Space Shuttle de Koishi ga Monosugoi Uta
TitleUnicode:物凄いスペースシャトルでこいしが物凄いうた
Artist:Nanahira
ArtistUnicode:ななひら
Creator:JBHyperion
Version:Amourous Interstellar Conflagration
Source:東方地霊殿 ~ Subterranean Animism.
Tags:東方Project ラストリモート ハルトマンの妖怪少女 Komeiji 古明地 こいし touhou project TH11 Chireiden Earth Spirit Palace sumijun kumarisu くまりす eastnewsound confetto Halozy Hartmann's Youkai Girl Lucky 7 Seven HLZY-0025 extra boss theme 博麗神社例大祭13 reitaisai13
BeatmapID:1297798
BeatmapSetID:615268

[Difficulty]
HPDrainRate:6
CircleSize:4.2
OverallDifficulty:9.5
ApproachRate:9.5
SliderMultiplier:1.8
SliderTickRate:2

[Events]
//Background and Video events
0,0,"Koishi.jpg",0,0
//Break Periods
2,272854,283100
//Storyboard Layer 0 (Background)
//Storyboard Layer 1 (Fail)
//Storyboard Layer 2 (Pass)
//Storyboard Layer 3 (Foreground)
//Storyboard Sound Samples

[TimingPoints]
13454,342.857142857143,4,2,0,20,1,0
13796,-100,4,2,1,30,0,0
14825,-100,4,2,5,40,0,0
14911,-100,4,2,1,40,0,0
17568,-80,4,2,1,40,0,0
17911,-100,4,2,1,40,0,0
25796,-100,4,2,1,30,0,0
26482,-100,4,2,1,40,0,0
26825,-100,4,2,1,30,0,0
27168,-100,4,2,1,40,0,0
27511,-100,4,2,1,30,0,0
27854,-100,4,2,1,40,0,0
34025,-66.6666666666667,4,2,1,40,0,0
34196,-100,4,2,1,40,0,0
35396,-100,4,2,2,20,0,0
35482,-100,4,2,2,22,0,0
35568,-100,4,2,2,25,0,0
35654,-100,4,2,2,28,0,0
35739,-100,4,2,2,30,0,0
35825,-100,4,2,2,32,0,0
35911,-100,4,2,2,35,0,0
35997,-100,4,2,2,38,0,0
36082,-100,4,2,2,40,0,0
36168,-100,4,2,2,42,0,0
36254,-100,4,2,2,45,0,0
36340,-100,4,2,2,48,0,0
36425,-100,4,2,2,50,0,0
36511,-100,4,2,2,52,0,0
36597,-100,4,2,2,55,0,0
36683,-100,4,2,2,58,0,0
36768,-66.6666666666667,4,2,3,50,0,0
36939,-100,4,2,3,50,0,0
38482,-66.6666666666667,4,2,3,50,0,0
39082,-100,4,2,3,50,0,0
42254,-83.3333333333333,4,2,3,50,0,0
42596,-100,4,2,3,50,0,0
47396,-66.6666666666667,4,2,5,50,0,0
47568,-100,4,2,3,50,0,0
47739,-100,4,2,3,100,0,0
47825,-100,4,2,3,50,0,0
49111,-100,4,2,3,100,0,0
49197,-100,4,2,3,50,0,0
50482,-100,4,2,3,100,0,0
50568,-100,4,2,3,50,0,0
51854,-100,4,2,3,100,0,0
51940,-100,4,2,3,50,0,0
52539,-100,4,2,3,30,0,0
53225,-80,4,2,5,30,0,0
54596,-80,4,2,5,35,0,0
55968,-80,4,2,5,40,0,0
56139,-80,4,2,5,42,0,0
56311,-80,4,2,5,44,0,0
56482,-80,4,2,5,46,0,0
56654,-80,4,2,5,48,0,0
56825,-80,4,2,5,50,0,0
56996,-80,4,2,5,52,0,0
57168,-80,4,2,5,54,0,0
57339,-80,4,2,3,50,0,0
57682,-66.6666666666667,4,2,3,50,0,0
57939,-80,4,2,3,50,0,0
58025,-80,4,2,3,75,0,0
58068,-80,4,2,3,76,0,0
58111,-80,4,2,3,77,0,0
58154,-80,4,2,3,78,0,0
58196,-80,4,2,3,79,0,0
58239,-80,4,2,3,80,0,0
58282,-80,4,2,3,81,0,0
58325,-80,4,2,3,82,0,0
58368,-80,4,2,3,83,0,0
58411,-80,4,2,3,84,0,0
58454,-80,4,2,3,85,0,0
58496,-80,4,2,3,86,0,0
58539,-80,4,2,3,87,0,0
58582,-80,4,2,3,88,0,0
58625,-80,4,2,3,89,0,0
58668,-66.6666666666667,4,2,3,90,0,0
58711,-66.6666666666667,4,2,6,75,0,0
58882,-100,4,2,6,50,0,0
60082,-80,4,2,6,50,0,0
61454,-100,4,2,6,50,0,0
63854,-100,4,2,5,70,0,0
64025,-100,4,2,6,50,0,0
66254,-66.6666666666667,4,2,6,50,0,0
66596,-100,4,2,6,50,0,0
68311,-100,4,2,3,40,0,0
68654,-66.6666666666667,4,2,3,40,0,0
68911,-100,4,2,3,40,0,0
68996,-80,4,2,3,55,0,0
69039,-80,4,2,3,56,0,0
69082,-80,4,2,3,57,0,0
69125,-80,4,2,3,58,0,0
69167,-80,4,2,3,59,0,0
69210,-80,4,2,3,60,0,0
69253,-80,4,2,3,61,0,0
69296,-80,4,2,3,62,0,0
69339,-80,4,2,3,63,0,0
69382,-80,4,2,3,64,0,0
69425,-80,4,2,3,65,0,0
69467,-80,4,2,3,66,0,0
69510,-80,4,2,3,67,0,0
69553,-80,4,2,3,68,0,0
69596,-80,4,2,3,69,0,0
69639,-66.6666666666667,4,2,3,70,0,0
69682,-100,4,2,6,75,0,0
69854,-100,4,2,6,50,0,0
71054,-80,4,2,6,50,0,0
71396,-66.6666666666667,4,2,6,50,0,0
71996,-100,4,2,6,50,0,0
73796,-83.3333333333333,4,2,6,50,0,0
74482,-100,4,2,6,50,0,0
74825,-100,4,2,5,70,0,0
74996,-100,4,2,6,50,0,0
78082,-100,4,2,6,52,0,0
78254,-100,4,2,6,54,0,0
78596,-100,4,2,6,58,0,0
78768,-100,4,2,6,60,0,0
78939,-66.6666666666667,4,2,6,62,0,0
79111,-66.6666666666667,4,2,6,64,0,0
79282,-100,4,2,3,50,0,0
79968,-100,4,2,3,70,0,0
80011,-100,4,2,3,68,0,0
80054,-100,4,2,3,66,0,0
80097,-100,4,2,3,64,0,0
80140,-100,4,2,3,62,0,0
80183,-100,4,2,3,60,0,0
80226,-100,4,2,3,58,0,0
80269,-100,4,2,3,56,0,0
80312,-100,4,2,3,54,0,0
80354,-100,4,2,3,52,0,0
80397,-100,4,2,3,50,0,0
80440,-100,4,2,3,48,0,0
80482,-100,4,2,3,46,0,0
80525,-100,4,2,3,44,0,0
80568,-100,4,2,3,42,0,0
80654,-100,4,2,1,50,0,0
82025,-100,4,2,5,40,0,0
82196,-100,4,2,1,50,0,0
82711,-100,4,2,1,60,0,0
83054,-100,4,2,1,70,0,0
83396,-80,4,2,2,50,0,0
83739,-100,4,2,1,50,0,0
87168,-100,4,2,10,35,0,0
87254,-100,4,2,1,50,0,0
97454,-100,4,2,10,35,0,0
97540,-100,4,2,1,50,0,0
99854,-71.4285714285714,4,2,1,50,0,0
100196,-80,4,2,1,50,0,0
101054,-80,4,2,5,50,0,0
101140,-80,4,2,1,50,0,0
102768,-80,4,2,1,40,0,0
103111,-80,4,2,5,60,0,0
104054,-80,4,2,1,50,0,0
104996,-80,4,2,5,60,0,0
105339,-80,4,2,1,50,0,0
108082,-80,4,2,1,50,0,0
108596,-100,4,2,1,50,0,0
109454,-80,4,2,1,50,0,0
109968,-100,4,2,1,50,0,0
110139,-100,4,2,2,60,0,0
110825,-100,4,2,1,50,0,0
113568,-100,4,2,2,20,0,0
113654,-100,4,2,2,22,0,0
113740,-100,4,2,2,25,0,0
113826,-100,4,2,2,28,0,0
113911,-100,4,2,2,30,0,0
113997,-100,4,2,2,32,0,0
114083,-100,4,2,2,35,0,0
114169,-100,4,2,2,38,0,0
114254,-100,4,2,2,40,0,0
114340,-100,4,2,2,42,0,0
114426,-100,4,2,2,45,0,0
114512,-100,4,2,2,48,0,0
114597,-100,4,2,2,50,0,0
114683,-100,4,2,2,52,0,0
114769,-100,4,2,2,55,0,0
114855,-100,4,2,2,58,0,0
114939,-100,4,2,5,50,0,0
115282,-100,4,2,3,50,0,0
115625,-100,4,2,3,70,0,0
115668,-100,4,2,3,68,0,0
115711,-100,4,2,3,66,0,0
115754,-100,4,2,3,64,0,0
115796,-100,4,2,3,62,0,0
115839,-100,4,2,3,60,0,0
115882,-66.6666666666667,4,2,3,58,0,0
115925,-66.6666666666667,4,2,3,56,0,0
115968,-66.6666666666667,4,2,3,54,0,0
116139,-100,4,2,3,50,0,0
116311,-66.6666666666667,4,2,5,60,0,1
116396,-66.6666666666667,4,2,1,60,0,1
116654,-80,4,2,1,60,0,1
118711,-66.6666666666667,4,2,1,60,0,1
118968,-80,4,2,1,60,0,1
121454,-66.6666666666667,4,2,1,60,0,1
121711,-80,4,2,1,60,0,1
122482,-80,4,2,10,45,0,1
122568,-80,4,2,1,60,0,1
127282,-80,4,2,5,60,0,1
127368,-80,4,2,1,60,0,1
128654,-66.6666666666667,4,2,1,60,0,1
128825,-80,4,2,1,60,0,1
129682,-66.6666666666667,4,2,1,60,0,1
130196,-80,4,2,1,60,0,1
131396,-66.6666666666667,4,2,1,60,0,1
131568,-80,4,2,1,60,0,1
132768,-80,4,2,5,60,0,1
132854,-80,4,2,1,60,0,1
133454,-80,4,2,10,45,0,1
133540,-80,4,2,1,60,0,1
135511,-80,4,2,5,60,0,1
135597,-80,4,2,1,60,0,1
136882,-100,4,2,2,20,0,0
136968,-100,4,2,2,22,0,0
137054,-100,4,2,2,25,0,0
137140,-100,4,2,2,28,0,0
137225,-100,4,2,2,30,0,0
137311,-100,4,2,2,32,0,0
137397,-100,4,2,2,35,0,0
137483,-100,4,2,2,38,0,0
137568,-100,4,2,2,40,0,0
137654,-100,4,2,2,42,0,0
137740,-100,4,2,2,45,0,0
137826,-100,4,2,2,48,0,0
137911,-100,4,2,5,60,0,0
138254,-100,4,2,5,60,0,1
138339,-100,4,2,1,60,0,1
142368,-66.6666666666667,4,2,1,60,0,1
143396,-100,4,2,1,60,0,1
145796,-83.3333333333333,4,2,1,60,0,1
146054,-100,4,2,1,60,0,1
146482,-100,4,2,1,50,0,1
147168,-100,4,2,2,20,0,1
147254,-100,4,2,2,22,0,1
147340,-100,4,2,2,25,0,1
147426,-100,4,2,2,28,0,1
147511,-100,4,2,2,30,0,1
147597,-100,4,2,2,32,0,1
147683,-100,4,2,2,35,0,1
147769,-100,4,2,2,38,0,1
147854,-100,4,2,3,50,0,1
148196,-66.6666666666667,4,2,3,50,0,1
148454,-100,4,2,3,50,0,1
148539,-100,4,2,3,80,0,1
148582,-100,4,2,3,78,0,1
148625,-100,4,2,3,76,0,1
148668,-100,4,2,3,74,0,1
148711,-100,4,2,3,72,0,1
148754,-100,4,2,3,70,0,1
148797,-100,4,2,3,68,0,1
148840,-100,4,2,3,66,0,1
148883,-100,4,2,3,64,0,1
148926,-100,4,2,3,62,0,1
148968,-100,4,2,3,60,0,1
149011,-100,4,2,3,58,0,1
149054,-100,4,2,3,56,0,1
149225,-100,4,2,1,50,0,0
150596,-100,4,2,5,40,0,0
150767,-100,4,2,1,50,0,0
151282,-100,4,2,1,60,0,0
151625,-100,4,2,1,70,0,0
151968,-80,4,2,2,50,0,0
152311,-100,4,2,1,50,0,0
155740,-100,4,2,10,35,0,0
155825,-100,4,2,1,50,0,0
166025,-100,4,2,10,35,0,0
166111,-100,4,2,1,50,0,0
168425,-80,4,2,1,50,0,0
168768,-100,4,2,1,50,0,0
169111,-80,4,2,1,50,0,0
169282,-100,4,2,1,50,0,0
169625,-80,4,2,5,50,0,0
169711,-80,4,2,1,50,0,0
170311,-100,4,2,1,50,0,0
170482,-80,4,2,1,50,0,0
170825,-100,4,2,1,50,0,0
171339,-80,4,2,1,40,0,0
171682,-80,4,2,5,60,0,0
172625,-80,4,2,1,50,0,0
173567,-80,4,2,5,60,0,0
173910,-80,4,2,1,50,0,0
177339,-100,4,2,1,50,0,0
178025,-80,4,2,1,50,0,0
178539,-100,4,2,1,50,0,0
178710,-100,4,2,2,60,0,0
179396,-100,4,2,1,50,0,0
182139,-100,4,2,2,20,0,0
182225,-100,4,2,2,22,0,0
182311,-100,4,2,2,25,0,0
182397,-100,4,2,2,28,0,0
182482,-100,4,2,2,30,0,0
182568,-100,4,2,2,32,0,0
182654,-100,4,2,2,35,0,0
182740,-100,4,2,2,38,0,0
182825,-100,4,2,2,40,0,0
182911,-100,4,2,2,42,0,0
182997,-100,4,2,2,45,0,0
183083,-100,4,2,2,48,0,0
183168,-100,4,2,2,50,0,0
183254,-100,4,2,2,52,0,0
183340,-100,4,2,2,55,0,0
183426,-100,4,2,2,58,0,0
183510,-100,4,2,5,50,0,0
183853,-100,4,2,3,50,0,0
184196,-100,4,2,3,68,0,0
184239,-100,4,2,3,66,0,0
184282,-100,4,2,3,64,0,0
184324,-100,4,2,3,62,0,0
184367,-100,4,2,3,60,0,0
184410,-66.6666666666667,4,2,3,58,0,0
184453,-66.6666666666667,4,2,3,56,0,0
184496,-66.6666666666667,4,2,3,54,0,0
184539,-66.6666666666667,4,2,3,50,0,0
184710,-100,4,2,3,50,0,0
184882,-66.6666666666667,4,2,5,60,0,1
184967,-66.6666666666667,4,2,1,60,0,1
185225,-80,4,2,1,60,0,1
187282,-66.6666666666667,4,2,1,50,0,1
187539,-80,4,2,1,60,0,1
190025,-66.6666666666667,4,2,1,60,0,1
190282,-80,4,2,1,60,0,1
191054,-80,4,2,10,45,0,1
191140,-80,4,2,1,60,0,1
194482,-80,4,2,10,45,0,1
194568,-80,4,2,1,60,0,1
195511,-66.6666666666667,4,2,1,50,0,1
195768,-80,4,2,1,60,0,1
195854,-80,4,2,5,60,0,1
195940,-80,4,2,1,60,0,1
197226,-66.6666666666667,4,2,1,60,0,1
197397,-80,4,2,1,60,0,1
198254,-66.6666666666667,4,2,1,55,0,1
198511,-80,4,2,1,60,0,1
198768,-80,4,2,1,60,0,1
200996,-66.6666666666667,4,2,1,65,0,1
201253,-80,4,2,1,60,0,1
201340,-80,4,2,5,60,0,1
201426,-80,4,2,1,60,0,1
202026,-80,4,2,10,45,0,1
202112,-80,4,2,1,60,0,1
204083,-80,4,2,5,60,0,1
204169,-80,4,2,1,60,0,1
205454,-100,4,2,2,20,0,0
205539,-100,4,2,2,22,0,0
205625,-100,4,2,2,25,0,0
205711,-100,4,2,2,28,0,0
205796,-100,4,2,2,30,0,0
205882,-100,4,2,2,32,0,0
205968,-100,4,2,2,35,0,0
206054,-100,4,2,2,38,0,0
206139,-100,4,2,2,40,0,0
206225,-100,4,2,2,42,0,0
206311,-100,4,2,2,45,0,0
206397,-100,4,2,2,48,0,0
206482,-66.6666666666667,4,2,5,60,0,0
206825,-66.6666666666667,4,2,3,50,0,0
206996,-100,4,2,3,50,0,0
208539,-66.6666666666667,4,2,3,50,0,0
209139,-100,4,2,3,50,0,0
209225,-100,4,2,3,50,0,0
211625,-80,4,2,3,50,0,0
211968,-100,4,2,3,50,0,0
214368,-80,4,2,3,50,0,0
214625,-100,4,2,3,50,0,0
215396,-100,4,2,3,45,0,0
215739,-100,4,2,3,40,0,0
216082,-100,4,2,3,35,0,0
216425,-100,4,2,3,30,0,0
217111,-100,4,2,3,20,0,0
217154,-100,4,2,3,22,0,0
217196,-100,4,2,3,24,0,0
217239,-100,4,2,3,26,0,0
217282,-100,4,2,3,28,0,0
217325,-100,4,2,3,30,0,0
217368,-100,4,2,3,32,0,0
217410,-100,4,2,3,34,0,0
217453,-100,4,2,3,36,0,0
217496,-100,4,2,3,38,0,0
217539,-100,4,2,3,40,0,0
217582,-100,4,2,3,32,0,0
217624,-100,4,2,3,34,0,0
217667,-100,4,2,3,36,0,0
217710,-100,4,2,3,38,0,0
217753,-100,4,2,3,40,0,0
217796,-100,4,2,3,50,0,0
220625,-100,4,2,1,50,0,0
221911,-100,4,2,5,50,0,0
221996,-100,4,2,1,50,0,0
223282,-100,4,2,2,30,0,0
223539,-100,4,2,1,50,0,0
223968,-100,4,2,2,35,0,0
224225,-100,4,2,1,55,0,0
224654,-100,4,2,2,40,0,0
224911,-100,4,2,1,60,0,0
225339,-100,4,2,2,45,0,0
225596,-100,4,2,1,65,0,0
226025,-100,4,2,2,40,0,0
226282,-100,4,2,1,50,0,0
226711,-100,4,2,1,50,0,0
227054,-100,4,2,1,30,0,0
227139,-100,4,2,1,32,0,0
227225,-100,4,2,1,35,0,0
227311,-100,4,2,1,38,0,0
227396,-100,4,2,1,50,0,0
228082,-100,4,2,1,52,0,0
228254,-100,4,2,1,54,0,0
228425,-100,4,2,1,56,0,0
228596,-100,4,2,1,58,0,0
228768,-80,4,2,5,60,0,1
228854,-80,4,2,1,65,0,1
229111,-100,4,2,1,65,0,1
229625,-66.6666666666667,4,2,1,65,0,1
230311,-100,4,2,1,65,0,1
231082,-66.6666666666667,4,2,1,65,0,1
231339,-100,4,2,1,65,0,1
233911,-100,4,2,1,55,0,1
234082,-100,4,2,1,45,0,1
234254,-80,4,2,5,55,0,1
234339,-80,4,2,1,65,0,1
238368,-66.6666666666667,4,2,5,55,0,1
238454,-66.6666666666667,4,2,1,65,0,1
238539,-80,4,2,1,65,0,1
239396,-80,4,2,1,50,0,1
239482,-80,4,2,1,52,0,1
239568,-80,4,2,1,55,0,1
239654,-80,4,2,1,58,0,1
239739,-80,4,2,5,60,0,1
239825,-80,4,2,1,65,0,1
245225,-80,4,2,5,55,0,1
245311,-80,4,2,1,65,0,1
245911,-80,4,2,10,50,0,1
245996,-80,4,2,1,65,0,1
247625,-80,4,2,1,60,0,1
247711,-80,4,2,1,62,0,1
247796,-80,4,2,1,65,0,1
247882,-80,4,2,1,68,0,1
247968,-80,4,2,1,70,0,1
249339,-50,4,2,5,50,0,0
249682,-100,4,2,3,50,0,0
250025,-100,4,2,3,70,0,0
250068,-100,4,2,3,68,0,0
250111,-100,4,2,3,66,0,0
250154,-100,4,2,3,64,0,0
250196,-100,4,2,3,62,0,0
250239,-100,4,2,3,60,0,0
250282,-66.6666666666667,4,2,3,58,0,0
250325,-66.6666666666667,4,2,3,56,0,0
250368,-66.6666666666667,4,2,5,60,0,0
250539,-100,4,2,3,50,0,0
250711,-50,4,2,5,60,0,1
250796,-66.6666666666667,4,2,1,60,0,1
251054,-80,4,2,1,60,0,1
253111,-66.6666666666667,4,2,1,75,0,1
253368,-80,4,2,1,60,0,1
253454,-66.6666666666667,4,2,1,60,0,1
253625,-80,4,2,1,60,0,1
255854,-66.6666666666667,4,2,1,80,0,1
256111,-80,4,2,1,60,0,1
261339,-66.6666666666667,4,2,1,75,0,1
261596,-80,4,2,1,60,0,1
261682,-80,4,2,5,60,0,1
261768,-80,4,2,1,60,0,1
264082,-66.6666666666667,4,2,1,85,0,1
264339,-80,4,2,1,60,0,1
266824,-66.6666666666667,4,2,1,85,0,1
267082,-80,4,2,1,60,0,1
267168,-80,4,2,5,60,0,1
267254,-80,4,2,1,60,0,1
267854,-80,4,2,10,45,0,1
267940,-80,4,2,1,60,0,1
269911,-80,4,2,5,60,0,1
269997,-80,4,2,1,60,0,1
271282,-100,4,2,2,20,0,0
271368,-100,4,2,2,22,0,0
271454,-100,4,2,2,25,0,0
271540,-100,4,2,2,28,0,0
271625,-100,4,2,2,30,0,0
271711,-100,4,2,2,32,0,0
271797,-100,4,2,2,35,0,0
271883,-100,4,2,2,38,0,0
271968,-100,4,2,2,40,0,0
272054,-100,4,2,2,42,0,0
272139,-100,4,2,2,45,0,0
272225,-100,4,2,2,48,0,0
272311,-66.6666666666667,4,2,5,60,0,0
272654,-66.6666666666667,4,2,3,50,0,0
283625,-100,4,2,3,50,0,0
285339,-66.6666666666667,4,2,3,50,0,0
286025,-100,4,2,3,50,0,0
288082,-80,4,2,3,50,0,0
289111,-100,4,2,3,50,0,0
289796,-100,4,2,3,55,0,0
290139,-100,4,2,3,60,0,0
290482,-100,4,2,3,65,0,0
290654,-100,4,2,3,50,0,0
291168,-80,4,2,3,50,0,0
291854,-100,4,2,3,50,0,0
294254,-80,4,2,7,50,0,0
294511,-100,4,2,3,50,0,0
294596,-100,4,2,3,60,0,0
296311,-66.6666666666667,4,2,3,60,0,0
296996,-100,4,2,3,60,0,0
299054,-80,4,2,3,60,0,0
300082,-100,4,2,3,60,0,0
302139,-80,4,2,3,60,0,0
302825,-100,4,2,3,60,0,0
305225,-66.6666666666667,4,2,5,50,0,0
305568,-100,4,2,3,100,0,0
305654,-100,4,2,3,50,0,0
306939,-100,4,2,3,100,0,0
307025,-100,4,2,3,50,0,0
308311,-100,4,2,3,100,0,0
308396,-100,4,2,3,50,0,0
309682,-100,4,2,3,100,0,0
309768,-100,4,2,3,50,0,0
310368,-100,4,2,3,30,0,0
311054,-80,4,2,5,30,0,0
312425,-80,4,2,5,35,0,0
313796,-80,4,2,5,40,0,0
313968,-80,4,2,5,42,0,0
314139,-80,4,2,5,44,0,0
314311,-80,4,2,5,46,0,0
314482,-80,4,2,5,48,0,0
314654,-80,4,2,5,50,0,0
314825,-80,4,2,5,52,0,0
314996,-80,4,2,5,54,0,0
315168,-80,4,2,3,50,0,0
315511,-66.6666666666667,4,2,3,50,0,0
315768,-80,4,2,3,50,0,0
315854,-80,4,2,3,75,0,0
315896,-80,4,2,3,76,0,0
315939,-80,4,2,3,77,0,0
315982,-80,4,2,3,78,0,0
316025,-80,4,2,3,79,0,0
316068,-80,4,2,3,80,0,0
316111,-80,4,2,3,81,0,0
316154,-80,4,2,3,82,0,0
316196,-80,4,2,3,83,0,0
316239,-80,4,2,3,84,0,0
316282,-80,4,2,3,85,0,0
316325,-80,4,2,3,86,0,0
316368,-80,4,2,3,87,0,0
316411,-80,4,2,3,88,0,0
316454,-80,4,2,3,89,0,0
316496,-66.6666666666667,4,2,3,90,0,0
316539,-66.6666666666667,4,2,6,75,0,0
316711,-100,4,2,6,50,0,0
317911,-80,4,2,6,50,0,0
319282,-100,4,2,6,50,0,0
320654,-80,4,2,6,50,0,0
321596,-100,4,2,6,50,0,0
321682,-100,4,2,5,70,0,0
321854,-100,4,2,6,50,0,0
324082,-66.6666666666667,4,2,6,50,0,0
324425,-100,4,2,6,50,0,0
326139,-100,4,2,3,40,0,0
326482,-66.6666666666667,4,2,3,40,0,0
326739,-100,4,2,3,40,0,0
326825,-80,4,2,3,55,0,0
326868,-80,4,2,3,56,0,0
326911,-80,4,2,3,57,0,0
326954,-80,4,2,3,58,0,0
326996,-80,4,2,3,59,0,0
327039,-80,4,2,3,60,0,0
327082,-80,4,2,3,61,0,0
327125,-80,4,2,3,62,0,0
327168,-80,4,2,3,63,0,0
327211,-80,4,2,3,64,0,0
327254,-80,4,2,3,65,0,0
327296,-80,4,2,3,66,0,0
327339,-80,4,2,3,67,0,0
327382,-80,4,2,3,68,0,0
327425,-80,4,2,3,69,0,0
327468,-66.6666666666667,4,2,3,70,0,0
327511,-100,4,2,6,75,0,0
327682,-100,4,2,6,50,0,0
328882,-80,4,2,6,50,0,0
329225,-66.6666666666667,4,2,6,50,0,0
329825,-100,4,2,6,50,0,0
332654,-100,4,2,5,70,0,0
332825,-100,4,2,6,50,0,0
335054,-80,4,2,6,50,0,0
335311,-100,4,2,6,50,0,0
335911,-100,4,2,6,52,0,0
336082,-100,4,2,6,54,0,0
336425,-100,4,2,6,58,0,0
336596,-100,4,2,6,60,0,0
336768,-66.6666666666667,4,2,6,62,0,0
336939,-66.6666666666667,4,2,6,64,0,0
337110,-80,4,2,3,50,0,0
337454,-100,4,2,3,50,0,0
337796,-100,4,2,3,68,0,0
337839,-100,4,2,3,66,0,0
337882,-100,4,2,3,64,0,0
337925,-100,4,2,3,62,0,0
337968,-100,4,2,3,60,0,0
338011,-100,4,2,3,58,0,0
338054,-100,4,2,3,56,0,0
338097,-100,4,2,3,54,0,0
338139,-100,4,2,3,52,0,0
338182,-100,4,2,3,50,0,0
338225,-100,4,2,3,48,0,0
338267,-100,4,2,3,46,0,0
338310,-100,4,2,3,44,0,0
338353,-100,4,2,3,42,0,0
338396,-100,4,2,3,40,0,0
338482,-100,4,2,5,50,0,0
338568,-100,4,2,1,40,0,0
339854,-100,4,2,1,40,0,0
340539,-133.333333333333,4,2,1,40,0,0
349454,-133.333333333333,4,2,5,40,0,0
349539,-133.333333333333,4,2,1,30,0,0
350825,-100,4,2,1,30,0,0
351168,-133.333333333333,4,2,1,30,0,0
357682,-100,4,2,1,30,0,0
358025,-133.333333333333,4,2,1,25,0,0
358111,-133.333333333333,4,2,1,28,0,0
358196,-133.333333333333,4,2,1,30,0,0
358282,-133.333333333333,4,2,1,32,0,0
358368,-133.333333333333,4,2,1,35,0,0
358539,-133.333333333333,4,3,0,30,0,0
359054,-133.333333333333,4,3,77,60,0,0
359225,-100,4,2,0,10,0,0
359739,-100,4,2,0,15,0,0
360425,-100,4,2,0,20,0,0
361111,-100,4,2,0,25,0,0
361796,-100,4,2,0,30,0,0
362482,-100,4,2,0,35,0,0
362825,-100,4,2,0,40,0,0
363168,-100,4,2,0,45,0,0
363339,-100,4,2,0,5,0,0
363511,-100,4,3,77,75,0,0
363854,-100,4,2,0,10,0,0
364539,-100,4,2,0,15,0,0
365911,-100,4,2,0,20,0,0
367282,-100,4,2,0,25,0,0
367968,-100,4,2,0,30,0,0
368654,-100,4,2,0,35,0,0
368996,-100,4,2,0,40,0,0
369339,-100,4,2,0,45,0,0
369682,-100,4,2,0,38,0,0
370025,-100,4,2,0,32,0,0
370711,-100,4,2,0,25,0,0
371396,-100,4,2,0,18,0,0
372082,-100,4,2,0,12,0,0
372768,-100,4,2,0,5,0,0

[Colours]
Combo1 : 45,80,180
Combo2 : 90,255,255
Combo3 : 255,193,80
Combo4 : 20,128,20

[HitObjects]
180,268,13454,6,0,L|172:168,1,90,2|0,0:0|0:0,0:0:0:0:
280,180,13796,1,4,0:0:0:0:
116,180,13968,2,0,L|64:180,1,45,8|8,0:0|0:0,0:0:0:0:
232,180,14139,2,0,L|324:180,1,90,8|2,0:0|0:0,0:0:0:0:
20,180,14482,1,2,0:0:0:0:
432,180,14825,6,0,P|492:120|428:72,1,180,4|0,0:0|0:0,0:0:0:0:
324,72,15339,1,2,0:0:0:0:
144,72,15511,1,8,0:0:0:0:
280,72,15682,1,0,0:0:0:0:
116,72,15854,2,0,L|206:124,1,90,4|0,0:0|0:0,0:0:0:0:
428,116,16196,6,0,P|432:192|348:244,1,180,2|4,0:0|0:0,0:0:0:0:
244,240,16711,1,0,0:0:0:0:
60,236,16882,2,0,L|4:164,1,90,8|0,0:0|0:0,0:0:0:0:
112,192,17225,2,0,L|168:120,1,90,4|0,0:0|0:0,0:0:0:0:
408,192,17568,6,0,P|480:124|408:48,1,225,2|4,0:0|0:0,0:0:0:0:
228,88,18082,1,0,0:0:0:0:
388,88,18253,2,0,L|304:136,1,90,8|0,0:0|0:0,0:0:0:0:
148,88,18596,2,0,L|231:136,1,90,4|0,0:0|0:0,0:0:0:0:
460,136,18939,6,0,P|444:212|344:264,1,180,2|2,0:0|0:0,0:0:0:0:
236,264,19454,1,4,0:0:0:0:
416,264,19625,2,0,L|512:264,1,90,8|2,0:0|0:0,0:0:0:0:
380,192,19968,2,0,L|236:192,1,135,4|0,0:0|0:0,0:0:0:0:
80,192,20311,6,0,P|48:144|96:40,1,180,2|4,0:0|0:0,0:0:0:0:
328,40,20825,1,0,0:0:0:0:
183,41,20996,2,0,L|83:41,1,90,8|0,0:0|0:0,0:0:0:0:
240,120,21339,2,0,L|140:120,1,90,4|0,0:0|0:0,0:0:0:0:
320,192,21682,6,0,L|416:192,2,90,2|0|4,0:0|0:0|0:0,0:0:0:0:
228,192,22196,1,4,0:0:0:0:
400,264,22368,1,8,0:0:0:0:
264,264,22539,2,0,P|180:256|160:148,1,180,2|0,0:0|0:0,0:0:0:0:
396,176,23054,6,0,B|488:176|488:176|504:88,1,180,6|4,0:0|0:0,0:0:0:0:
396,88,23568,1,0,0:0:0:0:
224,88,23739,2,0,L|124:88,2,90,8|0|4,0:0|0:0|0:0,0:0:0:0:
324,88,24254,1,0,0:0:0:0:
144,164,24425,6,0,L|136:260,1,90,2|0,0:0|0:0,0:0:0:0:
252,252,24768,1,4,0:0:0:0:
152,252,24939,1,4,0:0:0:0:
332,252,25111,2,0,L|432:252,1,90,8|4,0:0|0:0,0:0:0:0:
276,324,25454,2,0,P|228:280|248:196,1,135,4|0,0:0|0:0,0:0:0:0:
456,197,25796,5,2,0:0:0:0:
485,137,25882,1,2,0:0:0:0:
471,71,25968,1,2,0:0:0:0:
413,32,26054,1,2,0:0:0:0:
471,71,26139,1,2,0:0:0:0:
485,137,26225,1,2,0:0:0:0:
456,197,26311,1,2,0:0:0:0:
396,232,26396,1,2,0:0:0:0:
228,232,26482,6,0,L|128:232,1,90,8|0,0:0|0:0,0:0:0:0:
320,232,26825,1,2,0:0:0:0:
376,217,26911,1,2,0:0:0:0:
410,169,26996,1,2,0:0:0:0:
405,110,27082,1,2,0:0:0:0:
228,112,27168,6,0,L|132:112,1,90,8|0,0:0|0:0,0:0:0:0:
320,112,27511,1,2,0:0:0:0:
364,112,27596,1,2,0:0:0:0:
405,110,27682,1,2,0:0:0:0:
364,112,27768,1,2,0:0:0:0:
138,112,27854,2,0,L|46:112,1,90,8|2,0:0|0:0,0:0:0:0:
282,112,28196,2,0,L|390:192,1,135,8|0,0:0|0:0,0:0:0:0:
208,192,28539,5,8,0:0:0:0:
108,192,28711,1,2,0:0:0:0:
8,192,28882,1,2,0:0:0:0:
260,284,29054,1,8,0:0:0:0:
160,284,29225,1,2,0:0:0:0:
60,284,29396,1,2,0:0:0:0:
328,284,29568,2,0,L|428:284,1,90,8|2,0:0|0:0,0:0:0:0:
164,192,29911,6,0,L|156:92,1,90,4|0,0:0|0:0,0:0:0:0:
320,100,30254,2,0,L|327:10,1,90,4|0,0:0|0:0,0:0:0:0:
56,8,30596,1,8,0:0:0:0:
200,8,30768,1,2,0:0:0:0:
36,8,30939,2,0,P|8:68|36:128,1,135,2|0,0:0|0:0,0:0:0:0:
216,128,31282,6,0,L|324:128,1,90,2|8,0:0|0:0,0:0:0:0:
144,200,31625,2,0,L|96:200,1,45,2|2,0:0|0:0,0:0:0:0:
248,200,31796,1,8,0:0:0:0:
124,280,31968,2,0,L|28:280,1,90,2|8,0:0|0:0,0:0:0:0:
268,280,32311,1,2,0:0:0:0:
324,280,32396,1,2,0:0:0:0:
380,280,32482,1,8,0:0:0:0:
144,200,32654,5,2,0:0:0:0:
272,200,32825,1,8,0:0:0:0:
36,200,32996,1,2,0:0:0:0:
90,200,33082,1,2,0:0:0:0:
144,200,33168,1,8,0:0:0:0:
288,128,33339,1,2,0:0:0:0:
128,128,33511,1,8,0:0:0:0:
384,128,33682,2,0,L|392:80,1,45,8|8,0:0|0:0,0:0:0:0:
208,128,33854,2,0,L|200:80,1,45,8|8,0:0|0:0,0:0:0:0:
428,84,34025,6,0,P|452:124|420:200,1,135.000005149842,2|8,0:0|0:0,0:0:0:0:
356,200,34282,1,0,0:0:0:0:
256,200,34368,2,0,L|192:200,1,45,2|2,0:0|0:0,0:0:0:0:
380,288,34539,2,0,L|428:288,1,45,8|0,0:0|0:0,0:0:0:0:
332,288,34711,6,0,L|284:288,1,45,2|2,0:0|0:0,0:0:0:0:
104,200,34882,2,0,L|152:200,1,45,8|2,0:0|0:0,0:0:0:0:
332,100,35054,2,0,L|392:100,1,45,2|2,0:0|0:0,0:0:0:0:
80,100,35225,2,0,L|24:100,1,45,8|2,0:0|0:0,0:0:0:0:
396,28,35396,5,8,0:0:0:0:
424,40,35439,1,8,0:0:0:0:
450,59,35482,1,8,0:0:0:0:
470,82,35525,1,8,0:0:0:0:
485,110,35568,1,8,0:0:0:0:
494,140,35611,1,8,0:0:0:0:
495,172,35654,1,8,0:0:0:0:
490,203,35696,1,8,0:0:0:0:
478,232,35739,1,8,0:0:0:0:
459,257,35782,1,8,0:0:0:0:
436,278,35825,1,8,0:0:0:0:
408,293,35868,1,8,0:0:0:0:
378,302,35911,1,8,0:0:0:0:
347,304,35954,1,8,0:0:0:0:
316,299,35996,1,8,0:0:0:0:
287,287,36039,1,8,0:0:0:0:
96,288,36082,5,8,0:0:0:0:
64,292,36125,1,8,0:0:0:0:
38,273,36168,1,8,0:0:0:0:
22,241,36211,1,8,0:0:0:0:
25,203,36254,1,8,0:0:0:0:
47,172,36296,1,8,0:0:0:0:
75,162,36339,1,8,0:0:0:0:
105,171,36382,1,8,0:0:0:0:
240,288,36425,5,8,0:0:0:0:
272,264,36468,1,8,0:0:0:0:
278,221,36511,1,8,0:0:0:0:
249,189,36554,1,8,0:0:0:0:
212,188,36596,1,8,0:0:0:0:
183,156,36639,1,8,0:0:0:0:
189,113,36682,1,8,0:0:0:0:
222,90,36725,1,8,0:0:0:0:
356,88,36768,6,0,L|492:88,1,135.000005149842,4|0,0:0|0:0,0:0:0:0:
324,188,37111,2,0,L|216:188,1,90
360,188,37454,2,0,L|414:281,1,90,2|0,0:0|0:0,0:0:0:0:
296,268,37796,2,0,L|242:361,1,90
316,344,38054,1,0,0:0:0:0:
496,344,38139,6,0,L|500:240,1,90,4|0,0:0|0:0,0:0:0:0:
244,252,38482,2,0,P|164:228|212:148,1,202.500007724762,2|0,0:0|0:0,0:0:0:0:
380,148,38825,2,0,P|436:112|364:36,1,202.500007724762,2|0,0:0|0:0,0:0:0:0:
280,32,39168,2,0,P|236:84|236:152,1,135,2|0,0:0|0:0,0:0:0:0:
380,148,39511,5,4,0:0:0:0:
252,148,39682,1,0,0:0:0:0:
488,148,39854,1,0,0:0:0:0:
232,148,40025,1,0,0:0:0:0:
380,148,40196,2,0,L|334:68,1,90,2|0,0:0|0:0,0:0:0:0:
172,148,40539,1,0,0:0:0:0:
308,148,40711,1,0,0:0:0:0:
144,148,40882,6,0,L|52:148,1,90,2|0,0:0|0:0,0:0:0:0:
200,148,41225,2,0,P|260:188|236:244,1,135,2|0,0:0|0:0,0:0:0:0:
144,228,41568,5,2,0:0:0:0:
115,239,41611,1,0,0:0:0:0:
94,263,41654,1,0,0:0:0:0:
88,295,41696,1,0,0:0:0:0:
98,325,41739,1,0,0:0:0:0:
121,347,41782,1,0,0:0:0:0:
152,355,41825,1,0,0:0:0:0:
184,352,41868,1,0,0:0:0:0:
212,328,41911,1,0,0:0:0:0:
228,288,41954,1,0,0:0:0:0:
208,240,41996,1,0,0:0:0:0:
48,152,42082,1,2,0:0:0:0:
190,152,42168,1,2,0:0:0:0:
332,152,42254,6,0,L|444:152,2,107.999996704102,4|0|0,0:0|0:0|0:0,0:0:0:0:
161,152,42768,1,0,0:0:0:0:
396,232,42939,2,0,L|500:232,1,90,2|0,0:0|0:0,0:0:0:0:
172,76,43282,2,0,L|68:76,1,90
352,76,43625,5,2,0:0:0:0:
208,76,43796,1,0,0:0:0:0:
324,76,43968,1,0,0:0:0:0:
236,76,44139,1,0,0:0:0:0:
472,76,44311,2,0,P|492:124|452:192,1,135,2|0,0:0|0:0,0:0:0:0:
216,192,44654,2,0,L|352:192,1,135,2|0,0:0|0:0,0:0:0:0:
112,280,44996,6,0,L|16:280,1,90,4|0,0:0|0:0,0:0:0:0:
276,280,45339,1,0,0:0:0:0:
140,280,45511,1,0,0:0:0:0:
392,280,45682,1,2,0:0:0:0:
140,280,45854,1,0,0:0:0:0:
284,280,46025,2,0,L|388:280,1,90
140,192,46368,6,0,L|190:105,1,90,2|0,0:0|0:0,0:0:0:0:
312,112,46711,2,0,L|262:25,1,90,2|0,0:0|0:0,0:0:0:0:
88,36,47054,1,2,0:0:0:0:
54,53,47096,1,0,0:0:0:0:
32,85,47139,1,0,0:0:0:0:
26,122,47182,1,0,0:0:0:0:
38,159,47225,1,0,0:0:0:0:
65,186,47268,1,0,0:0:0:0:
102,197,47311,1,0,0:0:0:0:
312,192,47396,2,0,L|452:192,1,135.000005149842,8|0,0:0|0:0,0:0:0:0:
139,192,47739,6,0,L|132:96,1,90,8|0,0:0|0:0,0:0:0:0:
296,168,48082,2,0,L|289:72,1,90
180,192,48425,2,0,L|187:96,1,90,2|0,0:0|0:0,0:0:0:0:
276,192,48768,2,0,L|269:96,1,90
208,104,49025,1,0,0:0:0:0:
36,104,49111,6,0,L|136:104,1,90,8|0,0:0|0:0,0:0:0:0:
288,32,49454,2,0,L|188:32,1,90
88,104,49796,2,0,L|113:200,1,90,2|0,0:0|0:0,0:0:0:0:
204,192,50139,2,0,L|229:288,1,90
288,280,50396,1,0,0:0:0:0:
464,192,50482,6,0,L|472:92,1,90,8|0,0:0|0:0,0:0:0:0:
308,192,50825,2,0,L|299:92,1,90
408,192,51168,2,0,L|489:134,1,90,2|0,0:0|0:0,0:0:0:0:
392,140,51511,2,0,L|310:82,1,90
256,88,51768,1,0,0:0:0:0:
84,88,51854,6,0,L|174:36,1,90,8|0,0:0|0:0,0:0:0:0:
396,88,52196,2,0,L|305:36,1,90
162,43,52539,1,2,0:0:0:0:
308,44,52711,1,0,0:0:0:0:
172,44,52882,1,0,0:0:0:0:
296,44,53054,2,0,L|240:44,1,45
24,192,53225,6,0,L|140:192,3,112.5,2|2|2|2,0:0|0:0|0:0|0:0,0:0:0:0:
372,276,53911,2,0,L|256:276,3,112.5,2|2|2|2,0:0|0:0|0:0|0:0,0:0:0:0:
492,192,54596,5,2,0:0:0:0:
348,192,54768,1,2,0:0:0:0:
492,192,54939,1,2,0:0:0:0:
324,192,55111,1,2,0:0:0:0:
92,192,55282,1,2,0:0:0:0:
248,192,55454,1,2,0:0:0:0:
92,192,55625,1,2,0:0:0:0:
260,192,55796,1,2,0:0:0:0:
64,192,55968,6,0,L|56:136,1,56.25,2|2,0:0|0:0,0:0:0:0:
136,136,56139,2,0,L|144:80,1,56.25,2|2,0:0|0:0,0:0:0:0:
40,192,56311,2,0,L|13:142,1,56.25,2|2,0:0|0:0,0:0:0:0:
160,136,56482,2,0,L|186:86,1,56.25,2|2,0:0|0:0,0:0:0:0:
383,88,56654,6,0,L|428:49,1,56.25,2|2,0:0|0:0,0:0:0:0:
229,122,56825,2,0,L|183:83,1,56.25,2|2,0:0|0:0,0:0:0:0:
423,92,56996,2,0,L|479:71,1,56.25,2|2,0:0|0:0,0:0:0:0:
160,136,57168,2,0,L|103:115,1,56.25,2|2,0:0|0:0,0:0:0:0:
312,92,57339,5,4,0:0:0:0:
84,136,57511,1,0,0:0:0:0:
360,140,57682,2,0,P|420:228|388:316,1,202.500007724762
177,315,58025,5,2,0:0:0:0:
161,315,58046,1,0,0:0:0:0:
145,313,58068,1,0,0:0:0:0:
129,310,58089,1,0,0:0:0:0:
114,305,58111,1,0,0:0:0:0:
100,298,58132,1,0,0:0:0:0:
86,290,58154,1,0,0:0:0:0:
74,280,58175,1,0,0:0:0:0:
62,269,58196,1,0,0:0:0:0:
52,256,58218,1,0,0:0:0:0:
44,243,58239,1,0,0:0:0:0:
37,229,58261,1,0,0:0:0:0:
31,214,58282,1,0,0:0:0:0:
28,198,58304,1,0,0:0:0:0:
26,182,58325,1,0,0:0:0:0:
26,166,58346,1,0,0:0:0:0:
38,173,58368,6,0,L|24:165,14,14.0625
200,168,58711,6,0,L|344:168,2,135.000005149842,12|2|8,0:0|0:0|0:0,0:0:0:0:
436,168,59225,2,0,L|440:76,1,90,2|8,0:0|0:0,0:0:0:0:
172,168,59568,2,0,L|168:76,1,90,2|8,0:0|0:0,0:0:0:0:
332,80,59911,2,0,L|384:80,1,45,2|0,0:0|0:0,0:0:0:0:
204,80,60082,6,0,L|36:80,1,168.75,8|0,0:0|0:0,0:0:0:0:
216,168,60425,2,0,L|384:168,1,168.75,8|0,0:0|0:0,0:0:0:0:
184,348,60768,2,0,P|207:269|283:240,1,168.75,8|0,0:0|0:0,0:0:0:0:
484,340,61111,2,0,P|454:264|376:241,1,168.75,8|0,0:0|0:0,0:0:0:0:
172,240,61454,5,8,0:0:0:0:
444,160,61625,2,0,L|440:68,1,90,2|8,0:0|0:0,0:0:0:0:
180,160,61968,2,0,L|184:68,1,90,2|8,0:0|0:0,0:0:0:0:
444,160,62311,2,0,L|440:68,1,90,2|8,0:0|0:0,0:0:0:0:
276,72,62654,2,0,L|232:92,1,45,2|0,0:0|0:0,0:0:0:0:
335,164,62825,6,0,L|471:192,1,135,8|0,0:0|0:0,0:0:0:0:
368,248,63168,2,0,P|308:276|288:340,1,135,8|0,0:0|0:0,0:0:0:0:
467,191,63511,2,0,P|439:131|375:111,1,135,8|0,0:0|0:0,0:0:0:0:
176,113,63854,1,8,0:0:0:0:
296,112,64025,2,0,L|232:112,1,45,2|2,0:0|0:0,0:0:0:0:
108,112,64196,5,8,0:0:0:0:
344,192,64368,2,0,L|427:240,1,90,2|8,0:0|0:0,0:0:0:0:
100,192,64711,2,0,L|22:241,1,90,2|8,0:0|0:0,0:0:0:0:
344,192,65054,1,2,0:0:0:0:
200,192,65225,1,8,0:0:0:0:
364,192,65396,1,2,0:0:0:0:
128,191,65568,5,8,0:0:0:0:
292,191,65739,1,2,0:0:0:0:
148,191,65911,1,8,0:0:0:0:
276,191,66082,1,2,0:0:0:0:
16,192,66254,2,0,P|36:120|148:64,1,202.500007724762,8|0,0:0|0:0,0:0:0:0:
316,63,66596,1,8,0:0:0:0:
156,63,66768,1,10,0:0:0:0:
448,63,66939,5,8,0:0:0:0:
340,63,67111,1,2,0:0:0:0:
504,63,67282,1,8,0:0:0:0:
340,63,67454,1,10,0:0:0:0:
100,64,67625,1,8,0:0:0:0:
340,63,67796,1,2,0:0:0:0:
100,64,67968,2,0,L|84:120,1,45,8|8,0:0|0:0,0:0:0:0:
272,160,68139,2,0,L|304:192,1,45,10|8,0:0|0:0,0:0:0:0:
124,108,68311,5,4,0:0:0:0:
368,160,68482,1,0,0:0:0:0:
100,156,68654,2,0,P|44:244|76:332,1,202.500007724762,2|0,0:0|0:0,0:0:0:0:
272,328,68996,5,2,0:0:0:0:
292,330,69018,1,0,0:0:0:0:
313,328,69039,1,0,0:0:0:0:
332,320,69061,1,0,0:0:0:0:
349,307,69082,1,0,0:0:0:0:
362,290,69104,1,0,0:0:0:0:
369,271,69125,1,0,0:0:0:0:
371,250,69146,1,0,0:0:0:0:
368,230,69168,1,0,0:0:0:0:
359,211,69189,1,0,0:0:0:0:
346,194,69211,1,0,0:0:0:0:
329,182,69232,1,0,0:0:0:0:
309,176,69254,1,0,0:0:0:0:
288,174,69275,1,0,0:0:0:0:
268,178,69296,1,0,0:0:0:0:
249,187,69318,1,0,0:0:0:0:
232,196,69339,5,0,0:0:0:0:
213,205,69361,1,0,0:0:0:0:
192,209,69382,1,0,0:0:0:0:
171,207,69404,1,0,0:0:0:0:
152,200,69425,1,0,0:0:0:0:
134,189,69446,1,0,0:0:0:0:
121,172,69468,1,0,0:0:0:0:
112,153,69489,1,0,0:0:0:0:
109,133,69511,1,0,0:0:0:0:
111,112,69532,1,0,0:0:0:0:
119,92,69554,1,0,0:0:0:0:
132,76,69575,1,0,0:0:0:0:
148,63,69596,1,0,0:0:0:0:
168,55,69618,1,0,0:0:0:0:
188,52,69639,1,0,0:0:0:0:
296,52,69682,5,12,0:0:0:0:
68,52,69854,1,8,0:0:0:0:
316,132,70025,2,0,L|420:132,1,90,8|0,0:0|0:0,0:0:0:0:
264,192,70368,2,0,L|344:232,2,90,8|0|8,0:0|0:0|0:0,0:0:0:0:
392,192,70882,1,0,0:0:0:0:
456,192,70968,1,0,0:0:0:0:
216,192,71054,6,0,P|176:120|216:48,1,168.75,8|0,0:0|0:0,0:0:0:0:
368,252,71396,2,0,P|452:216|400:128,1,202.500007724762,8|0,0:0|0:0,0:0:0:0:
216,192,71739,2,0,P|208:248|320:328,1,202.500007724762,8|0,0:0|0:0,0:0:0:0:
160,332,72082,2,0,P|100:308|68:248,1,135,8|0,0:0|0:0,0:0:0:0:
272,192,72425,5,8,0:0:0:0:
144,192,72596,1,0,0:0:0:0:
380,192,72768,1,8,0:0:0:0:
124,192,72939,1,0,0:0:0:0:
272,192,73111,2,0,L|192:144,1,90,8|0,0:0|0:0,0:0:0:0:
356,72,73454,1,8,0:0:0:0:
480,72,73625,1,0,0:0:0:0:
188,72,73796,6,0,P|192:144|272:152,1,161.999995056153,8|0,0:0|0:0,0:0:0:0:
164,152,74139,2,2,P|92:164|84:244,1,161.999995056153,8|0,0:0|0:0,0:0:0:0:
288,240,74482,2,0,L|424:240,1,135,8|0,0:0|0:0,0:0:0:0:
264,240,74825,1,8,0:0:0:0:
372,148,74996,2,0,L|320:148,1,45,8|8,0:0|0:0,0:0:0:0:
180,148,75168,6,0,L|88:148,2,90,8|0|8,0:0|0:0|0:0,0:0:0:0:
348,148,75682,1,0,0:0:0:0:
112,240,75854,1,8,0:0:0:0:
248,240,76025,1,0,0:0:0:0:
16,240,76196,1,8,0:0:0:0:
268,240,76368,1,8,0:0:0:0:
36,240,76539,5,8,0:0:0:0:
180,240,76711,1,0,0:0:0:0:
288,240,76882,1,8,0:0:0:0:
160,240,77054,1,0,0:0:0:0:
428,236,77225,2,0,P|448:188|408:120,1,135,8|0,0:0|0:0,0:0:0:0:
172,120,77568,1,8,0:0:0:0:
336,120,77739,1,8,0:0:0:0:
100,120,77911,5,8,0:0:0:0:
244,120,78082,1,8,0:0:0:0:
80,120,78254,1,8,0:0:0:0:
316,120,78425,1,8,0:0:0:0:
48,192,78596,6,0,L|40:244,1,45,8|8,0:0|0:0,0:0:0:0:
272,192,78768,2,0,L|280:244,1,45,8|8,0:0|0:0,0:0:0:0:
112,312,78939,2,0,L|184:312,1,67.5000025749208,8|8,0:0|0:0,0:0:0:0:
272,192,79111,2,0,L|340:192,1,67.5000025749208,8|8,0:0|0:0,0:0:0:0:
496,156,79282,5,4,0:0:0:0:
344,156,79454,1,0,0:0:0:0:
236,152,79625,1,2,0:0:0:0:
372,156,79796,1,0,0:0:0:0:
104,152,79968,5,2,0:0:0:0:
82,157,80011,1,0,0:0:0:0:
62,167,80054,1,0,0:0:0:0:
44,181,80096,1,0,0:0:0:0:
30,199,80139,1,0,0:0:0:0:
21,219,80182,1,0,0:0:0:0:
16,241,80225,1,0,0:0:0:0:
16,263,80268,1,0,0:0:0:0:
21,285,80311,1,0,0:0:0:0:
31,305,80354,1,0,0:0:0:0:
45,323,80396,1,0,0:0:0:0:
63,337,80439,1,0,0:0:0:0:
83,347,80482,1,0,0:0:0:0:
105,352,80525,1,0,0:0:0:0:
127,352,80568,1,0,0:0:0:0:
400,192,80654,5,4,0:0:0:0:
300,192,80825,1,0,0:0:0:0:
200,192,80996,1,0,0:0:0:0:
100,192,81168,1,0,0:0:0:0:
400,192,81339,5,4,0:0:0:0:
300,192,81511,1,0,0:0:0:0:
200,192,81682,1,0,0:0:0:0:
100,192,81854,1,0,0:0:0:0:
400,192,82025,5,2,0:0:0:0:
300,192,82196,1,0,0:0:0:0:
200,192,82368,1,0,0:0:0:0:
300,192,82539,1,0,0:0:0:0:
64,192,82711,5,4,0:0:0:0:
200,192,82882,1,0,0:0:0:0:
336,192,83054,1,4,0:0:0:0:
472,192,83225,1,0,0:0:0:0:
176,264,83396,6,0,P|120:236|180:120,1,225,4|0,0:0|0:0,0:0:0:0:
284,120,83911,1,0,0:0:0:0:
104,120,84082,2,0,L|8:120,2,90,8|0|0,0:0|0:0|0:0,0:0:0:0:
212,120,84596,1,2,0:0:0:0:
56,192,84768,6,0,L|152:192,1,90,2|0,0:0|0:0,0:0:0:0:
252,192,85111,2,0,L|356:192,1,90,2|0,0:0|0:0,0:0:0:0:
160,264,85454,1,8,0:0:0:0:
268,264,85625,1,2,0:0:0:0:
420,264,85796,1,0,0:0:0:0:
268,264,85968,1,2,0:0:0:0:
88,192,86139,6,0,L|12:140,2,90,2|0|0,0:0|0:0|0:0,0:0:0:0:
192,192,86654,1,0,0:0:0:0:
372,192,86825,2,0,L|508:192,2,135,8|0|0,0:0|0:0|0:0,0:0:0:0:
192,192,87511,6,0,L|272:144,2,90,2|0|0,0:0|0:0|0:0,0:0:0:0:
300,192,88025,1,0,0:0:0:0:
120,192,88196,2,0,L|24:192,1,90,8|0,0:0|0:0,0:0:0:0:
212,108,88539,1,4,0:0:0:0:
68,108,88711,1,0,0:0:0:0:
304,108,88882,6,0,P|340:160|264:224,1,180,2|0,0:0|0:0,0:0:0:0:
156,224,89396,1,0,0:0:0:0:
300,224,89568,2,0,L|400:224,1,90,8|0,0:0|0:0,0:0:0:0:
244,304,89911,2,0,L|168:236,1,90
424,304,90254,6,0,L|504:260,1,90,2|0,0:0|0:0,0:0:0:0:
267,244,90596,2,0,L|177:244,1,90,2|0,0:0|0:0,0:0:0:0:
349,160,90939,1,8,0:0:0:0:
248,160,91111,1,0,0:0:0:0:
77,160,91282,1,0,0:0:0:0:
177,160,91454,1,2,0:0:0:0:
412,160,91625,6,0,L|504:160,2,90,2|0|0,0:0|0:0|0:0,0:0:0:0:
304,160,92139,1,0,0:0:0:0:
116,160,92311,2,0,L|156:76,1,90,8|0,0:0|0:0,0:0:0:0:
308,80,92654,2,0,L|269:161,1,90,2|0,0:0|0:0,0:0:0:0:
88,160,92996,6,0,L|172:192,2,90,2|0|0,0:0|0:0|0:0,0:0:0:0:
196,160,93511,1,2,0:0:0:0:
16,160,93682,2,0,L|100:192,1,90,8|0,0:0|0:0,0:0:0:0:
280,192,94025,1,0,0:0:0:0:
306,209,94068,1,0,0:0:0:0:
323,236,94111,1,0,0:0:0:0:
328,268,94154,1,0,0:0:0:0:
318,298,94196,1,0,0:0:0:0:
298,322,94239,1,0,0:0:0:0:
269,336,94282,1,0,0:0:0:0:
237,336,94325,1,0,0:0:0:0:
104,336,94368,6,0,L|12:336,1,90,2|0,0:0|0:0,0:0:0:0:
176,192,94711,2,0,L|236:124,1,90,2|0,0:0|0:0,0:0:0:0:
72,128,95054,1,2,0:0:0:0:
190,124,95225,2,0,L|246:124,1,45
384,124,95396,1,2,0:0:0:0:
236,124,95568,1,0,0:0:0:0:
416,44,95739,6,0,L|324:44,1,90,2|0,0:0|0:0,0:0:0:0:
164,44,96082,2,0,L|256:44,1,90,2|0,0:0|0:0,0:0:0:0:
92,124,96425,2,0,L|184:124,1,90,2|0,0:0|0:0,0:0:0:0:
236,124,96682,1,0,0:0:0:0:
392,192,96768,1,2,0:0:0:0:
100,192,96939,6,0,L|4:192,1,90,4|2,0:0|0:0,0:0:0:0:
172,192,97282,2,0,P|256:220|300:296,1,180
64,304,97796,1,2,0:0:0:0:
208,304,97968,1,0,0:0:0:0:
44,304,98139,1,2,0:0:0:0:
152,304,98311,1,0,0:0:0:0:
388,304,98482,6,0,L|484:304,1,90,2|0,0:0|0:0,0:0:0:0:
224,192,98825,2,0,L|132:192,1,90,2|0,0:0|0:0,0:0:0:0:
404,80,99168,2,0,L|500:80,1,90,8|0,0:0|0:0,0:0:0:0:
312,80,99511,1,2,0:0:0:0:
476,192,99682,1,2,0:0:0:0:
160,192,99854,6,0,L|24:192,2,125.999996154785,2|0|2,0:0|0:0|0:0,0:0:0:0:
296,192,100368,1,0,0:0:0:0:
124,192,100539,2,0,P|72:220|60:284,1,112.5,2|2,0:0|0:0,0:0:0:0:
128,264,100796,1,2,0:0:0:0:
196,284,100882,1,2,0:0:0:0:
448,288,101054,6,0,P|496:244|404:156,1,225,4|0,0:0|0:0,0:0:0:0:
212,156,101568,2,0,L|316:96,1,112.5,2|0,0:0|0:0,0:0:0:0:
140,104,101911,2,0,L|244:44,2,112.5,2|0|8,0:0|0:0|0:0,0:0:0:0:
28,104,102425,1,2,0:0:0:0:
308,104,102596,5,2,0:0:0:0:
196,104,102768,2,0,L|124:104,1,56.25,2|2,0:0|0:0,0:0:0:0:
228,172,102939,2,0,L|278:222,1,56.25,2|2,0:0|0:0,0:0:0:0:
76,212,103111,2,0,P|24:260|84:316,1,168.75,4|0,0:0|0:0,0:0:0:0:
256,316,103454,2,0,P|240:256|148:212,1,168.75,4|0,0:0|0:0,0:0:0:0:
324,212,103796,6,0,P|392:192|432:108,1,168.75,4|0,0:0|0:0,0:0:0:0:
364,108,104139,1,2,0:0:0:0:
296,108,104225,1,2,0:0:0:0:
364,108,104311,2,0,L|412:80,1,56.25,8|0,0:0|0:0,0:0:0:0:
328,108,104482,1,2,0:0:0:0:
184,108,104654,1,8,0:0:0:0:
128,108,104739,1,0,0:0:0:0:
72,108,104825,1,2,0:0:0:0:
128,108,104911,1,2,0:0:0:0:
324,108,104996,2,0,B|412:108|412:108|452:180,1,168.75,8|0,0:0|0:0,0:0:0:0:
104,192,105339,5,2,0:0:0:0:
292,192,105596,1,4,0:0:0:0:
480,192,105854,1,4,0:0:0:0:
192,192,106196,1,4,0:0:0:0:
372,192,106368,1,2,0:0:0:0:
208,192,106539,1,0,0:0:0:0:
476,192,106711,5,2,0:0:0:0:
288,192,106968,1,4,0:0:0:0:
100,192,107225,1,4,0:0:0:0:
388,192,107568,1,4,0:0:0:0:
208,192,107739,1,2,0:0:0:0:
372,192,107911,1,0,0:0:0:0:
124,280,108082,6,0,L|281:337,2,168.75,2|4|4,0:0|0:0|0:0,0:0:0:0:
232,192,108768,1,2,0:0:0:0:
468,192,108939,1,4,0:0:0:0:
312,192,109111,1,2,0:0:0:0:
156,192,109282,1,0,0:0:0:0:
472,280,109454,6,0,L|314:337,2,168.75,2|4|4,0:0|0:0|0:0,0:0:0:0:
156,284,110139,2,0,L|60:284,1,90,8|0,0:0|0:0,0:0:0:0:
392,192,110482,2,0,L|492:192,1,90,8|0,0:0|0:0,0:0:0:0:
184,192,110825,5,6,0:0:0:0:
76,192,110996,1,2,0:0:0:0:
200,192,111168,1,2,0:0:0:0:
308,192,111339,1,2,0:0:0:0:
182,192,111511,1,6,0:0:0:0:
452,192,111682,1,2,0:0:0:0:
308,192,111854,1,2,0:0:0:0:
440,192,112025,1,2,0:0:0:0:
144,192,112196,5,6,0:0:0:0:
36,192,112368,1,2,0:0:0:0:
160,192,112539,1,2,0:0:0:0:
52,192,112711,1,2,0:0:0:0:
176,192,112882,1,6,0:0:0:0:
448,192,113054,1,2,0:0:0:0:
304,192,113225,1,2,0:0:0:0:
172,192,113396,1,2,0:0:0:0:
408,324,113568,5,8,0:0:0:0:
429,319,113611,1,8,0:0:0:0:
448,310,113654,1,8,0:0:0:0:
464,297,113696,1,8,0:0:0:0:
478,281,113739,1,8,0:0:0:0:
487,262,113782,1,8,0:0:0:0:
492,242,113825,1,8,0:0:0:0:
492,221,113868,1,8,0:0:0:0:
487,200,113911,1,8,0:0:0:0:
479,181,113954,1,8,0:0:0:0:
466,165,113996,1,8,0:0:0:0:
449,152,114039,1,8,0:0:0:0:
431,142,114082,1,8,0:0:0:0:
410,138,114125,1,8,0:0:0:0:
389,137,114168,1,8,0:0:0:0:
369,142,114211,1,8,0:0:0:0:
160,144,114254,5,8,0:0:0:0:
138,132,114296,1,8,0:0:0:0:
123,111,114339,1,8,0:0:0:0:
118,86,114382,1,8,0:0:0:0:
125,62,114425,1,8,0:0:0:0:
142,43,114468,1,8,0:0:0:0:
165,33,114511,1,8,0:0:0:0:
191,35,114554,1,8,0:0:0:0:
369,142,114596,5,8,0:0:0:0:
373,173,114639,1,8,0:0:0:0:
368,205,114682,1,8,0:0:0:0:
355,234,114725,1,8,0:0:0:0:
334,259,114768,1,8,0:0:0:0:
308,277,114811,1,8,0:0:0:0:
278,288,114854,1,8,0:0:0:0:
246,291,114896,1,8,0:0:0:0:
108,288,114939,5,8,0:0:0:0:
316,172,115282,2,0,L|392:120,1,90,2|0,0:0|0:0,0:0:0:0:
92,80,115625,5,2,0:0:0:0:
76,88,115646,1,0,0:0:0:0:
62,100,115668,1,0,0:0:0:0:
50,113,115689,1,0,0:0:0:0:
40,128,115711,1,0,0:0:0:0:
32,144,115732,1,0,0:0:0:0:
27,161,115754,1,0,0:0:0:0:
25,179,115775,1,0,0:0:0:0:
26,197,115796,1,0,0:0:0:0:
29,215,115818,1,0,0:0:0:0:
35,232,115839,1,0,0:0:0:0:
44,247,115861,1,0,0:0:0:0:
55,262,115882,1,0,0:0:0:0:
68,274,115904,1,0,0:0:0:0:
83,284,115925,1,0,0:0:0:0:
200,296,115968,6,0,L|336:296,1,135.000005149842,4|0,0:0|0:0,0:0:0:0:
100,192,116311,6,0,P|48:152|156:40,1,270.000010299683,4|8,0:0|0:0,0:0:0:0:
220,40,116739,1,0,0:0:0:0:
288,40,116825,1,0,0:0:0:0:
96,40,116996,2,0,L|88:160,1,112.5,2|0,0:0|0:0,0:0:0:0:
156,152,117254,1,0,0:0:0:0:
336,156,117339,2,0,L|460:156,1,112.5,8|0,0:0|0:0,0:0:0:0:
88,152,117682,6,0,P|104:208|152:232,1,112.5,2|0,0:0|0:0,0:0:0:0:
189,232,117896,1,0,0:0:0:0:
229,232,117939,1,0,0:0:0:0:
269,232,117982,1,0,0:0:0:0:
308,232,118025,2,0,L|416:192,1,112.5,8|0,0:0|0:0,0:0:0:0:
346,256,118282,1,0,0:0:0:0:
228,360,118368,2,0,L|336:320,1,112.5,2|0,0:0|0:0,0:0:0:0:
48,360,118711,2,0,P|16:316|100:224,1,202.500007724762,8|0,0:0|0:0,0:0:0:0:
324,232,119054,6,0,P|304:176|260:152,1,112.5,2|0,0:0|0:0,0:0:0:0:
220,152,119268,1,0,0:0:0:0:
180,152,119311,1,0,0:0:0:0:
140,152,119354,1,0,0:0:0:0:
100,152,119396,2,0,L|164:152,1,56.25,8|0,0:0|0:0,0:0:0:0:
304,152,119568,1,0,0:0:0:0:
132,104,119739,1,0,0:0:0:0:
120,72,119825,1,0,0:0:0:0:
108,32,119911,2,0,L|168:32,1,56.25,2|0,0:0|0:0,0:0:0:0:
336,48,120082,1,8,0:0:0:0:
179,48,120254,1,2,0:0:0:0:
440,48,120425,6,0,P|487:74|501:127,1,112.5,2|0,0:0|0:0,0:0:0:0:
496,176,120639,1,0,0:0:0:0:
468,188,120682,1,0,0:0:0:0:
428,192,120725,1,0,0:0:0:0:
251,191,120768,2,0,L|135:191,1,112.5,8|0,0:0|0:0,0:0:0:0:
208,192,121025,1,0,0:0:0:0:
362,189,121111,2,0,L|378:309,1,112.5,2|0,0:0|0:0,0:0:0:0:
106,305,121454,2,0,P|62:273|142:193,1,202.500007724762,8|0,0:0|0:0,0:0:0:0:
328,188,121796,6,0,L|212:188,1,112.5,2|0,0:0|0:0,0:0:0:0:
274,151,122054,1,0,0:0:0:0:
334,115,122139,1,8,0:0:0:0:
76,112,122311,2,0,P|32:152|112:272,1,225,4|0,0:0|0:0,0:0:0:0:
168,272,122739,1,0,0:0:0:0:
348,272,122825,1,8,0:0:0:0:
192,272,122996,1,0,0:0:0:0:
440,272,123168,6,0,L|448:160,1,112.5,2|0,0:0|0:0,0:0:0:0:
312,160,123511,2,0,L|192:128,2,112.5,8|0|2,0:0|0:0|0:0,0:0:0:0:
120,160,124025,1,0,0:0:0:0:
380,104,124196,2,0,L|272:76,1,112.5,8|0,0:0|0:0,0:0:0:0:
24,76,124539,6,0,L|136:76,1,112.5,2|0,0:0|0:0,0:0:0:0:
316,160,124882,2,0,L|204:160,1,112.5,8|0,0:0|0:0,0:0:0:0:
384,260,125225,2,0,L|272:260,1,112.5,2|2,0:0|0:0,0:0:0:0:
328,260,125482,1,2,0:0:0:0:
384,260,125568,1,8,0:0:0:0:
120,260,125739,6,0,P|52:228|132:136,1,225,4|0,0:0|0:0,0:0:0:0:
312,132,126254,1,8,0:0:0:0:
152,132,126425,1,0,0:0:0:0:
400,132,126596,2,0,L|496:72,1,112.5,2|2,0:0|0:0,0:0:0:0:
428,72,126854,1,2,0:0:0:0:
256,72,126939,2,0,L|144:72,1,112.5,8|0,0:0|0:0,0:0:0:0:
440,192,127282,6,0,L|328:192,1,112.5,4|2,0:0|0:0,0:0:0:0:
392,221,127539,1,2,0:0:0:0:
398,292,127625,1,8,0:0:0:0:
339,332,127711,1,2,0:0:0:0:
164,332,127796,1,2,0:0:0:0:
324,332,127968,2,0,L|328:216,1,112.5,2|0,0:0|0:0,0:0:0:0:
260,220,128225,1,0,0:0:0:0:
92,224,128311,2,0,L|84:164,1,56.25,8|0,0:0|0:0,0:0:0:0:
340,136,128482,2,0,L|340:80,1,56.25,2|0,0:0|0:0,0:0:0:0:
72,136,128654,6,0,P|40:80|88:40,1,135.000005149842,2|0,0:0|0:0,0:0:0:0:
128,40,128868,1,0,0:0:0:0:
171,40,128911,1,0,0:0:0:0:
214,40,128954,1,0,0:0:0:0:
256,40,128996,2,0,L|384:40,1,112.5,8|2,0:0|0:0,0:0:0:0:
300,40,129254,1,2,0:0:0:0:
120,40,129339,2,0,P|72:76|72:136,1,112.5,2|2,0:0|0:0,0:0:0:0:
328,128,129682,2,0,P|388:148|336:240,1,202.500007724762,4|0,0:0|0:0,0:0:0:0:
132,236,130025,6,0,P|132:304|192:332,1,135.000005149842,2|2,0:0|0:0,0:0:0:0:
252,332,130282,1,2,0:0:0:0:
160,332,130368,2,0,L|140:264,1,56.25,8|0,0:0|0:0,0:0:0:0:
344,240,130539,2,0,L|412:240,1,56.25,2|0,0:0|0:0,0:0:0:0:
224,168,130711,2,0,L|280:136,1,56.25,2|0,0:0|0:0,0:0:0:0:
372,144,130882,2,0,L|323:171,1,56.25,2|0,0:0|0:0,0:0:0:0:
168,168,131054,1,8,0:0:0:0:
416,144,131225,1,2,0:0:0:0:
100,168,131396,6,0,P|36:136|16:72,1,135.000005149842,2|0,0:0|0:0,0:0:0:0:
48,80,131611,1,0,0:0:0:0:
80,80,131654,1,0,0:0:0:0:
112,80,131696,1,0,0:0:0:0:
272,80,131739,2,0,L|388:80,1,112.5,8|2,0:0|0:0,0:0:0:0:
316,80,131996,1,0,0:0:0:0:
168,80,132082,2,0,P|128:124|180:208,1,168.75,2|0,0:0|0:0,0:0:0:0:
388,208,132425,2,0,P|472:248|492:316,1,168.75,4|0,0:0|0:0,0:0:0:0:
212,316,132768,6,0,L|96:316,1,112.5,4|0,0:0|0:0,0:0:0:0:
280,316,133111,1,8,0:0:0:0:
44,316,133282,2,0,P|32:252|152:172,1,225,4|0,0:0|0:0,0:0:0:0:
344,168,133796,2,0,L|232:192,1,112.5
480,192,134139,6,0,L|488:80,1,112.5,2|0,0:0|0:0,0:0:0:0:
296,80,134482,2,0,L|248:44,2,56.25,8|0|0,0:0|0:0|0:0,0:0:0:0:
464,80,134825,1,2,0:0:0:0:
204,80,134996,1,0,0:0:0:0:
384,80,135168,1,8,0:0:0:0:
112,80,135339,1,0,0:0:0:0:
416,192,135511,5,6,0:0:0:0:
280,192,135682,1,2,0:0:0:0:
144,192,135854,1,2,0:0:0:0:
280,192,136025,1,2,0:0:0:0:
84,192,136196,2,0,L|76:304,1,112.5,2|2,0:0|0:0,0:0:0:0:
280,192,136539,2,0,L|400:192,1,112.5,2|2,0:0|0:0,0:0:0:0:
132,52,136882,5,8,0:0:0:0:
96,60,136925,1,8,0:0:0:0:
68,84,136968,1,8,0:0:0:0:
56,120,137011,1,8,0:0:0:0:
68,160,137054,1,8,0:0:0:0:
96,188,137096,1,8,0:0:0:0:
132,200,137139,1,8,0:0:0:0:
172,200,137182,1,8,0:0:0:0:
212,200,137225,1,8,0:0:0:0:
248,212,137268,1,8,0:0:0:0:
280,236,137311,1,8,0:0:0:0:
292,272,137354,1,8,0:0:0:0:
288,312,137396,1,8,0:0:0:0:
268,348,137439,1,8,0:0:0:0:
232,364,137482,1,8,0:0:0:0:
188,368,137525,1,8,0:0:0:0:
40,364,137568,5,8,0:0:0:0:
20,336,137611,1,8,0:0:0:0:
8,304,137654,1,8,0:0:0:0:
8,272,137696,1,8,0:0:0:0:
16,240,137739,1,8,0:0:0:0:
32,208,137782,1,8,0:0:0:0:
56,184,137825,1,8,0:0:0:0:
89,163,137868,1,8,0:0:0:0:
368,164,137911,6,0,P|392:216|388:312,1,135,8|0,0:0|0:0,0:0:0:0:
192,292,138254,6,0,L|88:292,2,90,4|0|2,0:0|0:0|0:0,0:0:0:0:
300,292,138768,1,0,0:0:0:0:
64,292,138939,2,0,L|84:200,1,90,8|0,0:0|0:0,0:0:0:0:
264,204,139282,2,0,L|164:204,1,90,2|0,0:0|0:0,0:0:0:0:
228,204,139539,1,0,0:0:0:0:
436,200,139625,6,0,L|440:100,1,90,2|0,0:0|0:0,0:0:0:0:
152,204,139968,2,0,L|148:104,1,90,2|0,0:0|0:0,0:0:0:0:
400,112,140311,2,0,L|260:112,1,135,8|0,0:0|0:0,0:0:0:0:
100,32,140654,2,0,L|240:32,1,135,2|0,0:0|0:0,0:0:0:0:
56,108,140996,6,0,L|156:108,2,90,2|0|2,0:0|0:0|0:0,0:0:0:0:
308,108,141511,1,0,0:0:0:0:
36,192,141682,2,0,L|140:192,1,90,8|0,0:0|0:0,0:0:0:0:
288,272,142025,2,0,L|176:272,1,90,2|0,0:0|0:0,0:0:0:0:
432,272,142368,6,0,P|460:208|372:132,1,202.500007724762,2|0,0:0|0:0,0:0:0:0:
174,144,142711,2,0,P|99:90|143:8,1,202.500007724762,2|0,0:0|0:0,0:0:0:0:
380,60,143054,2,0,P|440:104|388:204,1,202.500007724762,8|0,0:0|0:0,0:0:0:0:
284,204,143396,1,2,0:0:0:0:
148,204,143568,2,0,L|200:204,1,45,2|0,0:0|0:0,0:0:0:0:
344,204,143739,6,0,L|436:204,2,90,2|0|2,0:0|0:0|0:0,0:0:0:0:
176,204,144254,1,0,0:0:0:0:
412,112,144425,1,8,0:0:0:0:
284,112,144596,1,0,0:0:0:0:
52,112,144768,1,2,0:0:0:0:
320,112,144939,1,0,0:0:0:0:
32,112,145111,6,0,L|28:224,1,90,2|0,0:0|0:0,0:0:0:0:
256,204,145454,2,0,L|152:204,1,90,2|0,0:0|0:0,0:0:0:0:
396,204,145796,2,0,P|472:220|476:300,1,161.999995056153,8|0,0:0|0:0,0:0:0:0:
288,296,146139,2,0,L|148:296,1,135,2|0,0:0|0:0,0:0:0:0:
332,204,146482,6,0,L|336:148,1,45,2|2,0:0|0:0,0:0:0:0:
244,204,146654,2,0,L|248:148,1,45,2|2,0:0|0:0,0:0:0:0:
352,160,146825,2,0,L|396:160,1,45,2|2,0:0|0:0,0:0:0:0:
292,88,146996,2,0,L|244:88,1,45,2|2,0:0|0:0,0:0:0:0:
448,88,147168,5,8,0:0:0:0:
466,121,147211,1,8,0:0:0:0:
477,158,147254,1,8,0:0:0:0:
479,197,147296,1,8,0:0:0:0:
472,234,147339,1,8,0:0:0:0:
457,270,147382,1,8,0:0:0:0:
435,301,147425,1,8,0:0:0:0:
405,326,147468,1,8,0:0:0:0:
247,88,147511,5,8,0:0:0:0:
217,113,147554,1,8,0:0:0:0:
195,144,147596,1,8,0:0:0:0:
180,179,147639,1,8,0:0:0:0:
173,217,147682,1,8,0:0:0:0:
175,256,147725,1,8,0:0:0:0:
186,293,147768,1,8,0:0:0:0:
204,326,147811,1,8,0:0:0:0:
440,192,147854,6,0,L|456:148,1,45,4|0,0:0|0:0,0:0:0:0:
262,113,148025,2,0,L|217:113,1,45
44,88,148196,2,0,P|4:144|40:192,1,135.000005149842
112,192,148454,1,0,0:0:0:0:
372,112,148539,5,2,0:0:0:0:
383,114,148561,1,0,0:0:0:0:
395,118,148582,1,0,0:0:0:0:
406,122,148604,1,0,0:0:0:0:
416,128,148625,1,0,0:0:0:0:
426,135,148646,1,0,0:0:0:0:
436,142,148668,1,0,0:0:0:0:
445,150,148689,1,0,0:0:0:0:
453,159,148711,1,0,0:0:0:0:
460,169,148732,1,0,0:0:0:0:
466,179,148754,1,0,0:0:0:0:
472,189,148775,1,0,0:0:0:0:
476,201,148796,1,0,0:0:0:0:
480,212,148818,1,0,0:0:0:0:
482,224,148839,1,0,0:0:0:0:
484,236,148861,1,0,0:0:0:0:
472,236,148882,6,0,L|484:236,8,11.25
88,192,149225,5,4,0:0:0:0:
188,192,149396,1,0,0:0:0:0:
288,192,149567,1,0,0:0:0:0:
388,192,149739,1,0,0:0:0:0:
88,192,149910,5,4,0:0:0:0:
188,192,150082,1,0,0:0:0:0:
288,192,150253,1,0,0:0:0:0:
388,192,150425,1,0,0:0:0:0:
88,192,150596,5,2,0:0:0:0:
188,192,150767,1,0,0:0:0:0:
288,192,150939,1,0,0:0:0:0:
188,192,151110,1,0,0:0:0:0:
424,192,151282,5,4,0:0:0:0:
288,192,151453,1,0,0:0:0:0:
152,192,151625,1,4,0:0:0:0:
16,192,151796,1,0,0:0:0:0:
336,264,151968,6,0,P|392:236|332:120,1,225,4|0,0:0|0:0,0:0:0:0:
228,120,152482,1,0,0:0:0:0:
464,120,152654,2,0,L|384:72,2,90,8|0|0,0:0|0:0|0:0,0:0:0:0:
356,120,153168,1,2,0:0:0:0:
192,116,153339,6,0,L|184:216,1,90,2|0,0:0|0:0,0:0:0:0:
348,204,153682,2,0,L|356:304,1,90,2|0,0:0|0:0,0:0:0:0:
120,292,154025,2,0,L|28:292,1,90,8|2,0:0|0:0,0:0:0:0:
192,204,154368,1,0,0:0:0:0:
64,204,154539,1,2,0:0:0:0:
332,204,154711,6,0,P|408:176|448:84,1,180,2|0,0:0|0:0,0:0:0:0:
340,88,155225,1,0,0:0:0:0:
108,88,155396,2,0,L|236:136,2,135,8|0|0,0:0|0:0|0:0,0:0:0:0:
288,136,156082,6,0,L|384:136,2,90,2|0|0,0:0|0:0|0:0,0:0:0:0:
180,136,156596,1,2,0:0:0:0:
416,136,156768,2,0,L|428:240,1,90,8|0,0:0|0:0,0:0:0:0:
192,224,157111,2,0,L|292:224,1,90,4|0,0:0|0:0,0:0:0:0:
48,224,157454,6,0,P|8:272|72:356,1,180,2|0,0:0|0:0,0:0:0:0:
176,356,157968,1,2,0:0:0:0:
412,356,158139,2,0,L|504:356,1,90,8|0,0:0|0:0,0:0:0:0:
320,356,158482,2,0,L|232:296,1,90,2|0,0:0|0:0,0:0:0:0:
480,280,158825,6,0,L|388:280,1,90,2|0,0:0|0:0,0:0:0:0:
156,192,159168,2,0,L|248:192,1,90,2|0,0:0|0:0,0:0:0:0:
12,192,159511,2,0,L|104:192,1,90,8|0,0:0|0:0,0:0:0:0:
336,280,159854,2,0,L|244:280,1,90,2|2,0:0|0:0,0:0:0:0:
480,280,160196,6,0,L|392:236,2,90,2|0|2,0:0|0:0|0:0,0:0:0:0:
372,280,160711,1,0,0:0:0:0:
140,280,160882,2,0,L|124:192,1,90,8|0,0:0|0:0,0:0:0:0:
304,192,161225,2,0,L|404:160,1,90,2|0,0:0|0:0,0:0:0:0:
156,164,161568,6,0,P|92:124|156:80,1,180,8|0,0:0|0:0,0:0:0:0:
264,164,162082,1,2,0:0:0:0:
32,68,162254,2,0,L|128:68,1,90,8|0,0:0|0:0,0:0:0:0:
300,68,162596,2,0,L|304:140,1,45,2|0,0:0|0:0,0:0:0:0:
160,68,162768,2,0,L|156:124,1,45,2|0,0:0|0:0,0:0:0:0:
396,68,162939,6,0,L|488:68,1,90,2|0,0:0|0:0,0:0:0:0:
308,212,163282,2,0,L|248:280,1,90,2|0,0:0|0:0,0:0:0:0:
428,280,163625,1,2,0:0:0:0:
320,280,163796,2,0,L|264:280,1,45,2|2,0:0|0:0,0:0:0:0:
116,280,163968,1,2,0:0:0:0:
260,280,164139,1,0,0:0:0:0:
24,360,164311,6,0,L|116:360,1,90,2|0,0:0|0:0,0:0:0:0:
284,360,164654,2,0,L|388:360,1,90,2|0,0:0|0:0,0:0:0:0:
192,280,164996,2,0,L|268:232,1,90,2|2,0:0|0:0,0:0:0:0:
312,232,165254,1,2,0:0:0:0:
168,144,165339,1,2,0:0:0:0:
400,144,165511,6,0,L|476:192,1,90,2|4,0:0|0:0,0:0:0:0:
308,144,165854,2,0,B|172:144|172:144|172:96,1,180
408,40,166368,1,2,0:0:0:0:
252,40,166539,2,0,L|316:40,1,45,2|2,0:0|0:0,0:0:0:0:
488,40,166711,1,2,0:0:0:0:
236,40,166882,1,0,0:0:0:0:
504,112,167054,6,0,L|408:112,1,90,2|0,0:0|0:0,0:0:0:0:
180,192,167396,2,0,L|259:238,1,90,2|0,0:0|0:0,0:0:0:0:
492,240,167739,2,0,L|444:323,1,90,2|0,0:0|0:0,0:0:0:0:
216,320,168082,1,2,0:0:0:0:
372,320,168254,1,2,0:0:0:0:
132,192,168425,6,0,L|16:192,2,112.5,6|0|2,0:0|0:0|0:0,0:0:0:0:
252,192,168939,1,0,0:0:0:0:
424,192,169111,2,0,P|476:220|488:284,1,112.5,2|2,0:0|0:0,0:0:0:0:
420,264,169368,1,2,0:0:0:0:
349,284,169454,1,2,0:0:0:0:
98,287,169625,6,0,P|50:243|142:155,1,225,4|0,0:0|0:0,0:0:0:0:
336,152,170139,2,0,L|440:92,1,112.5,2|0,0:0|0:0,0:0:0:0:
264,100,170482,2,2,L|160:40,2,112.5,2|0|2,0:0|0:0|0:0,0:0:0:0:
376,100,170996,1,2,0:0:0:0:
144,100,171168,5,2,0:0:0:0:
264,100,171339,2,0,L|336:100,1,56.25,2|2,0:0|0:0,0:0:0:0:
232,168,171511,2,0,L|182:218,1,56.25,2|2,0:0|0:0,0:0:0:0:
384,208,171682,2,0,P|436:256|376:312,1,168.75,4|0,0:0|0:0,0:0:0:0:
204,312,172025,2,0,P|144:296|100:204,1,168.75,4|0,0:0|0:0,0:0:0:0:
376,208,172368,6,0,P|444:188|484:104,1,168.75,4|0,0:0|0:0,0:0:0:0:
416,104,172711,1,2,0:0:0:0:
348,104,172796,1,2,0:0:0:0:
416,104,172882,2,0,L|464:76,2,56.25,8|0|2,0:0|0:0|0:0,0:0:0:0:
236,104,173225,1,8,0:0:0:0:
292,104,173311,1,0,0:0:0:0:
348,104,173396,1,2,0:0:0:0:
100,104,173568,2,0,B|42:103|42:103|42:156|42:156|100:156,1,168.75,8|0,0:0|0:0,0:0:0:0:
400,192,173911,5,2,0:0:0:0:
216,192,174168,1,4,0:0:0:0:
420,192,174425,2,0,L|424:304,1,112.5,4|2,0:0|0:0,0:0:0:0:
132,192,174768,1,4,0:0:0:0:
268,192,174939,1,2,0:0:0:0:
404,192,175111,1,4,0:0:0:0:
84,192,175282,5,2,0:0:0:0:
268,192,175539,1,4,0:0:0:0:
68,192,175796,2,0,P|24:228|8:280,1,112.5,4|2,0:0|0:0,0:0:0:0:
336,192,176139,1,4,0:0:0:0:
204,192,176311,1,2,0:0:0:0:
68,192,176482,1,4,0:0:0:0:
348,280,176654,6,0,L|191:337,2,168.75,2|4|4,0:0|0:0|0:0,0:0:0:0:
436,336,177339,1,0,0:0:0:0:
128,336,177511,1,4,0:0:0:0:
245,337,177682,1,2,0:0:0:0:
360,336,177854,1,4,0:0:0:0:
48,276,178025,6,0,L|206:333,2,168.75,2|4|4,0:0|0:0|0:0,0:0:0:0:
372,280,178711,2,0,L|468:280,1,90,8|0,0:0|0:0,0:0:0:0:
136,192,179054,2,0,L|36:192,1,90,8|0,0:0|0:0,0:0:0:0:
364,192,179396,5,2,0:0:0:0:
472,192,179568,1,2,0:0:0:0:
348,192,179739,1,2,0:0:0:0:
456,192,179911,1,2,0:0:0:0:
332,192,180082,1,2,0:0:0:0:
69,192,180254,1,2,0:0:0:0:
240,192,180425,1,2,0:0:0:0:
92,192,180596,1,2,0:0:0:0:
364,192,180768,5,2,0:0:0:0:
472,192,180939,1,2,0:0:0:0:
316,192,181111,1,2,0:0:0:0:
208,192,181282,1,2,0:0:0:0:
366,192,181454,1,2,0:0:0:0:
72,192,181625,1,2,0:0:0:0:
252,192,181796,1,2,0:0:0:0:
96,192,181968,1,2,0:0:0:0:
380,372,182139,5,8,0:0:0:0:
401,362,182182,1,8,0:0:0:0:
418,348,182225,1,8,0:0:0:0:
432,330,182268,1,8,0:0:0:0:
442,310,182311,1,8,0:0:0:0:
447,288,182354,1,8,0:0:0:0:
448,266,182396,1,8,0:0:0:0:
443,244,182439,1,8,0:0:0:0:
433,224,182482,1,8,0:0:0:0:
420,206,182525,1,8,0:0:0:0:
402,192,182568,1,8,0:0:0:0:
382,182,182611,1,8,0:0:0:0:
360,176,182654,1,8,0:0:0:0:
338,176,182696,1,8,0:0:0:0:
316,180,182739,1,8,0:0:0:0:
296,190,182782,1,8,0:0:0:0:
456,128,182825,5,8,0:0:0:0:
478,116,182868,1,8,0:0:0:0:
493,95,182911,1,8,0:0:0:0:
498,70,182954,1,8,0:0:0:0:
491,46,182996,1,8,0:0:0:0:
474,27,183039,1,8,0:0:0:0:
451,17,183082,1,8,0:0:0:0:
425,19,183125,1,8,0:0:0:0:
173,41,183168,5,8,0:0:0:0:
169,72,183211,1,8,0:0:0:0:
174,104,183254,1,8,0:0:0:0:
187,133,183296,1,8,0:0:0:0:
208,158,183339,1,8,0:0:0:0:
234,176,183382,1,8,0:0:0:0:
264,187,183425,1,8,0:0:0:0:
296,190,183468,1,8,0:0:0:0:
457,186,183511,5,4,0:0:0:0:
188,176,183854,2,0,L|76:96,1,135,2|0,0:0|0:0,0:0:0:0:
390,87,184196,5,2,0:0:0:0:
406,95,184218,1,0,0:0:0:0:
420,107,184239,1,0,0:0:0:0:
432,120,184261,1,0,0:0:0:0:
442,135,184282,1,0,0:0:0:0:
450,151,184304,1,0,0:0:0:0:
455,168,184325,1,0,0:0:0:0:
457,186,184346,1,0,0:0:0:0:
456,204,184368,1,0,0:0:0:0:
453,222,184389,1,0,0:0:0:0:
447,239,184411,1,0,0:0:0:0:
438,254,184432,1,0,0:0:0:0:
427,269,184454,1,0,0:0:0:0:
414,281,184475,1,0,0:0:0:0:
399,291,184496,1,0,0:0:0:0:
282,303,184539,6,0,L|146:303,1,135.000005149842,4|0,0:0|0:0,0:0:0:0:
412,192,184882,6,0,P|464:232|356:344,1,270.000010299683,4|8,0:0|0:0,0:0:0:0:
292,344,185311,1,0,0:0:0:0:
224,344,185396,1,0,0:0:0:0:
416,344,185568,2,0,L|284:344,1,112.5,2|0,0:0|0:0,0:0:0:0:
236,344,185825,1,0,0:0:0:0:
80,232,185911,2,0,L|192:232,1,112.5,8|0,0:0|0:0,0:0:0:0:
424,232,186254,6,0,P|408:176|360:152,1,112.5,2|0,0:0|0:0,0:0:0:0:
324,152,186468,1,0,0:0:0:0:
292,184,186511,1,0,0:0:0:0:
292,236,186554,1,0,0:0:0:0:
320,275,186596,2,0,L|424:231,1,112.5,8|0,0:0|0:0,0:0:0:0:
356,232,186854,1,0,0:0:0:0:
192,232,186939,2,0,L|87:272,1,112.5,2|0,0:0|0:0,0:0:0:0:
373,368,187282,5,4,0:0:0:0:
389,368,187304,1,0,0:0:0:0:
406,364,187325,1,0,0:0:0:0:
421,357,187346,1,0,0:0:0:0:
434,347,187368,1,0,0:0:0:0:
445,334,187389,1,0,0:0:0:0:
453,319,187411,1,0,0:0:0:0:
457,303,187432,1,0,0:0:0:0:
457,286,187454,1,0,0:0:0:0:
453,269,187475,1,0,0:0:0:0:
446,254,187496,1,0,0:0:0:0:
436,241,187518,1,0,0:0:0:0:
423,230,187539,1,0,0:0:0:0:
188,152,187625,6,0,P|208:208|252:232,1,112.5,2|0,0:0|0:0,0:0:0:0:
288,252,187839,1,0,0:0:0:0:
332,268,187882,1,0,0:0:0:0:
288,292,187925,1,0,0:0:0:0:
252,320,187968,2,0,L|316:320,1,56.25,8|0,0:0|0:0,0:0:0:0:
456,320,188139,1,0,0:0:0:0:
196,320,188311,1,2,0:0:0:0:
194,263,188396,1,0,0:0:0:0:
192,207,188482,1,2,0:0:0:0:
448,212,188654,1,8,0:0:0:0:
164,208,188825,1,2,0:0:0:0:
440,324,188996,6,0,P|487:298|501:245,1,112.5,2|0,0:0|0:0,0:0:0:0:
496,196,189211,1,0,0:0:0:0:
468,184,189254,1,0,0:0:0:0:
428,180,189296,1,0,0:0:0:0:
251,181,189339,2,0,L|135:181,1,112.5,8|0,0:0|0:0,0:0:0:0:
208,180,189596,1,0,0:0:0:0:
362,183,189682,2,0,L|378:63,1,112.5,2|0,0:0|0:0,0:0:0:0:
308,72,189939,1,0,0:0:0:0:
84,68,190025,5,4,0:0:0:0:
67,72,190046,1,0,0:0:0:0:
53,82,190068,1,0,0:0:0:0:
42,94,190089,1,0,0:0:0:0:
36,110,190111,1,0,0:0:0:0:
33,126,190132,1,0,0:0:0:0:
36,143,190154,1,0,0:0:0:0:
43,158,190175,1,0,0:0:0:0:
54,171,190196,1,0,0:0:0:0:
68,180,190218,1,0,0:0:0:0:
84,185,190239,1,0,0:0:0:0:
101,185,190261,1,0,0:0:0:0:
117,181,190282,1,0,0:0:0:0:
280,180,190368,6,0,L|396:180,1,112.5,2|0,0:0|0:0,0:0:0:0:
320,180,190625,1,0,0:0:0:0:
248,180,190711,1,8,0:0:0:0:
492,180,190882,2,0,P|500:112|384:32,1,225,4|2,0:0|0:0,0:0:0:0:
316,36,191311,1,0,0:0:0:0:
136,36,191396,1,8,0:0:0:0:
292,36,191568,1,2,0:0:0:0:
56,36,191739,6,0,L|48:152,1,112.5,2|0,0:0|0:0,0:0:0:0:
124,148,191996,1,0,0:0:0:0:
200,148,192082,2,0,L|320:180,2,112.5,8|0|2,0:0|0:0|0:0,0:0:0:0:
396,148,192596,1,2,0:0:0:0:
136,204,192768,2,0,L|244:232,1,112.5,8|2,0:0|0:0,0:0:0:0:
492,232,193111,6,0,L|380:232,1,112.5,2|0,0:0|0:0,0:0:0:0:
200,148,193454,2,0,L|312:148,1,112.5,8|0,0:0|0:0,0:0:0:0:
492,56,193796,2,0,L|380:56,2,112.5,2|2|8,0:0|0:0|0:0,0:0:0:0:
228,56,194311,6,0,P|160:88|240:180,1,225,4|0,0:0|0:0,0:0:0:0:
420,184,194825,1,2,0:0:0:0:
260,184,194996,1,2,0:0:0:0:
456,184,195168,2,0,L|360:244,1,112.5,8|2,0:0|0:0,0:0:0:0:
292,244,195425,1,2,0:0:0:0:
100,240,195511,5,4,0:0:0:0:
81,236,195532,1,0,0:0:0:0:
64,229,195554,1,0,0:0:0:0:
49,217,195575,1,0,0:0:0:0:
37,203,195596,1,0,0:0:0:0:
28,187,195618,1,0,0:0:0:0:
24,168,195639,1,0,0:0:0:0:
23,150,195661,1,0,0:0:0:0:
27,131,195682,1,0,0:0:0:0:
35,115,195704,1,0,0:0:0:0:
47,100,195725,1,0,0:0:0:0:
61,88,195746,1,0,0:0:0:0:
78,80,195768,1,0,0:0:0:0:
304,76,195854,6,0,L|432:76,1,112.5,4|0,0:0|0:0,0:0:0:0:
472,116,196111,1,0,0:0:0:0:
484,148,196154,1,0,0:0:0:0:
472,180,196196,2,0,L|408:180,1,56.25,8|0,0:0|0:0,0:0:0:0:
348,252,196368,2,0,L|412:252,1,56.25
220,252,196539,2,0,L|88:252,1,112.5,2|2,0:0|0:0,0:0:0:0:
44,204,196796,1,0,0:0:0:0:
232,180,196882,2,0,L|120:180,1,112.5,8|0,0:0|0:0,0:0:0:0:
480,132,197225,6,0,P|464:76|416:52,1,112.5,2|0,0:0|0:0,0:0:0:0:
380,52,197439,1,0,0:0:0:0:
348,84,197482,1,0,0:0:0:0:
348,136,197525,1,0,0:0:0:0:
376,175,197568,2,0,L|480:132,1,112.5,8|0,0:0|0:0,0:0:0:0:
424,132,197825,1,0,0:0:0:0:
243,96,197911,2,0,L|348:136,1,112.5,2|2,0:0|0:0,0:0:0:0:
72,104,198254,5,4,0:0:0:0:
59,115,198275,1,0,0:0:0:0:
49,128,198296,1,0,0:0:0:0:
42,143,198318,1,0,0:0:0:0:
38,160,198339,1,0,0:0:0:0:
38,177,198361,1,0,0:0:0:0:
42,193,198382,1,0,0:0:0:0:
50,208,198404,1,0,0:0:0:0:
61,221,198425,1,0,0:0:0:0:
74,231,198446,1,0,0:0:0:0:
89,238,198468,1,0,0:0:0:0:
106,242,198489,1,0,0:0:0:0:
122,242,198511,1,0,0:0:0:0:
368,136,198596,6,0,P|420:156|440:208,1,112.5,2|0,0:0|0:0,0:0:0:0:
396,224,198811,1,0,0:0:0:0:
352,240,198854,1,0,0:0:0:0:
396,264,198896,1,0,0:0:0:0:
432,292,198939,2,0,L|368:292,1,56.25,8|0,0:0|0:0,0:0:0:0:
228,292,199111,1,2,0:0:0:0:
488,292,199282,1,2,0:0:0:0:
476,236,199368,1,0,0:0:0:0:
432,200,199454,1,0,0:0:0:0:
376,192,199539,1,0,0:0:0:0:
196,192,199625,1,8,0:0:0:0:
468,188,199796,1,0,0:0:0:0:
96,292,199968,6,0,P|49:266|32:212,1,112.5,2|0,0:0|0:0,0:0:0:0:
40,172,200182,1,0,0:0:0:0:
68,152,200225,1,0,0:0:0:0:
108,148,200268,1,0,0:0:0:0:
285,149,200311,2,0,L|305:34,1,112.5,8|0,0:0|0:0,0:0:0:0:
236,40,200568,1,0,0:0:0:0:
68,152,200654,2,0,L|52:32,1,112.5,2|2,0:0|0:0,0:0:0:0:
122,41,200911,1,2,0:0:0:0:
376,36,200996,5,4,0:0:0:0:
392,32,201018,1,0,0:0:0:0:
409,32,201039,1,0,0:0:0:0:
425,37,201061,1,0,0:0:0:0:
439,46,201082,1,0,0:0:0:0:
450,59,201104,1,0,0:0:0:0:
457,74,201125,1,0,0:0:0:0:
460,91,201146,1,0,0:0:0:0:
457,107,201168,1,0,0:0:0:0:
451,123,201189,1,0,0:0:0:0:
440,135,201211,1,0,0:0:0:0:
426,145,201232,1,0,0:0:0:0:
409,149,201254,1,0,0:0:0:0:
228,152,201339,6,0,L|112:152,1,112.5,4|0,0:0|0:0,0:0:0:0:
188,152,201596,1,0,0:0:0:0:
260,224,201682,2,0,L|200:224,1,56.25,8|0,0:0|0:0,0:0:0:0:
16,152,201854,2,0,P|8:220|124:300,1,225,4|2,0:0|0:0,0:0:0:0:
192,296,202282,1,0,0:0:0:0:
372,296,202368,2,0,L|376:240,1,56.25,8|0,0:0|0:0,0:0:0:0:
192,296,202539,2,0,L|188:240,1,56.25,2|0,0:0|0:0,0:0:0:0:
452,296,202711,6,0,L|376:296,1,56.25,2|0,0:0|0:0,0:0:0:0:
320,296,202882,2,0,L|244:296,1,56.25
448,192,203054,2,0,L|328:160,2,112.5,8|0|2,0:0|0:0|0:0,0:0:0:0:
176,192,203568,1,0,0:0:0:0:
436,136,203739,2,0,P|460:88|432:40,1,112.5,8|0,0:0|0:0,0:0:0:0:
106,40,204082,5,6,0:0:0:0:
237,40,204254,1,2,0:0:0:0:
85,112,204425,1,2,0:0:0:0:
216,112,204596,1,2,0:0:0:0:
396,112,204768,2,0,L|280:112,1,112.5,2|2,0:0|0:0,0:0:0:0:
103,112,205111,2,0,L|216:112,1,112.5,2|2,0:0|0:0,0:0:0:0:
160,112,205368,1,2,0:0:0:0:
408,40,205454,5,8,0:0:0:0:
444,48,205496,1,8,0:0:0:0:
472,72,205539,1,8,0:0:0:0:
484,108,205582,1,8,0:0:0:0:
472,148,205625,1,8,0:0:0:0:
444,176,205668,1,8,0:0:0:0:
404,184,205711,1,8,0:0:0:0:
364,168,205754,1,8,0:0:0:0:
196,168,205796,5,8,0:0:0:0:
160,180,205839,1,8,0:0:0:0:
128,204,205882,1,8,0:0:0:0:
116,240,205925,1,8,0:0:0:0:
120,280,205968,1,8,0:0:0:0:
140,316,206011,1,8,0:0:0:0:
176,332,206054,1,8,0:0:0:0:
220,336,206096,1,8,0:0:0:0:
473,305,206139,5,8,0:0:0:0:
485,275,206182,1,8,0:0:0:0:
489,243,206225,1,8,0:0:0:0:
487,211,206268,1,8,0:0:0:0:
477,180,206311,1,8,0:0:0:0:
461,153,206354,1,8,0:0:0:0:
439,129,206396,1,8,0:0:0:0:
412,112,206439,1,8,0:0:0:0:
72,116,206482,6,0,P|20:176|88:264,1,202.500007724762,8|0,0:0|0:0,0:0:0:0:
338,305,206825,6,0,L|474:305,1,135.000005149842,4|0,0:0|0:0,0:0:0:0:
308,192,207168,2,0,L|200:192,1,90
344,192,207511,2,0,L|290:99,1,90
172,192,207854,2,0,L|226:99,1,90
272,112,208111,1,0,0:0:0:0:
88,24,208196,6,0,L|84:128,1,90,2|0,0:0|0:0,0:0:0:0:
328,112,208539,2,0,P|392:140|320:224,1,202.500007724762
160,208,208882,2,0,P|96:244|172:312,1,202.500007724762,2|0,0:0|0:0,0:0:0:0:
248,312,209225,2,0,P|288:256|284:192,1,135,2|0,0:0|0:0,0:0:0:0:
136,192,209568,5,4,0:0:0:0:
264,192,209739,1,0,0:0:0:0:
496,192,209911,1,0,0:0:0:0:
240,192,210082,1,0,0:0:0:0:
388,192,210254,2,0,L|342:272,1,90,2|0,0:0|0:0,0:0:0:0:
180,192,210596,1,0,0:0:0:0:
316,192,210768,2,0,L|264:192,1,45
208,192,210939,6,0,L|72:192,1,135,2|0,0:0|0:0,0:0:0:0:
180,192,211282,2,0,P|228:144|200:88,1,135,2|0,0:0|0:0,0:0:0:0:
96,88,211625,2,0,P|154:10|202:94,1,225,2|0,0:0|0:0,0:0:0:0:
60,172,212139,2,0,L|112:172,1,45
272,172,212311,6,0,L|364:172,2,90,4|0|0,0:0|0:0|0:0,0:0:0:0:
105,172,212825,1,0,0:0:0:0:
340,244,212996,2,0,L|248:244,1,90,2|0,0:0|0:0,0:0:0:0:
16,88,213339,2,0,L|106:88,1,90
344,88,213682,5,2,0:0:0:0:
228,88,213854,1,0,0:0:0:0:
228,212,214025,1,0,0:0:0:0:
344,212,214196,1,0,0:0:0:0:
106,88,214368,2,0,P|52:144|104:200,1,168.75,2|0,0:0|0:0,0:0:0:0:
320,200,214711,2,0,L|184:200,1,135,2|0,0:0|0:0,0:0:0:0:
368,200,215054,6,0,L|392:107,1,90,4|0,0:0|0:0,0:0:0:0:
228,112,215396,1,0,0:0:0:0:
364,112,215568,1,0,0:0:0:0:
201,111,215739,1,2,0:0:0:0:
80,108,215911,1,0,0:0:0:0:
216,112,216082,2,0,L|192:198,1,90
35,186,216425,6,0,L|88:112,1,90,2|0,0:0|0:0,0:0:0:0:
216,112,216768,2,0,L|112:112,1,90,2|0,0:0|0:0,0:0:0:0:
360,112,217111,5,2,0:0:0:0:
374,124,217132,1,0,0:0:0:0:
385,140,217154,1,0,0:0:0:0:
391,158,217175,1,0,0:0:0:0:
391,177,217196,1,0,0:0:0:0:
385,195,217218,1,0,0:0:0:0:
374,211,217239,1,0,0:0:0:0:
359,224,217261,1,0,0:0:0:0:
336,228,217282,1,0,0:0:0:0:
321,240,217303,1,0,0:0:0:0:
310,256,217325,1,0,0:0:0:0:
304,274,217346,1,0,0:0:0:0:
304,293,217367,1,0,0:0:0:0:
310,311,217389,1,0,0:0:0:0:
321,327,217410,1,0,0:0:0:0:
336,340,217432,1,0,0:0:0:0:
428,340,217454,6,0,L|432:320,14,11.25,2|0|0|0|0|0|0|0|0|0|0|0|0|0|0,0:0|0:0|0:0|0:0|0:0|0:0|0:0|0:0|0:0|0:0|0:0|0:0|0:0|0:0|0:0,0:0:0:0:
312,228,217796,6,0,L|221:228,1,90,4|0,0:0|0:0,0:0:0:0:
404,228,218139,2,0,L|397:324,1,90
252,204,218482,2,0,L|245:300,1,90,2|0,0:0|0:0,0:0:0:0:
392,228,218825,2,0,L|385:324,1,90
332,320,219082,1,0,0:0:0:0:
184,288,219168,6,0,L|274:288,1,90,4|0,0:0|0:0,0:0:0:0:
112,202,219511,2,0,L|212:202,1,90
351,201,219854,2,0,L|273:156,1,90,2|0,0:0|0:0,0:0:0:0:
412,200,220196,2,0,L|325:150,1,90
273,156,220454,1,0,0:0:0:0:
428,200,220539,6,0,L|436:100,1,90,4|0,0:0|0:0,0:0:0:0:
277,156,220882,2,0,L|286:56,1,90
151,249,221225,2,0,L|143:149,1,90,2|0,0:0|0:0,0:0:0:0:
285,245,221568,2,0,L|276:145,1,90
228,156,221825,1,0,0:0:0:0:
76,160,221911,6,0,L|0:104,1,90,4|0,0:0|0:0,0:0:0:0:
172,160,222254,2,0,L|209:69,1,90
71,75,222596,1,2,0:0:0:0:
206,76,222768,1,2,0:0:0:0:
84,76,222939,1,2,0:0:0:0:
206,76,223111,2,0,L|150:76,1,45,2|2,0:0|0:0,0:0:0:0:
368,76,223282,5,8,0:0:0:0:
394,112,223325,1,8,0:0:0:0:
409,154,223368,1,8,0:0:0:0:
412,199,223411,1,8,0:0:0:0:
402,242,223454,1,8,0:0:0:0:
348,244,223539,1,2,0:0:0:0:
156,244,223625,2,0,L|148:200,1,45,2|0,0:0|0:0,0:0:0:0:
240,200,223796,2,0,L|232:156,1,45,2|0,0:0|0:0,0:0:0:0:
48,156,223968,5,8,0:0:0:0:
39,205,224011,1,8,0:0:0:0:
47,255,224054,1,8,0:0:0:0:
69,300,224096,1,8,0:0:0:0:
105,335,224139,1,8,0:0:0:0:
160,336,224225,1,2,0:0:0:0:
348,336,224311,2,0,L|356:292,1,45,2|0,0:0|0:0,0:0:0:0:
264,292,224482,2,0,L|256:248,1,45,2|0,0:0|0:0,0:0:0:0:
448,192,224654,6,0,L|480:192,4,22.5,8|8|8|8|8,0:0|0:0|0:0|0:0|0:0,0:0:0:0:
392,192,224911,1,2,0:0:0:0:
212,192,224996,2,0,L|264:192,1,45,2|0,0:0|0:0,0:0:0:0:
347,192,225168,2,0,L|399:192,1,45,2|0,0:0|0:0,0:0:0:0:
200,104,225339,6,0,L|168:104,4,22.5,8|8|8|8|8,0:0|0:0|0:0|0:0|0:0,0:0:0:0:
256,104,225596,1,2,0:0:0:0:
76,104,225682,2,0,L|128:104,1,45,2|0,0:0|0:0,0:0:0:0:
336,104,225854,2,0,L|388:104,1,45,2|0,0:0|0:0,0:0:0:0:
169,104,226025,5,8,0:0:0:0:
152,145,226068,1,8,0:0:0:0:
148,190,226111,1,8,0:0:0:0:
154,234,226154,1,8,0:0:0:0:
172,275,226196,1,8,0:0:0:0:
308,272,226368,1,0,0:0:0:0:
144,276,226539,1,0,0:0:0:0:
368,272,226711,1,4,0:0:0:0:
120,276,226882,1,0,0:0:0:0:
436,276,227054,5,8,0:0:0:0:
447,242,227096,1,8,0:0:0:0:
452,207,227139,1,8,0:0:0:0:
452,172,227182,1,8,0:0:0:0:
445,137,227225,1,8,0:0:0:0:
433,104,227268,1,8,0:0:0:0:
415,74,227311,1,8,0:0:0:0:
392,47,227354,1,8,0:0:0:0:
224,48,227396,6,0,L|220:92,1,45
320,92,227568,2,0,L|324:136,1,45,2|0,0:0|0:0,0:0:0:0:
224,176,227739,2,0,L|288:176,1,45,2|0,0:0|0:0,0:0:0:0:
360,176,227911,2,0,L|424:176,1,45,2|0,0:0|0:0,0:0:0:0:
156,176,228082,6,0,L|152:228,1,45,8|2,0:0|0:0,0:0:0:0:
405,176,228254,2,0,L|409:228,1,45,8|2,0:0|0:0,0:0:0:0:
100,176,228425,2,0,L|56:176,1,45,8|8,0:0|0:0,0:0:0:0:
416,176,228596,2,0,L|460:176,1,45,8|8,0:0|0:0,0:0:0:0:
56,176,228768,6,0,P|24:244|124:332,1,225,4|2,0:0|0:0,0:0:0:0:
196,332,229196,1,2,0:0:0:0:
376,328,229282,2,0,L|412:296,1,45,8|0,0:0|0:0,0:0:0:0:
312,332,229454,2,2,L|300:288,1,45,0|2,0:0|0:0,0:0:0:0:
488,300,229625,2,0,P|496:252|440:192,1,135,8|0,0:0|0:0,0:0:0:0:
144,192,229968,6,0,P|72:168|152:52,1,270.000010299683,2|8,0:0|0:0,0:0:0:0:
224,56,230396,1,0,0:0:0:0:
408,56,230482,2,0,L|416:104,1,45,2|2,0:0|0:0,0:0:0:0:
216,148,230654,2,0,L|208:196,1,45,8|0,0:0|0:0,0:0:0:0:
392,192,230825,1,2,0:0:0:0:
448,216,230911,1,2,0:0:0:0:
464,276,230996,1,8,0:0:0:0:
208,192,231082,2,0,P|168:228|244:324,1,202.500007724762,2|8,0:0|0:0,0:0:0:0:
304,328,231425,1,2,0:0:0:0:
104,324,231511,6,0,L|64:296,2,45,2|2|8,0:0|0:0|0:0,0:0:0:0:
168,328,231768,1,0,0:0:0:0:
372,328,231854,2,0,L|324:296,1,45,2|2,0:0|0:0,0:0:0:0:
152,256,232025,2,0,L|200:224,1,45,8|0,0:0|0:0,0:0:0:0:
356,232,232196,2,0,L|376:192,1,45,2|0,0:0|0:0,0:0:0:0:
276,192,232368,2,0,L|296:152,1,45,8|0,0:0|0:0,0:0:0:0:
376,191,232539,2,0,L|356:151,1,45,2|2,0:0|0:0,0:0:0:0:
276,192,232711,2,0,L|256:152,1,45,8|2,0:0|0:0,0:0:0:0:
448,192,232882,5,2,0:0:0:0:
483,128,232968,1,2,0:0:0:0:
460,58,233054,1,8,0:0:0:0:
394,28,233139,1,2,0:0:0:0:
304,28,233225,2,0,L|296:80,1,45,2|0,0:0|0:0,0:0:0:0:
394,28,233396,2,0,L|402:80,1,45,8|0,0:0|0:0,0:0:0:0:
192,28,233568,1,2,0:0:0:0:
119,40,233654,1,2,0:0:0:0:
69,94,233739,1,8,0:0:0:0:
61,168,233825,1,2,0:0:0:0:
164,172,233911,2,0,L|208:192,1,45,8|2,0:0|0:0,0:0:0:0:
108,232,234082,2,0,L|64:252,1,45,8|2,0:0|0:0,0:0:0:0:
316,244,234254,6,0,L|432:244,1,112.5,4|8,0:0|0:0,0:0:0:0:
372,192,234511,1,0,0:0:0:0:
260,192,234596,2,0,L|240:244,1,56.25,2|2,0:0|0:0,0:0:0:0:
464,244,234768,2,0,P|492:296|464:340,1,112.5,8|2,0:0|0:0,0:0:0:0:
396,340,235025,1,0,0:0:0:0:
324,340,235111,2,0,L|368:304,1,56.25,8|0,0:0|0:0,0:0:0:0:
192,304,235282,2,0,L|148:268,1,56.25,2|2,0:0|0:0,0:0:0:0:
320,268,235454,2,0,L|364:232,1,56.25,8|0,0:0|0:0,0:0:0:0:
136,268,235625,6,0,L|24:268,1,112.5,2|8,0:0|0:0,0:0:0:0:
92,268,235882,1,0,0:0:0:0:
208,268,235968,2,0,L|220:212,1,56.25,2|2,0:0|0:0,0:0:0:0:
116,192,236139,2,0,L|128:136,1,56.25,8|0,0:0|0:0,0:0:0:0:
240,137,236311,2,0,L|180:137,1,56.25,2|0,0:0|0:0,0:0:0:0:
128,137,236482,2,0,L|200:137,1,56.25,8|0,0:0|0:0,0:0:0:0:
376,140,236654,1,2,0:0:0:0:
432,140,236739,1,2,0:0:0:0:
488,140,236825,1,8,0:0:0:0:
432,140,236911,1,0,0:0:0:0:
212,40,236996,6,0,L|92:40,1,112.5,2|8,0:0|0:0,0:0:0:0:
44,92,237254,1,0,0:0:0:0:
252,92,237339,2,0,L|268:152,1,56.25,0|2,0:0|0:0,0:0:0:0:
64,148,237511,2,0,L|28:192,1,56.25,8|0,0:0|0:0,0:0:0:0:
200,248,237682,1,2,0:0:0:0:
60,248,237854,1,8,0:0:0:0:
372,248,238025,2,0,L|384:192,1,56.25,2|2,0:0|0:0,0:0:0:0:
272,192,238196,2,0,L|228:148,1,56.25,8|2,0:0|0:0,0:0:0:0:
432,140,238368,6,0,P|452:212|416:256,1,135.000005149842,4|8,0:0|0:0,0:0:0:0:
360,256,238625,1,8,0:0:0:0:
248,256,238711,2,0,L|240:312,1,56.25,2|2,0:0|0:0,0:0:0:0:
344,256,238882,2,0,L|352:316,1,56.25,8|0,0:0|0:0,0:0:0:0:
248,256,239054,2,0,L|208:216,1,56.25,2|0,0:0|0:0,0:0:0:0:
418,255,239225,2,0,L|422:219,1,28.125,8|2,0:0|0:0,0:0:0:0:
168,140,239396,5,8,0:0:0:0:
153,105,239438,1,8,0:0:0:0:
164,64,239481,1,8,0:0:0:0:
196,40,239524,1,8,0:0:0:0:
340,140,239568,1,8,0:0:0:0:
355,105,239610,1,8,0:0:0:0:
344,64,239653,1,8,0:0:0:0:
312,40,239696,1,8,0:0:0:0:
144,140,239739,6,0,L|32:140,1,112.5,4|8,0:0|0:0,0:0:0:0:
88,140,239996,1,0,0:0:0:0:
212,140,240082,1,2,0:0:0:0:
260,194,240168,1,2,0:0:0:0:
256,267,240254,1,8,0:0:0:0:
203,317,240339,1,0,0:0:0:0:
100,320,240425,2,0,L|160:320,1,56.25,2|0,0:0|0:0,0:0:0:0:
257,268,240596,2,0,L|197:268,1,56.25,8|0,0:0|0:0,0:0:0:0:
100,228,240768,2,0,L|168:228,1,56.25,2|2,0:0|0:0,0:0:0:0:
261,194,240939,2,0,L|197:194,1,56.25,8|2,0:0|0:0,0:0:0:0:
376,192,241111,6,0,L|492:192,1,112.5,2|8,0:0|0:0,0:0:0:0:
432,192,241368,1,0,0:0:0:0:
204,195,241454,2,0,L|156:159,1,56.25,2|2,0:0|0:0,0:0:0:0:
364,112,241625,2,0,L|376:56,1,56.25,8|0,0:0|0:0,0:0:0:0:
276,56,241796,2,0,L|224:84,1,56.25,2|0,0:0|0:0,0:0:0:0:
315,86,241968,2,0,L|367:114,1,56.25,8|2,0:0|0:0,0:0:0:0:
188,164,242139,2,0,L|252:164,1,56.25,2|2,0:0|0:0,0:0:0:0:
332,164,242311,2,0,L|272:164,1,56.25,8|2,0:0|0:0,0:0:0:0:
48,164,242482,6,0,P|28:216|56:264,1,112.5,2|8,0:0|0:0,0:0:0:0:
120,264,242739,1,0,0:0:0:0:
344,264,242825,2,0,L|408:264,2,56.25,2|2|8,0:0|0:0|0:0,0:0:0:0:
288,264,243082,1,0,0:0:0:0:
460,264,243168,2,0,L|468:208,1,56.25,2|2,0:0|0:0,0:0:0:0:
400,184,243339,2,0,L|340:184,1,56.25,8|0,0:0|0:0,0:0:0:0:
168,192,243511,2,0,L|216:156,1,56.25,2|0,0:0|0:0,0:0:0:0:
316,120,243682,2,0,L|268:84,1,56.25,8|0,0:0|0:0,0:0:0:0:
72,88,243854,5,2,0:0:0:0:
51,158,243939,1,0,0:0:0:0:
72,229,244025,1,8,0:0:0:0:
128,278,244111,1,2,0:0:0:0:
312,280,244196,2,0,L|252:280,1,56.25,2|2,0:0|0:0,0:0:0:0:
168,348,244368,2,0,L|228:348,1,56.25,8|0,0:0|0:0,0:0:0:0:
452,280,244539,2,0,L|340:280,1,112.5,2|8,0:0|0:0,0:0:0:0:
272,280,244796,1,0,0:0:0:0:
384,192,244882,2,0,L|396:136,1,56.25,2|2,0:0|0:0,0:0:0:0:
284,192,245054,2,0,L|272:136,1,56.25,8|0,0:0|0:0,0:0:0:0:
480,140,245225,6,0,P|500:96|460:52,1,112.5,4|8,0:0|0:0,0:0:0:0:
392,52,245482,1,2,0:0:0:0:
196,52,245568,2,0,L|140:52,1,56.25,2|2,0:0|0:0,0:0:0:0:
396,52,245739,2,0,P|464:108|384:192,1,225,8|2,0:0|0:0,0:0:0:0:
324,192,246168,1,2,0:0:0:0:
212,192,246254,2,0,L|188:248,1,56.25,8|2,0:0|0:0,0:0:0:0:
304,244,246425,2,0,L|280:300,1,56.25,8|2,0:0|0:0,0:0:0:0:
56,296,246596,6,0,L|168:296,1,112.5,2|2,0:0|0:0,0:0:0:0:
224,296,246854,1,2,0:0:0:0:
108,296,246939,2,0,L|88:244,1,56.25,2|0,0:0|0:0,0:0:0:0:
340,296,247111,1,8,0:0:0:0:
328,220,247196,1,0,0:0:0:0:
268,168,247282,1,2,0:0:0:0:
194,164,247368,1,2,0:0:0:0:
284,168,247454,2,0,L|336:140,1,56.25,2|0,0:0|0:0,0:0:0:0:
164,64,247625,5,8,0:0:0:0:
7,64,247711,1,8,0:0:0:0:
200,64,247796,1,8,0:0:0:0:
356,64,247882,1,8,0:0:0:0:
120,64,247968,6,0,L|8:64,1,112.5,2|8,0:0|0:0,0:0:0:0:
76,140,248225,1,0,0:0:0:0:
317,141,248311,2,0,L|321:201,1,56.25,2|2,0:0|0:0,0:0:0:0:
76,140,248482,2,0,L|72:200,1,56.25,8|0,0:0|0:0,0:0:0:0:
260,141,248654,2,0,L|320:141,1,56.25,2|0,0:0|0:0,0:0:0:0:
476,140,248825,2,0,L|472:200,1,56.25,8|0,0:0|0:0,0:0:0:0:
216,140,248996,2,0,L|212:200,1,56.25,2|2,0:0|0:0,0:0:0:0:
440,140,249168,2,0,L|444:200,1,56.25,8|0,0:0|0:0,0:0:0:0:
120,140,249339,6,0,P|36:200|116:324,1,270.000010299683,8|0,0:0|0:0,0:0:0:0:
332,324,249682,2,0,B|400:324|400:324|444:272,1,135.000005149842,2|0,0:0|0:0,0:0:0:0:
84,320,250025,5,2,0:0:0:0:
68,312,250046,1,0,0:0:0:0:
54,300,250068,1,0,0:0:0:0:
42,287,250089,1,0,0:0:0:0:
32,272,250111,1,0,0:0:0:0:
24,256,250132,1,0,0:0:0:0:
19,239,250154,1,0,0:0:0:0:
17,221,250175,1,0,0:0:0:0:
18,203,250196,1,0,0:0:0:0:
21,185,250218,1,0,0:0:0:0:
27,168,250239,1,0,0:0:0:0:
36,153,250261,1,0,0:0:0:0:
47,138,250282,1,0,0:0:0:0:
60,126,250304,1,0,0:0:0:0:
75,116,250325,1,0,0:0:0:0:
244,104,250368,6,0,L|384:104,1,135.000005149842,8|0,0:0|0:0,0:0:0:0:
120,104,250711,6,0,P|68:144|176:256,1,270.000010299683,4|0,0:0|0:0,0:0:0:0:
264,256,251054,2,0,L|348:256,1,56.25,8|0,0:0|0:0,0:0:0:0:
116,256,251225,2,0,L|104:192,1,56.25
283,192,251396,2,0,L|396:192,1,112.5,2|0,0:0|0:0,0:0:0:0:
340,192,251654,1,0,0:0:0:0:
172,80,251739,2,0,L|144:32,1,56.25,8|0,0:0|0:0,0:0:0:0:
375,128,251911,2,0,L|403:80,1,56.25
143,128,252082,6,0,P|159:72|207:48,1,112.5,2|0,0:0|0:0,0:0:0:0:
243,48,252296,1,0,0:0:0:0:
275,80,252339,1,0,0:0:0:0:
275,132,252382,1,0,0:0:0:0:
247,171,252425,2,0,L|143:127,1,112.5,8|0,0:0|0:0,0:0:0:0:
211,128,252682,1,0,0:0:0:0:
375,128,252768,2,0,L|424:160,1,56.25,2|0,0:0|0:0,0:0:0:0:
247,171,252939,2,0,L|198:203,1,56.25
416,236,253111,5,4,0:0:0:0:
432,236,253132,1,0,0:0:0:0:
449,232,253154,1,0,0:0:0:0:
464,225,253175,1,0,0:0:0:0:
477,215,253196,1,0,0:0:0:0:
488,202,253218,1,0,0:0:0:0:
496,187,253239,1,0,0:0:0:0:
500,171,253261,1,0,0:0:0:0:
500,154,253282,1,0,0:0:0:0:
496,137,253304,1,0,0:0:0:0:
489,122,253325,1,0,0:0:0:0:
479,109,253346,1,0,0:0:0:0:
466,98,253368,1,0,0:0:0:0:
184,120,253454,6,0,B|184:192|184:192|248:200,1,135.000005149842,2|0,0:0|0:0,0:0:0:0:
284,220,253668,1,0,0:0:0:0:
312,240,253711,1,0,0:0:0:0:
284,260,253754,1,0,0:0:0:0:
244,260,253796,2,0,L|180:260,1,56.25,8|0,0:0|0:0,0:0:0:0:
388,260,253968,2,0,L|399:196,1,56.25
284,220,254139,2,0,L|273:156,1,56.25,2|0,0:0|0:0,0:0:0:0:
444,108,254311,2,0,L|384:108,1,56.25,2|0,0:0|0:0,0:0:0:0:
160,104,254482,2,0,L|103:83,1,56.25,8|0,0:0|0:0,0:0:0:0:
335,127,254654,2,0,L|391:106,1,56.25,2|0,0:0|0:0,0:0:0:0:
132,304,254825,6,0,P|85:278|71:225,1,112.5,2|0,0:0|0:0,0:0:0:0:
76,188,255039,1,0,0:0:0:0:
104,164,255082,1,0,0:0:0:0:
144,160,255125,1,0,0:0:0:0:
321,161,255168,2,0,L|380:160,1,56.25,8|0,0:0|0:0,0:0:0:0:
444,108,255339,2,0,L|380:108,1,56.25
176,160,255511,2,0,L|166:101,1,56.25,2|0,0:0|0:0,0:0:0:0:
272,160,255682,2,0,L|281:215,1,56.25
71,106,255854,5,4,0:0:0:0:
54,110,255875,1,0,0:0:0:0:
40,120,255896,1,0,0:0:0:0:
29,132,255918,1,0,0:0:0:0:
23,148,255939,1,0,0:0:0:0:
20,164,255961,1,0,0:0:0:0:
23,181,255982,1,0,0:0:0:0:
30,196,256004,1,0,0:0:0:0:
41,209,256025,1,0,0:0:0:0:
55,218,256046,1,0,0:0:0:0:
71,223,256068,1,0,0:0:0:0:
88,223,256089,1,0,0:0:0:0:
104,219,256111,1,0,0:0:0:0:
281,215,256196,6,0,L|397:215,1,112.5,2|0,0:0|0:0,0:0:0:0:
321,215,256454,1,0,0:0:0:0:
208,216,256539,2,0,L|200:280,1,56.25,8|0,0:0|0:0,0:0:0:0:
428,308,256711,2,0,L|303:309,2,112.5,0|2|0,0:0|0:0|0:0,0:0:0:0:
372,308,257139,1,0,0:0:0:0:
200,312,257225,2,0,L|180:260,1,56.25,8|0,0:0|0:0,0:0:0:0:
284,260,257396,2,0,L|304:208,1,56.25,2|0,0:0|0:0,0:0:0:0:
108,260,257568,6,0,L|100:148,1,112.5,2|0,0:0|0:0,0:0:0:0:
328,208,257911,2,0,L|336:96,1,112.5,8|0,0:0|0:0,0:0:0:0:
128,100,258254,1,2,0:0:0:0:
424,100,258425,1,2,0:0:0:0:
256,96,258596,2,0,L|364:68,1,112.5,8|2,0:0|0:0,0:0:0:0:
72,100,258939,6,0,L|56:216,1,112.5,2|0,0:0|0:0,0:0:0:0:
254,212,259282,2,0,L|162:276,1,112.5,8|0,0:0|0:0,0:0:0:0:
348,332,259625,2,0,L|460:332,2,112.5,2|2|8,0:0|0:0|0:0,0:0:0:0:
56,332,260139,1,2,0:0:0:0:
360,212,260311,6,0,L|476:212,1,112.5,2|0,0:0|0:0,0:0:0:0:
420,212,260568,1,0,0:0:0:0:
252,212,260654,1,8,0:0:0:0:
420,212,260825,1,0,0:0:0:0:
224,212,260996,2,0,L|128:152,1,112.5,2|2,0:0|0:0,0:0:0:0:
189,151,261254,1,2,0:0:0:0:
424,128,261339,5,4,0:0:0:0:
443,132,261361,1,0,0:0:0:0:
460,139,261382,1,0,0:0:0:0:
475,151,261404,1,0,0:0:0:0:
487,165,261425,1,0,0:0:0:0:
496,181,261446,1,0,0:0:0:0:
500,200,261468,1,0,0:0:0:0:
501,218,261489,1,0,0:0:0:0:
497,237,261511,1,0,0:0:0:0:
489,253,261532,1,0,0:0:0:0:
477,268,261554,1,0,0:0:0:0:
463,280,261575,1,0,0:0:0:0:
446,288,261596,1,0,0:0:0:0:
192,100,261682,6,0,L|64:100,1,112.5,4|0,0:0|0:0,0:0:0:0:
24,140,261939,1,0,0:0:0:0:
8,172,261982,1,0,0:0:0:0:
24,204,262025,2,0,L|88:204,1,56.25,8|0,0:0|0:0,0:0:0:0:
148,276,262196,2,0,L|84:276,1,56.25
276,276,262368,2,0,L|408:276,1,112.5,2|2,0:0|0:0,0:0:0:0:
444,228,262625,1,0,0:0:0:0:
264,204,262711,2,0,L|208:192,1,56.25,8|0,0:0|0:0,0:0:0:0:
388,152,262882,2,0,L|444:140,1,56.25
208,192,263054,6,0,P|224:136|272:112,1,112.5,2|0,0:0|0:0,0:0:0:0:
308,112,263268,1,0,0:0:0:0:
340,144,263311,1,0,0:0:0:0:
340,196,263354,1,0,0:0:0:0:
312,235,263396,2,0,L|208:192,1,112.5,8|2,0:0|0:0,0:0:0:0:
264,192,263654,1,2,0:0:0:0:
88,192,263739,2,0,P|55:176|56:104,1,112.5,2|2,0:0|0:0,0:0:0:0:
368,112,264082,5,4,0:0:0:0:
384,112,264104,1,0,0:0:0:0:
401,116,264125,1,0,0:0:0:0:
416,123,264146,1,0,0:0:0:0:
429,133,264168,1,0,0:0:0:0:
440,146,264189,1,0,0:0:0:0:
448,161,264211,1,0,0:0:0:0:
452,177,264232,1,0,0:0:0:0:
452,194,264254,1,0,0:0:0:0:
448,211,264275,1,0,0:0:0:0:
441,226,264296,1,0,0:0:0:0:
431,239,264318,1,0,0:0:0:0:
418,250,264339,1,0,0:0:0:0:
176,112,264425,6,0,P|124:132|104:184,1,112.5,2|0,0:0|0:0,0:0:0:0:
148,200,264639,1,0,0:0:0:0:
172,220,264682,1,0,0:0:0:0:
148,240,264725,1,0,0:0:0:0:
116,268,264768,2,0,L|180:268,1,56.25,8|0,0:0|0:0,0:0:0:0:
344,268,264939,2,0,L|280:268,1,56.25
116,360,265111,1,2,0:0:0:0:
128,304,265196,1,0,0:0:0:0:
172,268,265282,1,2,0:0:0:0:
228,260,265368,1,0,0:0:0:0:
424,268,265454,2,0,L|449:213,1,56.25,8|0,0:0|0:0,0:0:0:0:
248,192,265625,2,0,L|222:137,1,56.25,2|0,0:0|0:0,0:0:0:0:
437,49,265796,6,0,P|484:75|498:128,1,112.5,2|0,0:0|0:0,0:0:0:0:
493,169,266011,1,0,0:0:0:0:
465,189,266054,1,0,0:0:0:0:
425,193,266096,1,0,0:0:0:0:
288,188,266139,2,0,L|276:244,1,56.25,8|0,0:0|0:0,0:0:0:0:
465,189,266311,2,0,L|453:245,1,56.25,2|2,0:0|0:0,0:0:0:0:
276,243,266482,2,0,L|156:243,1,112.5,2|2,0:0|0:0,0:0:0:0:
204,188,266739,1,0,0:0:0:0:
425,193,266825,5,4,0:0:0:0:
442,189,266846,1,0,0:0:0:0:
456,179,266868,1,0,0:0:0:0:
467,167,266889,1,0,0:0:0:0:
473,151,266911,1,0,0:0:0:0:
476,135,266932,1,0,0:0:0:0:
473,118,266954,1,0,0:0:0:0:
466,103,266975,1,0,0:0:0:0:
455,90,266996,1,0,0:0:0:0:
441,81,267018,1,0,0:0:0:0:
425,76,267039,1,0,0:0:0:0:
408,76,267061,1,0,0:0:0:0:
392,80,267082,1,0,0:0:0:0:
196,80,267168,6,0,L|80:80,1,112.5,4|2,0:0|0:0,0:0:0:0:
156,80,267425,1,2,0:0:0:0:
228,152,267511,2,0,L|256:200,1,56.25,8|0,0:0|0:0,0:0:0:0:
36,204,267682,2,0,P|28:272|144:352,1,225,4|2,0:0|0:0,0:0:0:0:
224,352,268111,1,0,0:0:0:0:
447,352,268196,2,0,L|451:296,1,56.25,8|0,0:0|0:0,0:0:0:0:
280,352,268368,2,0,L|221:352,1,56.25
24,296,268539,6,0,L|100:296,1,56.25,2|0,0:0|0:0,0:0:0:0:
264,296,268711,2,0,L|328:296,1,56.25
92,192,268882,2,0,L|212:160,2,112.5,8|0|2,0:0|0:0|0:0,0:0:0:0:
376,192,269396,1,2,0:0:0:0:
92,192,269568,2,0,P|64:160|104:112,1,112.5,8|0,0:0|0:0,0:0:0:0:
406,40,269911,5,2,0:0:0:0:
275,40,270082,1,2,0:0:0:0:
427,112,270254,1,2,0:0:0:0:
296,112,270425,1,2,0:0:0:0:
116,112,270596,2,0,L|232:112,1,112.5,2|2,0:0|0:0,0:0:0:0:
409,112,270939,2,0,L|296:112,1,112.5,2|2,0:0|0:0,0:0:0:0:
352,112,271196,1,2,0:0:0:0:
124,112,271282,5,8,0:0:0:0:
96,156,271325,1,8,0:0:0:0:
96,212,271368,1,8,0:0:0:0:
112,254,271411,1,8,0:0:0:0:
308,255,271454,1,8,0:0:0:0:
320,204,271496,1,8,0:0:0:0:
320,152,271539,1,8,0:0:0:0:
296,112,271582,1,8,0:0:0:0:
112,254,271625,5,8,0:0:0:0:
72,240,271668,1,8,0:0:0:0:
52,200,271711,1,8,0:0:0:0:
48,156,271754,1,8,0:0:0:0:
232,232,271796,1,8,0:0:0:0:
272,208,271839,1,8,0:0:0:0:
292,167,271882,1,8,0:0:0:0:
296,112,271925,1,8,0:0:0:0:
72,240,271968,5,8,0:0:0:0:
56,208,272011,1,8,0:0:0:0:
48,176,272054,1,8,0:0:0:0:
48,144,272096,1,8,0:0:0:0:
56,116,272139,1,8,0:0:0:0:
76,88,272182,1,8,0:0:0:0:
104,68,272225,1,8,0:0:0:0:
136,60,272268,1,8,0:0:0:0:
440,116,272311,6,0,P|492:176|424:264,1,202.500007724762,8|0,0:0|0:0,0:0:0:0:
112,254,272654,5,4,0:0:0:0:
324,192,283625,6,0,L|408:152,1,90,4|0,0:0|0:0,0:0:0:0:
236,192,283968,2,0,L|152:152,1,90
312,80,284311,1,2,0:0:0:0:
176,80,284482,1,0,0:0:0:0:
284,80,284654,1,0,0:0:0:0:
156,80,284825,2,0,L|124:48,1,45
304,40,284996,6,0,L|440:40,1,135,4|0,0:0|0:0,0:0:0:0:
232,80,285339,2,0,P|156:108|128:220,1,202.500007724762,2|0,0:0|0:0,0:0:0:0:
332,208,285682,2,0,P|404:256|340:328,1,202.500007724762,2|0,0:0|0:0,0:0:0:0:
164,328,286025,2,0,P|168:280|240:232,1,135,2|0,0:0|0:0,0:0:0:0:
162,232,286368,5,4,0:0:0:0:
290,232,286539,1,0,0:0:0:0:
54,232,286711,1,0,0:0:0:0:
310,232,286882,1,0,0:0:0:0:
162,232,287054,2,0,L|236:176,1,90,2|0,0:0|0:0,0:0:0:0:
396,232,287396,1,0,0:0:0:0:
260,232,287568,2,0,L|204:232,1,45
68,152,287739,6,0,L|160:152,1,90,4|0,0:0|0:0,0:0:0:0:
340,152,288082,2,0,P|388:200|328:272,1,168.75,2|0,0:0|0:0,0:0:0:0:
226,151,288425,2,0,P|215:230|283:272,1,168.75,2|0,0:0|0:0,0:0:0:0:
362,272,288768,1,0,0:0:0:0:
182,272,288939,2,0,L|170:216,1,56.25
350,152,289111,6,0,L|442:152,1,90,4|0,0:0|0:0,0:0:0:0:
282,152,289454,1,0,0:0:0:0:
454,152,289625,1,0,0:0:0:0:
154,152,289796,2,0,L|50:152,1,90,2|0,0:0|0:0,0:0:0:0:
378,308,290139,2,0,L|482:308,1,90,2|0,0:0|0:0,0:0:0:0:
198,308,290482,5,4,0:0:0:0:
342,308,290654,1,0,0:0:0:0:
226,308,290825,1,0,0:0:0:0:
314,308,290996,1,0,0:0:0:0:
78,308,291168,2,0,P|38:256|98:192,1,168.75,2|0,0:0|0:0,0:0:0:0:
334,192,291511,2,0,P|418:152|430:80,1,168.75,2|0,0:0|0:0,0:0:0:0:
168,84,291854,6,0,L|72:84,1,90,4|0,0:0|0:0,0:0:0:0:
332,84,292196,1,0,0:0:0:0:
178,84,292368,1,0,0:0:0:0:
420,84,292539,1,2,0:0:0:0:
168,84,292711,1,0,0:0:0:0:
322,84,292882,2,0,L|228:84,1,90,2|0,0:0|0:0,0:0:0:0:
62,84,293225,6,0,L|112:171,1,90,4|0,0:0|0:0,0:0:0:0:
242,84,293568,1,0,0:0:0:0:
134,84,293739,1,0,0:0:0:0:
406,84,293911,1,2,0:0:0:0:
430,99,293954,1,0,0:0:0:0:
448,121,293996,1,0,0:0:0:0:
458,148,294039,1,0,0:0:0:0:
460,177,294082,1,0,0:0:0:0:
452,205,294125,1,0,0:0:0:0:
436,229,294168,1,0,0:0:0:0:
413,246,294211,1,0,0:0:0:0:
222,248,294254,2,0,B|110:248|110:248|90:192,1,168.75,8|0,0:0|0:0,0:0:0:0:
286,192,294596,6,0,L|370:152,1,90,4|0,0:0|0:0,0:0:0:0:
198,192,294939,2,0,L|282:152,1,90,2|0,0:0|0:0,0:0:0:0:
130,152,295282,1,0,0:0:0:0:
266,152,295454,1,0,0:0:0:0:
414,152,295625,1,0,0:0:0:0:
294,152,295796,2,0,L|258:120,1,45
98,124,295968,6,0,P|38:148|18:212,1,135,4|0,0:0|0:0,0:0:0:0:
194,216,296311,2,0,P|160:312|72:344,1,202.500007724762,2|0,0:0|0:0,0:0:0:0:
240,340,296654,2,0,B|376:340|376:340|408:280,1,202.500007724762,2|0,0:0|0:0,0:0:0:0:
236,284,296996,2,0,P|232:224|294:192,1,135,2|0,0:0|0:0,0:0:0:0:
148,192,297339,5,4,0:0:0:0:
281,194,297511,1,0,0:0:0:0:
40,192,297682,1,2,0:0:0:0:
296,192,297854,1,0,0:0:0:0:
148,192,298025,2,0,L|74:136,1,90,2|0,0:0|0:0,0:0:0:0:
248,192,298368,2,0,L|268:101,1,90
212,104,298625,1,0,0:0:0:0:
366,104,298711,6,0,L|445:150,1,90,4|0,0:0|0:0,0:0:0:0:
267,104,299054,2,0,P|255:168|342:220,1,168.75,2|0,0:0|0:0,0:0:0:0:
446,228,299396,2,0,P|498:300|446:336,1,168.75,2|0,0:0|0:0,0:0:0:0:
382,336,299739,1,0,0:0:0:0:
214,336,299911,2,0,L|262:308,1,56.25
116,220,300082,6,0,L|24:220,1,90,4|0,0:0|0:0,0:0:0:0:
188,220,300425,1,0,0:0:0:0:
16,220,300596,1,0,0:0:0:0:
321,221,300768,2,0,L|224:220,1,90,2|0,0:0|0:0,0:0:0:0:
484,220,301111,1,2,0:0:0:0:
340,220,301282,1,0,0:0:0:0:
104,220,301454,5,4,0:0:0:0:
256,220,301625,1,0,0:0:0:0:
132,220,301796,2,0,L|68:152,1,90
352,224,302139,2,0,P|412:174|372:108,1,168.75,2|0,0:0|0:0,0:0:0:0:
132,220,302482,2,0,P|172:304|244:316,1,168.75,2|0,0:0|0:0,0:0:0:0:
468,316,302825,6,0,L|372:316,1,90,4|0,0:0|0:0,0:0:0:0:
144,316,303168,1,2,0:0:0:0:
298,316,303339,1,0,0:0:0:0:
64,228,303511,1,2,0:0:0:0:
316,228,303682,1,0,0:0:0:0:
160,228,303854,2,0,L|78:192,1,90,2|0,0:0|0:0,0:0:0:0:
312,192,304196,6,0,L|216:192,1,90,4|0,0:0|0:0,0:0:0:0:
380,192,304539,2,0,L|476:192,1,90
108,192,304882,1,2,0:0:0:0:
85,209,304925,1,0,0:0:0:0:
69,233,304968,1,0,0:0:0:0:
61,261,305011,1,0,0:0:0:0:
63,290,305054,1,0,0:0:0:0:
73,317,305096,1,0,0:0:0:0:
91,339,305139,1,0,0:0:0:0:
115,354,305182,1,0,0:0:0:0:
320,356,305225,2,0,P|388:304|320:240,1,202.500007724762,8|0,0:0|0:0,0:0:0:0:
108,192,305568,6,0,L|101:96,1,90,8|0,0:0|0:0,0:0:0:0:
265,168,305911,2,0,L|258:72,1,90
132,192,306254,2,0,L|139:96,1,90,2|0,0:0|0:0,0:0:0:0:
265,168,306596,2,0,L|258:72,1,90,2|0,0:0|0:0,0:0:0:0:
197,80,306854,1,0,0:0:0:0:
396,80,306939,6,0,L|496:80,1,90,8|0,0:0|0:0,0:0:0:0:
340,168,307282,2,0,L|440:168,1,90
304,80,307625,2,0,L|279:176,1,90,2|0,0:0|0:0,0:0:0:0:
409,80,307968,2,0,L|384:176,1,90,2|0,0:0|0:0,0:0:0:0:
333,168,308225,1,0,0:0:0:0:
189,192,308311,6,0,L|97:192,1,90,8|0,0:0|0:0,0:0:0:0:
261,192,308654,2,0,L|270:92,1,90
141,104,308996,2,0,L|222:46,1,90,2|0,0:0|0:0,0:0:0:0:
340,104,309339,2,0,L|258:46,1,90,2|0,0:0|0:0,0:0:0:0:
320,52,309596,1,0,0:0:0:0:
164,52,309682,6,0,L|74:52,1,90,8|0,0:0|0:0,0:0:0:0:
220,104,310025,2,0,L|256:188,1,90
128,188,310368,1,2,0:0:0:0:
274,189,310539,1,0,0:0:0:0:
138,189,310711,1,2,0:0:0:0:
262,189,310882,2,0,L|206:189,1,45
408,192,311054,5,2,0:0:0:0:
300,284,311225,1,2,0:0:0:0:
480,284,311396,1,2,0:0:0:0:
344,284,311568,1,2,0:0:0:0:
108,284,311739,1,2,0:0:0:0:
216,284,311911,1,2,0:0:0:0:
36,284,312082,1,2,0:0:0:0:
172,284,312254,1,2,0:0:0:0:
428,192,312425,5,2,0:0:0:0:
304,192,312596,1,2,0:0:0:0:
76,192,312768,1,2,0:0:0:0:
256,192,312939,1,2,0:0:0:0:
20,120,313111,5,2,0:0:0:0:
144,120,313282,1,2,0:0:0:0:
372,120,313454,1,2,0:0:0:0:
192,120,313625,1,2,0:0:0:0:
440,192,313796,6,0,L|376:192,1,56.25,2|2,0:0|0:0,0:0:0:0:
212,192,313968,2,0,L|148:192,1,56.25,2|2,0:0|0:0,0:0:0:0:
424,260,314139,2,0,L|360:260,1,56.25,2|2,0:0|0:0,0:0:0:0:
142,260,314311,2,0,L|79:260,1,56.25,2|2,0:0|0:0,0:0:0:0:
424,260,314482,6,0,L|432:200,1,56.25,2|2,0:0|0:0,0:0:0:0:
256,192,314654,2,0,L|184:192,1,56.25,2|2,0:0|0:0,0:0:0:0:
28,192,314825,2,0,L|20:248,1,56.25,2|2,0:0|0:0,0:0:0:0:
192,260,314996,2,0,L|249:260,1,56.25,2|2,0:0|0:0,0:0:0:0:
420,192,315168,5,4,0:0:0:0:
184,192,315339,1,0,0:0:0:0:
436,192,315511,2,0,P|476:276|404:344,1,202.500007724762
176,372,315854,5,2,0:0:0:0:
158,365,315875,1,0,0:0:0:0:
141,357,315896,1,0,0:0:0:0:
128,345,315918,1,0,0:0:0:0:
117,332,315939,1,0,0:0:0:0:
109,315,315961,1,0,0:0:0:0:
104,299,315982,1,0,0:0:0:0:
102,281,316004,1,0,0:0:0:0:
104,262,316025,1,0,0:0:0:0:
110,246,316046,1,0,0:0:0:0:
118,230,316068,1,0,0:0:0:0:
130,216,316089,1,0,0:0:0:0:
144,205,316111,1,0,0:0:0:0:
160,197,316132,1,0,0:0:0:0:
177,192,316154,1,0,0:0:0:0:
196,191,316175,1,0,0:0:0:0:
212,189,316196,5,0,0:0:0:0:
230,185,316218,1,0,0:0:0:0:
246,176,316239,1,0,0:0:0:0:
260,166,316261,1,0,0:0:0:0:
272,151,316282,1,0,0:0:0:0:
280,136,316304,1,0,0:0:0:0:
286,119,316325,1,0,0:0:0:0:
288,101,316346,1,0,0:0:0:0:
286,83,316368,1,0,0:0:0:0:
282,66,316389,1,0,0:0:0:0:
273,50,316411,1,0,0:0:0:0:
262,36,316432,1,0,0:0:0:0:
248,25,316454,1,0,0:0:0:0:
233,16,316475,1,0,0:0:0:0:
216,12,316496,1,0,0:0:0:0:
51,12,316539,6,0,L|195:12,2,135.000005149842,12|2|8,0:0|0:0|0:0,0:0:0:0:
287,12,317054,2,0,L|291:104,1,90,2|8,0:0|0:0,0:0:0:0:
23,12,317396,2,0,L|19:104,1,90,2|8,0:0|0:0,0:0:0:0:
183,100,317739,2,0,L|235:100,1,45,2|0,0:0|0:0,0:0:0:0:
460,102,317911,6,0,L|292:102,1,168.75,8|0,0:0|0:0,0:0:0:0:
104,100,318254,2,0,P|136:184|208:200,1,168.75,8|0,0:0|0:0,0:0:0:0:
392,192,318596,2,0,P|448:244|392:296,1,168.75,8|0,0:0|0:0,0:0:0:0:
208,300,318939,2,0,P|129:276|99:201,1,168.75,8|0,0:0|0:0,0:0:0:0:
292,192,319282,5,8,0:0:0:0:
20,112,319454,2,0,L|24:20,1,90,2|8,0:0|0:0,0:0:0:0:
296,112,319796,2,0,L|292:20,1,90,2|8,0:0|0:0,0:0:0:0:
20,112,320139,2,0,L|24:20,1,90,2|8,0:0|0:0,0:0:0:0:
188,24,320482,2,0,L|236:24,1,45,2|0,0:0|0:0,0:0:0:0:
60,112,320654,6,0,P|16:180|72:232,1,168.75,8|0,0:0|0:0,0:0:0:0:
236,232,320996,2,0,P|280:296|224:352,1,168.75,8|0,0:0|0:0,0:0:0:0:
44,312,321339,2,0,P|40:240|120:228,1,168.75,8|2,0:0|0:0,0:0:0:0:
308,228,321682,1,8,0:0:0:0:
172,192,321854,1,2,0:0:0:0:
316,192,321939,1,2,0:0:0:0:
496,192,322025,5,8,0:0:0:0:
244,112,322196,2,0,L|161:64,1,90,2|8,0:0|0:0,0:0:0:0:
420,108,322539,2,0,L|337:60,1,90,2|8,0:0|0:0,0:0:0:0:
184,64,322882,1,2,0:0:0:0:
436,64,323054,1,8,0:0:0:0:
200,64,323225,1,10,0:0:0:0:
468,136,323396,5,8,0:0:0:0:
304,136,323568,1,2,0:0:0:0:
68,136,323739,1,8,0:0:0:0:
196,136,323911,1,2,0:0:0:0:
432,136,324082,2,0,P|488:212|428:284,1,202.500007724762,8|0,0:0|0:0,0:0:0:0:
236,284,324425,1,8,0:0:0:0:
388,284,324596,1,10,0:0:0:0:
120,284,324768,5,8,0:0:0:0:
256,284,324939,1,2,0:0:0:0:
20,284,325111,1,8,0:0:0:0:
288,284,325282,1,10,0:0:0:0:
52,284,325454,1,8,0:0:0:0:
320,284,325625,1,2,0:0:0:0:
84,288,325796,2,0,L|68:232,1,45,8|8,0:0|0:0,0:0:0:0:
256,192,325968,2,0,L|288:160,1,45,10|8,0:0|0:0,0:0:0:0:
128,164,326139,5,4,0:0:0:0:
356,160,326311,1,0,0:0:0:0:
72,164,326482,2,0,P|16:76|80:24,1,202.500007724762,2|0,0:0|0:0,0:0:0:0:
348,24,326825,5,2,0:0:0:0:
376,30,326846,1,0,0:0:0:0:
400,48,326868,1,0,0:0:0:0:
416,74,326889,1,0,0:0:0:0:
419,103,326911,1,0,0:0:0:0:
411,132,326932,1,0,0:0:0:0:
392,155,326954,1,0,0:0:0:0:
366,169,326975,1,0,0:0:0:0:
336,171,326996,1,0,0:0:0:0:
308,161,327018,1,0,0:0:0:0:
286,141,327039,1,0,0:0:0:0:
273,114,327061,1,0,0:0:0:0:
273,84,327082,1,0,0:0:0:0:
284,57,327104,1,0,0:0:0:0:
305,36,327125,1,0,0:0:0:0:
333,25,327146,1,0,0:0:0:0:
348,24,327168,5,0,0:0:0:0:
372,30,327189,1,0,0:0:0:0:
394,41,327211,1,0,0:0:0:0:
413,56,327232,1,0,0:0:0:0:
430,75,327254,1,0,0:0:0:0:
442,97,327275,1,0,0:0:0:0:
449,120,327296,1,0,0:0:0:0:
452,145,327318,1,0,0:0:0:0:
449,170,327339,1,0,0:0:0:0:
442,194,327361,1,0,0:0:0:0:
430,215,327382,1,0,0:0:0:0:
414,234,327404,1,0,0:0:0:0:
394,250,327425,1,0,0:0:0:0:
372,261,327446,1,0,0:0:0:0:
348,267,327468,1,0,0:0:0:0:
236,268,327511,5,8,0:0:0:0:
468,268,327682,1,8,0:0:0:0:
220,188,327854,2,0,L|116:188,1,90,8|0,0:0|0:0,0:0:0:0:
300,184,328196,2,0,L|380:144,2,90,8|0|8,0:0|0:0|0:0,0:0:0:0:
172,184,328711,1,0,0:0:0:0:
236,184,328796,1,0,0:0:0:0:
408,184,328882,6,0,P|448:256|408:328,1,168.75,8|0,0:0|0:0,0:0:0:0:
256,124,329225,2,0,P|176:164|228:248,1,202.500007724762,8|0,0:0|0:0,0:0:0:0:
408,184,329568,2,0,P|416:128|304:48,1,202.500007724762,8|0,0:0|0:0,0:0:0:0:
144,48,329911,2,0,P|104:88|144:144,1,135,8|0,0:0|0:0,0:0:0:0:
312,144,330254,5,8,0:0:0:0:
184,144,330425,1,0,0:0:0:0:
420,144,330596,1,8,0:0:0:0:
164,144,330768,1,0,0:0:0:0:
436,144,330939,1,8,0:0:0:0:
328,144,331111,1,0,0:0:0:0:
220,144,331282,1,8,0:0:0:0:
372,256,331454,2,0,L|384:200,1,45
200,256,331625,6,0,P|224:192|284:176,1,135,8|0,0:0|0:0,0:0:0:0:
120,171,331968,2,2,P|60:143|40:79,1,135,8|0,0:0|0:0,0:0:0:0:
220,80,332311,2,2,L|356:80,1,135,8|0,0:0|0:0,0:0:0:0:
196,80,332654,1,8,0:0:0:0:
329,176,332825,2,0,L|277:176,1,45,8|8,0:0|0:0,0:0:0:0:
116,176,332996,6,0,L|208:176,2,90,8|0|8,0:0|0:0|0:0,0:0:0:0:
284,176,333511,1,0,0:0:0:0:
48,268,333682,1,8,0:0:0:0:
184,268,333854,1,0,0:0:0:0:
436,268,334025,1,8,0:0:0:0:
200,268,334196,1,8,0:0:0:0:
472,192,334368,5,8,0:0:0:0:
348,192,334539,1,0,0:0:0:0:
224,192,334711,1,8,0:0:0:0:
388,192,334882,1,0,0:0:0:0:
112,192,335054,2,0,P|36:172|24:92,1,168.75,8|0,0:0|0:0,0:0:0:0:
192,92,335396,1,8,0:0:0:0:
36,92,335568,1,8,0:0:0:0:
272,280,335739,6,0,L|368:280,1,90,8|8,0:0|0:0,0:0:0:0:
128,196,336082,1,8,0:0:0:0:
380,192,336254,1,8,0:0:0:0:
108,88,336425,6,0,L|96:20,1,45,8|8,0:0|0:0,0:0:0:0:
372,88,336596,2,0,L|380:36,1,45,8|8,0:0|0:0,0:0:0:0:
176,88,336768,2,0,L|224:36,1,67.5000025749208,8|8,0:0|0:0,0:0:0:0:
432,92,336939,2,0,L|384:44,1,67.5000025749208,8|8,0:0|0:0,0:0:0:0:
188,192,337111,6,0,L|68:192,2,112.5,4|0|0,0:0|0:0|0:0,0:0:0:0:
372,192,337625,1,0,0:0:0:0:
84,148,337796,1,0,0:0:0:0:
60,156,337838,1,0,0:0:0:0:
40,172,337881,1,0,0:0:0:0:
24,192,337924,1,0,0:0:0:0:
12,212,337967,1,0,0:0:0:0:
7,233,338010,1,0,0:0:0:0:
6,256,338053,1,0,0:0:0:0:
10,279,338096,1,0,0:0:0:0:
18,299,338138,1,0,0:0:0:0:
31,317,338181,1,0,0:0:0:0:
46,334,338224,1,0,0:0:0:0:
69,347,338267,1,0,0:0:0:0:
93,354,338310,1,0,0:0:0:0:
118,357,338353,1,0,0:0:0:0:
145,360,338396,1,0,0:0:0:0:
360,284,338482,6,0,P|424:232|360:160,1,180,4|0,0:0|0:0,0:0:0:0:
268,148,338996,1,4,0:0:0:0:
108,148,339168,1,8,0:0:0:0:
204,148,339339,1,0,0:0:0:0:
28,148,339511,2,0,L|20:56,1,90
268,80,339854,2,0,L|448:80,2,180,2|2|8,0:0|0:0|0:0,0:0:0:0:
80,80,340882,1,0,0:0:0:0:
484,192,341225,6,0,L|344:192,1,135.000005149842,4|0,0:0|0:0,0:0:0:0:
256,192,341739,1,2,0:0:0:0:
432,268,341911,1,8,0:0:0:0:
304,268,342082,1,2,0:0:0:0:
492,268,342254,2,0,L|500:340,1,67.5000025749208,4|0,0:0|0:0,0:0:0:0:
264,332,342596,1,2,0:0:0:0:
452,332,342939,1,2,0:0:0:0:
224,332,343282,1,8,0:0:0:0:
420,332,343625,1,2,0:0:0:0:
16,256,343968,5,4,0:0:0:0:
220,252,344482,1,2,0:0:0:0:
44,192,344654,2,0,L|76:132,1,67.5000025749208,8|0,0:0|0:0,0:0:0:0:
204,132,344996,2,0,L|288:132,1,67.5000025749208,2|0,0:0|0:0,0:0:0:0:
96,32,345339,1,2,0:0:0:0:
196,32,345511,1,0,0:0:0:0:
60,32,345682,2,0,P|32:72|60:112,1,101.250003862381,2|0,0:0|0:0,0:0:0:0:
152,112,346025,1,8,0:0:0:0:
240,112,346196,2,0,P|304:136|324:200,1,135.000005149842,2|0,0:0|0:0,0:0:0:0:
96,196,346711,6,0,L|20:196,1,67.5000025749208,2|0,0:0|0:0,0:0:0:0:
144,272,347054,2,0,L|220:272,1,67.5000025749208
400,192,347396,2,0,L|333:192,1,67.5000025749208,8|0,0:0|0:0,0:0:0:0:
456,104,347739,2,0,L|389:104,1,67.5000025749208,4|0,0:0|0:0,0:0:0:0:
213,104,348082,1,2,0:0:0:0:
414,104,348425,1,2,0:0:0:0:
146,104,348768,2,0,L|214:104,1,67.5000025749208,8|2,0:0|0:0,0:0:0:0:
444,32,349111,1,4,0:0:0:0:
40,32,349454,6,0,P|4:88|32:144,1,135.000005149842,4|0,0:0|0:0,0:0:0:0:
132,168,349968,1,2,0:0:0:0:
292,168,350139,1,8,0:0:0:0:
196,168,350311,1,0,0:0:0:0:
372,168,350482,2,0,L|444:168,1,67.5000025749208,4|0,0:0|0:0,0:0:0:0:
192,248,350825,2,0,L|8:248,1,180,2|2,0:0|0:0,0:0:0:0:
420,260,351511,1,8,0:0:0:0:
284,260,351682,2,0,L|168:192,1,135.000005149842,2|0,0:0|0:0,0:0:0:0:
404,48,352196,6,0,P|445:95|404:144,1,135.000005149842,2|0,0:0|0:0,0:0:0:0:
312,144,352711,1,2,0:0:0:0:
488,220,352882,1,8,0:0:0:0:
352,220,353054,1,2,0:0:0:0:
176,220,353225,2,0,L|96:220,1,67.5000025749208,4|0,0:0|0:0,0:0:0:0:
352,220,353568,1,2,0:0:0:0:
148,356,353911,2,0,L|72:356,1,67.5000025749208,2|0,0:0|0:0,0:0:0:0:
316,356,354254,1,8,0:0:0:0:
60,356,354596,1,2,0:0:0:0:
468,356,354939,6,0,P|496:320|440:192,1,202.500007724762,4|2,0:0|0:0,0:0:0:0:
264,192,355625,2,0,L|188:192,1,67.5000025749208,8|0,0:0|0:0,0:0:0:0:
76,104,355968,2,0,L|160:104,1,67.5000025749208,4|0,0:0|0:0,0:0:0:0:
320,104,356311,1,2,0:0:0:0:
220,104,356482,1,0,0:0:0:0:
356,104,356654,2,0,L|464:104,1,101.250003862381,2|0,0:0|0:0,0:0:0:0:
364,192,356996,1,8,0:0:0:0:
252,192,357168,2,0,P|188:216|168:280,1,135.000005149842,2|2,0:0|0:0,0:0:0:0:
416,276,357682,6,0,P|480:232|412:192,1,180,4|2,0:0|0:0,0:0:0:0:
356,188,358111,1,2,0:0:0:0:
296,188,358196,1,8,0:0:0:0:
236,188,358282,1,8,0:0:0:0:
92,188,358368,2,0,L|168:188,1,67.5000025749208,8|8,0:0|0:0,0:0:0:0:
36,112,358711,1,4,0:0:0:0:
488,112,359054,5,4,0:0:0:0:
256,192,359225,12,0,363168,0:0:0:0:
256,192,363511,5,4,0:0:0:0:
256,192,363854,12,0,373454,0:0:0:0:
