osu file format v14

[General]
AudioFilename: audio.mp3
AudioLeadIn: 0
PreviewTime: 115235
Countdown: 0
SampleSet: Soft
StackLeniency: 0.7
Mode: 3
LetterboxInBreaks: 0
SpecialStyle: 0
WidescreenStoryboard: 0

[Editor]
DistanceSpacing: 0.6
BeatDivisor: 4
GridSize: 4
TimelineZoom: 2.5

[Metadata]
Title:Monosugoi Space Shuttle de Koishi ga Monosugoi Uta
TitleUnicode:物凄いスペースシャトルでこいしが物凄いうた
Artist:Nanahira
ArtistUnicode:ななひら
Creator:Draftnell
Version:Frightful Space Shuttle
Source:東方Project
Tags:Last Remote ラストリモート ハルトマンの妖怪少女 komeiji touhou chireiden TH11 Subterranean Animism sumijun kumarisu くまりす eastnewsound confetto halozy Hartmann's Youkai Girl lucky 7 extra boss theme reitaisai13
BeatmapID:1066383
BeatmapSetID:501057

[Difficulty]
HPDrainRate:8.5
CircleSize:4
OverallDifficulty:8.5
ApproachRate:5
SliderMultiplier:1.4
SliderTickRate:1

[Events]
//Background and Video events
0,0,"BG.jpg",0,0
//Break Periods
//Storyboard Layer 0 (Background)
//Storyboard Layer 1 (Fail)
//Storyboard Layer 2 (Pass)
//Storyboard Layer 3 (Foreground)
//Storyboard Sound Samples

[TimingPoints]
14779,342.857142857143,4,2,1,40,1,0
28150,-66.6666666666667,4,2,1,40,0,0
28407,-200,4,2,1,40,0,0
28493,-100,4,2,1,40,0,0
30893,-66.6666666666667,4,2,1,40,0,0
31150,-200,4,2,1,40,0,0
31236,-100,4,2,1,40,0,0
47350,-66.6666666666667,4,2,1,40,0,0
47607,-200,4,2,1,40,0,0
47693,-100,4,2,1,40,0,0
80264,-66.6666666666667,4,2,1,40,0,0
80521,-200,4,2,1,40,0,0
80607,-100,4,2,1,40,0,0
103064,-66.6666666666667,4,2,1,40,0,0
103321,-200,4,2,1,40,0,0
103407,-66.6666666666667,4,2,1,40,0,0
103664,-200,4,2,1,40,0,0
103750,-100,4,2,1,40,0,0
104950,-66.6666666666667,4,2,1,40,0,0
105207,-200,4,2,1,40,0,0
105293,-100,4,2,1,40,0,0
110093,-66.6666666666667,4,2,1,40,0,0
110350,-200,4,2,1,40,0,0
110436,-66.6666666666667,4,2,1,40,0,0
110693,-200,4,2,1,40,0,0
110779,-100,4,2,1,40,0,0
116264,-100,4,2,1,40,0,1
137864,-66.6666666666667,4,2,1,40,0,1
138121,-200,4,2,1,40,0,1
138207,-100,4,2,1,40,0,0
148836,-66.6666666666667,4,2,1,40,0,0
149093,-200,4,2,1,40,0,0
149179,-100,4,2,1,40,0,0
171636,-66.6666666666667,4,2,1,40,0,0
171893,-200,4,2,1,40,0,0
171979,-66.6666666666667,4,2,1,40,0,0
172236,-200,4,2,1,40,0,0
172321,-100,4,2,1,40,0,0
173521,-66.6666666666667,4,2,1,40,0,0
173779,-200,4,2,1,40,0,0
173864,-100,4,2,1,40,0,0
178664,-66.6666666666667,4,2,1,40,0,0
178921,-200,4,2,1,40,0,0
179007,-66.6666666666667,4,2,1,40,0,0
179264,-200,4,2,1,40,0,0
179350,-100,4,2,1,40,0,0
184836,-100,4,2,1,40,0,1
206436,-66.6666666666667,4,2,1,40,0,1
206693,-200,4,2,1,40,0,1
206779,-100,4,2,1,40,0,0
217407,-66.6666666666667,4,2,1,40,0,0
217664,-200,4,2,1,40,0,0
217750,-100,4,2,1,40,0,0
250664,-100,4,2,1,40,0,1
272264,-66.6666666666667,4,2,1,40,0,1
272521,-200,4,2,1,40,0,1
272607,-100,4,2,1,40,0,0
294207,-66.6666666666667,4,2,1,40,0,0
294464,-200,4,2,1,40,0,0
294550,-100,4,2,1,40,0,0
305179,-66.6666666666667,4,2,1,40,0,0
305436,-200,4,2,1,40,0,0
305521,-100,4,2,1,40,0,0
338093,-66.6666666666667,4,2,1,40,0,0
338350,-200,4,2,1,40,0,0
338436,-100,4,2,1,40,0,0

[HitObjects]
64,192,13407,5,0,0:0:0:0:
320,192,13750,1,0,0:0:0:0:
64,192,13921,1,0,0:0:0:0:
192,192,13921,1,0,0:0:0:0:
320,192,14007,1,0,0:0:0:0:
448,192,14007,1,0,0:0:0:0:
192,192,14093,1,0,0:0:0:0:
64,192,14093,1,0,0:0:0:0:
320,192,14264,1,0,0:0:0:0:
448,192,14436,128,0,14778:0:0:0:0:
64,192,14436,1,0,0:0:0:0:
192,192,14778,1,0,0:0:0:0:
64,192,14778,1,4,0:0:0:0:
320,192,14778,1,2,0:0:0:0:
192,192,15121,1,0,0:0:0:0:
320,192,15293,1,0,0:0:0:0:
448,192,15464,1,8,0:0:0:0:
64,192,15464,1,0,0:0:0:0:
192,192,15464,1,0,0:0:0:0:
320,192,15636,1,0,0:0:0:0:
192,192,15807,1,0,0:0:0:0:
320,192,15978,1,0,0:0:0:0:
192,192,16150,1,0,0:0:0:0:
64,192,16150,1,2,0:0:0:0:
320,192,16321,1,0,0:0:0:0:
448,192,16493,1,0,0:0:0:0:
192,192,16493,1,2,0:0:0:0:
64,192,16664,1,0,0:0:0:0:
320,192,16836,1,8,0:0:0:0:
192,192,16836,1,0,0:0:0:0:
448,192,16836,1,0,0:0:0:0:
64,192,17007,1,0,0:0:0:0:
192,192,17178,1,0,0:0:0:0:
320,192,17350,1,0,0:0:0:0:
448,192,17521,1,2,0:0:0:0:
64,192,17521,1,0,0:0:0:0:
192,192,17693,1,0,0:0:0:0:
320,192,17864,1,0,0:0:0:0:
192,192,18036,1,0,0:0:0:0:
64,192,18207,1,0,0:0:0:0:
448,192,18207,1,0,0:0:0:0:
320,192,18207,1,8,0:0:0:0:
192,192,18378,1,0,0:0:0:0:
448,192,18550,1,0,0:0:0:0:
64,192,18721,1,0,0:0:0:0:
320,192,18893,1,2,0:0:0:0:
192,192,18893,1,0,0:0:0:0:
64,192,19064,1,0,0:0:0:0:
448,192,19236,1,2,0:0:0:0:
192,192,19236,1,0,0:0:0:0:
320,192,19407,1,0,0:0:0:0:
192,192,19578,1,0,0:0:0:0:
64,192,19578,1,8,0:0:0:0:
448,192,19578,1,0,0:0:0:0:
192,192,19750,1,0,0:0:0:0:
320,192,19750,1,2,0:0:0:0:
64,192,19921,1,0,0:0:0:0:
448,192,20093,1,0,0:0:0:0:
192,192,20264,1,0,0:0:0:0:
64,192,20264,1,2,0:0:0:0:
320,192,20436,1,0,0:0:0:0:
192,192,20607,1,0,0:0:0:0:
448,192,20778,1,0,0:0:0:0:
64,192,20950,1,0,0:0:0:0:
192,192,20950,1,0,0:0:0:0:
320,192,20950,1,8,0:0:0:0:
448,192,21121,1,0,0:0:0:0:
320,192,21293,1,0,0:0:0:0:
192,192,21464,1,0,0:0:0:0:
64,192,21636,1,0,0:0:0:0:
448,192,21636,1,2,0:0:0:0:
320,192,21807,1,0,0:0:0:0:
64,192,21978,1,2,0:0:0:0:
448,192,21978,1,0,0:0:0:0:
192,192,22150,1,0,0:0:0:0:
64,192,22321,1,0,0:0:0:0:
320,192,22321,1,8,0:0:0:0:
448,192,22321,1,0,0:0:0:0:
192,192,22493,1,0,0:0:0:0:
448,192,22664,1,0,0:0:0:0:
320,192,22836,1,0,0:0:0:0:
192,192,23007,1,2,0:0:0:0:
64,192,23007,1,0,0:0:0:0:
320,192,23179,1,0,0:0:0:0:
64,192,23350,1,0,0:0:0:0:
448,192,23521,1,0,0:0:0:0:
320,192,23693,1,8,0:0:0:0:
192,192,23693,1,0,0:0:0:0:
64,192,23693,1,0,0:0:0:0:
448,192,23864,1,0,0:0:0:0:
192,192,24036,1,0,0:0:0:0:
320,192,24207,1,0,0:0:0:0:
64,192,24379,1,2,0:0:0:0:
448,192,24379,1,0,0:0:0:0:
192,192,24550,1,0,0:0:0:0:
448,192,24721,1,2,0:0:0:0:
64,192,24721,1,0,0:0:0:0:
320,192,24893,1,0,0:0:0:0:
64,192,25064,1,0,0:0:0:0:
192,192,25064,1,8,0:0:0:0:
448,192,25064,1,0,0:0:0:0:
320,192,25236,1,2,0:0:0:0:
448,192,25236,1,0,0:0:0:0:
64,192,25407,1,0,0:0:0:0:
192,192,25579,1,0,0:0:0:0:
64,192,25750,1,4,0:0:0:0:
448,192,25750,1,2,0:0:0:0:
320,192,25836,1,2,0:0:0:0:
192,192,25921,1,2,0:0:0:0:
64,192,26007,1,2,0:0:0:0:
320,192,26093,1,2,0:0:0:0:
192,192,26179,1,2,0:0:0:0:
448,192,26264,1,2,0:0:0:0:
320,192,26350,1,2,0:0:0:0:
64,192,26436,1,0,0:0:0:0:
192,192,26436,1,8,0:0:0:0:
448,192,26436,1,0,0:0:0:0:
320,192,26607,1,0,0:0:0:0:
64,192,26779,1,2,0:0:0:0:
192,192,26864,1,2,0:0:0:0:
320,192,26950,1,2,0:0:0:0:
192,192,27036,1,2,0:0:0:0:
64,192,27121,1,8,0:0:0:0:
320,192,27121,1,0,0:0:0:0:
448,192,27121,1,4,0:0:0:0:
192,192,27293,1,0,0:0:0:0:
64,192,27464,1,2,0:0:0:0:
192,192,27550,1,2,0:0:0:0:
448,192,27636,1,2,0:0:0:0:
320,192,27721,1,2,0:0:0:0:
64,192,27807,1,0,0:0:0:0:
448,192,27807,1,0,0:0:0:0:
192,192,27807,1,8,0:0:0:0:
192,192,27979,1,2,0:0:0:0:
320,192,27979,1,0,0:0:0:0:
448,192,28150,1,0,0:0:0:0:
320,192,28150,1,8,0:0:0:0:
64,192,28150,1,0,0:0:0:0:
64,192,28493,1,0,0:0:0:0:
192,192,28493,1,8,0:0:0:0:
320,192,28493,1,4,0:0:0:0:
448,192,28664,1,2,0:0:0:0:
320,192,28664,1,0,0:0:0:0:
320,192,28836,1,2,0:0:0:0:
448,192,28836,1,0,0:0:0:0:
64,192,29007,1,0,0:0:0:0:
192,192,29007,1,8,0:0:0:0:
448,192,29007,1,4,0:0:0:0:
192,192,29179,1,0,0:0:0:0:
320,192,29179,1,2,0:0:0:0:
192,192,29350,1,0,0:0:0:0:
320,192,29350,1,2,0:0:0:0:
64,192,29521,1,8,0:0:0:0:
320,192,29521,1,4,0:0:0:0:
448,192,29521,1,0,0:0:0:0:
64,192,29693,1,0,0:0:0:0:
192,192,29693,1,2,0:0:0:0:
320,192,29864,1,4,0:0:0:0:
448,192,29864,1,8,0:0:0:0:
64,192,29864,1,0,0:0:0:0:
192,192,30036,1,0,0:0:0:0:
64,192,30207,1,0,0:0:0:0:
448,192,30207,1,0,0:0:0:0:
320,192,30379,1,0,0:0:0:0:
64,192,30550,1,0,0:0:0:0:
448,192,30550,1,8,0:0:0:0:
192,192,30550,1,0,0:0:0:0:
320,192,30721,1,2,0:0:0:0:
192,192,30721,1,0,0:0:0:0:
64,192,30893,1,2,0:0:0:0:
448,192,30893,1,0,0:0:0:0:
64,192,31236,1,0,0:0:0:0:
192,192,31236,1,8,0:0:0:0:
448,192,31236,1,4,0:0:0:0:
320,192,31407,1,8,0:0:0:0:
192,192,31407,1,0,0:0:0:0:
448,192,31407,1,0,0:0:0:0:
64,192,31579,1,2,0:0:0:0:
192,192,31664,1,2,0:0:0:0:
64,192,31750,1,0,0:0:0:0:
448,192,31750,1,0,0:0:0:0:
320,192,31750,1,8,0:0:0:0:
320,192,31921,1,0,0:0:0:0:
192,192,31921,1,2,0:0:0:0:
448,192,32093,1,8,0:0:0:0:
64,192,32093,1,0,0:0:0:0:
192,192,32093,1,0,0:0:0:0:
320,192,32264,1,2,0:0:0:0:
192,192,32350,1,2,0:0:0:0:
320,192,32436,1,8,0:0:0:0:
448,192,32436,1,0,0:0:0:0:
64,192,32436,1,0,0:0:0:0:
192,192,32607,1,4,0:0:0:0:
320,192,32607,1,2,0:0:0:0:
448,192,32779,1,0,0:0:0:0:
192,192,32779,1,0,0:0:0:0:
64,192,32779,1,8,0:0:0:0:
320,192,32950,1,2,0:0:0:0:
448,192,33036,1,2,0:0:0:0:
320,192,33121,1,0,0:0:0:0:
192,192,33121,1,8,0:0:0:0:
64,192,33121,1,0,0:0:0:0:
192,192,33293,1,2,0:0:0:0:
448,192,33293,1,0,0:0:0:0:
64,192,33464,1,8,0:0:0:0:
320,192,33464,1,0,0:0:0:0:
448,192,33464,1,0,0:0:0:0:
192,192,33636,1,8,0:0:0:0:
64,192,33636,1,0,0:0:0:0:
448,192,33721,1,0,0:0:0:0:
320,192,33721,1,8,0:0:0:0:
64,192,33807,1,0,0:0:0:0:
192,192,33807,1,8,0:0:0:0:
448,192,33893,1,0,0:0:0:0:
320,192,33893,1,8,0:0:0:0:
192,192,33979,1,0,0:0:0:0:
64,192,33979,1,2,0:0:0:0:
448,192,33979,1,0,0:0:0:0:
320,192,34064,1,2,0:0:0:0:
64,192,34150,1,2,0:0:0:0:
448,192,34150,1,8,0:0:0:0:
192,192,34236,1,2,0:0:0:0:
320,192,34321,1,2,0:0:0:0:
64,192,34321,1,0,0:0:0:0:
448,192,34407,1,2,0:0:0:0:
64,192,34493,1,2,0:0:0:0:
192,192,34493,1,8,0:0:0:0:
320,192,34579,1,2,0:0:0:0:
448,192,34664,1,0,0:0:0:0:
192,192,34664,1,2,0:0:0:0:
64,192,34750,1,2,0:0:0:0:
448,192,34836,1,2,0:0:0:0:
320,192,34836,1,8,0:0:0:0:
192,192,34921,1,2,0:0:0:0:
320,192,35007,1,0,0:0:0:0:
64,192,35007,1,2,0:0:0:0:
448,192,35093,1,2,0:0:0:0:
192,192,35179,1,2,0:0:0:0:
64,192,35179,1,0,0:0:0:0:
320,192,35264,1,2,0:0:0:0:
448,192,35350,1,0,0:0:0:0:
64,192,35350,1,0,0:0:0:0:
192,192,35393,1,0,0:0:0:0:
320,192,35436,1,0,0:0:0:0:
448,192,35479,1,0,0:0:0:0:
64,192,35521,1,0,0:0:0:0:
192,192,35564,1,0,0:0:0:0:
448,192,35607,1,0,0:0:0:0:
320,192,35650,1,0,0:0:0:0:
64,192,35693,1,0,0:0:0:0:
192,192,35736,1,0,0:0:0:0:
448,192,35779,1,0,0:0:0:0:
320,192,35821,1,0,0:0:0:0:
192,192,35864,1,0,0:0:0:0:
64,192,35907,1,0,0:0:0:0:
448,192,35950,1,0,0:0:0:0:
320,192,35993,1,0,0:0:0:0:
192,192,36036,1,0,0:0:0:0:
64,192,36079,1,0,0:0:0:0:
448,192,36121,1,0,0:0:0:0:
320,192,36164,1,0,0:0:0:0:
64,192,36207,1,0,0:0:0:0:
192,192,36250,1,0,0:0:0:0:
448,192,36293,1,0,0:0:0:0:
320,192,36336,1,0,0:0:0:0:
64,192,36379,1,0,0:0:0:0:
192,192,36421,1,0,0:0:0:0:
448,192,36464,1,0,0:0:0:0:
320,192,36507,1,0,0:0:0:0:
64,192,36550,1,0,0:0:0:0:
192,192,36593,1,0,0:0:0:0:
448,192,36636,1,0,0:0:0:0:
320,192,36679,1,0,0:0:0:0:
64,192,36721,1,4,0:0:0:0:
192,192,36721,128,2,36893:0:0:0:0:
448,192,36893,128,0,37064:0:0:0:0:
64,192,37064,128,0,37236:0:0:0:0:
320,192,37236,128,0,37407:0:0:0:0:
192,192,37407,128,0,37579:0:0:0:0:
64,192,37579,128,0,37750:0:0:0:0:
448,192,37750,128,0,37921:0:0:0:0:
320,192,37921,128,0,38007:0:0:0:0:
192,192,38007,128,0,38093:0:0:0:0:
64,192,38093,128,0,38436:0:0:0:0:
448,192,38436,128,0,38779:0:0:0:0:
192,192,38779,128,0,39121:0:0:0:0:
320,192,39121,128,0,39464:0:0:0:0:
64,192,39464,128,0,39636:0:0:0:0:
192,192,39636,128,0,39807:0:0:0:0:
320,192,39807,128,0,39979:0:0:0:0:
448,192,39979,128,0,40150:0:0:0:0:
320,192,40150,128,0,40321:0:0:0:0:
192,192,40321,128,0,40493:0:0:0:0:
64,192,40493,128,0,40664:0:0:0:0:
320,192,40664,128,0,40836:0:0:0:0:
192,192,40836,128,0,41179:0:0:0:0:
320,192,41179,128,0,41521:0:0:0:0:
448,192,41521,128,0,41864:0:0:0:0:
64,192,42036,128,0,42121:0:0:0:0:
192,192,42121,128,0,42207:0:0:0:0:
320,192,42207,128,0,42379:0:0:0:0:
448,192,42379,128,0,42550:0:0:0:0:
64,192,42550,128,0,42721:0:0:0:0:
320,192,42721,128,0,42893:0:0:0:0:
192,192,42893,128,0,43064:0:0:0:0:
448,192,43064,128,0,43236:0:0:0:0:
320,192,43236,128,0,43407:0:0:0:0:
192,192,43407,128,0,43579:0:0:0:0:
64,192,43579,128,0,43750:0:0:0:0:
448,192,43750,128,0,43921:0:0:0:0:
192,192,43921,128,0,44093:0:0:0:0:
320,192,44093,128,0,44264:0:0:0:0:
448,192,44264,128,0,44607:0:0:0:0:
64,192,44607,128,0,44950:0:0:0:0:
320,192,44950,128,0,45121:0:0:0:0:
192,192,45121,128,0,45293:0:0:0:0:
320,192,45293,128,0,45464:0:0:0:0:
448,192,45464,128,0,45636:0:0:0:0:
64,192,45636,128,0,45807:0:0:0:0:
320,192,45807,128,0,45979:0:0:0:0:
192,192,45979,128,0,46150:0:0:0:0:
448,192,46150,128,0,46321:0:0:0:0:
320,192,46321,128,0,46493:0:0:0:0:
192,192,46493,128,0,46664:0:0:0:0:
64,192,46664,128,0,46836:0:0:0:0:
192,192,46836,128,0,47007:0:0:0:0:
320,192,47007,128,0,47350:0:0:0:0:
64,192,47350,1,8,0:0:0:0:
448,192,47350,1,0,0:0:0:0:
192,192,47350,1,0,0:0:0:0:
64,192,47693,1,4,0:0:0:0:
448,192,47693,1,0,0:0:0:0:
320,192,47693,1,0,0:0:0:40:Bass Drum.wav
192,192,47864,1,0,0:0:0:0:
320,192,48036,1,0,0:0:0:0:
448,192,48207,1,0,0:0:0:0:
320,192,48379,1,0,0:0:0:0:
192,192,48550,1,0,0:0:0:0:
64,192,48721,1,0,0:0:0:0:
448,192,48893,1,0,0:0:0:0:
320,192,48979,1,0,0:0:0:0:
192,192,49064,1,0,0:0:0:40:Bass Drum.wav
64,192,49064,1,4,0:0:0:0:
448,192,49064,1,0,0:0:0:0:
320,192,49236,1,0,0:0:0:0:
192,192,49407,1,0,0:0:0:0:
448,192,49579,1,0,0:0:0:0:
64,192,49750,1,0,0:0:0:0:
320,192,49921,1,0,0:0:0:0:
192,192,50093,1,0,0:0:0:0:
64,192,50264,1,0,0:0:0:0:
192,192,50350,1,0,0:0:0:0:
448,192,50436,1,0,0:0:0:0:
320,192,50436,1,0,0:0:0:40:Bass Drum.wav
64,192,50436,1,4,0:0:0:0:
192,192,50607,1,0,0:0:0:0:
320,192,50779,1,0,0:0:0:0:
448,192,50950,1,0,0:0:0:0:
64,192,51121,1,0,0:0:0:0:
320,192,51293,1,0,0:0:0:0:
192,192,51464,1,0,0:0:0:0:
448,192,51636,1,0,0:0:0:0:
320,192,51721,1,0,0:0:0:0:
192,192,51807,1,0,0:0:0:0:
64,192,51807,1,4,0:0:0:0:
448,192,51807,1,0,0:0:0:40:Bass Drum.wav
320,192,51979,1,0,0:0:0:0:
64,192,52150,1,0,0:0:0:0:
192,192,52321,1,0,0:0:0:0:
320,192,52493,1,0,0:0:0:0:
448,192,52664,1,0,0:0:0:0:
64,192,52836,1,0,0:0:0:0:
192,192,53007,1,0,0:0:0:0:
320,192,53093,1,0,0:0:0:0:
64,192,53179,1,0,0:0:0:40:Bass Drum.wav
192,192,53179,1,0,0:0:0:0:
448,192,53179,1,4,0:0:0:0:
320,192,53350,1,0,0:0:0:0:
448,192,53350,1,0,0:0:0:40:Bass Drum.wav
192,192,53521,1,0,0:0:0:40:Bass Drum.wav
64,192,53521,1,0,0:0:0:0:
320,192,53521,1,4,0:0:0:0:
448,192,53693,1,0,0:0:0:40:Bass Drum.wav
192,192,53693,1,0,0:0:0:0:
64,192,53864,1,4,0:0:0:0:
320,192,53864,1,0,0:0:0:40:Bass Drum.wav
448,192,53864,1,0,0:0:0:0:
64,192,54036,1,0,0:0:0:40:Bass Drum.wav
192,192,54036,1,0,0:0:0:0:
320,192,54207,1,0,0:0:0:40:Bass Drum.wav
192,192,54207,1,0,0:0:0:0:
448,192,54207,1,4,0:0:0:0:
320,192,54379,1,0,0:0:0:0:
64,192,54379,1,0,0:0:0:40:Bass Drum.wav
192,192,54550,1,4,0:0:0:0:
64,192,54550,1,0,0:0:0:0:
448,192,54550,1,0,0:0:0:40:Bass Drum.wav
320,192,54721,1,0,0:0:0:40:Bass Drum.wav
448,192,54721,1,0,0:0:0:0:
192,192,54893,1,0,0:0:0:40:Bass Drum.wav
320,192,54893,1,4,0:0:0:0:
64,192,54893,1,0,0:0:0:0:
64,192,55064,1,0,0:0:0:0:
448,192,55064,1,0,0:0:0:40:Bass Drum.wav
192,192,55236,1,0,0:0:0:40:Bass Drum.wav
320,192,55236,1,4,0:0:0:0:
448,192,55236,1,0,0:0:0:0:
320,192,55407,1,0,0:0:0:40:Bass Drum.wav
64,192,55407,1,0,0:0:0:0:
192,192,55579,1,0,0:0:0:40:Bass Drum.wav
64,192,55579,1,4,0:0:0:0:
448,192,55579,1,0,0:0:0:0:
320,192,55750,1,0,0:0:0:40:Bass Drum.wav
192,192,55750,1,0,0:0:0:0:
448,192,55921,1,0,0:0:0:0:
64,192,55921,1,0,0:0:0:40:Bass Drum.wav
320,192,56007,1,0,0:0:0:0:
192,192,56007,1,0,0:0:0:40:Bass Drum.wav
448,192,56093,1,0,0:0:0:0:
64,192,56093,1,0,0:0:0:40:Bass Drum.wav
320,192,56179,1,0,0:0:0:0:
192,192,56179,1,0,0:0:0:40:Bass Drum.wav
64,192,56264,1,0,0:0:0:40:Bass Drum.wav
448,192,56264,1,0,0:0:0:0:
192,192,56350,1,0,0:0:0:40:Bass Drum.wav
320,192,56350,1,0,0:0:0:0:
64,192,56436,1,0,0:0:0:40:Bass Drum.wav
448,192,56436,1,0,0:0:0:0:
192,192,56521,1,0,0:0:0:40:Bass Drum.wav
320,192,56521,1,0,0:0:0:0:
64,192,56607,1,0,0:0:0:40:Bass Drum.wav
448,192,56607,1,0,0:0:0:0:
192,192,56693,1,0,0:0:0:40:Bass Drum.wav
320,192,56693,1,0,0:0:0:0:
64,192,56779,1,0,0:0:0:40:Bass Drum.wav
448,192,56779,1,0,0:0:0:0:
192,192,56864,1,0,0:0:0:40:Bass Drum.wav
320,192,56864,1,0,0:0:0:0:
64,192,56950,1,0,0:0:0:40:Bass Drum.wav
448,192,56950,1,0,0:0:0:0:
192,192,57036,1,0,0:0:0:40:Bass Drum.wav
320,192,57036,1,0,0:0:0:0:
64,192,57121,1,0,0:0:0:40:Bass Drum.wav
448,192,57121,1,0,0:0:0:0:
192,192,57207,1,0,0:0:0:40:Bass Drum.wav
320,192,57207,1,0,0:0:0:0:
64,192,57293,1,0,0:0:0:40:Bass Drum.wav
448,192,57293,1,0,0:0:0:0:
448,192,57979,128,0,58664:0:0:0:0:
64,192,58664,1,0,0:0:0:40:Bass Drum.wav
320,192,58664,1,0,0:0:0:0:
192,192,58664,128,0,58836:0:0:0:0:
320,192,58836,128,0,59007:0:0:0:0:
448,192,59007,128,0,59179:0:0:0:0:
64,192,59007,1,0,0:0:0:0:
192,192,59007,1,0,0:0:0:40:Bass Drum.wav
320,192,59179,128,0,59350:0:0:0:0:
192,192,59350,128,0,59521:0:0:0:0:
448,192,59350,1,0,0:0:0:40:Bass Drum.wav
64,192,59350,1,0,0:0:0:0:
64,192,59521,128,0,59693:0:0:0:0:
448,192,59693,128,0,59864:0:0:0:0:
320,192,59693,1,0,0:0:0:40:Bass Drum.wav
192,192,59693,1,0,0:0:0:0:
320,192,59864,128,0,59950:0:0:0:0:
192,192,59950,128,0,60036:0:0:0:0:
64,192,60036,128,0,60379:0:0:0:0:
320,192,60036,1,0,0:0:0:0:
448,192,60036,1,0,0:0:0:40:Bass Drum.wav
448,192,60379,128,0,60721:0:0:0:0:
192,192,60379,1,0,0:0:0:40:Bass Drum.wav
320,192,60379,1,0,0:0:0:0:
192,192,60721,128,0,61064:0:0:0:0:
64,192,60721,1,0,0:0:0:0:
320,192,60721,1,0,0:0:0:40:Bass Drum.wav
320,192,61064,128,0,61407:0:0:0:0:
448,192,61064,1,0,0:0:0:0:
64,192,61064,1,0,0:0:0:40:Bass Drum.wav
64,192,61407,128,0,61579:0:0:0:0:
192,192,61407,1,0,0:0:0:0:
448,192,61407,1,0,0:0:0:40:Bass Drum.wav
192,192,61579,128,0,61750:0:0:0:0:
320,192,61750,128,0,61921:0:0:0:0:
64,192,61750,1,0,0:0:0:40:Bass Drum.wav
448,192,61750,1,0,0:0:0:0:
448,192,61921,128,0,62093:0:0:0:0:
320,192,62093,128,0,62264:0:0:0:0:
192,192,62093,1,0,0:0:0:40:Bass Drum.wav
64,192,62093,1,0,0:0:0:0:
192,192,62264,128,0,62436:0:0:0:0:
64,192,62436,128,0,62607:0:0:0:0:
320,192,62436,1,0,0:0:0:0:
448,192,62436,1,0,0:0:0:40:Bass Drum.wav
320,192,62607,128,0,62779:0:0:0:0:
192,192,62779,128,0,63121:0:0:0:0:
64,192,62779,1,0,0:0:0:40:Bass Drum.wav
448,192,62779,1,0,0:0:0:0:
320,192,63121,128,0,63464:0:0:0:0:
64,192,63121,1,0,0:0:0:0:
448,192,63121,1,0,0:0:0:40:Bass Drum.wav
448,192,63464,128,0,63807:0:0:0:0:
192,192,63464,1,0,0:0:0:40:Bass Drum.wav
64,192,63464,1,0,0:0:0:0:
320,192,63807,1,8,0:0:0:0:
192,192,63807,1,0,0:0:0:0:
64,192,63807,1,0,0:0:0:0:
64,192,63979,128,0,64064:0:0:0:0:
192,192,64064,128,0,64150:0:0:0:0:
320,192,64150,128,0,64321:0:0:0:0:
448,192,64150,1,0,0:0:0:0:
64,192,64150,1,0,0:0:0:40:Bass Drum.wav
448,192,64321,128,0,64493:0:0:0:0:
64,192,64493,128,0,64664:0:0:0:0:
192,192,64493,1,0,0:0:0:0:
320,192,64493,1,0,0:0:0:40:Bass Drum.wav
320,192,64664,128,0,64836:0:0:0:0:
192,192,64836,128,0,65007:0:0:0:0:
448,192,64836,1,0,0:0:0:0:
64,192,64836,1,0,0:0:0:40:Bass Drum.wav
448,192,65007,128,0,65179:0:0:0:0:
320,192,65179,128,0,65350:0:0:0:0:
192,192,65179,1,0,0:0:0:40:Bass Drum.wav
64,192,65179,1,0,0:0:0:0:
192,192,65350,128,0,65521:0:0:0:0:
448,192,65350,1,0,0:0:0:40:Bass Drum.wav
64,192,65350,1,0,0:0:0:0:
64,192,65521,128,0,65693:0:0:0:0:
320,192,65521,1,0,0:0:0:40:Bass Drum.wav
448,192,65521,1,0,0:0:0:0:
320,192,65693,128,0,65864:0:0:0:0:
64,192,65864,128,0,66036:0:0:0:0:
192,192,65864,1,0,0:0:0:40:Bass Drum.wav
448,192,65864,1,0,0:0:0:0:
448,192,66036,128,0,66207:0:0:0:0:
320,192,66207,128,0,66550:0:0:0:0:
192,192,66207,1,0,0:0:0:40:Bass Drum.wav
64,192,66207,1,0,0:0:0:0:
192,192,66550,128,0,66893:0:0:0:0:
448,192,66550,1,0,0:0:0:40:Bass Drum.wav
64,192,66550,1,0,0:0:0:0:
64,192,66721,1,0,0:0:0:0:
320,192,66721,1,0,0:0:0:40:Bass Drum.wav
64,192,66893,128,0,67064:0:0:0:0:
320,192,66893,1,0,0:0:0:40:Bass Drum.wav
448,192,66893,1,0,0:0:0:0:
192,192,67064,128,0,67236:0:0:0:0:
320,192,67236,128,0,67407:0:0:0:0:
448,192,67236,1,0,0:0:0:0:
64,192,67236,1,0,0:0:0:40:Bass Drum.wav
448,192,67407,128,0,67579:0:0:0:0:
192,192,67407,1,0,0:0:0:40:Bass Drum.wav
64,192,67407,1,0,0:0:0:0:
64,192,67579,128,0,67750:0:0:0:0:
192,192,67579,1,0,0:0:0:0:
320,192,67579,1,0,0:0:0:40:Bass Drum.wav
448,192,67750,128,0,67921:0:0:0:0:
64,192,67921,1,0,0:0:0:0:
192,192,67921,1,0,0:0:0:40:Bass Drum.wav
320,192,68007,1,0,0:0:0:40:Bass Drum.wav
448,192,68007,1,0,0:0:0:0:
192,192,68093,1,0,0:0:0:40:Bass Drum.wav
64,192,68093,1,0,0:0:0:0:
320,192,68179,1,0,0:0:0:40:Bass Drum.wav
448,192,68179,1,0,0:0:0:0:
192,192,68264,1,0,0:0:0:40:Bass Drum.wav
64,192,68264,128,0,68436:0:0:0:0:
320,192,68436,128,0,68607:0:0:0:0:
192,192,68607,128,0,68779:0:0:0:0:
448,192,68779,128,0,68950:0:0:0:0:
64,192,68950,128,0,69636:0:0:0:0:
192,192,69636,128,0,69807:0:0:0:0:
320,192,69636,1,0,0:0:0:40:Bass Drum.wav
448,192,69636,1,0,0:0:0:0:
320,192,69807,128,0,69979:0:0:0:0:
64,192,69807,1,0,0:0:0:40:Bass Drum.wav
448,192,69807,1,0,0:0:0:0:
448,192,69979,128,0,70150:0:0:0:0:
192,192,69979,1,0,0:0:0:40:Bass Drum.wav
64,192,69979,1,0,0:0:0:0:
320,192,70150,128,0,70321:0:0:0:0:
192,192,70321,128,0,70493:0:0:0:0:
64,192,70321,1,0,0:0:0:0:
448,192,70321,1,0,0:0:0:40:Bass Drum.wav
64,192,70493,128,0,70664:0:0:0:0:
448,192,70664,128,0,70836:0:0:0:0:
320,192,70664,1,0,0:0:0:0:
192,192,70664,1,0,0:0:0:40:Bass Drum.wav
320,192,70836,128,0,70921:0:0:0:0:
192,192,70921,128,0,71007:0:0:0:0:
64,192,71007,128,0,71350:0:0:0:0:
448,192,71007,1,0,0:0:0:40:Bass Drum.wav
320,192,71007,1,0,0:0:0:0:
320,192,71350,128,0,71693:0:0:0:0:
192,192,71350,1,0,0:0:0:40:Bass Drum.wav
448,192,71350,1,0,0:0:0:0:
192,192,71693,128,0,72036:0:0:0:0:
64,192,71693,1,0,0:0:0:0:
448,192,71693,1,0,0:0:0:40:Bass Drum.wav
448,192,72036,128,0,72379:0:0:0:0:
320,192,72036,1,0,0:0:0:0:
64,192,72036,1,0,0:0:0:40:Bass Drum.wav
64,192,72379,128,0,72550:0:0:0:0:
192,192,72379,1,0,0:0:0:0:
320,192,72379,1,0,0:0:0:40:Bass Drum.wav
192,192,72550,128,0,72721:0:0:0:0:
320,192,72721,128,0,72893:0:0:0:0:
448,192,72721,1,0,0:0:0:0:
64,192,72721,1,0,0:0:0:40:Bass Drum.wav
448,192,72893,128,0,73064:0:0:0:0:
320,192,73064,128,0,73236:0:0:0:0:
192,192,73064,1,0,0:0:0:40:Bass Drum.wav
64,192,73064,1,0,0:0:0:0:
192,192,73236,128,0,73407:0:0:0:0:
64,192,73407,128,0,73579:0:0:0:0:
320,192,73407,1,0,0:0:0:0:
448,192,73407,1,0,0:0:0:40:Bass Drum.wav
448,192,73579,128,0,73750:0:0:0:0:
320,192,73750,128,0,74093:0:0:0:0:
192,192,73750,1,0,0:0:0:40:Bass Drum.wav
64,192,73750,1,0,0:0:0:0:
192,192,74093,128,0,74436:0:0:0:0:
64,192,74093,1,0,0:0:0:0:
448,192,74093,1,0,0:0:0:40:Bass Drum.wav
64,192,74436,128,0,74779:0:0:0:0:
320,192,74436,1,0,0:0:0:40:Bass Drum.wav
448,192,74436,1,0,0:0:0:0:
192,192,74779,1,8,0:0:0:0:
320,192,74779,1,0,0:0:0:0:
448,192,74779,1,0,0:0:0:0:
448,192,74950,128,0,75036:0:0:0:0:
320,192,75036,128,0,75121:0:0:0:0:
192,192,75121,128,0,75293:0:0:0:0:
64,192,75121,1,0,0:0:0:40:Bass Drum.wav
448,192,75121,1,0,0:0:0:0:
448,192,75293,128,0,75464:0:0:0:0:
64,192,75464,128,0,75636:0:0:0:0:
320,192,75464,1,0,0:0:0:40:Bass Drum.wav
192,192,75464,1,0,0:0:0:0:
320,192,75636,128,0,75807:0:0:0:0:
192,192,75807,128,0,75979:0:0:0:0:
64,192,75807,1,0,0:0:0:40:Bass Drum.wav
448,192,75807,1,0,0:0:0:0:
448,192,75979,128,0,76150:0:0:0:0:
320,192,76150,128,0,76321:0:0:0:0:
192,192,76150,1,0,0:0:0:40:Bass Drum.wav
64,192,76150,1,0,0:0:0:0:
192,192,76321,128,0,76493:0:0:0:0:
448,192,76321,1,0,0:0:0:40:Bass Drum.wav
64,192,76321,1,0,0:0:0:0:
64,192,76493,128,0,76664:0:0:0:0:
320,192,76493,1,0,0:0:0:40:Bass Drum.wav
448,192,76493,1,0,0:0:0:0:
320,192,76664,128,0,76836:0:0:0:0:
192,192,76836,128,0,77007:0:0:0:0:
64,192,76836,1,0,0:0:0:40:Bass Drum.wav
448,192,76836,1,0,0:0:0:0:
448,192,77007,128,0,77179:0:0:0:0:
320,192,77179,128,0,77521:0:0:0:0:
192,192,77179,1,0,0:0:0:40:Bass Drum.wav
64,192,77179,1,0,0:0:0:0:
192,192,77521,128,0,77864:0:0:0:0:
448,192,77521,1,0,0:0:0:40:Bass Drum.wav
64,192,77521,1,0,0:0:0:0:
64,192,77693,1,0,0:0:0:0:
320,192,77693,1,0,0:0:0:40:Bass Drum.wav
320,192,77864,1,0,0:0:0:0:
448,192,77864,1,0,0:0:0:40:Bass Drum.wav
448,192,78036,1,0,0:0:0:0:
64,192,78036,1,0,0:0:0:40:Bass Drum.wav
192,192,78207,1,0,0:0:0:40:Bass Drum.wav
64,192,78207,1,0,0:0:0:0:
448,192,78379,1,0,0:0:0:40:Bass Drum.wav
192,192,78379,1,0,0:0:0:0:
320,192,78550,1,0,0:0:0:40:Bass Drum.wav
448,192,78550,1,0,0:0:0:0:
64,192,78636,1,0,0:0:0:0:
192,192,78636,1,0,0:0:0:40:Bass Drum.wav
320,192,78721,1,0,0:0:0:40:Bass Drum.wav
448,192,78721,1,0,0:0:0:0:
64,192,78807,1,0,0:0:0:0:
192,192,78807,1,0,0:0:0:40:Bass Drum.wav
320,192,78893,1,0,0:0:0:40:Bass Drum.wav
448,192,78893,1,0,0:0:0:0:
64,192,78979,1,0,0:0:0:0:
192,192,78979,1,0,0:0:0:40:Bass Drum.wav
320,192,79064,1,0,0:0:0:40:Bass Drum.wav
448,192,79064,1,0,0:0:0:0:
192,192,79150,1,0,0:0:0:40:Bass Drum.wav
64,192,79150,1,0,0:0:0:0:
320,192,79236,128,0,79407:0:0:0:0:
448,192,79236,1,0,0:0:0:0:
192,192,79407,128,0,79579:0:0:0:0:
64,192,79579,128,0,79750:0:0:0:0:
192,192,79750,128,0,79921:0:0:0:0:
320,192,79921,128,0,80607:0:0:0:0:
64,192,80607,1,0,0:0:0:0:
448,192,80607,1,4,0:0:0:0:
192,192,80779,1,0,0:0:0:0:
320,192,80950,1,0,0:0:0:0:
448,192,81121,1,0,0:0:0:0:
64,192,81293,1,0,0:0:0:0:
192,192,81464,1,0,0:0:0:0:
320,192,81636,1,0,0:0:0:0:
448,192,81807,1,0,0:0:0:0:
64,192,81979,1,0,0:0:0:0:
192,192,81979,1,2,0:0:0:0:
448,192,82150,1,0,0:0:0:0:
320,192,82321,1,0,0:0:0:0:
192,192,82493,1,0,0:0:0:0:
64,192,82664,1,0,0:0:0:0:
192,192,82836,1,0,0:0:0:0:
320,192,83007,1,0,0:0:0:0:
192,192,83179,1,0,0:0:0:0:
448,192,83350,1,4,0:0:0:0:
64,192,83350,1,2,0:0:0:0:
320,192,83521,1,0,0:0:0:0:
320,192,83693,1,0,0:0:0:0:
320,192,83864,1,0,0:0:0:0:
192,192,84036,1,8,0:0:0:0:
64,192,84036,1,0,0:0:0:0:
448,192,84036,1,0,0:0:0:0:
64,192,84207,1,0,0:0:0:0:
64,192,84379,1,0,0:0:0:0:
64,192,84550,1,0,0:0:0:0:
320,192,84721,1,2,0:0:0:0:
448,192,84721,1,0,0:0:0:0:
448,192,84893,1,0,0:0:0:0:
64,192,85064,1,2,0:0:0:0:
320,192,85064,1,0,0:0:0:0:
64,192,85236,1,0,0:0:0:0:
192,192,85407,1,0,0:0:0:0:
320,192,85407,1,8,0:0:0:0:
448,192,85407,1,0,0:0:0:0:
320,192,85579,1,0,0:0:0:0:
320,192,85750,1,0,0:0:0:0:
64,192,85921,1,0,0:0:0:0:
320,192,85921,1,2,0:0:0:0:
192,192,86093,1,2,0:0:0:0:
448,192,86093,1,0,0:0:0:0:
192,192,86264,1,0,0:0:0:0:
192,192,86436,1,0,0:0:0:0:
192,192,86607,1,0,0:0:0:0:
320,192,86779,1,8,0:0:0:0:
448,192,86779,1,0,0:0:0:0:
64,192,86779,1,0,0:0:0:0:
448,192,86950,1,0,0:0:0:0:
192,192,87121,1,2,0:0:0:0:
64,192,87121,1,0,0:0:0:0:
192,192,87293,1,0,0:0:0:0:
320,192,87464,1,2,0:0:0:0:
448,192,87464,1,0,0:0:0:0:
320,192,87636,1,0,0:0:0:0:
320,192,87807,1,0,0:0:0:0:
320,192,87979,1,0,0:0:0:0:
192,192,88150,1,8,0:0:0:0:
64,192,88150,1,0,0:0:0:0:
448,192,88150,1,0,0:0:0:0:
448,192,88321,1,0,0:0:0:0:
448,192,88493,1,0,0:0:0:0:
448,192,88664,1,0,0:0:0:0:
320,192,88836,1,2,0:0:0:0:
64,192,88836,1,0,0:0:0:0:
64,192,89007,1,0,0:0:0:0:
64,192,89179,1,0,0:0:0:0:
64,192,89350,1,0,0:0:0:0:
320,192,89521,1,8,0:0:0:0:
192,192,89521,1,0,0:0:0:0:
448,192,89521,1,0,0:0:0:0:
320,192,89693,1,0,0:0:0:0:
320,192,89864,1,0,0:0:0:0:
320,192,90036,1,0,0:0:0:0:
192,192,90207,1,0,0:0:0:0:
448,192,90207,1,2,0:0:0:0:
192,192,90379,1,0,0:0:0:0:
192,192,90550,1,2,0:0:0:0:
320,192,90550,1,0,0:0:0:0:
192,192,90721,1,0,0:0:0:0:
64,192,90893,1,0,0:0:0:0:
320,192,90893,1,8,0:0:0:0:
448,192,90893,1,0,0:0:0:0:
64,192,91064,1,0,0:0:0:0:
192,192,91064,1,2,0:0:0:0:
192,192,91236,1,0,0:0:0:0:
448,192,91407,1,2,0:0:0:0:
64,192,91407,1,0,0:0:0:0:
320,192,91579,1,2,0:0:0:0:
448,192,91579,1,0,0:0:0:0:
320,192,91750,1,0,0:0:0:0:
320,192,91921,1,0,0:0:0:0:
320,192,92093,1,0,0:0:0:0:
192,192,92264,1,8,0:0:0:0:
448,192,92264,1,0,0:0:0:0:
64,192,92264,1,0,0:0:0:0:
64,192,92436,1,0,0:0:0:0:
192,192,92607,1,0,0:0:0:0:
320,192,92607,1,2,0:0:0:0:
192,192,92779,1,0,0:0:0:0:
448,192,92950,1,0,0:0:0:0:
320,192,92950,1,2,0:0:0:0:
448,192,93121,1,0,0:0:0:0:
448,192,93293,1,0,0:0:0:0:
64,192,93464,1,0,0:0:0:0:
192,192,93464,1,2,0:0:0:0:
192,192,93636,1,0,0:0:0:0:
320,192,93636,1,8,0:0:0:0:
448,192,93636,1,0,0:0:0:0:
320,192,93807,1,0,0:0:0:0:
320,192,93979,1,0,0:0:0:0:
320,192,94150,1,0,0:0:0:0:
64,192,94321,1,2,0:0:0:0:
448,192,94321,1,0,0:0:0:0:
192,192,94407,1,0,0:0:0:0:
320,192,94493,1,0,0:0:0:0:
192,192,94579,1,0,0:0:0:0:
64,192,94664,1,2,0:0:0:0:
320,192,94664,1,0,0:0:0:0:
448,192,94750,1,0,0:0:0:0:
320,192,94836,1,0,0:0:0:0:
192,192,94921,1,0,0:0:0:0:
64,192,95007,1,0,0:0:0:0:
448,192,95007,1,2,0:0:0:0:
320,192,95093,1,0,0:0:0:0:
192,192,95179,1,0,0:0:0:0:
320,192,95264,1,0,0:0:0:0:
64,192,95350,1,0,0:0:0:0:
192,192,95350,1,2,0:0:0:0:
448,192,95436,1,0,0:0:0:0:
192,192,95521,1,0,0:0:0:0:
320,192,95607,1,0,0:0:0:0:
64,192,95693,1,0,0:0:0:0:
192,192,95693,1,2,0:0:0:0:
448,192,95779,1,0,0:0:0:0:
320,192,95864,1,0,0:0:0:0:
64,192,95950,1,0,0:0:0:0:
192,192,96036,1,0,0:0:0:0:
448,192,96036,1,2,0:0:0:0:
320,192,96121,1,0,0:0:0:0:
192,192,96207,1,0,0:0:0:0:
64,192,96293,1,0,0:0:0:0:
448,192,96379,1,0,0:0:0:0:
320,192,96379,1,2,0:0:0:0:
192,192,96464,1,0,0:0:0:0:
320,192,96550,1,0,0:0:0:0:
192,192,96636,1,0,0:0:0:0:
448,192,96721,1,2,0:0:0:0:
64,192,96721,1,0,0:0:0:0:
320,192,96807,1,0,0:0:0:0:
192,192,96893,1,0,0:0:0:0:
320,192,96979,1,0,0:0:0:0:
192,192,97064,1,2,0:0:0:0:
64,192,97064,1,0,0:0:0:0:
448,192,97150,1,0,0:0:0:0:
320,192,97236,1,0,0:0:0:0:
192,192,97321,1,0,0:0:0:0:
448,192,97407,1,0,0:0:0:0:
64,192,97407,1,2,0:0:0:0:
320,192,97493,1,0,0:0:0:0:
64,192,97579,1,0,0:0:0:0:
192,192,97664,1,0,0:0:0:0:
320,192,97750,1,2,0:0:0:0:
448,192,97750,1,0,0:0:0:0:
192,192,97836,1,0,0:0:0:0:
64,192,97921,1,0,0:0:0:0:
448,192,98007,1,0,0:0:0:0:
320,192,98093,1,0,0:0:0:0:
192,192,98093,1,2,0:0:0:0:
64,192,98179,1,0,0:0:0:0:
192,192,98264,1,0,0:0:0:0:
320,192,98350,1,0,0:0:0:0:
192,192,98436,1,2,0:0:0:0:
64,192,98436,1,0,0:0:0:0:
448,192,98521,1,0,0:0:0:0:
320,192,98607,1,0,0:0:0:0:
192,192,98693,1,0,0:0:0:0:
448,192,98779,1,0,0:0:0:0:
320,192,98779,1,2,0:0:0:0:
64,192,98864,1,0,0:0:0:0:
192,192,98950,1,0,0:0:0:0:
320,192,99036,1,0,0:0:0:0:
192,192,99121,1,0,0:0:0:0:
448,192,99121,1,2,0:0:0:0:
64,192,99207,1,0,0:0:0:0:
320,192,99293,1,0,0:0:0:0:
192,192,99379,1,0,0:0:0:0:
448,192,99464,1,2,0:0:0:0:
320,192,99464,1,0,0:0:0:0:
64,192,99636,1,0,0:0:0:0:
192,192,99636,1,2,0:0:0:0:
192,192,99807,1,0,0:0:0:0:
320,192,99807,1,2,0:0:0:0:
448,192,99807,1,8,0:0:0:0:
64,192,99893,1,0,0:0:0:0:
448,192,99979,1,0,0:0:0:0:
320,192,100064,1,0,0:0:0:0:
64,192,100150,1,2,0:0:0:0:
192,192,100150,1,0,0:0:0:0:
448,192,100236,1,0,0:0:0:0:
320,192,100321,1,0,0:0:0:0:
192,192,100407,1,0,0:0:0:0:
64,192,100493,1,0,0:0:0:0:
448,192,100493,1,2,0:0:0:0:
320,192,100579,1,0,0:0:0:0:
192,192,100664,1,0,0:0:0:0:
320,192,100750,1,0,0:0:0:0:
64,192,100836,1,2,0:0:0:0:
192,192,100836,1,0,0:0:0:0:
320,192,101007,1,8,0:0:0:0:
448,192,101007,1,4,0:0:0:0:
64,192,101007,1,0,0:0:0:0:
448,192,101350,1,0,0:0:0:0:
64,192,101350,1,0,0:0:0:0:
320,192,101436,1,0,0:0:0:0:
64,192,101521,1,0,0:0:0:0:
192,192,101521,1,2,0:0:0:0:
320,192,101607,1,0,0:0:0:0:
448,192,101693,1,0,0:0:0:0:
64,192,101693,1,0,0:0:0:0:
192,192,101779,1,0,0:0:0:0:
320,192,101864,1,2,0:0:0:0:
448,192,101864,1,0,0:0:0:0:
64,192,101950,1,0,0:0:0:0:
192,192,102036,1,0,0:0:0:0:
448,192,102036,1,0,0:0:0:0:
320,192,102121,1,0,0:0:0:0:
64,192,102207,1,2,0:0:0:0:
448,192,102207,1,0,0:0:0:0:
192,192,102293,1,0,0:0:0:0:
448,192,102379,1,2,0:0:0:0:
64,192,102379,1,0,0:0:0:0:
320,192,102464,1,0,0:0:0:0:
64,192,102550,1,0,0:0:0:0:
448,192,102550,1,8,0:0:0:0:
192,192,102550,1,4,0:0:0:0:
64,192,102721,1,0,0:0:0:0:
320,192,102721,1,2,0:0:0:0:
192,192,102807,1,2,0:0:0:0:
448,192,102807,1,0,0:0:0:0:
64,192,102893,1,0,0:0:0:0:
320,192,102893,1,2,0:0:0:0:
192,192,102979,1,2,0:0:0:0:
448,192,102979,1,0,0:0:0:0:
64,192,103064,1,0,0:0:0:0:
320,192,103064,1,4,0:0:0:0:
448,192,103064,1,8,0:0:0:0:
192,192,103407,1,2,0:0:0:0:
320,192,103407,1,4,0:0:0:0:
64,192,103407,1,0,0:0:0:0:
192,192,103750,1,0,0:0:0:0:
448,192,103750,1,4,0:0:0:0:
320,192,103750,1,2,0:0:0:0:
64,192,104093,1,0,0:0:0:0:
192,192,104093,1,2,0:0:0:0:
320,192,104179,1,2,0:0:0:0:
448,192,104179,1,0,0:0:0:0:
192,192,104264,1,2,0:0:0:0:
64,192,104264,1,0,0:0:0:0:
320,192,104350,1,2,0:0:0:0:
448,192,104350,1,0,0:0:0:0:
192,192,104436,1,2,0:0:0:0:
64,192,104436,1,0,0:0:0:0:
448,192,104436,1,4,0:0:0:0:
320,192,104607,1,2,0:0:0:0:
448,192,104607,1,0,0:0:0:0:
64,192,104693,1,0,0:0:0:0:
192,192,104693,1,2,0:0:0:0:
320,192,104779,1,2,0:0:0:0:
448,192,104779,1,0,0:0:0:0:
192,192,104864,1,2,0:0:0:0:
64,192,104864,1,0,0:0:0:0:
320,192,104950,1,8,0:0:0:0:
448,192,104950,1,0,0:0:0:0:
64,192,104950,1,0,0:0:0:0:
64,192,105293,1,0,0:0:0:0:
320,192,105293,1,0,0:0:0:0:
192,192,105293,1,2,0:0:0:0:
64,192,105550,1,0,0:0:0:0:
192,192,105636,1,0,0:0:0:0:
320,192,105636,1,2,0:0:0:0:
448,192,105636,1,0,0:0:0:0:
64,192,105807,1,0,0:0:0:0:
192,192,105979,1,2,0:0:0:0:
320,192,105979,1,0,0:0:0:0:
448,192,105979,1,0,0:0:0:0:
192,192,106150,1,0,0:0:0:0:
448,192,106150,128,0,106321:0:0:0:0:
320,192,106321,128,0,106493:0:0:0:0:
64,192,106321,1,2,0:0:0:0:
448,192,106493,1,0,0:0:0:0:
192,192,106493,128,0,106664:0:0:0:0:
320,192,106664,1,2,0:0:0:0:
64,192,106664,1,0,0:0:0:0:
448,192,106921,1,0,0:0:0:0:
320,192,107007,1,0,0:0:0:0:
192,192,107007,1,2,0:0:0:0:
64,192,107007,1,0,0:0:0:0:
320,192,107179,1,0,0:0:0:0:
192,192,107350,1,0,0:0:0:0:
64,192,107350,1,0,0:0:0:0:
448,192,107350,1,2,0:0:0:0:
320,192,107521,1,0,0:0:0:0:
64,192,107521,128,0,107693:0:0:0:0:
448,192,107693,1,2,0:0:0:0:
192,192,107693,128,0,107864:0:0:0:0:
320,192,107864,128,0,108036:0:0:0:0:
64,192,107864,1,0,0:0:0:0:
192,192,108036,1,2,0:0:0:0:
448,192,108036,1,0,0:0:0:0:
320,192,108293,1,0,0:0:0:0:
64,192,108379,1,2,0:0:0:0:
192,192,108379,1,0,0:0:0:0:
448,192,108379,1,0,0:0:0:0:
448,192,108550,1,0,0:0:0:0:
320,192,108721,1,0,0:0:0:0:
192,192,108721,1,2,0:0:0:0:
64,192,108721,1,0,0:0:0:0:
64,192,108893,1,0,0:0:0:0:
320,192,108893,128,0,109064:0:0:0:0:
448,192,109064,1,2,0:0:0:0:
192,192,109064,128,0,109236:0:0:0:0:
320,192,109236,1,0,0:0:0:0:
64,192,109236,128,0,109407:0:0:0:0:
192,192,109407,1,0,0:0:0:0:
448,192,109407,1,2,0:0:0:0:
192,192,109664,1,0,0:0:0:0:
64,192,109750,1,0,0:0:0:0:
320,192,109750,1,2,0:0:0:0:
448,192,109750,1,0,0:0:0:0:
448,192,109921,1,0,0:0:0:0:
64,192,110093,1,0,0:0:0:0:
192,192,110093,1,0,0:0:0:0:
320,192,110093,1,0,0:0:0:0:
448,192,110436,1,0,0:0:0:0:
320,192,110436,1,0,0:0:0:0:
192,192,110436,1,0,0:0:0:0:
64,192,110779,1,4,0:0:0:0:
448,192,110779,1,0,0:0:0:0:
192,192,110779,1,2,0:0:0:0:
320,192,110950,1,2,0:0:0:0:
448,192,110950,1,0,0:0:0:0:
64,192,111121,1,0,0:0:0:0:
320,192,111121,1,2,0:0:0:0:
64,192,111293,1,0,0:0:0:0:
192,192,111293,1,2,0:0:0:0:
448,192,111464,1,4,0:0:0:0:
192,192,111464,1,0,0:0:0:0:
320,192,111464,1,2,0:0:0:0:
320,192,111636,1,0,0:0:0:0:
64,192,111636,1,2,0:0:0:0:
448,192,111807,1,2,0:0:0:0:
64,192,111807,1,0,0:0:0:0:
192,192,111979,1,2,0:0:0:0:
448,192,111979,1,0,0:0:0:0:
320,192,112150,1,4,0:0:0:0:
64,192,112150,1,2,0:0:0:0:
192,192,112150,1,0,0:0:0:0:
448,192,112321,1,0,0:0:0:0:
320,192,112321,1,2,0:0:0:0:
64,192,112493,1,2,0:0:0:0:
448,192,112493,1,0,0:0:0:0:
64,192,112664,1,0,0:0:0:0:
320,192,112664,1,2,0:0:0:0:
192,192,112836,1,4,0:0:0:0:
320,192,112836,1,2,0:0:0:0:
448,192,112836,1,0,0:0:0:0:
64,192,113007,1,0,0:0:0:0:
448,192,113007,1,2,0:0:0:0:
64,192,113179,1,0,0:0:0:0:
320,192,113179,1,2,0:0:0:0:
192,192,113350,1,2,0:0:0:0:
320,192,113350,1,0,0:0:0:0:
64,192,113521,1,0,0:0:0:0:
448,192,113521,1,0,0:0:0:0:
192,192,113564,1,0,0:0:0:0:
320,192,113607,1,0,0:0:0:0:
448,192,113650,1,0,0:0:0:0:
64,192,113693,1,0,0:0:0:0:
192,192,113736,1,0,0:0:0:0:
448,192,113779,1,0,0:0:0:0:
320,192,113821,1,0,0:0:0:0:
192,192,113864,1,0,0:0:0:0:
64,192,113907,1,0,0:0:0:0:
448,192,113950,1,0,0:0:0:0:
320,192,113993,1,0,0:0:0:0:
64,192,114036,1,0,0:0:0:0:
192,192,114079,1,0,0:0:0:0:
320,192,114121,1,0,0:0:0:0:
448,192,114164,1,0,0:0:0:0:
64,192,114207,1,0,0:0:0:0:
192,192,114250,1,0,0:0:0:0:
448,192,114293,1,0,0:0:0:0:
320,192,114336,1,0,0:0:0:0:
192,192,114379,1,0,0:0:0:0:
64,192,114421,1,0,0:0:0:0:
448,192,114464,1,0,0:0:0:0:
320,192,114507,1,0,0:0:0:0:
64,192,114550,1,0,0:0:0:0:
192,192,114593,1,0,0:0:0:0:
320,192,114636,1,0,0:0:0:0:
448,192,114679,1,0,0:0:0:0:
64,192,114721,1,0,0:0:0:0:
192,192,114764,1,0,0:0:0:0:
448,192,114807,1,0,0:0:0:0:
320,192,114850,1,0,0:0:0:0:
64,192,114893,1,0,0:0:0:0:
192,192,114893,1,0,0:0:0:0:
192,192,115236,1,0,0:0:0:0:
448,192,115236,1,0,0:0:0:0:
64,192,115579,1,0,0:0:0:0:
448,192,115579,1,0,0:0:0:0:
192,192,115636,1,0,0:0:0:0:
320,192,115693,1,0,0:0:0:0:
448,192,115750,1,0,0:0:0:0:
64,192,115807,1,0,0:0:0:0:
192,192,115864,1,0,0:0:0:0:
448,192,115921,1,0,0:0:0:0:
320,192,115921,1,0,0:0:0:0:
64,192,115979,1,0,0:0:0:0:
192,192,116036,1,0,0:0:0:0:
448,192,116093,1,0,0:0:0:0:
320,192,116150,1,0,0:0:0:0:
192,192,116207,1,0,0:0:0:0:
64,192,116264,1,2,0:0:0:0:
448,192,116264,1,4,0:0:0:0:
320,192,116264,1,0,0:0:0:0:
192,192,116350,1,0,0:0:0:0:
320,192,116436,1,0,0:0:0:0:
448,192,116521,1,0,0:0:0:0:
192,192,116607,1,2,0:0:0:0:
64,192,116607,1,0,0:0:0:0:
320,192,116693,1,0,0:0:0:0:
192,192,116779,1,0,0:0:0:0:
320,192,116950,1,0,0:0:0:0:
448,192,116950,1,2,0:0:0:0:
64,192,117036,1,0,0:0:0:0:
192,192,117121,1,0,0:0:0:0:
320,192,117207,1,0,0:0:0:0:
64,192,117293,1,2,0:0:0:0:
448,192,117293,1,0,0:0:0:0:
192,192,117464,1,0,0:0:0:0:
448,192,117636,1,2,0:0:0:0:
64,192,117636,1,0,0:0:0:0:
320,192,117721,1,0,0:0:0:0:
64,192,117807,1,0,0:0:0:0:
192,192,117850,1,0,0:0:0:0:
320,192,117893,1,0,0:0:0:0:
448,192,117936,1,0,0:0:0:0:
64,192,117979,1,2,0:0:0:0:
192,192,117979,1,0,0:0:0:0:
320,192,118064,1,0,0:0:0:0:
192,192,118150,1,0,0:0:0:0:
64,192,118236,1,0,0:0:0:0:
320,192,118321,1,2,0:0:0:0:
448,192,118321,1,0,0:0:0:0:
192,192,118493,1,0,0:0:0:0:
320,192,118579,1,0,0:0:0:0:
448,192,118664,1,0,0:0:0:0:
64,192,118664,1,2,0:0:0:0:
192,192,118664,128,0,119007:0:0:0:0:
64,192,119007,1,0,0:0:0:0:
448,192,119007,1,2,0:0:0:0:
320,192,119093,1,0,0:0:0:0:
64,192,119179,1,0,0:0:0:0:
192,192,119221,1,0,0:0:0:0:
320,192,119264,1,0,0:0:0:0:
448,192,119307,1,0,0:0:0:0:
192,192,119350,1,2,0:0:0:0:
64,192,119350,1,0,0:0:0:0:
320,192,119436,1,0,0:0:0:0:
192,192,119521,1,0,0:0:0:0:
64,192,119693,1,2,0:0:0:0:
448,192,119693,1,0,0:0:0:0:
320,192,119779,1,0,0:0:0:0:
192,192,119864,1,0,0:0:0:0:
64,192,119950,1,0,0:0:0:0:
192,192,120036,1,0,0:0:0:0:
320,192,120036,1,2,0:0:0:0:
448,192,120207,1,0,0:0:0:0:
192,192,120379,1,2,0:0:0:0:
320,192,120379,1,0,0:0:0:0:
64,192,120550,1,0,0:0:0:0:
192,192,120593,1,0,0:0:0:0:
320,192,120636,1,0,0:0:0:0:
448,192,120679,1,0,0:0:0:0:
192,192,120721,1,2,0:0:0:0:
64,192,120721,1,0,0:0:0:0:
320,192,120807,1,0,0:0:0:0:
192,192,120893,1,0,0:0:0:0:
320,192,120979,1,0,0:0:0:0:
64,192,121064,1,0,0:0:0:0:
448,192,121064,1,2,0:0:0:0:
320,192,121236,1,0,0:0:0:0:
192,192,121321,1,0,0:0:0:0:
64,192,121407,1,2,0:0:0:0:
448,192,121407,1,0,0:0:0:0:
320,192,121407,128,0,121750:0:0:0:0:
192,192,121750,1,2,0:0:0:0:
64,192,121750,1,0,0:0:0:0:
448,192,121836,1,0,0:0:0:0:
320,192,121921,1,0,0:0:0:0:
192,192,122007,1,0,0:0:0:0:
448,192,122093,1,0,0:0:0:0:
64,192,122093,1,2,0:0:0:0:
320,192,122179,1,0,0:0:0:0:
192,192,122264,1,0,0:0:0:0:
64,192,122436,1,0,0:0:0:0:
448,192,122436,1,2,0:0:0:0:
320,192,122521,1,0,0:0:0:0:
64,192,122607,1,0,0:0:0:0:
192,192,122693,1,0,0:0:0:0:
320,192,122779,1,2,0:0:0:0:
448,192,122779,1,0,0:0:0:0:
192,192,122950,1,0,0:0:0:0:
320,192,123036,1,0,0:0:0:0:
448,192,123121,1,0,0:0:0:0:
64,192,123121,1,2,0:0:0:0:
320,192,123293,1,0,0:0:0:0:
192,192,123379,1,0,0:0:0:0:
64,192,123464,1,0,0:0:0:0:
448,192,123464,1,2,0:0:0:0:
320,192,123550,1,0,0:0:0:0:
192,192,123636,1,0,0:0:0:0:
448,192,123807,1,0,0:0:0:0:
64,192,123807,1,2,0:0:0:0:
192,192,123893,1,0,0:0:0:0:
320,192,123979,1,0,0:0:0:0:
448,192,124064,1,0,0:0:0:0:
64,192,124150,1,0,0:0:0:0:
192,192,124150,1,2,0:0:0:0:
320,192,124321,1,0,0:0:0:0:
192,192,124407,1,0,0:0:0:0:
320,192,124493,1,2,0:0:0:0:
448,192,124493,1,0,0:0:0:0:
64,192,124664,1,0,0:0:0:0:
192,192,124750,1,0,0:0:0:0:
320,192,124836,1,0,0:0:0:0:
448,192,124836,1,2,0:0:0:0:
192,192,124921,1,0,0:0:0:0:
64,192,125007,1,0,0:0:0:0:
448,192,125179,1,2,0:0:0:0:
320,192,125179,1,0,0:0:0:0:
192,192,125264,1,0,0:0:0:0:
448,192,125350,1,0,0:0:0:0:
320,192,125436,1,0,0:0:0:0:
64,192,125521,1,0,0:0:0:0:
192,192,125521,1,2,0:0:0:0:
320,192,125693,1,0,0:0:0:0:
192,192,125779,1,0,0:0:0:0:
448,192,125864,1,0,0:0:0:0:
64,192,125864,1,2,0:0:0:0:
320,192,125950,1,0,0:0:0:0:
192,192,126036,1,0,0:0:0:0:
64,192,126121,1,0,0:0:0:0:
192,192,126207,1,2,0:0:0:0:
448,192,126207,1,0,0:0:0:0:
320,192,126293,1,0,0:0:0:0:
64,192,126379,1,0,0:0:0:0:
192,192,126464,1,0,0:0:0:0:
320,192,126550,1,2,0:0:0:0:
448,192,126550,1,0,0:0:0:0:
64,192,126721,1,0,0:0:0:0:
448,192,126807,1,0,0:0:0:0:
320,192,126893,1,0,0:0:0:0:
192,192,126893,128,0,127236:0:0:0:0:
64,192,127236,1,2,0:0:0:0:
448,192,127236,1,4,0:0:0:0:
320,192,127236,1,0,0:0:0:0:
192,192,127321,1,0,0:0:0:0:
320,192,127407,1,0,0:0:0:0:
192,192,127493,1,0,0:0:0:0:
64,192,127579,1,0,0:0:0:0:
448,192,127579,1,2,0:0:0:0:
320,192,127664,1,0,0:0:0:0:
192,192,127750,1,0,0:0:0:0:
448,192,127921,1,0,0:0:0:0:
320,192,127921,1,2,0:0:0:0:
64,192,128007,1,0,0:0:0:0:
192,192,128093,1,0,0:0:0:0:
320,192,128179,1,0,0:0:0:0:
192,192,128264,1,0,0:0:0:0:
64,192,128264,1,2,0:0:0:0:
320,192,128436,1,0,0:0:0:0:
448,192,128607,1,0,0:0:0:0:
64,192,128607,1,2,0:0:0:0:
320,192,128693,1,0,0:0:0:0:
64,192,128779,1,0,0:0:0:0:
192,192,128821,1,0,0:0:0:0:
320,192,128864,1,0,0:0:0:0:
448,192,128907,1,0,0:0:0:0:
64,192,128950,1,2,0:0:0:0:
192,192,128950,1,0,0:0:0:0:
320,192,129036,1,0,0:0:0:0:
192,192,129121,1,0,0:0:0:0:
64,192,129207,1,0,0:0:0:0:
320,192,129293,1,0,0:0:0:0:
448,192,129293,1,2,0:0:0:0:
192,192,129464,1,0,0:0:0:0:
320,192,129550,1,0,0:0:0:0:
448,192,129636,1,2,0:0:0:0:
64,192,129636,1,0,0:0:0:0:
192,192,129636,128,0,129979:0:0:0:0:
320,192,129979,1,2,0:0:0:0:
448,192,129979,1,0,0:0:0:0:
64,192,130064,1,0,0:0:0:0:
448,192,130150,1,0,0:0:0:0:
320,192,130193,1,0,0:0:0:0:
192,192,130236,1,0,0:0:0:0:
64,192,130279,1,0,0:0:0:0:
448,192,130321,1,0,0:0:0:0:
320,192,130321,1,2,0:0:0:0:
192,192,130407,1,0,0:0:0:0:
320,192,130493,1,0,0:0:0:0:
192,192,130664,1,0,0:0:0:0:
64,192,130664,1,2,0:0:0:0:
448,192,130750,1,0,0:0:0:0:
320,192,130836,1,0,0:0:0:0:
192,192,130921,1,0,0:0:0:0:
64,192,131007,1,0,0:0:0:0:
448,192,131007,1,2,0:0:0:0:
320,192,131179,1,0,0:0:0:0:
448,192,131350,1,0,0:0:0:0:
192,192,131350,1,2,0:0:0:0:
64,192,131521,1,0,0:0:0:0:
192,192,131564,1,0,0:0:0:0:
320,192,131607,1,0,0:0:0:0:
448,192,131650,1,0,0:0:0:0:
192,192,131693,1,0,0:0:0:0:
64,192,131693,1,2,0:0:0:0:
320,192,131779,1,0,0:0:0:0:
192,192,131864,1,0,0:0:0:0:
320,192,131950,1,0,0:0:0:0:
64,192,132036,1,0,0:0:0:0:
448,192,132036,1,2,0:0:0:0:
320,192,132207,1,0,0:0:0:0:
192,192,132293,1,0,0:0:0:0:
320,192,132379,1,2,0:0:0:0:
448,192,132379,1,0,0:0:0:0:
64,192,132379,128,0,132721:0:0:0:0:
192,192,132721,1,2,0:0:0:0:
448,192,132721,1,0,0:0:0:0:
320,192,132807,1,0,0:0:0:0:
192,192,132893,1,0,0:0:0:0:
320,192,132979,1,0,0:0:0:0:
64,192,133064,1,0,0:0:0:0:
448,192,133064,1,2,0:0:0:0:
192,192,133150,1,0,0:0:0:0:
320,192,133236,1,0,0:0:0:0:
448,192,133407,1,0,0:0:0:0:
64,192,133407,1,2,0:0:0:0:
320,192,133493,1,0,0:0:0:0:
192,192,133579,1,0,0:0:0:0:
320,192,133750,1,2,0:0:0:0:
448,192,133750,1,0,0:0:0:0:
192,192,133921,1,0,0:0:0:0:
64,192,134093,1,0,0:0:0:0:
448,192,134093,1,2,0:0:0:0:
192,192,134179,1,0,0:0:0:0:
320,192,134264,1,0,0:0:0:0:
192,192,134350,1,0,0:0:0:0:
64,192,134436,1,0,0:0:0:0:
448,192,134436,1,2,0:0:0:0:
320,192,134521,1,0,0:0:0:0:
192,192,134607,1,0,0:0:0:0:
448,192,134779,1,0,0:0:0:0:
320,192,134779,1,2,0:0:0:0:
64,192,134864,1,0,0:0:0:0:
192,192,134950,1,0,0:0:0:0:
320,192,135036,1,0,0:0:0:0:
448,192,135121,1,2,0:0:0:0:
64,192,135121,1,0,0:0:0:0:
320,192,135293,1,0,0:0:0:0:
64,192,135379,1,0,0:0:0:0:
192,192,135464,1,2,0:0:0:0:
448,192,135464,1,0,0:0:0:0:
320,192,135550,1,0,0:0:0:0:
64,192,135636,1,0,0:0:0:0:
448,192,135636,1,2,0:0:0:0:
192,192,135721,1,0,0:0:0:0:
320,192,135807,1,2,0:0:0:0:
448,192,135807,1,0,0:0:0:0:
192,192,135893,1,0,0:0:0:0:
64,192,135979,1,2,0:0:0:0:
320,192,135979,1,0,0:0:0:0:
448,192,136064,1,0,0:0:0:0:
192,192,136150,1,0,0:0:0:0:
320,192,136150,1,2,0:0:0:0:
64,192,136236,1,0,0:0:0:0:
192,192,136321,1,2,0:0:0:0:
448,192,136321,1,0,0:0:0:0:
320,192,136407,1,0,0:0:0:0:
192,192,136493,1,2,0:0:0:0:
64,192,136493,1,0,0:0:0:0:
320,192,136579,1,0,0:0:0:0:
64,192,136664,1,2,0:0:0:0:
448,192,136664,1,0,0:0:0:0:
192,192,136750,1,0,0:0:0:0:
64,192,136836,1,0,0:0:0:0:
448,192,136836,1,0,0:0:0:0:
320,192,136879,1,0,0:0:0:0:
192,192,136921,1,0,0:0:0:0:
448,192,136964,1,0,0:0:0:0:
320,192,137007,1,0,0:0:0:0:
64,192,137050,1,0,0:0:0:0:
192,192,137093,1,0,0:0:0:0:
320,192,137136,1,0,0:0:0:0:
64,192,137179,1,0,0:0:0:0:
192,192,137221,1,0,0:0:0:0:
448,192,137264,1,0,0:0:0:0:
320,192,137307,1,0,0:0:0:0:
192,192,137350,1,0,0:0:0:0:
448,192,137393,1,0,0:0:0:0:
320,192,137436,1,0,0:0:0:0:
64,192,137479,1,0,0:0:0:0:
192,192,137521,1,0,0:0:0:0:
320,192,137564,1,0,0:0:0:0:
64,192,137607,1,0,0:0:0:0:
192,192,137650,1,0,0:0:0:0:
448,192,137693,1,0,0:0:0:0:
320,192,137736,1,0,0:0:0:0:
64,192,137779,1,0,0:0:0:0:
192,192,137821,1,0,0:0:0:0:
448,192,137864,1,8,0:0:0:0:
320,192,137864,1,0,0:0:0:0:
192,192,138207,128,0,138379:0:0:0:0:
64,192,138207,1,2,0:0:0:0:
448,192,138207,1,4,0:0:0:0:
320,192,138379,128,0,138550:0:0:0:0:
64,192,138379,1,0,0:0:0:0:
448,192,138550,128,0,138721:0:0:0:0:
192,192,138550,1,2,0:0:0:0:
320,192,138721,128,0,138893:0:0:0:0:
64,192,138721,1,0,0:0:0:0:
192,192,138893,128,0,139064:0:0:0:0:
448,192,138893,1,2,0:0:0:0:
64,192,139064,128,0,139236:0:0:0:0:
320,192,139064,1,0,0:0:0:0:
448,192,139236,128,0,139407:0:0:0:0:
192,192,139236,1,2,0:0:0:0:
320,192,139407,128,0,139493:0:0:0:0:
64,192,139407,1,0,0:0:0:0:
192,192,139493,128,0,139579:0:0:0:0:
64,192,139579,128,0,139921:0:0:0:0:
448,192,139579,1,2,0:0:0:0:
320,192,139750,1,0,0:0:0:0:
448,192,139921,128,0,140264:0:0:0:0:
192,192,139921,1,2,0:0:0:0:
320,192,140093,1,0,0:0:0:0:
192,192,140264,128,0,140607:0:0:0:0:
64,192,140264,1,2,0:0:0:0:
448,192,140436,1,0,0:0:0:0:
320,192,140607,128,0,140950:0:0:0:0:
64,192,140607,1,2,0:0:0:0:
448,192,140779,1,0,0:0:0:0:
64,192,140950,128,0,141121:0:0:0:0:
192,192,140950,1,2,0:0:0:0:
192,192,141121,128,0,141293:0:0:0:0:
448,192,141121,1,0,0:0:0:0:
320,192,141293,128,0,141464:0:0:0:0:
64,192,141293,1,2,0:0:0:0:
448,192,141464,128,0,141636:0:0:0:0:
192,192,141464,1,0,0:0:0:0:
320,192,141636,128,0,141807:0:0:0:0:
64,192,141636,1,2,0:0:0:0:
192,192,141807,128,0,141979:0:0:0:0:
448,192,141807,1,0,0:0:0:0:
64,192,141979,128,0,142150:0:0:0:0:
320,192,141979,1,2,0:0:0:0:
320,192,142150,128,0,142321:0:0:0:0:
448,192,142150,1,0,0:0:0:0:
192,192,142321,128,0,142664:0:0:0:0:
64,192,142321,1,2,0:0:0:0:
448,192,142493,1,0,0:0:0:0:
320,192,142664,128,0,143007:0:0:0:0:
64,192,142664,1,2,0:0:0:0:
192,192,142836,1,0,0:0:0:0:
448,192,143007,128,0,143350:0:0:0:0:
64,192,143007,1,2,0:0:0:0:
320,192,143179,1,0,0:0:0:0:
192,192,143350,1,2,0:0:0:0:
64,192,143521,128,0,143607:0:0:0:0:
320,192,143521,1,0,0:0:0:0:
192,192,143607,128,0,143693:0:0:0:0:
320,192,143693,128,0,143864:0:0:0:0:
448,192,143693,1,2,0:0:0:0:
448,192,143864,128,0,144036:0:0:0:0:
64,192,143864,1,0,0:0:0:0:
64,192,144036,128,0,144207:0:0:0:0:
192,192,144036,1,2,0:0:0:0:
320,192,144207,128,0,144379:0:0:0:0:
448,192,144207,1,0,0:0:0:0:
192,192,144379,128,0,144550:0:0:0:0:
64,192,144379,1,2,0:0:0:0:
448,192,144550,128,0,144721:0:0:0:0:
320,192,144550,1,0,0:0:0:0:
320,192,144721,128,0,144893:0:0:0:0:
64,192,144721,1,2,0:0:0:0:
192,192,144893,128,0,145064:0:0:0:0:
448,192,144893,1,0,0:0:0:0:
64,192,145064,128,0,145236:0:0:0:0:
320,192,145064,1,2,0:0:0:0:
448,192,145236,128,0,145407:0:0:0:0:
192,192,145236,1,0,0:0:0:0:
192,192,145407,128,0,145579:0:0:0:0:
320,192,145407,1,2,0:0:0:0:
320,192,145579,128,0,145750:0:0:0:0:
64,192,145579,1,0,0:0:0:0:
64,192,145750,128,0,146093:0:0:0:0:
448,192,145750,1,2,0:0:0:0:
320,192,145921,1,0,0:0:0:0:
192,192,146093,128,0,146436:0:0:0:0:
448,192,146093,1,2,0:0:0:0:
64,192,146264,1,0,0:0:0:0:
320,192,146436,1,2,0:0:0:0:
448,192,146436,1,0,0:0:0:0:
64,192,146521,1,0,0:0:0:0:
192,192,146521,1,2,0:0:0:0:
320,192,146607,1,2,0:0:0:0:
448,192,146607,1,0,0:0:0:0:
192,192,146693,1,2,0:0:0:0:
64,192,146693,1,0,0:0:0:0:
320,192,146779,1,2,0:0:0:0:
448,192,146779,1,0,0:0:0:0:
192,192,146864,1,2,0:0:0:0:
64,192,146864,1,0,0:0:0:0:
320,192,146950,1,2,0:0:0:0:
448,192,146950,1,0,0:0:0:0:
192,192,147036,1,2,0:0:0:0:
64,192,147036,1,0,0:0:0:0:
320,192,147121,1,2,0:0:0:0:
448,192,147121,1,0,0:0:0:0:
64,192,147164,1,0,0:0:0:0:
192,192,147207,1,0,0:0:0:0:
448,192,147250,1,0,0:0:0:0:
320,192,147293,1,0,0:0:0:0:
192,192,147336,1,0,0:0:0:0:
64,192,147379,1,0,0:0:0:0:
448,192,147421,1,0,0:0:0:0:
320,192,147464,1,0,0:0:0:0:
64,192,147507,1,0,0:0:0:0:
192,192,147550,1,0,0:0:0:0:
448,192,147593,1,0,0:0:0:0:
320,192,147636,1,0,0:0:0:0:
64,192,147679,1,0,0:0:0:0:
192,192,147721,1,0,0:0:0:0:
320,192,147764,1,0,0:0:0:0:
64,192,147807,1,0,0:0:0:0:
448,192,147807,128,0,147979:0:0:0:0:
320,192,147979,128,0,148150:0:0:0:0:
192,192,148150,128,0,148321:0:0:0:0:
64,192,148321,128,0,148493:0:0:0:0:
320,192,148493,128,0,149179:0:0:0:0:
448,192,149179,1,0,0:0:0:0:
64,192,149179,1,4,0:0:0:0:
320,192,149350,1,0,0:0:0:0:
192,192,149521,1,0,0:0:0:0:
64,192,149693,1,0,0:0:0:0:
448,192,149864,1,0,0:0:0:0:
320,192,150036,1,0,0:0:0:0:
192,192,150207,1,0,0:0:0:0:
64,192,150379,1,0,0:0:0:0:
320,192,150550,1,2,0:0:0:0:
448,192,150550,1,0,0:0:0:0:
192,192,150721,1,0,0:0:0:0:
320,192,150893,1,0,0:0:0:0:
448,192,151064,1,0,0:0:0:0:
320,192,151236,1,0,0:0:0:0:
192,192,151407,1,0,0:0:0:0:
64,192,151579,1,0,0:0:0:0:
192,192,151750,1,0,0:0:0:0:
64,192,151921,1,4,0:0:0:0:
448,192,151921,1,8,0:0:0:0:
320,192,152093,1,0,0:0:0:0:
320,192,152264,1,0,0:0:0:0:
320,192,152436,1,0,0:0:0:0:
448,192,152607,1,0,0:0:0:0:
64,192,152607,1,0,0:0:0:0:
192,192,152607,1,8,0:0:0:0:
64,192,152779,1,0,0:0:0:0:
64,192,152950,1,0,0:0:0:0:
64,192,153121,1,0,0:0:0:0:
448,192,153293,1,0,0:0:0:0:
192,192,153293,1,2,0:0:0:0:
448,192,153464,1,0,0:0:0:0:
64,192,153636,1,2,0:0:0:0:
192,192,153636,1,0,0:0:0:0:
192,192,153807,1,0,0:0:0:0:
320,192,153979,1,8,0:0:0:0:
64,192,153979,1,0,0:0:0:0:
448,192,153979,1,0,0:0:0:0:
64,192,154150,1,0,0:0:0:0:
64,192,154321,1,0,0:0:0:0:
64,192,154493,1,0,0:0:0:0:
192,192,154664,1,2,0:0:0:0:
320,192,154664,1,0,0:0:0:0:
320,192,154836,1,0,0:0:0:0:
320,192,155007,1,0,0:0:0:0:
320,192,155179,1,0,0:0:0:0:
64,192,155350,1,0,0:0:0:0:
192,192,155350,1,0,0:0:0:0:
448,192,155350,1,8,0:0:0:0:
448,192,155521,1,0,0:0:0:0:
192,192,155693,1,0,0:0:0:0:
320,192,155693,1,2,0:0:0:0:
192,192,155864,1,0,0:0:0:0:
320,192,156036,1,0,0:0:0:0:
64,192,156036,1,2,0:0:0:0:
320,192,156207,1,0,0:0:0:0:
320,192,156379,1,0,0:0:0:0:
320,192,156550,1,0,0:0:0:0:
192,192,156721,1,8,0:0:0:0:
448,192,156721,1,0,0:0:0:0:
64,192,156721,1,0,0:0:0:0:
448,192,156893,1,0,0:0:0:0:
448,192,157064,1,0,0:0:0:0:
448,192,157236,1,0,0:0:0:0:
320,192,157407,1,2,0:0:0:0:
64,192,157407,1,0,0:0:0:0:
64,192,157579,1,0,0:0:0:0:
64,192,157750,1,0,0:0:0:0:
64,192,157921,1,0,0:0:0:0:
320,192,158093,1,8,0:0:0:0:
192,192,158093,1,0,0:0:0:0:
448,192,158093,1,0,0:0:0:0:
192,192,158264,1,0,0:0:0:0:
192,192,158436,1,0,0:0:0:0:
448,192,158607,1,2,0:0:0:0:
64,192,158607,1,0,0:0:0:0:
448,192,158779,1,0,0:0:0:0:
320,192,158779,1,2,0:0:0:0:
320,192,158950,1,0,0:0:0:0:
192,192,159121,1,2,0:0:0:0:
448,192,159121,1,0,0:0:0:0:
192,192,159293,1,0,0:0:0:0:
448,192,159464,1,0,0:0:0:0:
320,192,159464,1,8,0:0:0:0:
64,192,159464,1,0,0:0:0:0:
192,192,159636,1,0,0:0:0:0:
192,192,159807,1,0,0:0:0:0:
64,192,159979,1,2,0:0:0:0:
448,192,159979,1,0,0:0:0:0:
320,192,160150,1,2,0:0:0:0:
192,192,160150,1,0,0:0:0:0:
320,192,160321,1,0,0:0:0:0:
320,192,160493,1,0,0:0:0:0:
320,192,160664,1,0,0:0:0:0:
448,192,160836,1,0,0:0:0:0:
64,192,160836,1,0,0:0:0:0:
192,192,160836,1,8,0:0:0:0:
64,192,161007,1,0,0:0:0:0:
192,192,161179,1,0,0:0:0:0:
320,192,161179,1,2,0:0:0:0:
192,192,161350,1,0,0:0:0:0:
448,192,161521,1,0,0:0:0:0:
320,192,161521,1,2,0:0:0:0:
448,192,161693,1,0,0:0:0:0:
448,192,161864,1,0,0:0:0:0:
320,192,162036,1,2,0:0:0:0:
64,192,162036,1,0,0:0:0:0:
192,192,162207,1,8,0:0:0:0:
64,192,162207,1,0,0:0:0:0:
448,192,162207,1,0,0:0:0:0:
192,192,162379,1,0,0:0:0:0:
192,192,162550,1,0,0:0:0:0:
192,192,162721,1,0,0:0:0:0:
448,192,162893,1,2,0:0:0:0:
64,192,162893,1,0,0:0:0:0:
192,192,162979,1,0,0:0:0:0:
320,192,163064,1,0,0:0:0:0:
64,192,163150,1,0,0:0:0:0:
320,192,163236,1,2,0:0:0:0:
448,192,163236,1,0,0:0:0:0:
192,192,163321,1,0,0:0:0:0:
64,192,163407,1,0,0:0:0:0:
448,192,163493,1,0,0:0:0:0:
64,192,163579,1,2,0:0:0:0:
192,192,163579,1,0,0:0:0:0:
320,192,163664,1,0,0:0:0:0:
64,192,163750,1,0,0:0:0:0:
448,192,163836,1,0,0:0:0:0:
192,192,163921,1,2,0:0:0:0:
64,192,163921,1,0,0:0:0:0:
320,192,164007,1,0,0:0:0:0:
64,192,164093,1,0,0:0:0:0:
192,192,164179,1,0,0:0:0:0:
448,192,164264,1,0,0:0:0:0:
320,192,164264,1,2,0:0:0:0:
64,192,164350,1,0,0:0:0:0:
320,192,164436,1,0,0:0:0:0:
192,192,164521,1,0,0:0:0:0:
64,192,164607,1,0,0:0:0:0:
448,192,164607,1,2,0:0:0:0:
320,192,164693,1,0,0:0:0:0:
192,192,164779,1,0,0:0:0:0:
64,192,164864,1,0,0:0:0:0:
448,192,164950,1,0,0:0:0:0:
320,192,164950,1,2,0:0:0:0:
192,192,165036,1,0,0:0:0:0:
320,192,165121,1,0,0:0:0:0:
192,192,165207,1,0,0:0:0:0:
64,192,165293,1,2,0:0:0:0:
448,192,165293,1,0,0:0:0:0:
320,192,165379,1,0,0:0:0:0:
192,192,165464,1,0,0:0:0:0:
320,192,165550,1,0,0:0:0:0:
192,192,165636,1,2,0:0:0:0:
64,192,165636,1,0,0:0:0:0:
448,192,165721,1,0,0:0:0:0:
320,192,165807,1,0,0:0:0:0:
192,192,165893,1,0,0:0:0:0:
448,192,165979,1,2,0:0:0:0:
64,192,165979,1,0,0:0:0:0:
320,192,166064,1,0,0:0:0:0:
64,192,166150,1,0,0:0:0:0:
192,192,166236,1,0,0:0:0:0:
320,192,166321,1,2,0:0:0:0:
448,192,166321,1,0,0:0:0:0:
192,192,166407,1,0,0:0:0:0:
64,192,166493,1,0,0:0:0:0:
448,192,166579,1,0,0:0:0:0:
192,192,166664,1,0,0:0:0:0:
320,192,166664,1,2,0:0:0:0:
64,192,166750,1,0,0:0:0:0:
192,192,166836,1,0,0:0:0:0:
320,192,166921,1,0,0:0:0:0:
64,192,167007,1,2,0:0:0:0:
192,192,167007,1,0,0:0:0:0:
448,192,167093,1,0,0:0:0:0:
320,192,167179,1,0,0:0:0:0:
192,192,167264,1,0,0:0:0:0:
448,192,167350,1,0,0:0:0:0:
320,192,167350,1,2,0:0:0:0:
64,192,167436,1,0,0:0:0:0:
192,192,167521,1,0,0:0:0:0:
320,192,167607,1,0,0:0:0:0:
192,192,167693,1,2,0:0:0:0:
448,192,167693,1,0,0:0:0:0:
64,192,167779,1,0,0:0:0:0:
320,192,167864,1,0,0:0:0:0:
192,192,167950,1,0,0:0:0:0:
448,192,168036,1,2,0:0:0:0:
320,192,168036,1,0,0:0:0:0:
320,192,168207,1,2,0:0:0:0:
448,192,168207,1,0,0:0:0:0:
192,192,168379,1,4,0:0:0:0:
320,192,168379,1,0,0:0:0:0:
64,192,168379,1,8,0:0:0:0:
448,192,168464,1,0,0:0:0:0:
192,192,168550,1,0,0:0:0:0:
320,192,168636,1,0,0:0:0:0:
64,192,168721,1,0,0:0:0:0:
448,192,168721,1,2,0:0:0:0:
192,192,168807,1,0,0:0:0:0:
320,192,168893,1,0,0:0:0:0:
192,192,168979,1,0,0:0:0:0:
64,192,169064,1,2,0:0:0:0:
448,192,169064,1,0,0:0:0:0:
320,192,169150,1,0,0:0:0:0:
192,192,169236,1,0,0:0:0:0:
320,192,169321,1,0,0:0:0:0:
64,192,169407,1,0,0:0:0:0:
448,192,169407,1,2,0:0:0:0:
64,192,169579,1,0,0:0:0:0:
320,192,169579,1,8,0:0:0:0:
192,192,169579,1,4,0:0:0:0:
448,192,169921,1,0,0:0:0:0:
64,192,169921,1,0,0:0:0:0:
320,192,170007,1,0,0:0:0:0:
192,192,170093,1,2,0:0:0:0:
64,192,170093,1,0,0:0:0:0:
448,192,170179,1,0,0:0:0:0:
320,192,170264,1,0,0:0:0:0:
64,192,170264,1,0,0:0:0:0:
192,192,170350,1,0,0:0:0:0:
448,192,170436,1,2,0:0:0:0:
64,192,170436,1,0,0:0:0:0:
320,192,170521,1,0,0:0:0:0:
192,192,170607,1,0,0:0:0:0:
448,192,170607,1,0,0:0:0:0:
64,192,170693,1,0,0:0:0:0:
320,192,170779,1,2,0:0:0:0:
448,192,170779,1,0,0:0:0:0:
320,192,170950,1,2,0:0:0:0:
192,192,170950,1,0,0:0:0:0:
448,192,171121,1,2,0:0:0:0:
192,192,171121,1,4,0:0:0:0:
64,192,171121,1,0,0:0:0:0:
320,192,171293,1,2,0:0:0:0:
448,192,171293,1,0,0:0:0:0:
64,192,171379,1,0,0:0:0:0:
192,192,171379,1,2,0:0:0:0:
448,192,171464,1,0,0:0:0:0:
320,192,171464,1,2,0:0:0:0:
64,192,171550,1,0,0:0:0:0:
192,192,171550,1,2,0:0:0:0:
320,192,171636,1,4,0:0:0:0:
448,192,171636,1,0,0:0:0:0:
64,192,171636,1,2,0:0:0:0:
192,192,171979,1,0,0:0:0:0:
64,192,171979,1,4,0:0:0:0:
320,192,171979,1,2,0:0:0:0:
192,192,172321,1,2,0:0:0:0:
320,192,172321,1,0,0:0:0:0:
448,192,172321,1,4,0:0:0:0:
64,192,172664,1,0,0:0:0:0:
320,192,172664,1,2,0:0:0:0:
192,192,172750,1,2,0:0:0:0:
448,192,172750,1,0,0:0:0:0:
64,192,172836,1,0,0:0:0:0:
320,192,172836,1,2,0:0:0:0:
448,192,172921,1,0,0:0:0:0:
192,192,172921,1,2,0:0:0:0:
64,192,173007,1,0,0:0:0:0:
448,192,173007,1,2,0:0:0:0:
320,192,173007,1,4,0:0:0:0:
192,192,173179,1,0,0:0:0:0:
448,192,173179,1,2,0:0:0:0:
320,192,173264,1,0,0:0:0:0:
64,192,173264,1,2,0:0:0:0:
448,192,173350,1,2,0:0:0:0:
192,192,173350,1,0,0:0:0:0:
64,192,173436,1,0,0:0:0:0:
320,192,173436,1,2,0:0:0:0:
192,192,173521,1,0,0:0:0:0:
448,192,173521,1,8,0:0:0:0:
64,192,173521,1,0,0:0:0:0:
320,192,173864,1,2,0:0:0:0:
64,192,173864,1,0,0:0:0:0:
192,192,173864,1,0,0:0:0:0:
320,192,174121,1,0,0:0:0:0:
64,192,174207,1,0,0:0:0:0:
448,192,174207,1,2,0:0:0:0:
192,192,174207,1,0,0:0:0:0:
192,192,174379,1,0,0:0:0:0:
448,192,174550,1,0,0:0:0:0:
320,192,174550,1,0,0:0:0:0:
64,192,174550,1,2,0:0:0:0:
192,192,174721,1,0,0:0:0:0:
448,192,174721,128,0,174893:0:0:0:0:
64,192,174893,1,2,0:0:0:0:
320,192,174893,128,0,175064:0:0:0:0:
448,192,175064,1,0,0:0:0:0:
192,192,175064,128,0,175236:0:0:0:0:
320,192,175236,1,2,0:0:0:0:
64,192,175236,1,0,0:0:0:0:
448,192,175493,1,0,0:0:0:0:
320,192,175579,1,0,0:0:0:0:
192,192,175579,1,2,0:0:0:0:
64,192,175579,1,0,0:0:0:0:
320,192,175750,1,0,0:0:0:0:
64,192,175921,1,0,0:0:0:0:
448,192,175921,1,2,0:0:0:0:
192,192,175921,1,0,0:0:0:0:
64,192,176093,1,0,0:0:0:0:
320,192,176093,128,0,176264:0:0:0:0:
448,192,176264,1,2,0:0:0:0:
192,192,176264,128,0,176436:0:0:0:0:
320,192,176436,1,0,0:0:0:0:
64,192,176436,128,0,176607:0:0:0:0:
448,192,176607,1,2,0:0:0:0:
192,192,176607,1,0,0:0:0:0:
64,192,176864,1,0,0:0:0:0:
320,192,176950,1,0,0:0:0:0:
192,192,176950,1,2,0:0:0:0:
448,192,176950,1,0,0:0:0:0:
320,192,177121,1,0,0:0:0:0:
64,192,177293,1,0,0:0:0:0:
192,192,177293,1,0,0:0:0:0:
448,192,177293,1,2,0:0:0:0:
320,192,177464,1,0,0:0:0:0:
64,192,177464,128,0,177636:0:0:0:0:
448,192,177636,1,2,0:0:0:0:
192,192,177636,128,0,177807:0:0:0:0:
64,192,177807,1,0,0:0:0:0:
320,192,177807,128,0,177979:0:0:0:0:
192,192,177979,1,2,0:0:0:0:
448,192,177979,1,0,0:0:0:0:
192,192,178236,1,0,0:0:0:0:
320,192,178321,1,2,0:0:0:0:
64,192,178321,1,0,0:0:0:0:
448,192,178321,1,0,0:0:0:0:
448,192,178493,1,0,0:0:0:0:
64,192,178664,1,0,0:0:0:0:
320,192,178664,1,0,0:0:0:0:
192,192,178664,1,0,0:0:0:0:
192,192,179007,1,0,0:0:0:0:
448,192,179007,1,0,0:0:0:0:
320,192,179007,1,0,0:0:0:0:
448,192,179350,1,2,0:0:0:0:
320,192,179350,1,4,0:0:0:0:
64,192,179350,1,0,0:0:0:0:
320,192,179521,1,2,0:0:0:0:
192,192,179521,1,0,0:0:0:0:
64,192,179693,1,0,0:0:0:0:
448,192,179693,1,2,0:0:0:0:
64,192,179864,1,0,0:0:0:0:
192,192,179864,1,2,0:0:0:0:
320,192,180036,1,4,0:0:0:0:
448,192,180036,1,0,0:0:0:0:
192,192,180036,1,2,0:0:0:0:
320,192,180207,1,2,0:0:0:0:
64,192,180207,1,0,0:0:0:0:
64,192,180379,1,0,0:0:0:0:
448,192,180379,1,2,0:0:0:0:
192,192,180550,1,2,0:0:0:0:
448,192,180550,1,0,0:0:0:0:
192,192,180721,1,2,0:0:0:0:
320,192,180721,1,4,0:0:0:0:
64,192,180721,1,0,0:0:0:0:
320,192,180893,1,2,0:0:0:0:
448,192,180893,1,0,0:0:0:0:
64,192,181064,1,0,0:0:0:0:
448,192,181064,1,2,0:0:0:0:
320,192,181236,1,0,0:0:0:0:
64,192,181236,1,2,0:0:0:0:
320,192,181407,1,2,0:0:0:0:
192,192,181407,1,4,0:0:0:0:
448,192,181407,1,0,0:0:0:0:
64,192,181579,1,2,0:0:0:0:
448,192,181579,1,0,0:0:0:0:
320,192,181750,1,2,0:0:0:0:
64,192,181750,1,0,0:0:0:0:
192,192,181921,1,2,0:0:0:0:
320,192,181921,1,0,0:0:0:0:
448,192,182093,1,0,0:0:0:0:
64,192,182093,1,0,0:0:0:0:
192,192,182136,1,0,0:0:0:0:
320,192,182179,1,0,0:0:0:0:
448,192,182221,1,0,0:0:0:0:
64,192,182264,1,0,0:0:0:0:
192,192,182307,1,0,0:0:0:0:
448,192,182350,1,0,0:0:0:0:
320,192,182393,1,0,0:0:0:0:
192,192,182436,1,0,0:0:0:0:
64,192,182479,1,0,0:0:0:0:
448,192,182521,1,0,0:0:0:0:
320,192,182564,1,0,0:0:0:0:
64,192,182607,1,0,0:0:0:0:
192,192,182650,1,0,0:0:0:0:
320,192,182693,1,0,0:0:0:0:
448,192,182736,1,0,0:0:0:0:
64,192,182779,1,0,0:0:0:0:
192,192,182821,1,0,0:0:0:0:
448,192,182864,1,0,0:0:0:0:
320,192,182907,1,0,0:0:0:0:
192,192,182950,1,0,0:0:0:0:
64,192,182993,1,0,0:0:0:0:
448,192,183036,1,0,0:0:0:0:
320,192,183079,1,0,0:0:0:0:
64,192,183121,1,0,0:0:0:0:
192,192,183164,1,0,0:0:0:0:
320,192,183207,1,0,0:0:0:0:
448,192,183250,1,0,0:0:0:0:
64,192,183293,1,0,0:0:0:0:
192,192,183336,1,0,0:0:0:0:
448,192,183379,1,0,0:0:0:0:
320,192,183421,1,0,0:0:0:0:
64,192,183464,1,0,0:0:0:0:
192,192,183464,1,0,0:0:0:0:
320,192,183807,1,0,0:0:0:0:
192,192,183807,1,0,0:0:0:0:
64,192,184150,1,0,0:0:0:0:
448,192,184150,1,0,0:0:0:0:
192,192,184207,1,0,0:0:0:0:
320,192,184264,1,0,0:0:0:0:
448,192,184321,1,0,0:0:0:0:
64,192,184379,1,0,0:0:0:0:
192,192,184436,1,0,0:0:0:0:
320,192,184493,1,0,0:0:0:0:
448,192,184493,1,0,0:0:0:0:
192,192,184550,1,0,0:0:0:0:
64,192,184600,1,0,0:0:0:0:
448,192,184664,1,0,0:0:0:0:
320,192,184721,1,0,0:0:0:0:
192,192,184771,1,0,0:0:0:0:
448,192,184836,1,4,0:0:0:0:
64,192,184836,1,2,0:0:0:0:
320,192,184836,1,0,0:0:0:0:
192,192,184921,1,0,0:0:0:0:
320,192,185007,1,0,0:0:0:0:
64,192,185093,1,0,0:0:0:0:
448,192,185179,1,0,0:0:0:0:
192,192,185179,1,2,0:0:0:0:
320,192,185264,1,0,0:0:0:0:
192,192,185350,1,0,0:0:0:0:
64,192,185521,1,2,0:0:0:0:
448,192,185521,1,0,0:0:0:0:
320,192,185607,1,0,0:0:0:0:
192,192,185693,1,0,0:0:0:0:
64,192,185779,1,0,0:0:0:0:
320,192,185864,1,2,0:0:0:0:
448,192,185864,1,0,0:0:0:0:
192,192,186036,1,0,0:0:0:0:
448,192,186207,1,0,0:0:0:0:
64,192,186207,1,2,0:0:0:0:
320,192,186293,1,0,0:0:0:0:
64,192,186379,1,0,0:0:0:0:
192,192,186421,1,0,0:0:0:0:
320,192,186464,1,0,0:0:0:0:
448,192,186507,1,0,0:0:0:0:
64,192,186550,1,0,0:0:0:0:
192,192,186550,1,2,0:0:0:0:
320,192,186636,1,0,0:0:0:0:
192,192,186721,1,0,0:0:0:0:
64,192,186807,1,0,0:0:0:0:
448,192,186893,1,0,0:0:0:0:
320,192,186893,1,2,0:0:0:0:
192,192,187064,1,0,0:0:0:0:
320,192,187150,1,0,0:0:0:0:
64,192,187236,1,2,0:0:0:0:
448,192,187236,1,0,0:0:0:0:
192,192,187236,128,0,187579:0:0:0:0:
320,192,187579,1,2,0:0:0:0:
448,192,187579,1,0,0:0:0:0:
64,192,187664,1,0,0:0:0:0:
448,192,187750,1,0,0:0:0:0:
320,192,187793,1,0,0:0:0:0:
192,192,187836,1,0,0:0:0:0:
64,192,187879,1,0,0:0:0:0:
448,192,187921,1,0,0:0:0:0:
320,192,187921,1,2,0:0:0:0:
192,192,188007,1,0,0:0:0:0:
448,192,188093,1,0,0:0:0:0:
320,192,188264,1,0,0:0:0:0:
64,192,188264,1,2,0:0:0:0:
448,192,188350,1,0,0:0:0:0:
192,192,188436,1,0,0:0:0:0:
320,192,188521,1,0,0:0:0:0:
448,192,188607,1,2,0:0:0:0:
64,192,188607,1,0,0:0:0:0:
192,192,188779,1,0,0:0:0:0:
64,192,188950,1,2,0:0:0:0:
448,192,188950,1,0,0:0:0:0:
320,192,189036,1,0,0:0:0:0:
64,192,189121,1,0,0:0:0:0:
192,192,189164,1,0,0:0:0:0:
320,192,189207,1,0,0:0:0:0:
448,192,189250,1,0,0:0:0:0:
64,192,189293,1,0,0:0:0:0:
192,192,189293,1,2,0:0:0:0:
320,192,189379,1,0,0:0:0:0:
448,192,189464,1,0,0:0:0:0:
64,192,189550,1,0,0:0:0:0:
320,192,189636,1,0,0:0:0:0:
448,192,189636,1,2,0:0:0:0:
192,192,189807,1,0,0:0:0:0:
320,192,189893,1,0,0:0:0:0:
64,192,189979,1,0,0:0:0:0:
192,192,189979,1,2,0:0:0:0:
448,192,189979,128,0,190321:0:0:0:0:
320,192,190321,1,2,0:0:0:0:
64,192,190321,1,0,0:0:0:0:
192,192,190407,1,0,0:0:0:0:
64,192,190493,1,0,0:0:0:0:
448,192,190579,1,0,0:0:0:0:
192,192,190664,1,2,0:0:0:0:
320,192,190664,1,0,0:0:0:0:
64,192,190750,1,0,0:0:0:0:
192,192,190836,1,0,0:0:0:0:
448,192,191007,1,2,0:0:0:0:
64,192,191007,1,0,0:0:0:0:
320,192,191093,1,0,0:0:0:0:
192,192,191179,1,0,0:0:0:0:
64,192,191264,1,0,0:0:0:0:
448,192,191350,1,0,0:0:0:0:
320,192,191350,1,2,0:0:0:0:
192,192,191521,1,0,0:0:0:0:
320,192,191607,1,0,0:0:0:0:
64,192,191693,1,2,0:0:0:0:
448,192,191693,1,0,0:0:0:0:
320,192,191864,1,0,0:0:0:0:
192,192,191950,1,0,0:0:0:0:
64,192,192036,1,0,0:0:0:0:
448,192,192036,1,2,0:0:0:0:
320,192,192121,1,0,0:0:0:0:
192,192,192207,1,0,0:0:0:0:
448,192,192379,1,0,0:0:0:0:
320,192,192379,1,2,0:0:0:0:
64,192,192464,1,0,0:0:0:0:
192,192,192550,1,0,0:0:0:0:
320,192,192636,1,0,0:0:0:0:
64,192,192721,1,0,0:0:0:0:
448,192,192721,1,2,0:0:0:0:
320,192,192893,1,0,0:0:0:0:
192,192,192979,1,0,0:0:0:0:
320,192,193064,1,2,0:0:0:0:
448,192,193064,1,0,0:0:0:0:
64,192,193236,1,0,0:0:0:0:
192,192,193321,1,0,0:0:0:0:
320,192,193407,1,2,0:0:0:0:
448,192,193407,1,0,0:0:0:0:
192,192,193493,1,0,0:0:0:0:
64,192,193579,1,0,0:0:0:0:
192,192,193750,1,0,0:0:0:0:
448,192,193750,1,2,0:0:0:0:
320,192,193836,1,0,0:0:0:0:
64,192,193921,1,0,0:0:0:0:
192,192,194007,1,0,0:0:0:0:
64,192,194093,1,0,0:0:0:0:
448,192,194093,1,2,0:0:0:0:
192,192,194264,1,0,0:0:0:0:
320,192,194350,1,0,0:0:0:0:
448,192,194436,1,0,0:0:0:0:
192,192,194436,1,2,0:0:0:0:
64,192,194607,1,0,0:0:0:0:
192,192,194693,1,0,0:0:0:0:
64,192,194779,1,0,0:0:0:0:
448,192,194779,1,2,0:0:0:0:
320,192,194864,1,0,0:0:0:0:
192,192,194950,1,0,0:0:0:0:
320,192,195036,1,0,0:0:0:0:
448,192,195121,1,0,0:0:0:0:
64,192,195121,1,2,0:0:0:0:
320,192,195293,1,0,0:0:0:0:
192,192,195379,1,0,0:0:0:0:
64,192,195464,1,0,0:0:0:0:
448,192,195464,128,0,195807:0:0:0:0:
64,192,195807,1,2,0:0:0:0:
320,192,195807,1,4,0:0:0:0:
192,192,195807,1,0,0:0:0:0:
448,192,195893,1,0,0:0:0:0:
320,192,195979,1,0,0:0:0:0:
192,192,196064,1,0,0:0:0:0:
448,192,196150,1,0,0:0:0:0:
64,192,196150,1,2,0:0:0:0:
320,192,196236,1,0,0:0:0:0:
192,192,196321,1,0,0:0:0:0:
320,192,196493,1,2,0:0:0:0:
64,192,196493,1,0,0:0:0:0:
192,192,196579,1,0,0:0:0:0:
448,192,196664,1,0,0:0:0:0:
320,192,196750,1,0,0:0:0:0:
64,192,196836,1,0,0:0:0:0:
192,192,196836,1,2,0:0:0:0:
448,192,197007,1,0,0:0:0:0:
192,192,197179,1,2,0:0:0:0:
320,192,197179,1,0,0:0:0:0:
448,192,197264,1,0,0:0:0:0:
64,192,197350,1,0,0:0:0:0:
192,192,197393,1,0,0:0:0:0:
320,192,197436,1,0,0:0:0:0:
448,192,197479,1,0,0:0:0:0:
64,192,197521,1,0,0:0:0:0:
192,192,197521,1,2,0:0:0:0:
320,192,197607,1,0,0:0:0:0:
192,192,197693,1,0,0:0:0:0:
64,192,197779,1,0,0:0:0:0:
320,192,197864,1,2,0:0:0:0:
448,192,197864,1,0,0:0:0:0:
192,192,198036,1,0,0:0:0:0:
448,192,198207,1,2,0:0:0:0:
64,192,198207,1,0,0:0:0:0:
320,192,198207,128,0,198550:0:0:0:0:
192,192,198550,1,2,0:0:0:0:
448,192,198550,1,0,0:0:0:0:
64,192,198636,1,0,0:0:0:0:
448,192,198721,1,0,0:0:0:0:
320,192,198764,1,0,0:0:0:0:
192,192,198807,1,0,0:0:0:0:
64,192,198850,1,0,0:0:0:0:
320,192,198893,1,2,0:0:0:0:
448,192,198893,1,0,0:0:0:0:
192,192,198979,1,0,0:0:0:0:
320,192,199064,1,0,0:0:0:0:
192,192,199236,1,0,0:0:0:0:
64,192,199236,1,2,0:0:0:0:
448,192,199321,1,0,0:0:0:0:
320,192,199407,1,0,0:0:0:0:
64,192,199493,1,0,0:0:0:0:
448,192,199579,1,2,0:0:0:0:
192,192,199579,1,0,0:0:0:0:
320,192,199750,1,0,0:0:0:0:
192,192,199836,1,0,0:0:0:0:
64,192,199921,1,2,0:0:0:0:
448,192,199921,1,0,0:0:0:0:
320,192,200007,1,0,0:0:0:0:
64,192,200093,1,0,0:0:0:0:
192,192,200136,1,0,0:0:0:0:
320,192,200179,1,0,0:0:0:0:
448,192,200221,1,0,0:0:0:0:
192,192,200264,1,2,0:0:0:0:
64,192,200264,1,0,0:0:0:0:
320,192,200350,1,0,0:0:0:0:
192,192,200436,1,0,0:0:0:0:
320,192,200521,1,0,0:0:0:0:
64,192,200607,1,0,0:0:0:0:
448,192,200607,1,2,0:0:0:0:
320,192,200779,1,0,0:0:0:0:
192,192,200864,1,0,0:0:0:0:
448,192,200950,1,0,0:0:0:0:
320,192,200950,1,2,0:0:0:0:
64,192,200950,128,0,201293:0:0:0:0:
192,192,201293,1,2,0:0:0:0:
448,192,201293,1,0,0:0:0:0:
320,192,201379,1,0,0:0:0:0:
192,192,201464,1,0,0:0:0:0:
448,192,201550,1,0,0:0:0:0:
320,192,201636,1,0,0:0:0:0:
64,192,201636,1,2,0:0:0:0:
192,192,201721,1,0,0:0:0:0:
320,192,201807,1,0,0:0:0:0:
448,192,201979,1,2,0:0:0:0:
64,192,201979,1,0,0:0:0:0:
320,192,202064,1,0,0:0:0:0:
192,192,202150,1,0,0:0:0:0:
64,192,202236,1,0,0:0:0:0:
448,192,202321,1,0,0:0:0:0:
320,192,202321,1,2,0:0:0:0:
192,192,202493,1,0,0:0:0:0:
448,192,202664,1,2,0:0:0:0:
64,192,202664,1,0,0:0:0:0:
192,192,202750,1,0,0:0:0:0:
320,192,202836,1,0,0:0:0:0:
192,192,202921,1,0,0:0:0:0:
64,192,203007,1,2,0:0:0:0:
448,192,203007,1,0,0:0:0:0:
320,192,203093,1,0,0:0:0:0:
192,192,203179,1,0,0:0:0:0:
64,192,203350,1,0,0:0:0:0:
448,192,203350,1,2,0:0:0:0:
320,192,203521,1,0,0:0:0:0:
192,192,203607,1,0,0:0:0:0:
448,192,203693,1,0,0:0:0:0:
64,192,203693,1,2,0:0:0:0:
192,192,203864,1,0,0:0:0:0:
320,192,203950,1,0,0:0:0:0:
64,192,204036,1,0,0:0:0:0:
448,192,204036,1,2,0:0:0:0:
192,192,204121,1,0,0:0:0:0:
448,192,204207,1,0,0:0:0:0:
320,192,204207,1,2,0:0:0:0:
192,192,204293,1,0,0:0:0:0:
448,192,204379,1,0,0:0:0:0:
64,192,204379,1,2,0:0:0:0:
320,192,204464,1,0,0:0:0:0:
64,192,204550,1,0,0:0:0:0:
192,192,204550,1,2,0:0:0:0:
320,192,204636,1,0,0:0:0:0:
64,192,204721,1,0,0:0:0:0:
448,192,204721,1,2,0:0:0:0:
192,192,204807,1,0,0:0:0:0:
320,192,204893,1,2,0:0:0:0:
448,192,204893,1,0,0:0:0:0:
192,192,204979,1,0,0:0:0:0:
64,192,205064,1,0,0:0:0:0:
448,192,205064,1,2,0:0:0:0:
320,192,205150,1,0,0:0:0:0:
64,192,205236,1,0,0:0:0:0:
192,192,205236,1,2,0:0:0:0:
320,192,205321,1,0,0:0:0:0:
448,192,205407,1,2,0:0:0:0:
64,192,205407,1,0,0:0:0:0:
192,192,205450,1,0,0:0:0:0:
320,192,205493,1,0,0:0:0:0:
448,192,205536,1,0,0:0:0:0:
64,192,205579,1,0,0:0:0:0:
192,192,205621,1,0,0:0:0:0:
448,192,205664,1,0,0:0:0:0:
320,192,205707,1,0,0:0:0:0:
64,192,205750,1,0,0:0:0:0:
192,192,205793,1,0,0:0:0:0:
448,192,205836,1,0,0:0:0:0:
320,192,205879,1,0,0:0:0:0:
192,192,205921,1,0,0:0:0:0:
64,192,205964,1,0,0:0:0:0:
448,192,206007,1,0,0:0:0:0:
320,192,206050,1,0,0:0:0:0:
64,192,206093,1,0,0:0:0:0:
192,192,206136,1,0,0:0:0:0:
448,192,206179,1,0,0:0:0:0:
320,192,206221,1,0,0:0:0:0:
64,192,206264,1,0,0:0:0:0:
192,192,206307,1,0,0:0:0:0:
320,192,206350,1,0,0:0:0:0:
448,192,206393,1,0,0:0:0:0:
192,192,206436,1,0,0:0:0:0:
64,192,206436,1,0,0:0:0:0:
192,192,206779,128,0,206950:0:0:0:0:
64,192,206779,1,4,0:0:0:0:
448,192,206779,1,2,0:0:0:0:
320,192,206950,128,0,207121:0:0:0:0:
448,192,207121,128,0,207293:0:0:0:0:
320,192,207293,128,0,207464:0:0:0:0:
192,192,207464,128,0,207636:0:0:0:0:
64,192,207636,128,0,207807:0:0:0:0:
448,192,207807,128,0,207979:0:0:0:0:
320,192,207979,128,0,208064:0:0:0:0:
192,192,208064,128,0,208150:0:0:0:0:
64,192,208150,128,0,208493:0:0:0:0:
448,192,208493,128,0,208836:0:0:0:0:
192,192,208836,128,0,209179:0:0:0:0:
320,192,209179,128,0,209521:0:0:0:0:
64,192,209521,128,0,209693:0:0:0:0:
192,192,209693,128,0,209864:0:0:0:0:
320,192,209864,128,0,210036:0:0:0:0:
448,192,210036,128,0,210207:0:0:0:0:
320,192,210207,128,0,210379:0:0:0:0:
192,192,210379,128,0,210550:0:0:0:0:
64,192,210550,128,0,210721:0:0:0:0:
320,192,210721,128,0,210893:0:0:0:0:
192,192,210893,128,0,211236:0:0:0:0:
320,192,211236,128,0,211579:0:0:0:0:
448,192,211579,128,0,211921:0:0:0:0:
64,192,212093,128,0,212179:0:0:0:0:
192,192,212179,128,0,212264:0:0:0:0:
320,192,212264,128,0,212436:0:0:0:0:
448,192,212436,128,0,212607:0:0:0:0:
64,192,212607,128,0,212779:0:0:0:0:
320,192,212779,128,0,212950:0:0:0:0:
192,192,212950,128,0,213121:0:0:0:0:
448,192,213121,128,0,213293:0:0:0:0:
320,192,213293,128,0,213464:0:0:0:0:
192,192,213464,128,0,213636:0:0:0:0:
64,192,213636,128,0,213807:0:0:0:0:
320,192,213807,128,0,213979:0:0:0:0:
192,192,213979,128,0,214150:0:0:0:0:
448,192,214150,128,0,214321:0:0:0:0:
320,192,214321,128,0,214664:0:0:0:0:
192,192,214664,128,0,215007:0:0:0:0:
64,192,215007,128,0,215179:0:0:0:0:
192,192,215179,128,0,215350:0:0:0:0:
320,192,215350,128,0,215521:0:0:0:0:
448,192,215521,128,0,215693:0:0:0:0:
64,192,215693,128,0,215864:0:0:0:0:
320,192,215864,128,0,216036:0:0:0:0:
192,192,216036,128,0,216207:0:0:0:0:
448,192,216207,128,0,216379:0:0:0:0:
320,192,216379,128,0,216550:0:0:0:0:
192,192,216550,128,0,216721:0:0:0:0:
64,192,216721,128,0,216893:0:0:0:0:
192,192,216893,128,0,217064:0:0:0:0:
320,192,217064,128,0,217750:0:0:0:0:
448,192,217236,128,0,217750:0:0:0:0:
64,192,217407,128,0,217750:0:0:0:0:
192,192,217750,1,2,0:0:0:0:
320,192,217921,1,0,0:0:0:0:
192,192,218093,1,0,0:0:0:0:
64,192,218264,1,0,0:0:0:0:
320,192,218436,1,0,0:0:0:0:
192,192,218607,1,0,0:0:0:0:
448,192,218779,1,0,0:0:0:0:
64,192,218950,1,0,0:0:0:0:
192,192,219036,1,0,0:0:0:0:
320,192,219121,1,4,0:0:0:0:
448,192,219121,1,0,0:0:0:0:
192,192,219293,1,0,0:0:0:0:
448,192,219464,1,0,0:0:0:0:
320,192,219636,1,0,0:0:0:0:
192,192,219807,1,0,0:0:0:0:
448,192,219979,1,0,0:0:0:0:
64,192,220150,1,0,0:0:0:0:
448,192,220321,1,0,0:0:0:0:
320,192,220407,1,0,0:0:0:0:
192,192,220493,1,4,0:0:0:0:
64,192,220493,1,0,0:0:0:0:
320,192,220664,1,0,0:0:0:0:
448,192,220836,1,0,0:0:0:0:
320,192,221007,1,0,0:0:0:0:
192,192,221179,1,0,0:0:0:0:
64,192,221350,1,0,0:0:0:0:
448,192,221521,1,0,0:0:0:0:
192,192,221693,1,0,0:0:0:0:
320,192,221779,1,0,0:0:0:0:
64,192,221864,1,4,0:0:0:0:
448,192,221864,1,0,0:0:0:0:
192,192,221950,1,2,0:0:0:0:
320,192,222036,1,2,0:0:0:0:
192,192,222121,1,2,0:0:0:0:
64,192,222207,1,2,0:0:0:0:
448,192,222293,1,2,0:0:0:0:
320,192,222379,1,2,0:0:0:0:
192,192,222464,1,2,0:0:0:0:
320,192,222550,1,2,0:0:0:0:
448,192,222636,1,2,0:0:0:0:
64,192,222721,1,2,0:0:0:0:
320,192,222807,1,2,0:0:0:0:
192,192,222893,1,2,0:0:0:0:
448,192,222979,1,2,0:0:0:0:
64,192,223064,1,2,0:0:0:0:
192,192,223150,1,2,0:0:0:0:
448,192,223236,1,2,0:0:0:0:
64,192,223236,1,4,0:0:0:0:
320,192,223279,1,2,0:0:0:0:
192,192,223321,1,2,0:0:0:0:
64,192,223364,1,2,0:0:0:0:
448,192,223407,1,2,0:0:0:0:
320,192,223493,1,2,0:0:0:0:
448,192,223579,1,2,0:0:0:0:
64,192,223579,1,4,0:0:0:0:
192,192,223664,1,2,0:0:0:0:
320,192,223750,1,2,0:0:0:0:
192,192,223836,1,2,0:0:0:0:
64,192,223921,1,2,0:0:0:0:
448,192,223921,1,4,0:0:0:0:
320,192,223964,1,2,0:0:0:0:
192,192,224007,1,2,0:0:0:0:
64,192,224050,1,2,0:0:0:0:
448,192,224093,1,2,0:0:0:0:
320,192,224179,1,2,0:0:0:0:
64,192,224264,1,4,0:0:0:0:
448,192,224264,1,2,0:0:0:0:
192,192,224350,1,2,0:0:0:0:
320,192,224436,1,2,0:0:0:0:
192,192,224521,1,2,0:0:0:0:
64,192,224607,1,4,0:0:0:0:
448,192,224607,1,2,0:0:0:0:
320,192,224650,1,2,0:0:0:0:
192,192,224693,1,2,0:0:0:0:
64,192,224736,1,2,0:0:0:0:
448,192,224779,1,2,0:0:0:0:
320,192,224864,1,2,0:0:0:0:
448,192,224950,1,4,0:0:0:0:
64,192,224950,1,2,0:0:0:0:
192,192,225036,1,2,0:0:0:0:
320,192,225121,1,2,0:0:0:0:
192,192,225207,1,2,0:0:0:0:
64,192,225293,1,4,0:0:0:0:
448,192,225293,1,2,0:0:0:0:
320,192,225336,1,2,0:0:0:0:
192,192,225379,1,2,0:0:0:0:
64,192,225421,1,2,0:0:0:0:
448,192,225464,1,2,0:0:0:0:
320,192,225550,1,2,0:0:0:0:
64,192,225636,1,2,0:0:0:0:
448,192,225636,1,4,0:0:0:0:
192,192,225721,1,2,0:0:0:0:
320,192,225807,1,2,0:0:0:0:
192,192,225893,1,2,0:0:0:0:
64,192,225979,1,2,0:0:0:0:
448,192,225979,1,4,0:0:0:0:
320,192,226021,1,0,0:0:0:0:
192,192,226064,1,0,0:0:0:0:
64,192,226107,1,0,0:0:0:0:
448,192,226150,1,0,0:0:0:0:
320,192,226193,1,0,0:0:0:0:
192,192,226236,1,0,0:0:0:0:
64,192,226279,1,0,0:0:0:0:
448,192,226321,1,0,0:0:0:0:
320,192,226364,1,0,0:0:0:0:
64,192,226407,1,0,0:0:0:0:
192,192,226450,1,0,0:0:0:0:
448,192,226493,1,0,0:0:0:0:
320,192,226536,1,0,0:0:0:0:
64,192,226579,1,0,0:0:0:0:
192,192,226621,1,0,0:0:0:0:
320,192,226664,1,0,0:0:0:0:
448,192,226707,1,0,0:0:0:0:
64,192,226750,1,0,0:0:0:0:
192,192,226793,1,0,0:0:0:0:
448,192,226836,1,0,0:0:0:0:
320,192,226879,1,0,0:0:0:0:
64,192,226921,1,0,0:0:0:0:
192,192,226964,1,0,0:0:0:0:
448,192,227007,1,0,0:0:0:0:
320,192,227050,1,0,0:0:0:0:
192,192,227093,1,0,0:0:0:0:
64,192,227136,1,0,0:0:0:0:
448,192,227179,1,0,0:0:0:0:
320,192,227221,1,0,0:0:0:0:
192,192,227264,1,0,0:0:0:0:
64,192,227307,1,0,0:0:0:0:
448,192,227350,1,8,0:0:0:0:
320,192,227350,1,0,0:0:0:0:
192,192,227436,1,2,0:0:0:0:
320,192,227521,1,2,0:0:0:0:
192,192,227607,1,2,0:0:0:0:
64,192,227607,1,0,0:0:0:0:
320,192,227693,1,2,0:0:0:0:
448,192,227693,1,0,0:0:0:0:
192,192,227779,1,2,0:0:0:0:
64,192,227779,1,0,0:0:0:0:
320,192,227864,1,2,0:0:0:0:
448,192,227864,1,0,0:0:0:0:
192,192,227950,1,2,0:0:0:0:
448,192,228036,1,8,0:0:0:0:
64,192,228036,1,0,0:0:0:0:
320,192,228121,1,8,0:0:0:0:
192,192,228121,1,0,0:0:0:0:
448,192,228207,1,8,0:0:0:0:
64,192,228207,1,0,0:0:0:0:
320,192,228293,1,8,0:0:0:0:
192,192,228293,1,0,0:0:0:0:
448,192,228379,1,8,0:0:0:0:
64,192,228379,1,0,0:0:0:0:
320,192,228464,1,8,0:0:0:0:
192,192,228464,1,0,0:0:0:0:
448,192,228550,1,8,0:0:0:0:
64,192,228550,1,0,0:0:0:0:
320,192,228636,1,8,0:0:0:0:
192,192,228636,1,0,0:0:0:0:
64,192,228721,1,2,0:0:0:0:
192,192,228721,1,0,0:0:0:0:
448,192,228721,1,4,0:0:0:0:
320,192,228807,1,2,0:0:0:0:
192,192,228893,1,8,0:0:0:0:
64,192,228893,1,0,0:0:0:0:
448,192,228979,1,2,0:0:0:0:
192,192,229064,1,2,0:0:0:0:
320,192,229150,1,2,0:0:0:0:
64,192,229236,1,0,0:0:0:0:
448,192,229236,1,8,0:0:0:0:
192,192,229321,1,2,0:0:0:0:
320,192,229407,1,2,0:0:0:0:
64,192,229493,1,2,0:0:0:0:
448,192,229579,1,0,0:0:0:0:
192,192,229579,1,8,0:0:0:0:
320,192,229664,1,2,0:0:0:0:
64,192,229750,1,2,0:0:0:0:
192,192,229836,1,2,0:0:0:0:
448,192,229921,1,8,0:0:0:0:
64,192,229921,1,0,0:0:0:0:
320,192,230007,1,2,0:0:0:0:
64,192,230093,1,2,0:0:0:0:
192,192,230179,1,2,0:0:0:0:
448,192,230264,1,0,0:0:0:0:
320,192,230264,1,8,0:0:0:0:
64,192,230350,1,2,0:0:0:0:
192,192,230436,1,2,0:0:0:0:
320,192,230521,1,2,0:0:0:0:
448,192,230607,1,0,0:0:0:0:
192,192,230607,1,8,0:0:0:0:
320,192,230693,1,2,0:0:0:0:
64,192,230779,1,2,0:0:0:0:
192,192,230864,1,2,0:0:0:0:
64,192,230950,1,0,0:0:0:0:
448,192,230950,1,8,0:0:0:0:
320,192,231036,1,2,0:0:0:0:
192,192,231121,1,2,0:0:0:0:
320,192,231207,1,2,0:0:0:0:
64,192,231293,1,0,0:0:0:0:
448,192,231293,1,8,0:0:0:0:
192,192,231379,1,2,0:0:0:0:
448,192,231464,1,2,0:0:0:0:
64,192,231550,1,2,0:0:0:0:
192,192,231636,1,0,0:0:0:0:
320,192,231636,1,8,0:0:0:0:
448,192,231721,1,2,0:0:0:0:
64,192,231807,1,2,0:0:0:0:
192,192,231893,1,2,0:0:0:0:
320,192,231979,1,8,0:0:0:0:
64,192,231979,1,0,0:0:0:0:
448,192,232064,1,2,0:0:0:0:
320,192,232150,1,2,0:0:0:0:
192,192,232236,1,2,0:0:0:0:
448,192,232321,1,0,0:0:0:0:
64,192,232321,1,8,0:0:0:0:
320,192,232407,1,2,0:0:0:0:
192,192,232493,1,2,0:0:0:0:
320,192,232579,1,2,0:0:0:0:
64,192,232664,1,0,0:0:0:0:
448,192,232664,1,8,0:0:0:0:
192,192,232750,1,2,0:0:0:0:
320,192,232836,1,2,0:0:0:0:
448,192,232921,1,2,0:0:0:0:
192,192,233007,1,0,0:0:0:0:
320,192,233007,1,8,0:0:0:0:
64,192,233093,1,2,0:0:0:0:
192,192,233179,1,2,0:0:0:0:
320,192,233264,1,2,0:0:0:0:
64,192,233350,1,0,0:0:0:0:
448,192,233350,1,8,0:0:0:0:
320,192,233436,1,2,0:0:0:0:
192,192,233521,1,2,0:0:0:0:
448,192,233607,1,2,0:0:0:0:
64,192,233693,1,8,0:0:0:0:
320,192,233693,1,0,0:0:0:0:
192,192,233779,1,2,0:0:0:0:
320,192,233864,1,0,0:0:0:0:
448,192,233864,1,0,0:0:0:0:
192,192,233950,1,2,0:0:0:0:
64,192,233950,1,0,0:0:0:0:
448,192,234036,1,0,0:0:0:0:
320,192,234036,1,2,0:0:0:0:
64,192,234121,1,0,0:0:0:0:
192,192,234121,1,2,0:0:0:0:
320,192,234207,1,0,0:0:0:0:
448,192,234207,1,4,0:0:0:0:
64,192,234207,1,2,0:0:0:0:
192,192,234379,1,0,0:0:0:0:
320,192,234379,1,8,0:0:0:0:
64,192,234550,1,2,0:0:0:0:
320,192,234636,1,2,0:0:0:0:
64,192,234721,1,0,0:0:0:0:
192,192,234721,1,8,0:0:0:0:
448,192,234893,1,2,0:0:0:0:
192,192,234979,1,0,0:0:0:0:
320,192,235064,1,0,0:0:0:0:
448,192,235064,1,8,0:0:0:0:
64,192,235236,1,2,0:0:0:0:
192,192,235321,1,2,0:0:0:0:
320,192,235407,1,8,0:0:0:0:
448,192,235407,1,0,0:0:0:0:
64,192,235493,1,0,0:0:0:0:
192,192,235579,1,2,0:0:0:0:
320,192,235664,1,0,0:0:0:0:
64,192,235750,1,0,0:0:0:0:
448,192,235750,1,8,0:0:0:0:
192,192,235836,1,0,0:0:0:0:
320,192,235921,1,2,0:0:0:0:
192,192,236007,1,0,0:0:0:0:
448,192,236093,1,0,0:0:0:0:
64,192,236093,1,8,0:0:0:0:
320,192,236179,1,0,0:0:0:0:
192,192,236264,1,2,0:0:0:0:
320,192,236350,1,0,0:0:0:0:
448,192,236436,1,8,0:0:0:0:
64,192,236436,1,0,0:0:0:0:
192,192,236521,1,0,0:0:0:0:
320,192,236607,1,2,0:0:0:0:
448,192,236693,1,2,0:0:0:0:
64,192,236779,1,0,0:0:0:0:
192,192,236779,1,8,0:0:0:0:
320,192,236864,1,0,0:0:0:0:
448,192,236950,1,2,0:0:0:0:
64,192,237036,1,0,0:0:0:0:
192,192,237121,1,8,0:0:0:0:
320,192,237121,1,0,0:0:0:0:
448,192,237207,1,0,0:0:0:0:
320,192,237293,1,2,0:0:0:0:
192,192,237379,1,2,0:0:0:0:
64,192,237464,1,0,0:0:0:0:
448,192,237464,1,8,0:0:0:0:
320,192,237550,1,0,0:0:0:0:
192,192,237636,1,2,0:0:0:0:
320,192,237721,1,0,0:0:0:0:
448,192,237807,1,8,0:0:0:0:
64,192,237807,1,0,0:0:0:0:
192,192,237893,1,0,0:0:0:0:
320,192,237979,1,2,0:0:0:0:
192,192,238064,1,2,0:0:0:0:
448,192,238150,1,8,0:0:0:0:
64,192,238150,1,0,0:0:0:0:
320,192,238236,1,0,0:0:0:0:
64,192,238321,1,2,0:0:0:0:
448,192,238321,1,4,0:0:0:0:
192,192,238321,1,0,0:0:0:0:
320,192,238407,1,0,0:0:0:0:
448,192,238493,1,8,0:0:0:0:
64,192,238493,1,0,0:0:0:0:
320,192,238579,1,0,0:0:0:0:
192,192,238579,1,8,0:0:0:0:
64,192,238664,1,8,0:0:0:0:
448,192,238664,1,0,0:0:0:0:
192,192,238750,1,0,0:0:0:0:
64,192,238836,1,0,0:0:0:0:
320,192,238836,1,2,0:0:0:0:
448,192,238921,1,2,0:0:0:0:
320,192,239007,1,2,0:0:0:0:
192,192,239093,1,2,0:0:0:0:
64,192,239179,1,8,0:0:0:0:
448,192,239179,1,0,0:0:0:0:
192,192,239264,1,2,0:0:0:0:
448,192,239350,1,0,0:0:0:0:
320,192,239350,1,8,0:0:0:0:
64,192,239436,1,0,0:0:0:0:
192,192,239436,1,8,0:0:0:0:
320,192,239521,1,8,0:0:0:0:
448,192,239521,1,0,0:0:0:0:
192,192,239607,1,8,0:0:0:0:
64,192,239607,1,0,0:0:0:0:
320,192,239693,1,8,0:0:0:0:
64,192,239693,1,0,0:0:0:0:
448,192,239693,1,4,0:0:0:0:
192,192,239779,1,2,0:0:0:0:
448,192,239864,1,8,0:0:0:0:
64,192,239864,1,0,0:0:0:0:
320,192,239950,1,2,0:0:0:0:
192,192,240036,1,2,0:0:0:0:
64,192,240121,1,2,0:0:0:0:
192,192,240207,1,8,0:0:0:0:
448,192,240207,1,0,0:0:0:0:
320,192,240293,1,2,0:0:0:0:
64,192,240379,1,2,0:0:0:0:
192,192,240464,1,2,0:0:0:0:
320,192,240550,1,0,0:0:0:0:
448,192,240550,1,8,0:0:0:0:
64,192,240636,1,2,0:0:0:0:
192,192,240721,1,2,0:0:0:0:
320,192,240807,1,2,0:0:0:0:
64,192,240893,1,0,0:0:0:0:
448,192,240893,1,8,0:0:0:0:
192,192,240979,1,2,0:0:0:0:
448,192,241064,1,2,0:0:0:0:
320,192,241150,1,2,0:0:0:0:
448,192,241236,1,0,0:0:0:0:
192,192,241236,1,8,0:0:0:0:
64,192,241321,1,2,0:0:0:0:
192,192,241407,1,2,0:0:0:0:
320,192,241493,1,2,0:0:0:0:
64,192,241579,1,0,0:0:0:0:
192,192,241579,1,8,0:0:0:0:
448,192,241664,1,2,0:0:0:0:
320,192,241750,1,2,0:0:0:0:
192,192,241836,1,2,0:0:0:0:
64,192,241921,1,0,0:0:0:0:
448,192,241921,1,8,0:0:0:0:
320,192,242007,1,2,0:0:0:0:
192,192,242093,1,2,0:0:0:0:
320,192,242179,1,2,0:0:0:0:
64,192,242264,1,0,0:0:0:0:
192,192,242264,1,8,0:0:0:0:
320,192,242350,1,2,0:0:0:0:
448,192,242436,1,2,0:0:0:0:
64,192,242521,1,2,0:0:0:0:
192,192,242607,1,8,0:0:0:0:
448,192,242607,1,0,0:0:0:0:
320,192,242693,1,2,0:0:0:0:
192,192,242779,1,2,0:0:0:0:
64,192,242864,1,2,0:0:0:0:
448,192,242950,1,0,0:0:0:0:
320,192,242950,1,8,0:0:0:0:
192,192,243036,1,2,0:0:0:0:
320,192,243121,1,2,0:0:0:0:
64,192,243207,1,2,0:0:0:0:
192,192,243293,1,8,0:0:0:0:
448,192,243293,1,0,0:0:0:0:
320,192,243379,1,2,0:0:0:0:
192,192,243464,1,2,0:0:0:0:
64,192,243550,1,2,0:0:0:0:
320,192,243636,1,8,0:0:0:0:
448,192,243636,1,0,0:0:0:0:
192,192,243721,1,2,0:0:0:0:
320,192,243807,1,2,0:0:0:0:
192,192,243893,1,2,0:0:0:0:
64,192,243979,1,8,0:0:0:0:
448,192,243979,1,0,0:0:0:0:
320,192,244064,1,2,0:0:0:0:
192,192,244150,1,2,0:0:0:0:
64,192,244236,1,2,0:0:0:0:
320,192,244321,1,8,0:0:0:0:
448,192,244321,1,0,0:0:0:0:
192,192,244407,1,2,0:0:0:0:
320,192,244493,1,2,0:0:0:0:
448,192,244579,1,2,0:0:0:0:
192,192,244664,1,8,0:0:0:0:
64,192,244664,1,0,0:0:0:0:
320,192,244750,1,2,0:0:0:0:
192,192,244836,1,2,0:0:0:0:
64,192,244921,1,2,0:0:0:0:
192,192,245007,1,8,0:0:0:0:
448,192,245007,1,0,0:0:0:0:
320,192,245093,1,2,0:0:0:0:
64,192,245179,1,4,0:0:0:0:
448,192,245179,1,0,0:0:0:0:
192,192,245179,1,8,0:0:0:0:
320,192,245350,1,2,0:0:0:0:
64,192,245436,1,2,0:0:0:0:
448,192,245521,1,2,0:0:0:0:
192,192,245607,1,2,0:0:0:0:
448,192,245693,1,4,0:0:0:0:
64,192,245693,1,0,0:0:0:0:
320,192,245693,1,8,0:0:0:0:
192,192,245864,1,2,0:0:0:0:
448,192,245950,1,2,0:0:0:0:
64,192,246036,1,2,0:0:0:0:
320,192,246121,1,2,0:0:0:0:
448,192,246207,1,0,0:0:0:0:
192,192,246207,1,8,0:0:0:0:
64,192,246293,1,2,0:0:0:0:
192,192,246379,1,2,0:0:0:0:
320,192,246464,1,2,0:0:0:0:
64,192,246550,1,0,0:0:0:0:
448,192,246550,1,8,0:0:0:0:
192,192,246636,1,2,0:0:0:0:
320,192,246721,1,2,0:0:0:0:
64,192,246807,1,2,0:0:0:0:
448,192,246893,1,2,0:0:0:0:
320,192,246979,1,2,0:0:0:0:
448,192,247064,1,4,0:0:0:0:
64,192,247064,1,0,0:0:0:0:
192,192,247064,1,8,0:0:0:0:
320,192,247150,1,2,0:0:0:0:
64,192,247236,1,2,0:0:0:0:
448,192,247321,1,2,0:0:0:0:
192,192,247407,1,2,0:0:0:0:
320,192,247493,1,2,0:0:0:0:
64,192,247579,1,8,0:0:0:0:
192,192,247579,1,0,0:0:0:0:
320,192,247664,1,0,0:0:0:0:
448,192,247664,1,8,0:0:0:0:
192,192,247750,1,8,0:0:0:0:
64,192,247750,1,0,0:0:0:0:
320,192,247836,1,8,0:0:0:0:
448,192,247836,1,0,0:0:0:0:
192,192,247921,1,2,0:0:0:0:
64,192,247921,1,0,0:0:0:0:
448,192,247921,1,4,0:0:0:0:
320,192,248007,1,2,0:0:0:0:
64,192,248093,1,8,0:0:0:0:
448,192,248093,1,0,0:0:0:0:
192,192,248179,1,2,0:0:0:0:
320,192,248264,1,8,0:0:0:0:
448,192,248264,1,0,0:0:0:0:
64,192,248350,1,10,0:0:0:0:
448,192,248436,1,0,0:0:0:0:
192,192,248436,1,8,0:0:0:0:
320,192,248521,1,2,0:0:0:0:
64,192,248607,1,8,0:0:0:0:
192,192,248607,1,0,0:0:0:0:
448,192,248693,1,2,0:0:0:0:
64,192,248779,1,0,0:0:0:0:
320,192,248779,1,8,0:0:0:0:
192,192,248864,1,2,0:0:0:0:
448,192,248950,1,0,0:0:0:0:
320,192,248950,1,8,0:0:0:0:
64,192,249036,1,2,0:0:0:0:
192,192,249121,1,8,0:0:0:0:
448,192,249121,1,0,0:0:0:0:
320,192,249207,1,2,0:0:0:0:
448,192,249293,1,8,0:0:0:0:
192,192,249293,1,0,0:0:0:0:
64,192,249293,1,4,0:0:0:0:
448,192,249979,1,0,0:0:0:0:
320,192,249979,1,0,0:0:0:0:
192,192,250036,1,0,0:0:0:0:
64,192,250093,1,0,0:0:0:0:
448,192,250150,1,0,0:0:0:0:
320,192,250207,1,0,0:0:0:0:
192,192,250264,1,0,0:0:0:0:
64,192,250321,1,8,0:0:0:0:
448,192,250321,1,0,0:0:0:0:
320,192,250379,1,0,0:0:0:0:
192,192,250436,1,0,0:0:0:0:
64,192,250493,1,0,0:0:0:0:
448,192,250550,1,0,0:0:0:0:
320,192,250607,1,0,0:0:0:0:
64,192,250664,1,0,0:0:0:0:
448,192,250664,1,4,0:0:0:0:
192,192,250664,1,2,0:0:0:0:
320,192,250750,1,0,0:0:0:0:
64,192,250836,1,0,0:0:0:0:
448,192,250921,1,0,0:0:0:0:
192,192,251007,1,0,0:0:0:0:
320,192,251007,1,2,0:0:0:0:
64,192,251093,1,0,0:0:0:0:
448,192,251179,1,0,0:0:0:0:
192,192,251350,1,0,0:0:0:0:
320,192,251350,1,2,0:0:0:0:
64,192,251436,1,0,0:0:0:0:
448,192,251521,1,0,0:0:0:0:
320,192,251607,1,0,0:0:0:0:
192,192,251693,1,2,0:0:0:0:
64,192,251693,1,0,0:0:0:0:
320,192,251864,1,0,0:0:0:0:
64,192,252036,1,2,0:0:0:0:
448,192,252036,1,0,0:0:0:0:
320,192,252121,1,0,0:0:0:0:
64,192,252207,1,0,0:0:0:0:
192,192,252250,1,0,0:0:0:0:
320,192,252293,1,0,0:0:0:0:
448,192,252336,1,0,0:0:0:0:
192,192,252379,1,0,0:0:0:0:
64,192,252379,1,2,0:0:0:0:
320,192,252464,1,0,0:0:0:0:
192,192,252550,1,0,0:0:0:0:
64,192,252636,1,0,0:0:0:0:
448,192,252721,1,0,0:0:0:0:
320,192,252721,1,2,0:0:0:0:
192,192,252893,1,0,0:0:0:0:
320,192,252979,1,0,0:0:0:0:
64,192,253064,1,2,0:0:0:0:
448,192,253064,1,0,0:0:0:0:
192,192,253064,128,0,253407:0:0:0:0:
448,192,253407,1,0,0:0:0:0:
320,192,253407,1,2,0:0:0:0:
64,192,253493,1,0,0:0:0:0:
448,192,253579,1,0,0:0:0:0:
320,192,253621,1,0,0:0:0:0:
192,192,253664,1,0,0:0:0:0:
64,192,253707,1,0,0:0:0:0:
448,192,253750,1,0,0:0:0:0:
320,192,253750,1,2,0:0:0:0:
192,192,253836,1,0,0:0:0:0:
320,192,253921,1,0,0:0:0:0:
64,192,254093,1,2,0:0:0:0:
448,192,254093,1,0,0:0:0:0:
192,192,254179,1,0,0:0:0:0:
320,192,254264,1,0,0:0:0:0:
192,192,254350,1,0,0:0:0:0:
448,192,254436,1,2,0:0:0:0:
64,192,254436,1,0,0:0:0:0:
320,192,254607,1,0,0:0:0:0:
192,192,254779,1,2,0:0:0:0:
448,192,254779,1,0,0:0:0:0:
64,192,254950,1,0,0:0:0:0:
192,192,254993,1,0,0:0:0:0:
320,192,255036,1,0,0:0:0:0:
448,192,255079,1,0,0:0:0:0:
64,192,255121,1,2,0:0:0:0:
192,192,255121,1,0,0:0:0:0:
320,192,255207,1,0,0:0:0:0:
64,192,255293,1,0,0:0:0:0:
448,192,255379,1,0,0:0:0:0:
320,192,255464,1,0,0:0:0:0:
192,192,255464,1,2,0:0:0:0:
64,192,255636,1,0,0:0:0:0:
320,192,255721,1,0,0:0:0:0:
64,192,255807,1,0,0:0:0:0:
192,192,255807,1,2,0:0:0:0:
448,192,255807,128,0,256150:0:0:0:0:
320,192,256150,1,0,0:0:0:0:
64,192,256150,1,2,0:0:0:0:
192,192,256236,1,0,0:0:0:0:
320,192,256321,1,0,0:0:0:0:
448,192,256407,1,0,0:0:0:0:
64,192,256493,1,0,0:0:0:0:
320,192,256493,1,2,0:0:0:0:
192,192,256579,1,0,0:0:0:0:
320,192,256664,1,0,0:0:0:0:
64,192,256836,1,2,0:0:0:0:
448,192,256836,1,0,0:0:0:0:
320,192,256921,1,0,0:0:0:0:
192,192,257007,1,0,0:0:0:0:
64,192,257093,1,0,0:0:0:0:
320,192,257179,1,2,0:0:0:0:
448,192,257179,1,0,0:0:0:0:
192,192,257350,1,0,0:0:0:0:
448,192,257521,1,0,0:0:0:0:
64,192,257521,1,2,0:0:0:0:
320,192,257693,1,0,0:0:0:0:
192,192,257779,1,0,0:0:0:0:
448,192,257864,1,2,0:0:0:0:
64,192,257864,1,0,0:0:0:0:
320,192,257950,1,0,0:0:0:0:
192,192,258036,1,0,0:0:0:0:
320,192,258207,1,0,0:0:0:0:
64,192,258207,1,2,0:0:0:0:
192,192,258293,1,0,0:0:0:0:
448,192,258379,1,0,0:0:0:0:
320,192,258464,1,0,0:0:0:0:
192,192,258550,1,2,0:0:0:0:
64,192,258550,1,0,0:0:0:0:
320,192,258721,1,0,0:0:0:0:
192,192,258807,1,0,0:0:0:0:
448,192,258893,1,0,0:0:0:0:
320,192,258893,1,2,0:0:0:0:
64,192,259064,1,0,0:0:0:0:
192,192,259150,1,0,0:0:0:0:
448,192,259236,1,0,0:0:0:0:
320,192,259236,1,2,0:0:0:0:
192,192,259321,1,0,0:0:0:0:
64,192,259407,1,0,0:0:0:0:
320,192,259579,1,0,0:0:0:0:
448,192,259579,1,2,0:0:0:0:
64,192,259664,1,0,0:0:0:0:
192,192,259750,1,0,0:0:0:0:
320,192,259836,1,0,0:0:0:0:
448,192,259921,1,0,0:0:0:0:
64,192,259921,1,2,0:0:0:0:
320,192,260093,1,0,0:0:0:0:
64,192,260179,1,0,0:0:0:0:
192,192,260264,1,2,0:0:0:0:
448,192,260264,1,0,0:0:0:0:
64,192,260436,1,0,0:0:0:0:
192,192,260521,1,0,0:0:0:0:
64,192,260607,1,0,0:0:0:0:
448,192,260607,1,2,0:0:0:0:
320,192,260693,1,0,0:0:0:0:
192,192,260779,1,0,0:0:0:0:
320,192,260864,1,0,0:0:0:0:
448,192,260950,1,0,0:0:0:0:
64,192,260950,1,2,0:0:0:0:
192,192,261121,1,0,0:0:0:0:
320,192,261207,1,0,0:0:0:0:
448,192,261293,128,0,261636:0:0:0:0:
64,192,261293,1,0,0:0:0:0:
320,192,261636,1,2,0:0:0:0:
192,192,261636,1,0,0:0:0:0:
64,192,261636,1,0,0:0:0:0:
448,192,261721,1,0,0:0:0:0:
64,192,261807,1,0,0:0:0:0:
192,192,261893,1,0,0:0:0:0:
320,192,261979,1,0,0:0:0:0:
448,192,261979,1,2,0:0:0:0:
64,192,262064,1,0,0:0:0:0:
192,192,262150,1,0,0:0:0:0:
448,192,262321,1,2,0:0:0:0:
64,192,262321,1,0,0:0:0:0:
320,192,262407,1,0,0:0:0:0:
192,192,262493,1,0,0:0:0:0:
64,192,262579,1,0,0:0:0:0:
448,192,262664,1,0,0:0:0:0:
320,192,262664,1,2,0:0:0:0:
64,192,262836,1,0,0:0:0:0:
192,192,263007,1,2,0:0:0:0:
320,192,263007,1,0,0:0:0:0:
448,192,263093,1,0,0:0:0:0:
64,192,263179,1,0,0:0:0:0:
192,192,263221,1,0,0:0:0:0:
320,192,263264,1,0,0:0:0:0:
448,192,263307,1,0,0:0:0:0:
64,192,263350,1,2,0:0:0:0:
192,192,263350,1,0,0:0:0:0:
320,192,263436,1,0,0:0:0:0:
192,192,263521,1,0,0:0:0:0:
64,192,263607,1,0,0:0:0:0:
448,192,263693,1,0,0:0:0:0:
320,192,263693,1,2,0:0:0:0:
192,192,263864,1,0,0:0:0:0:
64,192,264036,1,2,0:0:0:0:
448,192,264036,1,0,0:0:0:0:
320,192,264036,128,0,264379:0:0:0:0:
192,192,264379,1,2,0:0:0:0:
64,192,264379,1,0,0:0:0:0:
448,192,264464,1,0,0:0:0:0:
64,192,264550,1,0,0:0:0:0:
192,192,264593,1,0,0:0:0:0:
320,192,264636,1,0,0:0:0:0:
448,192,264679,1,0,0:0:0:0:
192,192,264721,1,0,0:0:0:0:
64,192,264721,1,2,0:0:0:0:
320,192,264807,1,0,0:0:0:0:
192,192,264893,1,0,0:0:0:0:
320,192,265064,1,2,0:0:0:0:
64,192,265064,1,0,0:0:0:0:
192,192,265150,1,0,0:0:0:0:
448,192,265236,1,0,0:0:0:0:
320,192,265321,1,0,0:0:0:0:
64,192,265407,1,2,0:0:0:0:
192,192,265407,1,0,0:0:0:0:
448,192,265579,1,0,0:0:0:0:
320,192,265750,1,0,0:0:0:0:
192,192,265750,1,2,0:0:0:0:
448,192,265921,1,0,0:0:0:0:
320,192,265964,1,0,0:0:0:0:
192,192,266007,1,0,0:0:0:0:
64,192,266050,1,0,0:0:0:0:
320,192,266093,1,0,0:0:0:0:
448,192,266093,1,2,0:0:0:0:
192,192,266179,1,0,0:0:0:0:
64,192,266264,1,0,0:0:0:0:
448,192,266350,1,0,0:0:0:0:
192,192,266436,1,2,0:0:0:0:
320,192,266436,1,0,0:0:0:0:
64,192,266607,1,0,0:0:0:0:
192,192,266693,1,0,0:0:0:0:
64,192,266779,1,2,0:0:0:0:
448,192,266779,1,0,0:0:0:0:
320,192,266779,128,0,267121:0:0:0:0:
192,192,267121,1,2,0:0:0:0:
448,192,267121,1,0,0:0:0:0:
64,192,267207,1,0,0:0:0:0:
192,192,267293,1,0,0:0:0:0:
320,192,267379,1,0,0:0:0:0:
64,192,267464,1,2,0:0:0:0:
192,192,267464,1,0,0:0:0:0:
448,192,267550,1,0,0:0:0:0:
320,192,267636,1,0,0:0:0:0:
64,192,267807,1,0,0:0:0:0:
448,192,267807,1,2,0:0:0:0:
320,192,267893,1,0,0:0:0:0:
192,192,267979,1,0,0:0:0:0:
64,192,268064,1,0,0:0:0:0:
320,192,268150,1,2,0:0:0:0:
448,192,268150,1,0,0:0:0:0:
192,192,268321,1,0,0:0:0:0:
320,192,268407,1,0,0:0:0:0:
64,192,268493,1,2,0:0:0:0:
192,192,268493,1,0,0:0:0:0:
320,192,268664,1,0,0:0:0:0:
192,192,268750,1,0,0:0:0:0:
64,192,268836,1,0,0:0:0:0:
448,192,268836,1,2,0:0:0:0:
320,192,268921,1,0,0:0:0:0:
192,192,269007,1,0,0:0:0:0:
320,192,269179,1,2,0:0:0:0:
448,192,269179,1,0,0:0:0:0:
192,192,269350,1,0,0:0:0:0:
320,192,269436,1,0,0:0:0:0:
64,192,269521,1,2,0:0:0:0:
448,192,269521,1,0,0:0:0:0:
192,192,269693,1,0,0:0:0:0:
320,192,269779,1,0,0:0:0:0:
64,192,269864,1,2,0:0:0:0:
448,192,269864,1,0,0:0:0:0:
192,192,269950,1,0,0:0:0:0:
320,192,270036,1,2,0:0:0:0:
448,192,270036,1,0,0:0:0:0:
192,192,270121,1,0,0:0:0:0:
64,192,270207,1,2,0:0:0:0:
448,192,270207,1,0,0:0:0:0:
320,192,270293,1,0,0:0:0:0:
192,192,270379,1,2,0:0:0:0:
64,192,270379,1,0,0:0:0:0:
320,192,270464,1,0,0:0:0:0:
448,192,270550,1,2,0:0:0:0:
64,192,270550,1,0,0:0:0:0:
192,192,270636,1,0,0:0:0:0:
320,192,270721,1,2,0:0:0:0:
448,192,270721,1,0,0:0:0:0:
192,192,270807,1,0,0:0:0:0:
64,192,270893,1,2,0:0:0:0:
448,192,270893,1,0,0:0:0:0:
320,192,270979,1,0,0:0:0:0:
192,192,271064,1,2,0:0:0:0:
64,192,271064,1,0,0:0:0:0:
320,192,271150,1,0,0:0:0:0:
64,192,271236,1,0,0:0:0:0:
448,192,271236,1,0,0:0:0:0:
320,192,271279,1,0,0:0:0:0:
192,192,271321,1,0,0:0:0:0:
64,192,271364,1,0,0:0:0:0:
448,192,271407,1,0,0:0:0:0:
320,192,271450,1,0,0:0:0:0:
64,192,271493,1,0,0:0:0:0:
192,192,271536,1,0,0:0:0:0:
320,192,271579,1,0,0:0:0:0:
448,192,271621,1,0,0:0:0:0:
64,192,271664,1,0,0:0:0:0:
192,192,271707,1,0,0:0:0:0:
448,192,271750,1,0,0:0:0:0:
320,192,271793,1,0,0:0:0:0:
192,192,271836,1,0,0:0:0:0:
64,192,271879,1,0,0:0:0:0:
448,192,271921,1,0,0:0:0:0:
320,192,271964,1,0,0:0:0:0:
64,192,272007,1,0,0:0:0:0:
192,192,272050,1,0,0:0:0:0:
320,192,272093,1,0,0:0:0:0:
448,192,272136,1,0,0:0:0:0:
64,192,272179,1,0,0:0:0:0:
192,192,272221,1,0,0:0:0:0:
320,192,272264,1,8,0:0:0:0:
448,192,272264,1,0,0:0:0:0:
64,192,272607,1,0,0:0:0:0:
192,192,272607,1,2,0:0:0:0:
448,192,272607,1,4,0:0:0:0:
320,192,272779,1,0,0:0:0:0:
320,192,272950,1,0,0:0:0:0:
64,192,273121,1,0,0:0:0:0:
448,192,273121,1,0,0:0:0:0:
192,192,273293,1,0,0:0:0:0:
192,192,273464,1,0,0:0:0:0:
64,192,273636,1,0,0:0:0:0:
320,192,273636,1,0,0:0:0:0:
448,192,273807,1,0,0:0:0:0:
320,192,273979,1,0,0:0:0:0:
192,192,273979,1,0,0:0:0:0:
64,192,274150,1,0,0:0:0:0:
64,192,274321,1,0,0:0:0:0:
192,192,274493,1,0,0:0:0:0:
448,192,274493,1,0,0:0:0:0:
320,192,274664,1,0,0:0:0:0:
320,192,274836,1,0,0:0:0:0:
192,192,275007,1,0,0:0:0:0:
64,192,275007,1,0,0:0:0:0:
448,192,275179,1,0,0:0:0:0:
320,192,275350,1,0,0:0:0:0:
64,192,275350,1,0,0:0:0:0:
192,192,275521,1,0,0:0:0:0:
192,192,275693,1,0,0:0:0:0:
448,192,275864,1,0,0:0:0:0:
64,192,275864,1,0,0:0:0:0:
320,192,276036,1,0,0:0:0:0:
320,192,276207,1,0,0:0:0:0:
320,192,276379,1,0,0:0:0:0:
320,192,276550,1,0,0:0:0:0:
192,192,276721,1,0,0:0:0:0:
64,192,276721,1,0,0:0:0:0:
448,192,276893,1,0,0:0:0:0:
448,192,277064,1,0,0:0:0:0:
320,192,277236,1,0,0:0:0:0:
192,192,277236,1,0,0:0:0:0:
64,192,277407,1,0,0:0:0:0:
64,192,277579,1,0,0:0:0:0:
192,192,277750,1,0,0:0:0:0:
448,192,277750,1,0,0:0:0:0:
320,192,277921,1,0,0:0:0:0:
64,192,278093,1,0,0:0:0:0:
448,192,278093,1,0,0:0:0:0:
192,192,278264,1,0,0:0:0:0:
192,192,278436,1,0,0:0:0:0:
320,192,278607,1,0,0:0:0:0:
448,192,278607,1,0,0:0:0:0:
64,192,278779,1,0,0:0:0:0:
64,192,278950,1,0,0:0:0:0:
64,192,279121,1,0,0:0:0:0:
64,192,279293,1,0,0:0:0:0:
192,192,279464,1,0,0:0:0:0:
448,192,279464,1,0,0:0:0:0:
320,192,279636,1,0,0:0:0:0:
320,192,279807,1,0,0:0:0:0:
192,192,279979,1,0,0:0:0:0:
64,192,279979,1,0,0:0:0:0:
448,192,280150,1,0,0:0:0:0:
448,192,280321,1,0,0:0:0:0:
320,192,280493,1,0,0:0:0:0:
64,192,280493,1,0,0:0:0:0:
192,192,280664,1,0,0:0:0:0:
320,192,280836,1,0,0:0:0:0:
448,192,280836,1,0,0:0:0:0:
64,192,281007,1,0,0:0:0:0:
64,192,281179,1,0,0:0:0:0:
64,192,281350,1,0,0:0:0:0:
192,192,281521,1,0,0:0:0:0:
448,192,281521,1,0,0:0:0:0:
320,192,281693,1,0,0:0:0:0:
320,192,281864,1,0,0:0:0:0:
320,192,282036,1,0,0:0:0:0:
64,192,282207,1,0,0:0:0:0:
448,192,282207,1,0,0:0:0:0:
192,192,282379,1,0,0:0:0:0:
192,192,282550,1,0,0:0:0:0:
320,192,282721,1,0,0:0:0:0:
448,192,282721,1,0,0:0:0:0:
64,192,282893,1,0,0:0:0:0:
64,192,283064,1,0,0:0:0:0:
192,192,283236,1,0,0:0:0:0:
448,192,283236,1,0,0:0:0:0:
320,192,283407,1,0,0:0:0:0:
448,192,283579,1,2,0:0:0:0:
64,192,283579,1,4,0:0:0:0:
192,192,283579,128,0,283750:0:0:0:0:
320,192,283750,128,0,283921:0:0:0:0:
448,192,283921,128,0,284093:0:0:0:0:
320,192,284093,128,0,284264:0:0:0:0:
192,192,284264,128,0,284436:0:0:0:0:
64,192,284436,128,0,284607:0:0:0:0:
448,192,284607,128,0,284779:0:0:0:0:
320,192,284779,128,0,284864:0:0:0:0:
192,192,284864,128,0,284950:0:0:0:0:
64,192,284950,128,0,285293:0:0:0:0:
448,192,285293,128,0,285636:0:0:0:0:
192,192,285636,128,0,285979:0:0:0:0:
320,192,285979,128,0,286321:0:0:0:0:
64,192,286321,128,0,286493:0:0:0:0:
192,192,286493,128,0,286664:0:0:0:0:
320,192,286664,128,0,286836:0:0:0:0:
448,192,286836,128,0,287007:0:0:0:0:
320,192,287007,128,0,287179:0:0:0:0:
192,192,287179,128,0,287350:0:0:0:0:
64,192,287350,128,0,287521:0:0:0:0:
320,192,287521,128,0,287693:0:0:0:0:
192,192,287693,128,0,288036:0:0:0:0:
320,192,288036,128,0,288379:0:0:0:0:
448,192,288379,128,0,288721:0:0:0:0:
64,192,288893,128,0,288979:0:0:0:0:
192,192,288979,128,0,289064:0:0:0:0:
320,192,289064,128,0,289236:0:0:0:0:
448,192,289236,128,0,289407:0:0:0:0:
64,192,289407,128,0,289579:0:0:0:0:
320,192,289579,128,0,289750:0:0:0:0:
192,192,289750,128,0,289921:0:0:0:0:
448,192,289921,128,0,290093:0:0:0:0:
320,192,290093,128,0,290264:0:0:0:0:
192,192,290264,128,0,290436:0:0:0:0:
64,192,290436,128,0,290607:0:0:0:0:
320,192,290607,128,0,290779:0:0:0:0:
192,192,290779,128,0,290950:0:0:0:0:
320,192,290950,128,0,291121:0:0:0:0:
448,192,291121,128,0,291464:0:0:0:0:
192,192,291464,128,0,291807:0:0:0:0:
64,192,291807,128,0,291979:0:0:0:0:
192,192,291979,128,0,292150:0:0:0:0:
320,192,292150,128,0,292321:0:0:0:0:
448,192,292321,128,0,292493:0:0:0:0:
64,192,292493,128,0,292664:0:0:0:0:
320,192,292664,128,0,292836:0:0:0:0:
192,192,292836,128,0,293007:0:0:0:0:
448,192,293007,128,0,293179:0:0:0:0:
320,192,293179,128,0,293350:0:0:0:0:
192,192,293350,128,0,293521:0:0:0:0:
64,192,293521,128,0,293693:0:0:0:0:
192,192,293693,128,0,293864:0:0:0:0:
320,192,293864,128,0,294207:0:0:0:0:
64,192,294207,1,0,0:0:0:0:
192,192,294207,1,0,0:0:0:0:
448,192,294207,1,0,0:0:0:0:
320,192,294550,128,0,294721:0:0:0:0:
64,192,294550,1,0,0:0:0:0:
448,192,294550,1,0,0:0:0:0:
192,192,294721,128,0,294893:0:0:0:0:
448,192,294893,128,0,295064:0:0:0:0:
64,192,295064,128,0,295236:0:0:0:0:
192,192,295236,128,0,295407:0:0:0:0:
320,192,295407,128,0,295579:0:0:0:0:
448,192,295579,128,0,295750:0:0:0:0:
320,192,295750,128,0,295836:0:0:0:0:
192,192,295836,128,0,295921:0:0:0:0:
64,192,295921,128,0,296264:0:0:0:0:
448,192,296264,128,0,296607:0:0:0:0:
192,192,296607,128,0,296950:0:0:0:0:
320,192,296950,128,0,297293:0:0:0:0:
64,192,297293,128,0,297464:0:0:0:0:
192,192,297464,128,0,297636:0:0:0:0:
320,192,297636,128,0,297807:0:0:0:0:
448,192,297807,128,0,297979:0:0:0:0:
320,192,297979,128,0,298150:0:0:0:0:
192,192,298150,128,0,298321:0:0:0:0:
64,192,298321,128,0,298493:0:0:0:0:
320,192,298493,128,0,298664:0:0:0:0:
192,192,298664,128,0,299007:0:0:0:0:
448,192,299007,128,0,299350:0:0:0:0:
320,192,299350,128,0,299693:0:0:0:0:
64,192,299864,128,0,299950:0:0:0:0:
192,192,299950,128,0,300036:0:0:0:0:
320,192,300036,128,0,300207:0:0:0:0:
448,192,300207,128,0,300379:0:0:0:0:
64,192,300379,128,0,300550:0:0:0:0:
320,192,300550,128,0,300721:0:0:0:0:
192,192,300721,128,0,300893:0:0:0:0:
448,192,300893,128,0,301064:0:0:0:0:
320,192,301064,128,0,301236:0:0:0:0:
192,192,301236,128,0,301407:0:0:0:0:
64,192,301407,128,0,301579:0:0:0:0:
320,192,301579,128,0,301750:0:0:0:0:
192,192,301750,128,0,301921:0:0:0:0:
448,192,301921,128,0,302093:0:0:0:0:
320,192,302093,128,0,302436:0:0:0:0:
192,192,302436,128,0,302779:0:0:0:0:
64,192,302779,128,0,302950:0:0:0:0:
192,192,302950,128,0,303121:0:0:0:0:
320,192,303121,128,0,303293:0:0:0:0:
448,192,303293,128,0,303464:0:0:0:0:
64,192,303464,128,0,303636:0:0:0:0:
320,192,303636,128,0,303807:0:0:0:0:
192,192,303807,128,0,303979:0:0:0:0:
448,192,303979,128,0,304150:0:0:0:0:
320,192,304150,128,0,304321:0:0:0:0:
192,192,304321,128,0,304493:0:0:0:0:
64,192,304493,128,0,304664:0:0:0:0:
192,192,304664,128,0,304836:0:0:0:0:
320,192,304836,128,0,305179:0:0:0:0:
64,192,305179,1,8,0:0:0:0:
448,192,305179,1,0,0:0:0:0:
192,192,305179,1,0,0:0:0:0:
64,192,305521,1,4,0:0:0:0:
320,192,305521,1,0,0:0:0:40:Bass Drum.wav
448,192,305521,1,0,0:0:0:0:
192,192,305693,1,0,0:0:0:0:
320,192,305864,1,0,0:0:0:0:
448,192,306036,1,0,0:0:0:0:
320,192,306207,1,0,0:0:0:0:
192,192,306379,1,0,0:0:0:0:
64,192,306550,1,0,0:0:0:0:
448,192,306721,1,0,0:0:0:0:
320,192,306807,1,0,0:0:0:0:
192,192,306893,1,0,0:0:0:40:Bass Drum.wav
64,192,306893,1,4,0:0:0:0:
448,192,306893,1,0,0:0:0:0:
320,192,307064,1,0,0:0:0:0:
192,192,307236,1,0,0:0:0:0:
448,192,307407,1,0,0:0:0:0:
64,192,307579,1,0,0:0:0:0:
320,192,307750,1,0,0:0:0:0:
192,192,307921,1,0,0:0:0:0:
64,192,308093,1,0,0:0:0:0:
192,192,308179,1,0,0:0:0:0:
448,192,308264,1,0,0:0:0:40:Bass Drum.wav
320,192,308264,1,4,0:0:0:0:
64,192,308264,1,0,0:0:0:0:
192,192,308436,1,0,0:0:0:0:
320,192,308607,1,0,0:0:0:0:
448,192,308779,1,0,0:0:0:0:
64,192,308950,1,0,0:0:0:0:
320,192,309121,1,0,0:0:0:0:
192,192,309293,1,0,0:0:0:0:
448,192,309464,1,0,0:0:0:0:
320,192,309550,1,0,0:0:0:0:
192,192,309636,1,0,0:0:0:40:Bass Drum.wav
448,192,309636,1,0,0:0:0:0:
64,192,309636,1,4,0:0:0:0:
320,192,309807,1,0,0:0:0:0:
64,192,309979,1,0,0:0:0:0:
192,192,310150,1,0,0:0:0:0:
320,192,310321,1,0,0:0:0:0:
448,192,310493,1,0,0:0:0:0:
64,192,310664,1,0,0:0:0:0:
192,192,310836,1,0,0:0:0:0:
320,192,310921,1,0,0:0:0:0:
64,192,311007,1,4,0:0:0:0:
192,192,311007,1,0,0:0:0:0:
448,192,311007,1,0,0:0:0:40:Bass Drum.wav
448,192,311179,1,0,0:0:0:0:
320,192,311179,1,0,0:0:0:40:Bass Drum.wav
320,192,311350,1,4,0:0:0:0:
64,192,311350,1,0,0:0:0:0:
192,192,311350,1,0,0:0:0:40:Bass Drum.wav
448,192,311521,1,0,0:0:0:40:Bass Drum.wav
192,192,311521,1,0,0:0:0:0:
64,192,311693,1,4,0:0:0:0:
448,192,311693,1,0,0:0:0:0:
320,192,311693,1,0,0:0:0:40:Bass Drum.wav
192,192,311864,1,0,0:0:0:0:
64,192,311864,1,0,0:0:0:40:Bass Drum.wav
192,192,312036,1,4,0:0:0:0:
320,192,312036,1,0,0:0:0:40:Bass Drum.wav
448,192,312036,1,0,0:0:0:0:
64,192,312207,1,0,0:0:0:40:Bass Drum.wav
320,192,312207,1,4,0:0:0:0:
64,192,312379,1,4,0:0:0:0:
192,192,312379,1,0,0:0:0:0:
448,192,312379,1,0,0:0:0:40:Bass Drum.wav
320,192,312550,1,0,0:0:0:40:Bass Drum.wav
448,192,312550,1,0,0:0:0:0:
320,192,312721,1,0,0:0:0:0:
64,192,312721,1,4,0:0:0:0:
192,192,312721,1,0,0:0:0:40:Bass Drum.wav
64,192,312893,1,4,0:0:0:0:
448,192,312893,1,0,0:0:0:40:Bass Drum.wav
320,192,313064,1,0,0:0:0:0:
448,192,313064,1,4,0:0:0:0:
192,192,313064,1,0,0:0:0:40:Bass Drum.wav
320,192,313236,1,0,0:0:0:40:Bass Drum.wav
64,192,313236,1,4,0:0:0:0:
64,192,313407,1,0,0:0:0:0:
192,192,313407,1,0,0:0:0:40:Bass Drum.wav
448,192,313407,1,4,0:0:0:0:
320,192,313579,1,0,0:0:0:40:Bass Drum.wav
192,192,313579,1,0,0:0:0:0:
448,192,313750,1,0,0:0:0:0:
320,192,313750,1,0,0:0:0:40:Bass Drum.wav
64,192,313836,1,0,0:0:0:0:
192,192,313836,1,0,0:0:0:40:Bass Drum.wav
320,192,313921,1,0,0:0:0:40:Bass Drum.wav
448,192,313921,1,0,0:0:0:0:
192,192,314007,1,0,0:0:0:40:Bass Drum.wav
64,192,314007,1,0,0:0:0:0:
320,192,314093,1,0,0:0:0:40:Bass Drum.wav
448,192,314093,1,0,0:0:0:0:
64,192,314179,1,0,0:0:0:0:
192,192,314179,1,0,0:0:0:40:Bass Drum.wav
448,192,314264,1,0,0:0:0:0:
320,192,314264,1,0,0:0:0:40:Bass Drum.wav
64,192,314350,1,0,0:0:0:0:
192,192,314350,1,0,0:0:0:40:Bass Drum.wav
320,192,314436,1,0,0:0:0:40:Bass Drum.wav
448,192,314436,1,0,0:0:0:0:
192,192,314521,1,0,0:0:0:40:Bass Drum.wav
64,192,314521,1,0,0:0:0:0:
448,192,314607,1,0,0:0:0:0:
320,192,314607,1,0,0:0:0:40:Bass Drum.wav
64,192,314693,1,0,0:0:0:0:
192,192,314693,1,0,0:0:0:40:Bass Drum.wav
320,192,314779,1,0,0:0:0:40:Bass Drum.wav
448,192,314779,1,0,0:0:0:0:
192,192,314864,1,0,0:0:0:40:Bass Drum.wav
64,192,314864,1,0,0:0:0:0:
320,192,314950,1,0,0:0:0:40:Bass Drum.wav
448,192,314950,1,0,0:0:0:0:
192,192,315036,1,0,0:0:0:40:Bass Drum.wav
64,192,315036,1,0,0:0:0:0:
448,192,315121,1,0,0:0:0:0:
320,192,315121,1,0,0:0:0:40:Bass Drum.wav
448,192,315807,128,0,316493:0:0:0:0:
320,192,316493,1,0,0:0:0:0:
64,192,316493,1,0,0:0:0:40:Bass Drum.wav
192,192,316493,128,0,316664:0:0:0:0:
320,192,316664,128,0,316836:0:0:0:0:
192,192,316836,1,0,0:0:0:40:Bass Drum.wav
448,192,316836,128,0,317007:0:0:0:0:
64,192,316836,1,0,0:0:0:0:
320,192,317007,128,0,317179:0:0:0:0:
192,192,317179,128,0,317350:0:0:0:0:
448,192,317179,1,0,0:0:0:40:Bass Drum.wav
64,192,317179,1,0,0:0:0:0:
64,192,317350,128,0,317521:0:0:0:0:
448,192,317521,128,0,317693:0:0:0:0:
320,192,317521,1,0,0:0:0:40:Bass Drum.wav
192,192,317521,1,0,0:0:0:0:
320,192,317693,128,0,317779:0:0:0:0:
192,192,317779,128,0,317864:0:0:0:0:
320,192,317864,1,0,0:0:0:0:
448,192,317864,1,0,0:0:0:40:Bass Drum.wav
64,192,317864,128,0,318207:0:0:0:0:
448,192,318207,128,0,318550:0:0:0:0:
320,192,318207,1,0,0:0:0:0:
192,192,318207,1,0,0:0:0:40:Bass Drum.wav
320,192,318550,1,0,0:0:0:40:Bass Drum.wav
64,192,318550,1,0,0:0:0:0:
192,192,318550,128,0,318893:0:0:0:0:
64,192,318893,1,0,0:0:0:40:Bass Drum.wav
320,192,318893,128,0,319236:0:0:0:0:
448,192,318893,1,0,0:0:0:0:
448,192,319236,1,0,0:0:0:40:Bass Drum.wav
64,192,319236,128,0,319407:0:0:0:0:
192,192,319236,1,0,0:0:0:0:
192,192,319407,128,0,319579:0:0:0:0:
320,192,319579,128,0,319750:0:0:0:0:
448,192,319579,1,0,0:0:0:0:
64,192,319579,1,0,0:0:0:40:Bass Drum.wav
448,192,319750,128,0,319921:0:0:0:0:
64,192,319921,1,0,0:0:0:0:
320,192,319921,128,0,320093:0:0:0:0:
192,192,319921,1,0,0:0:0:40:Bass Drum.wav
192,192,320093,128,0,320264:0:0:0:0:
64,192,320264,128,0,320436:0:0:0:0:
448,192,320264,1,0,0:0:0:40:Bass Drum.wav
320,192,320264,1,0,0:0:0:0:
320,192,320436,128,0,320607:0:0:0:0:
192,192,320607,128,0,320950:0:0:0:0:
64,192,320607,1,0,0:0:0:40:Bass Drum.wav
448,192,320607,1,0,0:0:0:0:
64,192,320950,1,0,0:0:0:0:
320,192,320950,1,0,0:0:0:40:Bass Drum.wav
448,192,320950,128,0,321293:0:0:0:0:
192,192,321293,1,0,0:0:0:40:Bass Drum.wav
320,192,321293,1,0,0:0:0:0:
64,192,321293,128,0,321636:0:0:0:0:
320,192,321636,1,0,0:0:0:0:
448,192,321636,1,8,0:0:0:0:
192,192,321636,1,0,0:0:0:0:
320,192,321807,128,0,321893:0:0:0:0:
192,192,321893,128,0,321979:0:0:0:0:
320,192,321979,1,0,0:0:0:0:
64,192,321979,128,0,322150:0:0:0:0:
448,192,321979,1,0,0:0:0:40:Bass Drum.wav
448,192,322150,128,0,322321:0:0:0:0:
320,192,322321,1,0,0:0:0:0:
192,192,322321,1,0,0:0:0:40:Bass Drum.wav
64,192,322321,128,0,322493:0:0:0:0:
320,192,322493,128,0,322664:0:0:0:0:
448,192,322664,1,0,0:0:0:40:Bass Drum.wav
192,192,322664,128,0,322836:0:0:0:0:
64,192,322664,1,0,0:0:0:0:
448,192,322836,128,0,323007:0:0:0:0:
192,192,323007,1,0,0:0:0:0:
64,192,323007,1,0,0:0:0:40:Bass Drum.wav
320,192,323007,128,0,323179:0:0:0:0:
448,192,323179,1,0,0:0:0:40:Bass Drum.wav
192,192,323179,128,0,323350:0:0:0:0:
64,192,323179,1,0,0:0:0:0:
320,192,323350,1,0,0:0:0:40:Bass Drum.wav
64,192,323350,128,0,323521:0:0:0:0:
448,192,323350,1,0,0:0:0:0:
320,192,323521,128,0,323693:0:0:0:0:
192,192,323693,1,0,0:0:0:40:Bass Drum.wav
64,192,323693,128,0,323864:0:0:0:0:
448,192,323693,1,0,0:0:0:0:
448,192,323864,128,0,324036:0:0:0:0:
192,192,324036,1,0,0:0:0:40:Bass Drum.wav
64,192,324036,1,0,0:0:0:0:
320,192,324036,128,0,324379:0:0:0:0:
448,192,324379,1,0,0:0:0:40:Bass Drum.wav
192,192,324379,128,0,324721:0:0:0:0:
64,192,324379,1,0,0:0:0:0:
448,192,324550,1,0,0:0:0:0:
320,192,324550,1,0,0:0:0:40:Bass Drum.wav
320,192,324721,1,0,0:0:0:40:Bass Drum.wav
448,192,324721,1,0,0:0:0:0:
64,192,324721,128,0,324893:0:0:0:0:
192,192,324893,128,0,325064:0:0:0:0:
448,192,325064,1,0,0:0:0:0:
64,192,325064,1,0,0:0:0:40:Bass Drum.wav
320,192,325064,128,0,325236:0:0:0:0:
448,192,325236,128,0,325407:0:0:0:0:
64,192,325236,1,0,0:0:0:0:
192,192,325236,1,0,0:0:0:40:Bass Drum.wav
320,192,325407,1,0,0:0:0:40:Bass Drum.wav
192,192,325407,1,0,0:0:0:0:
64,192,325407,128,0,325579:0:0:0:0:
448,192,325579,128,0,325750:0:0:0:0:
64,192,325750,1,0,0:0:0:0:
192,192,325750,1,0,0:0:0:40:Bass Drum.wav
320,192,325836,1,0,0:0:0:40:Bass Drum.wav
448,192,325836,1,0,0:0:0:0:
64,192,325921,1,0,0:0:0:0:
192,192,325921,1,0,0:0:0:40:Bass Drum.wav
320,192,326007,1,0,0:0:0:40:Bass Drum.wav
448,192,326007,1,0,0:0:0:0:
192,192,326093,1,0,0:0:0:40:Bass Drum.wav
64,192,326093,128,0,326264:0:0:0:0:
320,192,326264,128,0,326436:0:0:0:0:
192,192,326436,128,0,326607:0:0:0:0:
448,192,326607,128,0,326779:0:0:0:0:
64,192,326779,128,0,327464:0:0:0:0:
448,192,327464,1,0,0:0:0:0:
320,192,327464,1,0,0:0:0:40:Bass Drum.wav
192,192,327464,128,0,327636:0:0:0:0:
448,192,327636,1,0,0:0:0:0:
64,192,327636,1,0,0:0:0:40:Bass Drum.wav
320,192,327636,128,0,327807:0:0:0:0:
64,192,327807,1,0,0:0:0:0:
192,192,327807,1,0,0:0:0:40:Bass Drum.wav
448,192,327807,128,0,327979:0:0:0:0:
320,192,327979,128,0,328150:0:0:0:0:
64,192,328150,1,0,0:0:0:0:
192,192,328150,128,0,328321:0:0:0:0:
448,192,328150,1,0,0:0:0:40:Bass Drum.wav
64,192,328321,128,0,328493:0:0:0:0:
448,192,328493,128,0,328664:0:0:0:0:
192,192,328493,1,0,0:0:0:40:Bass Drum.wav
320,192,328493,1,0,0:0:0:0:
320,192,328664,128,0,328750:0:0:0:0:
192,192,328750,128,0,328836:0:0:0:0:
64,192,328836,128,0,329179:0:0:0:0:
448,192,328836,1,0,0:0:0:40:Bass Drum.wav
320,192,328836,1,0,0:0:0:0:
192,192,329179,1,0,0:0:0:40:Bass Drum.wav
448,192,329179,1,0,0:0:0:0:
320,192,329179,128,0,329521:0:0:0:0:
192,192,329521,128,0,329864:0:0:0:0:
448,192,329521,1,0,0:0:0:40:Bass Drum.wav
64,192,329521,1,0,0:0:0:0:
448,192,329864,128,0,330207:0:0:0:0:
320,192,329864,1,0,0:0:0:40:Bass Drum.wav
64,192,329864,1,0,0:0:0:0:
192,192,330207,1,0,0:0:0:40:Bass Drum.wav
320,192,330207,1,0,0:0:0:0:
64,192,330207,128,0,330379:0:0:0:0:
192,192,330379,128,0,330550:0:0:0:0:
64,192,330550,1,0,0:0:0:0:
320,192,330550,128,0,330721:0:0:0:0:
448,192,330550,1,0,0:0:0:40:Bass Drum.wav
448,192,330721,128,0,330893:0:0:0:0:
192,192,330893,1,0,0:0:0:0:
320,192,330893,128,0,331064:0:0:0:0:
64,192,330893,1,0,0:0:0:40:Bass Drum.wav
192,192,331064,128,0,331236:0:0:0:0:
448,192,331236,1,0,0:0:0:0:
64,192,331236,128,0,331407:0:0:0:0:
320,192,331236,1,0,0:0:0:40:Bass Drum.wav
448,192,331407,128,0,331579:0:0:0:0:
192,192,331579,1,0,0:0:0:40:Bass Drum.wav
320,192,331579,128,0,331921:0:0:0:0:
64,192,331579,1,0,0:0:0:0:
64,192,331921,1,0,0:0:0:0:
192,192,331921,128,0,332264:0:0:0:0:
448,192,331921,1,0,0:0:0:40:Bass Drum.wav
320,192,332264,1,0,0:0:0:40:Bass Drum.wav
448,192,332264,1,0,0:0:0:0:
64,192,332264,128,0,332607:0:0:0:0:
320,192,332607,1,0,0:0:0:0:
448,192,332607,1,0,0:0:0:0:
192,192,332607,1,8,0:0:0:0:
448,192,332779,128,0,332864:0:0:0:0:
320,192,332864,128,0,332950:0:0:0:0:
64,192,332950,1,0,0:0:0:40:Bass Drum.wav
192,192,332950,128,0,333121:0:0:0:0:
448,192,332950,1,0,0:0:0:0:
448,192,333121,128,0,333293:0:0:0:0:
320,192,333293,1,0,0:0:0:40:Bass Drum.wav
192,192,333293,1,0,0:0:0:0:
64,192,333293,128,0,333464:0:0:0:0:
320,192,333464,128,0,333636:0:0:0:0:
192,192,333636,128,0,333807:0:0:0:0:
448,192,333636,1,0,0:0:0:40:Bass Drum.wav
64,192,333636,1,0,0:0:0:0:
448,192,333807,128,0,333979:0:0:0:0:
320,192,333979,128,0,334150:0:0:0:0:
64,192,333979,1,0,0:0:0:0:
192,192,333979,1,0,0:0:0:40:Bass Drum.wav
64,192,334150,1,0,0:0:0:0:
192,192,334150,128,0,334321:0:0:0:0:
448,192,334150,1,0,0:0:0:40:Bass Drum.wav
320,192,334321,1,0,0:0:0:40:Bass Drum.wav
448,192,334321,1,0,0:0:0:0:
64,192,334321,128,0,334493:0:0:0:0:
320,192,334493,128,0,334664:0:0:0:0:
64,192,334664,1,0,0:0:0:40:Bass Drum.wav
192,192,334664,128,0,334836:0:0:0:0:
448,192,334664,1,0,0:0:0:0:
448,192,334836,128,0,335007:0:0:0:0:
192,192,335007,1,0,0:0:0:40:Bass Drum.wav
320,192,335007,128,0,335350:0:0:0:0:
64,192,335007,1,0,0:0:0:0:
64,192,335350,1,0,0:0:0:0:
192,192,335350,128,0,335693:0:0:0:0:
448,192,335350,1,0,0:0:0:40:Bass Drum.wav
320,192,335521,1,0,0:0:0:40:Bass Drum.wav
64,192,335521,1,0,0:0:0:0:
320,192,335693,1,0,0:0:0:40:Bass Drum.wav
448,192,335693,1,0,0:0:0:0:
448,192,335864,1,0,0:0:0:40:Bass Drum.wav
64,192,335864,1,0,0:0:0:0:
320,192,336036,1,0,0:0:0:40:Bass Drum.wav
64,192,336036,1,0,0:0:0:0:
192,192,336207,1,0,0:0:0:40:Bass Drum.wav
320,192,336207,1,0,0:0:0:0:
192,192,336379,1,0,0:0:0:40:Bass Drum.wav
448,192,336379,1,0,0:0:0:0:
320,192,336464,1,0,0:0:0:40:Bass Drum.wav
64,192,336464,1,0,0:0:0:0:
448,192,336550,1,0,0:0:0:0:
192,192,336550,1,0,0:0:0:40:Bass Drum.wav
320,192,336636,1,0,0:0:0:40:Bass Drum.wav
64,192,336636,1,0,0:0:0:0:
448,192,336721,1,0,0:0:0:0:
192,192,336721,1,0,0:0:0:40:Bass Drum.wav
320,192,336807,1,0,0:0:0:40:Bass Drum.wav
64,192,336807,1,0,0:0:0:0:
448,192,336893,1,0,0:0:0:0:
192,192,336893,1,0,0:0:0:40:Bass Drum.wav
320,192,336979,1,0,0:0:0:40:Bass Drum.wav
64,192,336979,1,0,0:0:0:0:
192,192,337064,128,0,337236:0:0:0:0:
448,192,337064,1,0,0:0:0:0:
320,192,337236,128,0,337407:0:0:0:0:
448,192,337407,128,0,337579:0:0:0:0:
64,192,337579,128,0,337750:0:0:0:0:
320,192,337750,128,0,338436:0:0:0:0:
448,192,338436,1,4,0:0:0:0:
64,192,338436,1,0,0:0:0:0:
320,192,338950,1,0,0:0:0:0:
192,192,339121,1,0,0:0:0:0:
64,192,339121,1,8,0:0:0:0:
448,192,339121,1,0,0:0:0:0:
320,192,339293,1,0,0:0:0:0:
192,192,339464,1,0,0:0:0:0:
64,192,339636,1,0,0:0:0:0:
320,192,339807,1,2,0:0:0:0:
448,192,339807,1,0,0:0:0:0:
192,192,340150,1,2,0:0:0:0:
320,192,340150,1,0,0:0:0:0:
64,192,340493,1,0,0:0:0:0:
192,192,340493,1,0,0:0:0:0:
448,192,340493,1,8,0:0:0:0:
320,192,340836,1,0,0:0:0:0:
64,192,341179,1,2,0:0:0:0:
448,192,341179,1,0,0:0:0:0:
64,192,341693,1,0,0:0:0:0:
192,192,341864,1,0,0:0:0:0:
320,192,341864,1,8,0:0:0:0:
448,192,341864,1,0,0:0:0:0:
64,192,342036,1,0,0:0:0:0:
192,192,342207,1,0,0:0:0:0:
320,192,342379,1,0,0:0:0:0:
448,192,342550,1,0,0:0:0:0:
64,192,342550,1,2,0:0:0:0:
192,192,342893,1,0,0:0:0:0:
320,192,342893,1,2,0:0:0:0:
64,192,343236,1,0,0:0:0:0:
320,192,343236,1,0,0:0:0:0:
448,192,343236,1,8,0:0:0:0:
192,192,343579,1,0,0:0:0:0:
320,192,343921,1,2,0:0:0:0:
448,192,343921,1,0,0:0:0:0:
448,192,344436,1,0,0:0:0:0:
64,192,344607,1,0,0:0:0:0:
192,192,344607,1,8,0:0:0:0:
320,192,344607,1,0,0:0:0:0:
448,192,344779,1,0,0:0:0:0:
320,192,344950,1,0,0:0:0:0:
192,192,345121,1,0,0:0:0:0:
448,192,345293,1,0,0:0:0:0:
320,192,345293,1,2,0:0:0:0:
64,192,345464,1,0,0:0:0:0:
320,192,345636,1,0,0:0:0:0:
192,192,345636,1,2,0:0:0:0:
320,192,345979,1,0,0:0:0:0:
448,192,345979,1,8,0:0:0:0:
64,192,345979,1,0,0:0:0:0:
192,192,346150,128,0,346493:0:0:0:0:
448,192,346493,1,0,0:0:0:0:
64,192,346664,1,0,0:0:0:0:
320,192,346664,1,2,0:0:0:0:
64,192,347179,1,0,0:0:0:0:
192,192,347350,1,0,0:0:0:0:
320,192,347350,1,8,0:0:0:0:
448,192,347350,1,0,0:0:0:0:
64,192,347521,1,0,0:0:0:0:
192,192,347693,1,0,0:0:0:0:
320,192,347864,1,0,0:0:0:0:
64,192,348036,1,2,0:0:0:0:
448,192,348036,1,0,0:0:0:0:
192,192,348379,1,0,0:0:0:0:
320,192,348379,1,2,0:0:0:0:
320,192,348721,1,0,0:0:0:0:
448,192,348721,1,8,0:0:0:0:
64,192,348721,1,0,0:0:0:0:
192,192,348893,1,2,0:0:0:0:
448,192,348893,1,0,0:0:0:0:
320,192,349064,1,2,0:0:0:0:
64,192,349064,1,0,0:0:0:0:
64,192,349407,1,0,0:0:0:0:
192,192,349407,1,2,0:0:0:0:
448,192,349407,1,4,0:0:0:0:
320,192,349407,1,0,0:0:0:0:
448,192,349921,1,0,0:0:0:0:
320,192,350093,1,0,0:0:0:0:
192,192,350093,1,8,0:0:0:0:
64,192,350093,1,0,0:0:0:0:
448,192,350264,1,0,0:0:0:0:
320,192,350436,1,0,0:0:0:0:
192,192,350607,1,0,0:0:0:0:
448,192,350779,1,2,0:0:0:0:
64,192,350779,1,0,0:0:0:0:
320,192,351121,1,0,0:0:0:0:
192,192,351121,1,2,0:0:0:0:
448,192,351464,1,0,0:0:0:0:
64,192,351464,1,0,0:0:0:0:
320,192,351464,1,8,0:0:0:0:
192,192,351807,1,0,0:0:0:0:
64,192,352150,1,2,0:0:0:0:
448,192,352150,1,0,0:0:0:0:
320,192,352664,1,0,0:0:0:0:
64,192,352836,1,0,0:0:0:0:
192,192,352836,1,8,0:0:0:0:
448,192,352836,1,0,0:0:0:0:
320,192,353007,1,0,0:0:0:0:
192,192,353179,1,0,0:0:0:0:
448,192,353350,1,0,0:0:0:0:
64,192,353521,1,0,0:0:0:0:
320,192,353521,1,2,0:0:0:0:
192,192,353864,1,2,0:0:0:0:
448,192,353864,1,0,0:0:0:0:
64,192,354207,1,0,0:0:0:0:
448,192,354207,1,0,0:0:0:0:
320,192,354207,1,8,0:0:0:0:
192,192,354550,1,0,0:0:0:0:
320,192,354550,1,0,0:0:0:0:
64,192,354893,1,2,0:0:0:0:
448,192,354893,1,0,0:0:0:0:
64,192,355407,1,0,0:0:0:0:
448,192,355579,1,0,0:0:0:0:
192,192,355579,1,0,0:0:0:0:
320,192,355579,1,8,0:0:0:0:
64,192,355750,1,0,0:0:0:0:
192,192,355921,1,0,0:0:0:0:
320,192,356093,1,0,0:0:0:0:
64,192,356264,1,2,0:0:0:0:
448,192,356264,1,0,0:0:0:0:
192,192,356436,1,0,0:0:0:0:
64,192,356607,1,0,0:0:0:0:
320,192,356607,1,2,0:0:0:0:
192,192,356950,1,8,0:0:0:0:
320,192,356950,1,0,0:0:0:0:
448,192,356950,1,0,0:0:0:0:
64,192,357121,128,0,357464:0:0:0:0:
192,192,357464,1,0,0:0:0:0:
320,192,357636,1,0,0:0:0:0:
448,192,357636,1,2,0:0:0:0:
64,192,357979,1,0,0:0:0:0:
192,192,358064,1,0,0:0:0:0:
320,192,358150,1,0,0:0:0:0:
448,192,358150,1,0,0:0:0:0:
192,192,358236,1,0,0:0:0:0:
448,192,358321,1,0,0:0:0:0:
64,192,358321,1,0,0:0:0:0:
320,192,358493,1,0,0:0:0:0:
192,192,358493,1,0,0:0:0:0:
64,192,358664,1,0,0:0:0:0:
448,192,358664,1,0,0:0:0:0:
320,192,359007,1,0,0:0:0:0:
448,192,359007,1,0,0:0:0:0:
64,192,359007,1,0,0:0:0:0:
192,192,359007,128,0,363464:0:0:0:0:
448,192,363464,128,0,369979:0:0:0:0:
64,192,363464,128,0,369979:0:0:0:0:
