osu file format v14

[General]
AudioFilename: audio.mp3
AudioLeadIn: 0
PreviewTime: 115302
Countdown: 1
SampleSet: Soft
StackLeniency: 0.7
Mode: 0
LetterboxInBreaks: 0
WidescreenStoryboard: 0

[Editor]
Bookmarks: 14845,25817,31302,36788,47760,57360,58731,80674,83417,94388,105360,110845,116331,127302,138274
DistanceSpacing: 1
BeatDivisor: 4
GridSize: 32
TimelineZoom: 2.5

[Metadata]
Title:Monosugoi Space Shuttle de Koishi ga Monosugoi Uta
TitleUnicode:Monosugoi Space Shuttle de Koishi ga Monosugoi Uta
Artist:Nanahira
ArtistUnicode:Nanahira
Creator:[ Same ]
Version:Pew - Pew - Peew
Source:
Tags:
BeatmapID:1311955
BeatmapSetID:622287

[Difficulty]
HPDrainRate:5
CircleSize:4
OverallDifficulty:5
ApproachRate:9.2
SliderMultiplier:1.75
SliderTickRate:1

[Events]
//Background and Video events
0,0,"stretched-1366-768-590856.jpg",0,0
//Break Periods
2,36987,47190
//Storyboard Layer 0 (Background)
//Storyboard Layer 1 (Fail)
//Storyboard Layer 2 (Pass)
//Storyboard Layer 3 (Foreground)
//Storyboard Sound Samples

[TimingPoints]
-240,342.857142857143,4,1,0,100,1,0
13474,-100,4,2,1,75,0,0
14845,-125,4,2,1,75,0,0
25817,-111.111111111111,4,3,1,50,0,0
31302,-90.9090909090909,4,3,1,50,0,0
58731,-62.5,4,3,1,50,0,0
80674,-76.9230769230769,4,2,1,50,0,0
83417,-83.3333333333333,4,2,1,50,0,0
94388,-71.4285714285714,4,2,1,50,0,0
105360,-66.6666666666667,4,2,1,50,0,0
113588,-66.6666666666667,4,3,1,50,0,0
116331,-62.5,4,2,1,50,0,0

[HitObjects]
196,166,13474,5,0,0:0:0:0:
196,166,13817,1,0,0:0:0:0:
219,272,13988,2,0,L|265:262,2,43.75
134,248,14331,1,0,0:0:0:0:
64,195,14502,1,0,0:0:0:0:
85,109,14674,1,0,0:0:0:0:
176,125,14845,6,0,B|158:159|173:189|189:212|176:241|169:271,1,140
365,240,15359,2,0,P|320:235|283:246,2,70
460,194,15874,1,0,0:0:0:0:
460,89,16045,1,0,0:0:0:0:
363,47,16217,2,0,P|319:37|264:45,1,70
128,130,16560,2,0,P|196:123|221:132,1,70
293,297,16902,2,0,P|312:233|297:162,1,140
145,293,17588,6,0,P|101:295|142:241,1,140
296,276,18102,2,0,P|334:297|382:292,2,70
240,185,18617,1,0,0:0:0:0:
256,81,18788,1,0,0:0:0:0:
341,142,18960,2,0,L|319:240,1,70
159,264,19302,2,0,L|180:345,1,70
388,308,19645,6,0,P|410:271|394:181,1,105
324,249,19988,2,0,P|281:237|204:264,1,105
276,325,20331,2,0,P|322:344|401:304,1,140
410,186,20845,6,0,P|405:121|417:86,2,70
322,231,21360,1,0,0:0:0:0:
232,192,21531,1,0,0:0:0:0:
156,254,21702,2,0,L|83:269,1,70
212,335,22045,2,0,L|361:340,1,140
443,193,22560,5,0,0:0:0:0:
443,193,22731,2,0,P|433:131|415:104,1,70
358,266,23074,2,0,P|321:281|213:256,2,140
421,126,23931,2,0,P|430:169|421:204,1,70
270,144,24274,2,0,P|265:97|276:69,1,70
356,25,24617,1,0,0:0:0:0:
371,121,24788,1,0,0:0:0:0:
327,208,24960,1,0,0:0:0:0:
371,294,25131,6,0,B|314:319|314:319|284:317|243:322,1,105
219,243,25474,2,0,L|133:257,1,70
123,104,25817,5,0,0:0:0:0:
146,105,25902,1,0,0:0:0:0:
170,106,25988,1,0,0:0:0:0:
194,107,26074,1,0,0:0:0:0:
217,108,26159,1,0,0:0:0:0:
241,109,26245,1,0,0:0:0:0:
265,110,26331,1,0,0:0:0:0:
289,111,26417,1,0,0:0:0:0:
312,111,26502,1,0,0:0:0:0:
371,277,26845,5,0,0:0:0:0:
347,278,26930,1,0,0:0:0:0:
323,279,27016,1,0,0:0:0:0:
299,280,27102,1,0,0:0:0:0:
275,281,27187,1,0,0:0:0:0:
108,121,27531,5,0,0:0:0:0:
100,83,27616,1,0,0:0:0:0:
125,55,27702,1,0,0:0:0:0:
163,57,27788,1,0,0:0:0:0:
185,88,27873,1,0,0:0:0:0:
245,201,28045,1,0,0:0:0:0:
378,222,28217,1,0,0:0:0:0:
471,126,28560,6,0,B|490:169|490:169|487:210,2,78.7499975967408
390,49,29074,1,0,0:0:0:0:
310,175,29245,1,0,0:0:0:0:
451,226,29417,1,0,0:0:0:0:
268,311,29588,2,0,P|190:296|135:309,1,118.124996395111
57,249,29931,5,0,0:0:0:0:
335,139,30274,1,0,0:0:0:0:
53,36,30617,2,0,L|162:60,1,78.7499975967408
212,192,30960,2,0,L|100:206,1,78.7499975967408
348,339,31302,6,0,B|408:327|408:327|442:276,1,96.250002937317
426,125,31645,1,0,0:0:0:0:
401,84,31730,1,0,0:0:0:0:
361,58,31816,1,0,0:0:0:0:
163,88,31988,2,0,L|285:61,1,96.250002937317
360,290,32331,6,0,L|297:287,2,48.1250014686585
454,143,32674,1,0,0:0:0:0:
300,201,32845,1,0,0:0:0:0:
126,137,33017,1,0,0:0:0:0:
126,137,33102,1,0,0:0:0:0:
126,137,33188,1,0,0:0:0:0:
300,79,33360,2,0,P|375:71|415:107,1,96.250002937317
431,275,33702,5,0,0:0:0:0:
390,300,33787,1,0,0:0:0:0:
343,310,33873,1,0,0:0:0:0:
296,305,33959,1,0,0:0:0:0:
241,240,34045,6,0,L|185:225,3,48.1250014686585
194,120,34388,2,0,L|256:108,1,48.1250014686585
369,184,34560,2,0,L|315:178,1,48.1250014686585
426,96,34731,2,0,L|488:84,1,48.1250014686585
348,26,34902,2,0,L|294:20,1,48.1250014686585
202,35,35074,5,0,0:0:0:0:
154,34,35159,1,0,0:0:0:0:
113,58,35245,1,0,0:0:0:0:
89,99,35331,1,0,0:0:0:0:
92,151,35417,6,0,L|92:189,1,24.0625007343292
125,180,35502,2,0,L|94:207,1,24.0625007343292
154,217,35588,2,0,L|110:217,1,24.0625007343292
134,266,35674,2,0,L|101:249,1,24.0625007343292
99,289,35760,2,0,L|99:258,1,24.0625007343292
59,280,35845,2,0,L|75:249,1,24.0625007343292
27,243,35931,2,0,L|64:230,1,24.0625007343292
26,198,36017,2,0,L|65:208,1,24.0625007343292
59,162,36102,2,0,P|77:186|83:191,1,24.0625007343292
94,129,36188,2,0,L|119:143,1,24.0625007343292
116,85,36274,2,0,L|150:84,1,24.0625007343292
110,38,36360,2,0,L|152:17,1,24.0625007343292
75,8,36445,2,0,L|48:-1,8,24.0625007343292
250,183,47760,6,0,P|265:147|235:169,1,96.250002937317
250,183,49131,6,0,P|235:147|265:169,1,96.250002937317
250,183,50502,5,0,0:0:0:0:
250,183,50674,2,0,P|217:202|253:202,1,96.250002937317
173,253,51874,6,0,L|270:260,1,96.250002937317
256,287,53245,5,0,0:0:0:0:
160,191,53417,1,0,0:0:0:0:
256,96,53588,1,0,0:0:0:0:
351,192,53760,1,0,0:0:0:0:
161,137,53931,5,0,0:0:0:0:
310,97,54102,1,0,0:0:0:0:
350,246,54274,1,0,0:0:0:0:
201,286,54445,1,0,0:0:0:0:
196,100,54617,5,0,0:0:0:0:
347,132,54788,1,0,0:0:0:0:
315,283,54960,1,0,0:0:0:0:
164,251,55131,1,0,0:0:0:0:
256,300,55302,5,0,0:0:0:0:
147,191,55474,1,0,0:0:0:0:
256,83,55645,1,0,0:0:0:0:
364,192,55817,1,0,0:0:0:0:
256,300,55988,5,0,0:0:0:0:
207,299,56073,1,0,0:0:0:0:
163,273,56159,1,0,0:0:0:0:
124,248,56245,1,0,0:0:0:0:
82,266,56331,1,0,0:0:0:0:
74,311,56417,1,0,0:0:0:0:
108,343,56502,1,0,0:0:0:0:
152,331,56588,1,0,0:0:0:0:
190,301,56673,1,0,0:0:0:0:
234,284,56759,1,0,0:0:0:0:
282,281,56845,1,0,0:0:0:0:
328,293,56930,1,0,0:0:0:0:
370,322,57017,5,0,0:0:0:0:
353,276,57102,1,0,0:0:0:0:
349,229,57188,1,0,0:0:0:0:
359,182,57274,1,0,0:0:0:0:
381,139,57359,1,0,0:0:0:0:
256,192,57445,12,0,58560,0:0:0:0:
403,131,58731,5,0,0:0:0:0:
226,261,58902,1,0,0:0:0:0:
207,57,59074,1,0,0:0:0:0:
363,261,59245,1,0,0:0:0:0:
165,304,59417,2,0,B|86:281|86:281|44:211,1,140
281,193,59760,2,0,P|363:218|411:193,1,140
384,111,60017,5,0,0:0:0:0:
384,111,60102,2,0,P|281:92|171:144,1,210
295,173,60445,2,0,P|239:116|96:122,1,210
185,184,60788,2,0,P|139:100|32:64,1,210
192,35,61131,2,0,P|118:98|112:218,1,210
197,274,61474,5,0,0:0:0:0:
412,202,61645,1,0,0:0:0:0:
189,164,61817,1,0,0:0:0:0:
376,298,61988,1,0,0:0:0:0:
261,69,62160,1,0,0:0:0:0:
288,343,62331,1,0,0:0:0:0:
383,72,62502,1,0,0:0:0:0:
190,302,62674,1,0,0:0:0:0:
445,189,62845,6,0,P|376:198|435:130,1,210
460,257,63188,2,0,B|400:332|400:332|339:312|270:325,1,210
249,212,63531,2,0,P|148:195|57:247,1,210
19,168,63874,1,0,0:0:0:0:
170,61,64045,5,0,0:0:0:0:
170,61,64131,1,0,0:0:0:0:
247,109,64217,2,0,L|385:80,1,140
345,211,64560,1,0,0:0:0:0:
170,191,64731,1,0,0:0:0:0:
271,260,64902,1,0,0:0:0:0:
136,93,65074,1,0,0:0:0:0:
113,249,65245,1,0,0:0:0:0:
243,58,65417,1,0,0:0:0:0:
123,69,65588,5,0,0:0:0:0:
329,142,65760,1,0,0:0:0:0:
279,51,65931,1,0,0:0:0:0:
279,266,66102,1,0,0:0:0:0:
401,207,66274,2,0,B|441:149|450:115|417:56|417:56|471:89|475:149,1,210
504,142,66617,1,0,0:0:0:0:
426,324,66788,1,0,0:0:0:0:
221,309,66960,6,0,P|152:289|83:293,1,140
303,37,67302,2,0,P|329:112|318:179,1,140
146,323,67645,1,0,0:0:0:0:
103,66,67817,2,0,B|179:48|179:48|294:58,1,140
309,71,68074,1,0,0:0:0:0:
370,102,68159,1,0,0:0:0:0:
408,160,68245,1,0,0:0:0:0:
412,229,68331,1,0,0:0:0:0:
193,283,69702,5,0,0:0:0:0:
281,62,69874,1,0,0:0:0:0:
193,283,70045,1,0,0:0:0:0:
425,267,70217,1,0,0:0:0:0:
264,349,70388,2,0,L|101:362,1,140
49,159,70731,1,0,0:0:0:0:
212,40,70902,1,0,0:0:0:0:
212,40,70988,1,0,0:0:0:0:
269,97,71074,6,0,P|347:115|461:52,1,210
354,41,71417,2,0,P|348:163|383:260,1,210
359,359,71760,2,0,P|267:334|109:360,1,210
233,253,72102,2,0,P|269:177|235:46,1,210
91,128,72445,5,0,0:0:0:0:
141,308,72617,1,0,0:0:0:0:
343,309,72788,1,0,0:0:0:0:
141,308,72960,1,0,0:0:0:0:
270,173,73131,1,0,0:0:0:0:
192,23,73302,1,0,0:0:0:0:
270,173,73474,1,0,0:0:0:0:
456,218,73645,1,0,0:0:0:0:
326,341,73817,6,0,P|310:252|262:326,1,210
326,341,74160,2,0,B|455:331|478:202,1,210
384,125,74502,2,0,P|386:45|410:136,1,280
257,311,75017,1,0,0:0:0:0:
257,311,75102,1,0,0:0:0:0:
257,311,75188,5,0,0:0:0:0:
119,235,75360,1,0,0:0:0:0:
166,324,75531,1,0,0:0:0:0:
135,116,75702,1,0,0:0:0:0:
212,171,75874,1,0,0:0:0:0:
34,263,76045,1,0,0:0:0:0:
144,40,76217,1,0,0:0:0:0:
272,251,76388,1,0,0:0:0:0:
490,186,76560,5,0,0:0:0:0:
297,149,76731,1,0,0:0:0:0:
137,249,76902,1,0,0:0:0:0:
293,22,77074,1,0,0:0:0:0:
302,307,77245,2,0,B|231:289|231:289|161:296|161:296|69:271,1,210
74,188,77588,2,0,P|62:155|107:191,2,140
126,330,78102,5,0,0:0:0:0:
301,264,78274,1,0,0:0:0:0:
309,78,78445,1,0,0:0:0:0:
433,274,78617,1,0,0:0:0:0:
369,248,78702,1,0,0:0:0:0:
301,264,78788,1,0,0:0:0:0:
235,286,78874,1,0,0:0:0:0:
166,279,78959,1,0,0:0:0:0:
105,240,79045,1,0,0:0:0:0:
80,175,79130,1,0,0:0:0:0:
101,110,79216,1,0,0:0:0:0:
163,149,80674,5,0,0:0:0:0:
292,151,80845,1,0,0:0:0:0:
141,194,81017,1,0,0:0:0:0:
308,196,81188,1,0,0:0:0:0:
227,318,81360,5,0,0:0:0:0:
228,173,81531,1,0,0:0:0:0:
263,345,81702,5,0,0:0:0:0:
264,156,81873,1,0,0:0:0:0:
120,246,82045,5,0,0:0:0:0:
249,248,82216,1,0,0:0:0:0:
103,206,82388,1,0,0:0:0:0:
270,208,82559,1,0,0:0:0:0:
83,166,82731,5,0,0:0:0:0:
151,96,82902,1,0,0:0:0:0:
253,122,83074,1,0,0:0:0:0:
340,77,83245,1,0,0:0:0:0:
405,260,83417,6,0,P|345:289|194:236,1,209.999993591309
181,84,83931,1,0,0:0:0:0:
89,275,84102,1,0,0:0:0:0:
400,256,84445,1,0,0:0:0:0:
400,256,84617,2,0,L|415:138,1,104.999996795654
95,100,85131,2,0,L|118:210,1,104.999996795654
283,213,85474,2,0,L|306:96,1,104.999996795654
110,209,85817,2,0,L|130:316,1,104.999996795654
347,294,86160,6,0,P|245:272|150:320,2,209.999993591309
438,208,87017,1,0,0:0:0:0:
379,102,87188,1,0,0:0:0:0:
346,214,87360,1,0,0:0:0:0:
461,50,87531,2,0,B|347:35|347:35|235:54,1,209.999993591309
102,118,88217,1,0,0:0:0:0:
83,214,88388,2,0,P|90:283|142:315,1,104.999996795654
194,215,88731,1,0,0:0:0:0:
362,318,88902,6,0,B|394:267|359:235|325:202|385:136,1,157.499995193482
380,86,89245,2,0,P|282:68|168:93,1,209.999993591309
75,317,89931,1,0,0:0:0:0:
75,106,90102,2,0,L|60:220,1,104.999996795654
215,303,90445,1,0,0:0:0:0:
359,237,90617,2,0,L|392:118,1,104.999996795654
150,195,90960,2,0,L|128:89,1,104.999996795654
403,62,91302,2,0,P|289:46|205:71,1,157.499995193482
82,178,91645,2,0,B|128:137|180:170|226:217|277:174|319:151,2,209.999993591309
146,315,92674,5,0,0:0:0:0:
412,217,93017,1,0,0:0:0:0:
185,49,93360,1,0,0:0:0:0:
42,168,93531,2,0,L|149:141,1,104.999996795654
325,79,93874,1,0,0:0:0:0:
208,258,94045,1,0,0:0:0:0:
391,180,94217,1,0,0:0:0:0:
139,62,94388,6,0,P|112:130|132:195,1,122.499996261597
321,302,94731,2,0,L|181:295,1,122.499996261597
228,155,95074,1,0,0:0:0:0:
252,136,95159,1,0,0:0:0:0:
286,132,95245,2,0,P|329:133|395:93,1,122.499996261597
188,47,95588,1,0,0:0:0:0:
46,220,95760,6,0,P|86:276|147:284,1,122.499996261597
368,286,96102,1,0,0:0:0:0:
395,116,96274,1,0,0:0:0:0:
212,212,96445,1,0,0:0:0:0:
181,207,96531,1,0,0:0:0:0:
151,203,96617,1,0,0:0:0:0:
292,327,96788,2,0,L|425:302,1,122.499996261597
426,112,97131,5,0,0:0:0:0:
247,132,97302,1,0,0:0:0:0:
111,273,97474,1,0,0:0:0:0:
142,276,97559,1,0,0:0:0:0:
172,278,97645,1,0,0:0:0:0:
360,290,97817,2,0,P|430:266|485:277,1,122.499996261597
450,109,98160,5,0,0:0:0:0:
315,206,98331,1,0,0:0:0:0:
220,44,98502,1,0,0:0:0:0:
441,34,98674,1,0,0:0:0:0:
335,175,98845,2,0,L|366:295,1,122.499996261597
178,312,99188,1,0,0:0:0:0:
118,214,99360,1,0,0:0:0:0:
114,183,99445,1,0,0:0:0:0:
104,114,99531,2,0,L|181:97,1,61.2499981307984
223,188,99702,2,0,L|350:198,1,122.499996261597
402,71,100045,5,0,0:0:0:0:
356,308,100217,1,0,0:0:0:0:
163,196,100388,1,0,0:0:0:0:
289,37,100560,2,0,L|305:188,1,122.499996261597
229,319,100902,2,0,L|139:288,1,61.2499981307984
277,251,101074,2,0,B|343:217|387:219|431:235|431:235|385:195|330:199,1,244.999992523194
184,115,101588,5,0,0:0:0:0:
154,110,101673,1,0,0:0:0:0:
124,105,101759,1,0,0:0:0:0:
291,38,101931,1,0,0:0:0:0:
321,34,102016,1,0,0:0:0:0:
352,30,102102,1,0,0:0:0:0:
409,194,102274,6,0,L|390:278,1,61.2499981307984
315,186,102445,2,0,L|287:127,1,61.2499981307984
185,193,102617,2,0,L|160:265,1,61.2499981307984
91,323,102788,1,0,0:0:0:0:
71,291,102873,1,0,0:0:0:0:
63,256,102959,1,0,0:0:0:0:
66,219,103045,1,0,0:0:0:0:
81,186,103130,1,0,0:0:0:0:
220,142,103474,5,0,0:0:0:0:
367,96,103817,5,0,0:0:0:0:
352,277,104160,5,0,0:0:0:0:
408,290,104245,1,0,0:0:0:0:
440,242,104331,1,0,0:0:0:0:
408,195,104417,1,0,0:0:0:0:
352,208,104502,1,0,0:0:0:0:
236,259,104674,1,0,0:0:0:0:
194,269,104759,1,0,0:0:0:0:
152,262,104845,1,0,0:0:0:0:
116,240,104931,1,0,0:0:0:0:
91,206,105016,1,0,0:0:0:0:
307,164,105360,6,0,L|348:33,1,131.25000500679
205,164,105702,2,0,L|179:84,1,65.6250025033952
115,207,105874,2,0,L|88:353,1,131.25000500679
258,269,106217,1,0,0:0:0:0:
291,112,106388,1,0,0:0:0:0:
276,328,106560,1,0,0:0:0:0:
65,261,106731,6,0,B|142:227|142:227|108:218|67:186,1,131.25000500679
286,220,107074,2,0,P|231:228|206:219,1,65.6250025033952
302,130,107245,2,0,P|372:118|440:164,1,131.25000500679
307,302,107588,1,0,0:0:0:0:
230,117,107760,1,0,0:0:0:0:
383,266,107931,1,0,0:0:0:0:
181,328,108102,6,0,L|45:306,1,131.25000500679
197,205,108445,2,0,L|225:138,1,65.6250025033952
119,151,108617,2,0,L|93:14,1,131.25000500679
243,132,108960,1,0,0:0:0:0:
414,56,109131,1,0,0:0:0:0:
471,237,109302,1,0,0:0:0:0:
316,99,109474,6,0,P|304:71|303:117,1,131.25000500679
340,282,109817,2,0,P|344:298|323:280,1,65.6250025033952
359,191,109988,2,0,P|386:120|374:53,1,131.25000500679
380,64,110502,1,0,0:0:0:0:
313,133,110845,5,0,0:0:0:0:
296,283,111017,1,0,0:0:0:0:
197,92,111188,1,0,0:0:0:0:
212,245,111360,1,0,0:0:0:0:
76,103,111531,1,0,0:0:0:0:
129,287,111702,1,0,0:0:0:0:
76,103,111874,5,0,0:0:0:0:
92,253,112046,1,0,0:0:0:0:
191,62,112217,1,0,0:0:0:0:
176,214,112389,1,0,0:0:0:0:
312,73,112560,1,0,0:0:0:0:
259,256,112731,1,0,0:0:0:0:
196,73,112902,5,0,0:0:0:0:
146,251,113074,1,0,0:0:0:0:
194,73,113245,1,0,0:0:0:0:
342,214,113417,1,0,0:0:0:0:
161,119,113588,6,0,L|172:170,1,32.8125012516976
123,151,113674,2,0,L|155:184,1,32.8125012516976
107,200,113760,2,0,L|149:204,1,32.8125012516976
123,243,113845,2,0,L|169:233,1,32.8125012516976
151,279,113931,2,0,L|186:238,1,32.8125012516976
196,294,114017,2,0,L|203:254,1,32.8125012516976
245,279,114102,2,0,L|222:230,1,32.8125012516976
279,248,114188,2,0,L|234:219,1,32.8125012516976
290,200,114274,6,0,L|239:199,1,32.8125012516976
272,159,114360,2,0,L|234:177,1,32.8125012516976
260,113,114445,2,0,L|200:110,1,32.8125012516976
272,67,114531,2,0,L|231:44,1,32.8125012516976
305,36,114617,2,0,L|290:6,1,32.8125012516976
347,28,114702,2,0,L|365:-5,1,32.8125012516976
389,50,114788,2,0,L|430:28,1,32.8125012516976
413,90,114874,2,0,L|458:95,1,32.8125012516976
410,138,114960,1,0,0:0:0:0:
355,304,115302,5,0,0:0:0:0:
80,126,115645,1,0,0:0:0:0:
368,19,115988,1,0,0:0:0:0:
394,273,116331,6,0,L|254:285,1,140
114,118,116674,1,0,0:0:0:0:
114,118,116760,1,0,0:0:0:0:
114,118,116845,2,0,B|166:132|166:132|214:117|214:117|271:117,1,140
341,162,117102,1,0,0:0:0:0:
347,210,117187,1,0,0:0:0:0:
354,258,117273,1,0,0:0:0:0:
361,307,117359,1,0,0:0:0:0:
197,269,117531,2,0,P|119:245|68:268,1,140
199,350,117874,5,0,0:0:0:0:
241,349,117959,1,0,0:0:0:0:
283,348,118045,1,0,0:0:0:0:
421,163,118217,5,0,0:0:0:0:
380,162,118302,1,0,0:0:0:0:
336,164,118388,2,0,B|316:150|316:150|257:174|199:140,1,140
191,365,118731,2,0,P|180:303|118:251,1,140
356,291,119074,2,0,L|405:143,1,140
310,71,119331,5,0,0:0:0:0:
310,71,119417,2,0,L|239:44,1,70
196,136,119588,2,0,L|121:157,1,70
111,60,119760,2,0,L|40:33,1,70
38,161,119931,1,0,0:0:0:0:
38,161,120017,1,0,0:0:0:0:
38,161,120102,1,0,0:0:0:0:
120,324,120274,2,0,L|281:301,1,140
419,206,120617,5,0,0:0:0:0:
384,200,120702,1,0,0:0:0:0:
349,195,120788,1,0,0:0:0:0:
140,252,120960,2,0,L|100:185,1,70
144,120,121131,1,0,0:0:0:0:
327,29,121302,1,0,0:0:0:0:
196,274,121474,1,0,0:0:0:0:
200,239,121559,1,0,0:0:0:0:
205,204,121645,1,0,0:0:0:0:
209,169,121731,1,0,0:0:0:0:
288,133,121817,6,0,P|363:117|423:137,1,140
421,324,122160,1,0,0:0:0:0:
203,297,122331,2,0,P|92:272|72:251,1,140
101,100,122674,1,0,0:0:0:0:
182,229,122845,1,0,0:0:0:0:
110,73,123017,1,0,0:0:0:0:
305,62,123188,6,0,P|382:139|365:200,1,140
177,279,123531,2,0,P|117:245|100:179,1,140
374,225,123874,1,0,0:0:0:0:
265,51,124045,2,0,L|113:75,1,140
188,232,124388,1,0,0:0:0:0:
348,81,124560,2,0,P|409:121|427:196,2,140
280,233,125074,5,0,0:0:0:0:
76,164,125245,2,0,L|234:149,1,140
