osu file format v14

[General]
AudioFilename: audio.mp3
AudioLeadIn: 0
PreviewTime: 230072
Countdown: 1
SampleSet: Normal
StackLeniency: 0.3
Mode: 0
LetterboxInBreaks: 0
WidescreenStoryboard: 1

[Editor]
Bookmarks: 2072,22829,23639,43585,44720,45369,50072,64180,71964,73099,84774
DistanceSpacing: 0.8
BeatDivisor: 4
GridSize: 4
TimelineZoom: 1.4

[Metadata]
Title:Monosugoi Satori Gear de Reimu ga Monosugoi Uta
TitleUnicode:Monosugoi Satori Gear de Reimu ga Monosugoi Uta
Artist:Nanahira
ArtistUnicode:Nanahira
Creator:sdolnicek
Version:DO NOT MOD THIS
Source:Subterranean Animism.
Tags:Chireiden Touhou Satori Maiden Halozy deathstream Utaite
BeatmapID:1741089
BeatmapSetID:822800

[Difficulty]
HPDrainRate:5.5
CircleSize:4.5
OverallDifficulty:8.5
ApproachRate:9.2
SliderMultiplier:1.4
SliderTickRate:1

[Events]
//Background and Video events
0,0,"Kaenbyou.Rin.full.1204016.jpg",0,0
//Break Periods
2,272110,280421
2,303245,307664
2,308434,312853
//Storyboard Layer 0 (Background)
//Storyboard Layer 1 (Fail)
//Storyboard Layer 2 (Pass)
//Storyboard Layer 3 (Foreground)
//Storyboard Sound Samples

[TimingPoints]
775,324.324324324324,4,1,0,10,1,0
775,-125,4,1,0,10,0,0
1099,-125,4,1,0,20,0,0
1423,-125,4,1,0,30,0,0
1747,-125,4,1,0,40,0,0
2072,-125,4,1,0,50,0,0
22342,-121.212121212121,4,1,0,50,0,0
22504,-117.647058823529,4,1,0,50,0,0
22666,-114.285714285714,4,1,0,50,0,0
22829,-111.111111111111,4,1,0,60,0,0
43423,-105.263157894737,4,1,0,60,0,0
43585,-100,4,1,0,70,0,0
53964,-97.5609756097561,4,1,0,70,0,0
55261,-95.2380952380952,4,1,0,70,0,0
56558,-93.0232558139535,4,1,0,70,0,0
57856,-90.9090909090909,4,1,0,70,0,0
59153,-86.9565217391304,4,1,0,70,0,0
59802,-83.3333333333333,4,1,0,70,0,0
60450,-80,4,1,0,70,0,0
61099,-76.9230769230769,4,1,0,70,0,0
61747,-74.0740740740741,4,1,0,70,0,0
63045,-74.0740740740741,4,1,0,70,0,0
63099,-75.1565762004175,4,1,0,70,0,0
63153,-76.271186440678,4,1,0,70,0,0
63207,-77.4193548387097,4,1,0,70,0,0
63288,-79.2079207920792,4,1,0,70,0,0
63369,-81.2045339198105,4,1,0,70,0,0
63423,-83.1312781434015,4,1,0,70,0,0
63477,-85.1516764236296,4,1,0,70,0,0
63531,-87.2727272727273,4,1,0,70,0,0
63693,-91.9540229885057,4,1,0,70,0,0
63734,-93.0232558139535,4,1,0,70,0,0
63856,-97.0873786407767,4,1,0,70,0,0
63896,-98.5221674876847,4,1,0,70,0,0
64018,-103.092783505155,4,1,0,80,0,0
64180,-90.9090909090909,4,1,0,80,0,0
64342,-66.6666666666667,4,1,0,80,0,0
64991,-90.9090909090909,4,1,0,80,0,1
73991,-93.0232558139535,4,1,0,80,0,1
74072,-95.2380952380952,4,1,0,80,0,1
74153,-97.5609756097561,4,1,0,80,0,1
74234,-100,4,1,0,80,0,0
74558,-105.263157894737,4,1,0,80,0,0
75369,-83.3333333333333,4,1,0,80,0,1
76504,-90.9090909090909,4,1,0,80,0,1
83802,-90.9090909090909,4,1,0,80,0,0
84774,-100,4,1,0,80,0,0
105937,-100,4,1,0,15,0,0
107477,-100,4,1,0,50,0,0
107802,-100,4,1,0,60,0,0
108126,-100,4,1,0,70,0,0
108450,-100,4,1,0,80,0,0
112910,-97.5609756097561,4,1,0,80,0,0
112991,-95.2380952380952,4,1,0,80,0,0
113153,-90.9090909090909,4,1,0,80,0,0
113315,-86.9565217391304,4,1,0,80,0,0
113639,-100,4,1,0,80,0,0
117612,-97.5609756097561,4,1,0,80,0,0
117693,-95.2380952380952,4,1,0,80,0,0
117774,-93.0232558139535,4,1,0,80,0,0
117856,-90.9090909090909,4,1,0,80,0,0
117937,-88.8888888888889,4,1,0,80,0,0
118018,-86.9565217391304,4,1,0,80,0,0
118099,-85.1063829787234,4,1,0,80,0,0
118180,-83.3333333333333,4,1,0,80,0,0
118342,-80,4,1,0,80,0,0
118829,-95.2380952380952,4,1,0,80,0,0
123288,-94.1176470588235,4,1,0,80,0,0
123369,-93.0232558139535,4,1,0,80,0,0
123531,-90.9090909090909,4,1,0,80,0,0
123693,-92.3076923360947,4,1,0,80,0,0
123856,-93.75,4,1,0,80,0,0
124018,-95.2380952380952,4,1,0,80,0,0
127991,-94.1176470588235,4,1,0,80,0,0
128072,-93.0232558139535,4,1,0,80,0,0
128153,-91.9540229885057,4,1,0,80,0,0
128234,-90.9090909090909,4,1,0,80,0,0
128315,-89.8876404494382,4,1,0,80,0,0
128396,-88.8888888888889,4,1,0,80,0,0
128477,-87.9120879120879,4,1,0,80,0,0
128558,-86.9565217391304,4,1,0,80,0,0
128720,-85.1063829787234,4,1,0,80,0,0
129207,-100,4,1,0,80,0,0
155153,-66.6666666666667,4,1,0,100,0,0
155802,-80,4,1,0,80,0,0
156450,-66.6666666666667,4,1,0,80,0,0
157099,-80,4,1,0,80,0,0
157747,-66.6666666666667,4,1,0,80,0,0
158396,-80,4,1,0,80,0,0
159045,-86.9565217391304,4,1,0,80,0,0
161639,-66.6666666666667,4,1,0,70,0,0
161964,-74.0740740740741,4,1,0,70,0,0
162288,-83.3333333333333,4,1,0,70,0,0
162612,-95.2380952380952,4,1,0,70,0,0
162774,-93.0232558139535,4,1,0,70,0,0
162937,-90.9090909090909,4,1,0,90,0,1
168126,-86.9565217391304,4,1,0,90,0,1
172180,-88.3977900552486,4,1,0,90,0,1
172342,-89.8876404494382,4,1,0,90,0,1
172504,-91.4285714285714,4,1,0,90,0,1
172585,-93.0232558139535,4,1,0,90,0,1
172666,-94.6745562130178,4,1,0,90,0,1
172747,-96.3855421686747,4,1,0,90,0,1
172829,-98.159509202454,4,1,0,90,0,1
172991,-100,4,1,0,90,0,0
173315,-90.9090909090909,4,1,0,90,0,1
178504,-86.9565217391304,4,1,0,90,0,1
182396,-86.9565217391304,4,1,0,90,0,0
183045,-100,4,1,0,90,0,0
183693,-117.647058823529,4,1,0,40,0,0
184991,-86.9565217391304,4,1,0,90,0,0
185964,-71.4285714285714,4,1,0,90,0,0
186288,-90.9090909090909,4,1,0,80,0,0
195369,-86.9565217391304,4,1,0,80,0,0
196342,-71.4285714285714,4,1,0,80,0,0
196666,-100,4,1,0,80,0,0
222612,-66.6666666666667,4,1,0,80,0,0
223261,-80,4,1,0,80,0,0
223909,-66.6666666666667,4,1,0,80,0,0
224558,-80,4,1,0,80,0,0
225206,-66.6666666666667,4,1,0,80,0,0
225855,-80,4,1,0,80,0,0
226504,-86.9565217391304,4,1,0,80,0,0
228450,-80,4,1,0,80,0,0
229098,-66.6666666666667,4,1,0,70,0,0
229423,-74.0740740740741,4,1,0,70,0,0
229747,-83.3333333333333,4,1,0,70,0,0
230071,-95.2380952380952,4,1,0,70,0,0
230233,-93.0232558139535,4,1,0,70,0,0
230396,-90.9090909090909,4,1,0,90,0,1
235342,-89.8876404494382,4,1,0,90,0,1
235423,-88.8888888888889,4,1,0,90,0,1
235504,-87.9120879120879,4,1,0,90,0,1
235585,-86.9565217391304,4,1,0,90,0,1
239639,-88.3977900552486,4,1,0,90,0,1
239801,-89.8876404494382,4,1,0,90,0,1
239963,-91.4285714285714,4,1,0,90,0,1
240125,-94.6745562130178,4,1,0,90,0,1
240206,-96.3855421686747,4,1,0,90,0,1
240288,-98.159509202454,4,1,0,90,0,1
240450,-100,4,1,0,90,0,0
240612,-95.2380952380952,4,1,0,90,0,0
240774,-90.9090909090909,4,1,0,90,0,1
245964,-86.9565217391304,4,1,0,90,0,1
249856,-86.9565217391304,4,1,0,90,0,0
250504,-105.263157894737,4,1,0,80,0,0
251153,-95.2380952380952,4,1,0,80,0,0
256342,-90.9090909090909,4,1,0,80,0,0
260396,-92.3076923076923,4,1,0,80,0,0
260558,-93.75,4,1,0,80,0,0
260639,-94.488188976378,4,1,0,80,0,0
260720,-95.2380952380952,4,1,0,80,0,0
260802,-96,4,1,0,80,0,0
260883,-96.7741935483871,4,1,0,80,0,0
260964,-97.5609756097561,4,1,0,80,0,0
261045,-98.3606557377049,4,1,0,80,0,0
261207,-100,4,1,0,80,0,0
261531,-95.2380952380952,4,1,0,80,0,0
266720,-90.9090909090909,4,1,0,80,0,0
271261,-105.263157894737,4,1,0,80,0,0
271910,-125,4,1,0,80,0,0
271991,-125,4,1,0,10,0,0
281315,-125,4,1,0,20,0,0
281639,-125,4,1,0,30,0,0
281964,-125,4,1,0,40,0,0
282288,-111.111111111111,4,1,0,50,0,0
302882,-105.263157894737,4,1,0,50,0,0
303044,-100,4,1,0,70,0,0
313423,-97.5609756097561,4,1,0,70,0,0
314720,-95.2380952380952,4,1,0,70,0,0
316017,-93.0232558139535,4,1,0,70,0,0
317315,-90.9090909090909,4,1,0,70,0,0
318612,-86.9565217391304,4,1,0,70,0,0
319261,-83.3333333333333,4,1,0,70,0,0
319909,-80,4,1,0,70,0,0
320558,-76.9230769230769,4,1,0,70,0,0
321206,-74.0740740740741,4,1,0,70,0,0
322504,-74.0740740740741,4,1,0,70,0,0
322558,-75.1565762004175,4,1,0,70,0,0
322612,-76.271186440678,4,1,0,70,0,0
322666,-77.4193548387097,4,1,0,70,0,0
322747,-79.2079207920792,4,1,0,70,0,0
322828,-81.2045339198105,4,1,0,70,0,0
322882,-83.1312781434015,4,1,0,70,0,0
322936,-85.1516764236296,4,1,0,70,0,0
322990,-87.2727272727273,4,1,0,70,0,0
323152,-91.9540229885057,4,1,0,70,0,0
323193,-93.0232558139535,4,1,0,70,0,0
323315,-97.165991902834,4,1,0,70,0,0
323356,-98.5221674876847,4,1,0,70,0,0
323477,-103.092783505155,4,1,0,80,0,0
323639,-90.9090909090909,4,1,0,80,0,0
323801,-66.6666666666667,4,1,0,80,0,0
324450,-90.9090909090909,4,1,0,80,0,1
333450,-93.0232558139535,4,1,0,80,0,1
333531,-95.2380952380952,4,1,0,80,0,1
333612,-97.5609756097561,4,1,0,80,0,1
333693,-100,4,1,0,80,0,0
334017,-105.263157894737,4,1,0,80,0,0
334829,-90.9090909090909,4,1,0,80,0,1
343261,-90.9090909090909,4,1,0,80,0,0
344233,-100,4,1,0,80,0,0
364774,-98.3606558022037,4,1,0,80,0,0
364883,-96.7741935796046,4,1,0,80,0,0
364991,-95.2380952380952,4,1,0,80,0,0
365099,-93.7500000585937,4,1,0,80,0,0
365207,-92.3076923360947,4,1,0,80,0,0
365315,-90.9090909090909,4,1,0,80,0,0
365396,-90.9090909090909,4,1,0,15,0,0

[Colours]
Combo1 : 255,102,204
Combo2 : 32,178,170
Combo3 : 244,11,11
Combo4 : 89,171,255

[HitObjects]
256,264,22829,5,0,0:0:0:0:
144,148,23153,1,0,0:0:0:0:
184,40,23315,1,0,0:0:0:0:
368,148,23639,1,0,0:0:0:0:
328,40,23801,1,0,0:0:0:0:
256,192,24126,5,0,0:0:0:0:
256,92,24450,2,0,L|256:36,2,31.4999990386963
256,92,24693,1,0,0:0:0:0:
141,192,25261,1,0,0:0:0:0:
370,192,25423,1,0,0:0:0:0:
198,291,25747,1,0,0:0:0:0:
313,92,25909,1,0,0:0:0:0:
313,291,26234,1,0,0:0:0:0:
198,92,26396,1,0,0:0:0:0:
256,192,26720,5,0,0:0:0:0:
256,280,27126,2,0,L|256:332,2,31.4999990386963
256,280,27369,1,0,0:0:0:0:
252,40,28018,1,0,0:0:0:0:
128,100,28342,1,0,0:0:0:0:
68,200,28504,1,0,0:0:0:0:
384,100,28829,1,0,0:0:0:0:
444,200,28991,1,0,0:0:0:0:
256,192,29315,5,0,0:0:0:0:
256,272,29802,2,0,L|256:316,2,31.4999990386963
256,32,30288,1,0,0:0:0:0:
256,72,30450,1,0,0:0:0:0:
256,112,30612,1,0,0:0:0:0:
152,260,30937,1,0,0:0:0:0:
76,144,31099,1,0,0:0:0:0:
360,260,31423,1,0,0:0:0:0:
436,144,31585,1,0,0:0:0:0:
256,192,31910,5,0,0:0:0:0:
256,280,32315,2,0,L|256:320,2,31.4999990386963
256,280,32558,1,0,0:0:0:0:
256,192,33207,1,0,0:0:0:0:
156,268,33531,1,0,0:0:0:0:
76,368,33693,1,0,0:0:0:0:
356,268,34018,1,0,0:0:0:0:
436,368,34180,1,0,0:0:0:0:
256,192,34504,5,0,0:0:0:0:
256,92,34829,2,0,L|256:48,3,31.4999990386963
256,92,35153,1,0,0:0:0:0:
180,184,35477,1,0,0:0:0:0:
256,228,35639,1,0,0:0:0:0:
332,184,35802,1,0,0:0:0:0:
112,40,36126,1,0,0:0:0:0:
48,152,36288,1,0,0:0:0:0:
400,40,36612,1,0,0:0:0:0:
464,152,36774,1,0,0:0:0:0:
256,192,37099,5,0,0:0:0:0:
256,284,37504,2,0,L|256:332,2,31.4999990386963
256,284,37747,1,0,0:0:0:0:
256,40,38072,2,0,L|256:124,1,62.9999980773926
256,192,38396,1,0,0:0:0:0:
64,88,38720,1,0,0:0:0:0:
136,192,38883,1,0,0:0:0:0:
448,88,39207,1,0,0:0:0:0:
376,192,39370,1,0,0:0:0:0:
256,192,39693,5,0,0:0:0:0:
256,100,40018,2,0,L|256:56,3,31.4999990386963
256,68,40342,1,0,0:0:0:0:
152,140,40666,1,0,0:0:0:0:
256,212,40829,1,0,0:0:0:0:
360,140,40991,1,0,0:0:0:0:
140,264,41315,1,0,0:0:0:0:
72,344,41477,1,0,0:0:0:0:
372,264,41802,1,0,0:0:0:0:
440,344,41964,1,0,0:0:0:0:
256,192,42288,5,0,0:0:0:0:
256,296,42937,1,0,0:0:0:0:
200,192,43585,6,0,B|200:92|100:24|100:24|-8:176|100:360,1,560
256,192,45207,12,0,48126,0:0:0:0:
312,192,48774,54,0,B|312:92|412:24|412:24|520:176|412:360,1,560
256,192,50396,12,0,53315,0:0:0:0:
176,136,53964,5,0,0:0:0:0:
336,136,54612,1,0,0:0:0:0:
104,44,55261,1,0,0:0:0:0:
408,44,55910,1,0,0:0:0:0:
196,164,56558,5,0,0:0:0:0:
76,32,57207,1,0,0:0:0:0:
316,164,57856,1,0,0:0:0:0:
436,32,58505,1,0,0:0:0:0:
168,276,59153,5,0,0:0:0:0:
344,108,59477,1,0,0:0:0:0:
136,192,59802,1,0,0:0:0:0:
376,192,60126,1,0,0:0:0:0:
168,108,60450,1,0,0:0:0:0:
344,276,60774,1,0,0:0:0:0:
256,72,61099,1,0,0:0:0:0:
256,312,61423,1,0,0:0:0:0:
176,288,61747,5,0,0:0:0:0:
167,256,61828,1,0,0:0:0:0:
155,225,61909,1,0,0:0:0:0:
141,195,61990,1,0,0:0:0:0:
121,168,62071,1,0,0:0:0:0:
97,146,62152,1,0,0:0:0:0:
66,136,62233,1,0,0:0:0:0:
37,151,62314,1,0,0:0:0:0:
27,181,62395,1,0,0:0:0:0:
38,212,62476,1,0,0:0:0:0:
68,224,62557,1,0,0:0:0:0:
99,215,62638,1,0,0:0:0:0:
126,196,62719,1,0,0:0:0:0:
147,170,62801,1,0,0:0:0:0:
165,142,62882,1,0,0:0:0:0:
179,112,62963,1,0,0:0:0:0:
231,48,63126,6,0,B|339:69|339:69|243:128|243:128|334:144|334:144|249:234|324:344,1,512.263876187033
407,243,64342,5,0,0:0:0:0:
324,338,64666,1,0,0:0:0:0:
188,312,64829,1,0,0:0:0:0:
168,296,64910,1,0,0:0:0:0:
144,276,64991,1,0,0:0:0:0:
44,180,65153,1,0,0:0:0:0:
120,68,65315,1,8,0:0:0:0:
236,164,65477,1,8,0:0:0:0:
264,136,65558,1,0,0:0:0:0:
284,116,65639,1,8,0:0:0:0:
364,40,65802,2,0,P|400:68|404:128,1,77.0000023498536
412,228,66126,2,0,B|384:256|392:268|352:304,1,77.0000023498536
256,192,66612,5,8,0:0:0:0:
256,88,66774,2,0,L|256:44,2,38.5000011749268
148,216,67099,2,0,B|160:264|154:283|200:304,1,77.0000023498536
364,216,67423,2,0,B|352:264|358:283|312:304,1,77.0000023498536
200,84,67747,2,0,L|180:28,1,38.5000011749268
312,84,67910,2,0,L|332:28,1,38.5000011749268
256,160,68234,1,0,0:0:0:0:
256,160,68558,5,0,0:0:0:0:
304,240,68720,1,8,0:0:0:0:
256,264,68802,1,0,0:0:0:0:
208,240,68883,1,8,0:0:0:0:
56,168,69045,1,0,0:0:0:0:
178,18,69207,1,0,0:0:0:0:
352,88,69531,1,0,0:0:0:0:
352,88,69856,5,8,0:0:0:0:
400,192,70018,1,0,0:0:0:0:
372,220,70099,1,0,0:0:0:0:
344,248,70180,1,8,0:0:0:0:
264,324,70423,2,0,B|248:324|248:324|228:332|228:332|208:324|208:324|184:324,1,77.0000023498536
88,276,70829,1,0,0:0:0:0:
48,120,70991,2,0,P|40:104|24:88,2,38.5000011749268
142,208,71315,1,8,0:0:0:0:
272,171,71477,2,0,B|299:145|343:143|343:143|332:98|351:49,1,154.000004699707
261,81,71963,5,0,0:0:0:0:
200,4,72126,1,0,0:0:0:0:
103,5,72288,1,0,0:0:0:0:
44,81,72450,1,0,0:0:0:0:
66,174,72612,1,0,0:0:0:0:
153,215,72775,1,0,0:0:0:0:
239,174,72937,1,0,0:0:0:0:
139,136,73099,5,0,0:0:0:0:
123,101,73180,1,0,0:0:0:0:
148,74,73261,1,0,0:0:0:0:
182,92,73342,1,0,0:0:0:0:
176,127,73423,1,0,0:0:0:0:
146,314,73910,5,8,0:0:0:0:
48,142,74072,1,0,0:0:0:0:
346,184,74234,1,0,0:0:0:0:
474,261,74558,5,0,0:0:0:0:
474,261,74720,2,0,B|467:299|454:313|454:313|422:288|422:288|407:310|368:315,1,132.999996448517
304,344,75207,1,0,0:0:0:0:
273,364,75288,1,0,0:0:0:0:
242,384,75369,1,8,0:0:0:0:
88,340,75531,1,0,0:0:0:0:
33,183,75693,1,8,0:0:0:0:
139,47,75856,2,0,P|132:25|118:2,2,41.9999987182618
293,71,76180,2,0,B|341:79|341:79|377:124,1,83.9999974365235
469,240,76504,1,0,0:0:0:0:
469,240,76666,2,0,B|443:279|443:316|443:316|410:316|360:340,1,154.000004699707
257,329,77153,5,0,0:0:0:0:
257,296,77234,1,8,0:0:0:0:
256,262,77315,1,0,0:0:0:0:
186,145,77477,1,0,0:0:0:0:
368,33,77639,1,8,0:0:0:0:
324,144,77802,1,0,0:0:0:0:
142,30,77964,1,8,0:0:0:0:
34,149,78126,2,0,L|69:193,1,38.5000011749268
15,239,78288,2,0,L|43:276,1,38.5000011749268
99,356,78612,2,0,B|136:368|170:356|170:356|208:341|258:353,1,154.000004699707
383,374,79099,5,8,0:0:0:0:
409,339,79180,1,0,0:0:0:0:
434,304,79261,1,8,0:0:0:0:
420,129,79423,1,0,0:0:0:0:
256,42,79585,1,0,0:0:0:0:
256,42,79910,5,0,0:0:0:0:
256,42,80234,5,8,0:0:0:0:
109,148,80396,1,0,0:0:0:0:
109,148,80477,1,0,0:0:0:0:
109,148,80558,2,0,B|90:186|108:221|108:221|108:265,1,115.50000352478
108,260,80883,1,0,0:0:0:0:
193,350,81045,1,8,0:0:0:0:
320,351,81207,1,0,0:0:0:0:
383,248,81369,1,8,0:0:0:0:
405,214,81450,1,0,0:0:0:0:
427,180,81531,1,8,0:0:0:0:
495,73,81693,1,8,0:0:0:0:
387,1,81856,2,0,B|346:3|321:34|321:34|292:4|245:-2,1,154.000004699707
181,99,82342,5,0,0:0:0:0:
137,189,82504,1,0,0:0:0:0:
181,279,82666,1,0,0:0:0:0:
278,301,82829,1,0,0:0:0:0:
356,239,82991,1,0,0:0:0:0:
356,139,83153,1,0,0:0:0:0:
278,76,83315,1,0,0:0:0:0:
181,99,83477,5,8,0:0:0:0:
186,129,83558,1,8,0:0:0:0:
198,157,83639,1,8,0:0:0:0:
220,177,83720,1,8,0:0:0:0:
256,190,83802,1,4,0:0:0:0:
256,190,84450,5,0,0:0:0:0:
192,112,84774,5,8,0:0:0:0:
184,152,85099,1,4,0:0:0:0:
192,104,85423,1,8,0:0:0:0:
192,104,85585,1,0,0:0:0:0:
184,104,85666,1,0,0:0:0:0:
192,104,85747,1,8,0:0:0:0:
176,104,85910,1,0,0:0:0:0:
176,96,86072,1,8,0:0:0:0:
184,104,86234,1,0,0:0:0:0:
152,120,86396,1,0,0:0:0:0:
160,128,86558,1,8,0:0:0:0:
176,80,86720,1,0,0:0:0:0:
176,80,86802,1,0,0:0:0:0:
176,72,86883,1,0,0:0:0:0:
184,144,87045,1,8,0:0:0:0:
176,168,87369,5,8,0:0:0:0:
176,168,87531,1,8,0:0:0:0:
216,112,87693,1,0,0:0:0:0:
216,112,88018,1,8,0:0:0:0:
176,112,88180,1,8,0:0:0:0:
176,112,88342,1,8,0:0:0:0:
208,112,88504,1,0,0:0:0:0:
208,112,88666,1,8,0:0:0:0:
208,112,88991,1,8,0:0:0:0:
224,152,89153,1,8,0:0:0:0:
224,152,89315,1,0,0:0:0:0:
224,152,89477,1,0,0:0:0:0:
168,120,89639,1,8,0:0:0:0:
160,128,90126,5,8,0:0:0:0:
184,152,90288,1,4,0:0:0:0:
192,104,90612,1,8,0:0:0:0:
192,104,90775,1,0,0:0:0:0:
184,104,90856,1,0,0:0:0:0:
192,104,90937,1,8,0:0:0:0:
176,104,91099,1,0,0:0:0:0:
176,96,91261,1,8,0:0:0:0:
184,104,91423,1,0,0:0:0:0:
184,152,91585,1,4,0:0:0:0:
184,104,91747,1,0,0:0:0:0:
184,104,91910,1,0,0:0:0:0:
192,104,92072,1,8,0:0:0:0:
176,104,92396,1,0,0:0:0:0:
152,120,92477,1,0,0:0:0:0:
176,96,92558,1,8,0:0:0:0:
184,104,92720,1,0,0:0:0:0:
216,112,92883,1,4,0:0:0:0:
216,112,93207,1,8,0:0:0:0:
176,112,93369,1,8,0:0:0:0:
176,112,93450,1,8,0:0:0:0:
176,112,93531,1,0,0:0:0:0:
208,112,93693,1,8,0:0:0:0:
208,112,93856,1,0,0:0:0:0:
208,112,93937,1,0,0:0:0:0:
208,112,94018,1,0,0:0:0:0:
208,112,94180,1,8,0:0:0:0:
224,152,94342,1,8,0:0:0:0:
224,152,94423,1,8,0:0:0:0:
224,152,94504,1,0,0:0:0:0:
224,152,94666,1,0,0:0:0:0:
168,120,94829,1,8,0:0:0:0:
160,120,94991,1,0,0:0:0:0:
160,120,95153,1,0,0:0:0:0:
160,128,95315,1,8,0:0:0:0:
240,32,95477,1,4,0:0:0:0:
192,104,95802,1,8,0:0:0:0:
192,104,95964,1,0,0:0:0:0:
192,104,96126,1,8,0:0:0:0:
176,104,96288,1,0,0:0:0:0:
176,96,96450,1,8,0:0:0:0:
184,56,96531,1,8,0:0:0:0:
184,104,96612,1,0,0:0:0:0:
152,120,96693,1,8,0:0:0:0:
152,120,96775,1,0,0:0:0:0:
160,128,96937,1,8,0:0:0:0:
176,80,97099,1,0,0:0:0:0:
176,80,97180,1,0,0:0:0:0:
176,72,97261,1,0,0:0:0:0:
232,128,97342,1,0,0:0:0:0:
184,144,97423,1,8,0:0:0:0:
176,160,97585,1,0,0:0:0:0:
176,168,97747,1,8,0:0:0:0:
176,168,97829,1,0,0:0:0:0:
176,168,97910,1,8,0:0:0:0:
216,112,98072,1,0,0:0:0:0:
216,112,98396,1,8,0:0:0:0:
176,112,98477,1,0,0:0:0:0:
176,112,98558,1,8,0:0:0:0:
160,64,98639,1,8,0:0:0:0:
176,112,98720,1,0,0:0:0:0:
208,112,98883,1,0,0:0:0:0:
208,112,99045,1,8,0:0:0:0:
208,112,99207,1,0,0:0:0:0:
208,112,99288,1,0,0:0:0:0:
208,112,99369,1,8,0:0:0:0:
224,152,99531,1,8,0:0:0:0:
224,152,99693,1,0,0:0:0:0:
224,152,99775,1,0,0:0:0:0:
224,152,99856,1,0,0:0:0:0:
200,48,99937,1,0,0:0:0:0:
168,120,100018,1,8,0:0:0:0:
160,120,100180,1,0,0:0:0:0:
160,120,100261,1,8,0:0:0:0:
160,120,100342,1,0,0:0:0:0:
160,128,100504,1,8,0:0:0:0:
184,152,100666,1,4,0:0:0:0:
192,104,100991,1,8,0:0:0:0:
192,64,101072,1,8,0:0:0:0:
192,104,101153,1,0,0:0:0:0:
184,104,101234,1,0,0:0:0:0:
192,104,101315,1,8,0:0:0:0:
176,104,101477,1,0,0:0:0:0:
176,96,101639,1,8,0:0:0:0:
152,120,101720,1,8,0:0:0:0:
184,104,101802,1,0,0:0:0:0:
184,152,101964,1,4,0:0:0:0:
184,104,102126,1,0,0:0:0:0:
128,56,102207,1,0,0:0:0:0:
192,104,102288,1,8,0:0:0:0:
184,104,102369,1,0,0:0:0:0:
192,104,102450,1,8,0:0:0:0:
192,104,102612,1,8,0:0:0:0:
176,104,102775,1,0,0:0:0:0:
152,120,102856,1,0,0:0:0:0:
176,96,102937,1,8,0:0:0:0:
184,104,103099,1,0,0:0:0:0:
216,112,103261,1,4,0:0:0:0:
216,112,103585,1,8,0:0:0:0:
176,112,103747,1,8,0:0:0:0:
176,112,103910,1,4,0:0:0:0:
208,112,104072,1,0,0:0:0:0:
208,112,104153,1,0,0:0:0:0:
208,112,104234,1,0,0:0:0:0:
208,112,104396,1,8,0:0:0:0:
208,112,104558,1,4,0:0:0:0:
224,152,104720,1,8,0:0:0:0:
224,152,104802,1,8,0:0:0:0:
224,152,104883,1,0,0:0:0:0:
224,152,105045,1,0,0:0:0:0:
168,120,105207,1,8,0:0:0:0:
176,40,105315,5,8,0:0:0:0:
160,120,105423,1,8,0:0:0:0:
160,120,105531,1,8,0:0:0:0:
160,120,105639,1,8,0:0:0:0:
160,128,105747,1,8,0:0:0:0:
208,144,105856,1,4,0:0:0:0:
100,152,107153,1,0,0:0:0:0:
256,192,107477,12,0,108288,0:0:0:0:
216,136,108450,5,4,0:0:0:0:
216,136,108775,1,0,0:0:0:0:
216,136,108937,1,8,0:0:0:0:
168,96,109261,1,0,0:0:0:0:
168,96,109423,1,8,0:0:0:0:
168,96,109585,1,0,0:0:0:0:
160,104,109666,1,0,0:0:0:0:
160,104,109747,1,0,0:0:0:0:
208,160,110072,1,0,0:0:0:0:
216,152,110234,1,8,0:0:0:0:
216,152,110558,1,0,0:0:0:0:
216,152,110720,1,8,0:0:0:0:
208,128,110883,1,0,0:0:0:0:
208,128,110964,1,8,0:0:0:0:
216,136,111045,5,0,0:0:0:0:
216,136,111369,1,0,0:0:0:0:
216,136,111531,1,8,0:0:0:0:
168,96,111856,1,0,0:0:0:0:
168,96,112018,1,8,0:0:0:0:
168,96,112180,1,0,0:0:0:0:
160,104,112261,1,0,0:0:0:0:
160,104,112342,1,0,0:0:0:0:
208,160,112666,5,0,0:0:0:0:
216,152,112829,1,8,0:0:0:0:
208,80,112910,1,8,0:0:0:0:
200,80,112991,1,8,0:0:0:0:
216,152,113153,1,8,0:0:0:0:
216,152,113315,1,0,0:0:0:0:
216,136,113639,5,12,0:0:0:0:
216,136,113964,1,0,0:0:0:0:
216,136,114126,1,8,0:0:0:0:
168,96,114450,1,0,0:0:0:0:
168,96,114612,1,8,0:0:0:0:
168,96,114775,1,0,0:0:0:0:
160,104,114856,1,0,0:0:0:0:
160,104,114937,1,0,0:0:0:0:
208,160,115261,1,0,0:0:0:0:
216,152,115423,1,8,0:0:0:0:
216,152,115747,1,0,0:0:0:0:
216,152,115910,1,8,0:0:0:0:
208,128,116072,1,0,0:0:0:0:
208,128,116153,1,8,0:0:0:0:
216,136,116234,5,0,0:0:0:0:
216,136,116558,1,0,0:0:0:0:
216,136,116720,1,8,0:0:0:0:
168,96,117045,5,0,0:0:0:0:
168,96,117207,1,8,0:0:0:0:
168,96,117369,1,0,0:0:0:0:
160,104,117531,1,8,0:0:0:0:
160,104,117612,1,8,0:0:0:0:
96,64,117693,1,8,0:0:0:0:
72,64,117775,1,8,0:0:0:0:
208,160,117856,1,8,0:0:0:0:
96,64,117937,1,8,0:0:0:0:
216,152,118018,1,8,0:0:0:0:
208,80,118099,1,8,0:0:0:0:
200,80,118180,1,4,0:0:0:0:
216,152,118342,1,4,0:0:0:0:
216,136,118829,5,12,0:0:0:0:
216,136,119153,1,0,0:0:0:0:
216,136,119315,1,8,0:0:0:0:
248,80,119396,1,8,0:0:0:0:
248,80,119477,1,0,0:0:0:0:
168,96,119639,1,0,0:0:0:0:
168,96,119802,1,8,0:0:0:0:
168,96,119964,1,0,0:0:0:0:
160,104,120045,1,0,0:0:0:0:
160,104,120126,1,0,0:0:0:0:
208,160,120450,1,0,0:0:0:0:
216,152,120612,1,8,0:0:0:0:
160,72,120693,1,8,0:0:0:0:
160,72,120775,1,8,0:0:0:0:
216,152,120937,1,0,0:0:0:0:
216,152,121099,1,8,0:0:0:0:
120,144,121180,1,8,0:0:0:0:
208,128,121261,1,0,0:0:0:0:
208,128,121342,1,8,0:0:0:0:
216,136,121423,5,0,0:0:0:0:
216,136,121747,1,0,0:0:0:0:
216,136,121910,1,8,0:0:0:0:
192,88,121991,1,8,0:0:0:0:
184,88,122072,1,0,0:0:0:0:
168,96,122234,1,0,0:0:0:0:
168,96,122396,1,8,0:0:0:0:
168,96,122558,1,0,0:0:0:0:
160,104,122639,1,0,0:0:0:0:
160,104,122720,1,0,0:0:0:0:
208,160,123045,1,0,0:0:0:0:
216,152,123207,1,8,0:0:0:0:
208,80,123288,1,8,0:0:0:0:
200,80,123369,1,8,0:0:0:0:
216,152,123531,1,8,0:0:0:0:
216,152,123693,1,0,0:0:0:0:
176,88,123856,1,0,0:0:0:0:
216,136,124018,5,12,0:0:0:0:
216,136,124342,1,0,0:0:0:0:
216,136,124504,1,8,0:0:0:0:
184,128,124666,1,0,0:0:0:0:
184,128,124747,1,0,0:0:0:0:
168,96,124829,1,0,0:0:0:0:
168,96,124991,1,8,0:0:0:0:
168,96,125153,1,0,0:0:0:0:
160,104,125234,1,8,0:0:0:0:
160,104,125315,1,0,0:0:0:0:
208,160,125639,1,0,0:0:0:0:
216,152,125802,1,8,0:0:0:0:
160,64,125883,1,8,0:0:0:0:
168,64,125964,1,0,0:0:0:0:
216,152,126126,1,0,0:0:0:0:
216,152,126288,1,8,0:0:0:0:
112,80,126369,1,8,0:0:0:0:
208,128,126450,1,0,0:0:0:0:
208,128,126531,1,8,0:0:0:0:
216,136,126612,5,0,0:0:0:0:
216,136,126937,1,0,0:0:0:0:
216,136,127099,1,8,0:0:0:0:
176,80,127261,1,0,0:0:0:0:
168,96,127423,1,0,0:0:0:0:
176,80,127504,1,0,0:0:0:0:
168,96,127585,1,8,0:0:0:0:
168,96,127747,1,0,0:0:0:0:
160,104,127910,1,8,0:0:0:0:
160,104,127991,1,8,0:0:0:0:
96,64,128072,1,8,0:0:0:0:
72,64,128153,1,8,0:0:0:0:
208,160,128234,1,8,0:0:0:0:
96,64,128315,1,8,0:0:0:0:
216,152,128396,1,8,0:0:0:0:
208,80,128477,1,8,0:0:0:0:
200,80,128558,1,4,0:0:0:0:
216,152,128720,1,4,0:0:0:0:
192,120,129207,1,4,0:0:0:0:
152,104,129531,1,8,0:0:0:0:
152,104,129693,1,0,0:0:0:0:
152,104,129856,1,0,0:0:0:0:
152,112,129937,1,0,0:0:0:0:
128,128,130018,1,0,0:0:0:0:
136,112,130180,1,8,0:0:0:0:
192,120,130504,1,0,0:0:0:0:
176,160,130666,1,0,0:0:0:0:
152,104,130829,1,8,0:0:0:0:
152,104,130991,1,0,0:0:0:0:
152,112,131072,1,8,0:0:0:0:
152,104,131153,1,0,0:0:0:0:
128,128,131315,1,0,0:0:0:0:
136,112,131477,1,8,0:0:0:0:
192,120,131802,1,0,0:0:0:0:
184,160,131964,1,0,0:0:0:0:
152,112,132045,1,0,0:0:0:0:
152,104,132126,1,8,0:0:0:0:
152,104,132288,1,0,0:0:0:0:
152,104,132450,1,0,0:0:0:0:
104,112,132531,1,0,0:0:0:0:
128,128,132612,1,0,0:0:0:0:
192,112,132693,1,0,0:0:0:0:
136,112,132775,1,8,0:0:0:0:
192,120,133099,1,0,0:0:0:0:
104,112,133180,1,0,0:0:0:0:
184,160,133261,1,0,0:0:0:0:
152,104,133423,1,8,0:0:0:0:
152,104,133585,1,0,0:0:0:0:
152,112,133666,1,8,0:0:0:0:
152,104,133747,1,0,0:0:0:0:
128,128,133910,1,0,0:0:0:0:
136,112,134072,1,8,0:0:0:0:
176,72,134153,1,0,0:0:0:0:
176,72,134234,1,8,0:0:0:0:
192,120,134396,1,4,0:0:0:0:
152,104,134720,1,8,0:0:0:0:
152,104,134883,1,0,0:0:0:0:
152,112,134964,1,0,0:0:0:0:
152,104,135045,1,0,0:0:0:0:
136,112,135207,1,8,0:0:0:0:
128,128,135369,1,0,0:0:0:0:
192,32,135450,1,0,0:0:0:0:
176,160,135531,1,8,0:0:0:0:
192,120,135693,1,0,0:0:0:0:
152,104,136018,1,8,0:0:0:0:
152,104,136180,1,0,0:0:0:0:
152,112,136261,1,8,0:0:0:0:
152,104,136342,1,0,0:0:0:0:
128,128,136504,1,0,0:0:0:0:
136,112,136666,1,8,0:0:0:0:
176,104,136747,1,8,0:0:0:0:
208,96,136829,1,8,0:0:0:0:
192,120,136991,1,0,0:0:0:0:
184,160,137153,1,0,0:0:0:0:
152,112,137234,1,0,0:0:0:0:
152,104,137315,1,8,0:0:0:0:
152,104,137477,1,0,0:0:0:0:
152,104,137639,1,8,0:0:0:0:
104,112,137720,1,8,0:0:0:0:
128,128,137802,1,0,0:0:0:0:
160,40,137883,1,0,0:0:0:0:
136,112,137964,1,8,0:0:0:0:
192,120,138126,1,0,0:0:0:0:
104,112,138207,1,0,0:0:0:0:
184,160,138288,1,0,0:0:0:0:
152,104,138612,1,8,0:0:0:0:
152,104,138775,1,0,0:0:0:0:
152,112,138856,1,8,0:0:0:0:
152,104,138937,1,0,0:0:0:0:
128,128,139099,1,0,0:0:0:0:
136,112,139261,1,8,0:0:0:0:
176,72,139342,1,8,0:0:0:0:
176,72,139423,1,8,0:0:0:0:
192,120,139585,1,4,0:0:0:0:
152,104,139910,1,8,0:0:0:0:
152,104,140072,1,0,0:0:0:0:
152,112,140153,1,0,0:0:0:0:
152,104,140234,1,0,0:0:0:0:
128,128,140396,1,0,0:0:0:0:
136,112,140558,1,8,0:0:0:0:
192,120,140883,1,0,0:0:0:0:
200,128,140964,1,0,0:0:0:0:
176,160,141045,1,0,0:0:0:0:
152,104,141207,1,8,0:0:0:0:
152,104,141369,1,0,0:0:0:0:
152,112,141450,1,8,0:0:0:0:
152,104,141531,1,0,0:0:0:0:
128,128,141693,1,0,0:0:0:0:
136,112,141856,1,8,0:0:0:0:
192,120,142180,1,0,0:0:0:0:
184,160,142342,1,0,0:0:0:0:
152,112,142423,1,0,0:0:0:0:
152,104,142504,1,8,0:0:0:0:
152,104,142666,1,0,0:0:0:0:
152,104,142829,1,0,0:0:0:0:
104,112,142910,1,8,0:0:0:0:
128,128,142991,1,0,0:0:0:0:
192,112,143072,1,0,0:0:0:0:
136,112,143153,1,8,0:0:0:0:
192,120,143477,1,0,0:0:0:0:
184,24,143558,1,0,0:0:0:0:
184,160,143639,1,0,0:0:0:0:
104,112,143720,1,0,0:0:0:0:
152,104,143802,1,8,0:0:0:0:
152,104,143964,1,0,0:0:0:0:
152,104,144126,1,0,0:0:0:0:
152,112,144207,1,8,0:0:0:0:
128,128,144288,1,0,0:0:0:0:
136,112,144450,1,8,0:0:0:0:
176,72,144612,1,8,0:0:0:0:
192,120,144775,1,4,0:0:0:0:
152,104,145099,1,8,0:0:0:0:
152,104,145261,1,0,0:0:0:0:
152,112,145342,1,0,0:0:0:0:
152,104,145423,1,0,0:0:0:0:
136,112,145585,1,8,0:0:0:0:
192,112,145666,1,8,0:0:0:0:
128,128,145747,1,0,0:0:0:0:
192,32,145829,1,0,0:0:0:0:
176,160,145910,1,8,0:0:0:0:
192,120,146072,1,0,0:0:0:0:
152,104,146396,1,8,0:0:0:0:
152,104,146558,1,0,0:0:0:0:
152,112,146639,1,8,0:0:0:0:
152,104,146720,1,0,0:0:0:0:
128,128,146883,1,0,0:0:0:0:
136,112,147045,1,8,0:0:0:0:
176,104,147126,1,8,0:0:0:0:
208,96,147207,1,8,0:0:0:0:
160,88,147288,1,8,0:0:0:0:
192,120,147369,1,0,0:0:0:0:
184,160,147531,1,0,0:0:0:0:
152,112,147612,1,0,0:0:0:0:
152,104,147693,1,8,0:0:0:0:
152,104,147856,1,0,0:0:0:0:
152,104,148018,1,8,0:0:0:0:
128,128,148099,1,0,0:0:0:0:
104,112,148180,1,8,0:0:0:0:
136,112,148261,1,8,0:0:0:0:
160,40,148342,1,0,0:0:0:0:
192,120,148423,1,0,0:0:0:0:
128,104,148504,1,8,0:0:0:0:
184,160,148666,1,0,0:0:0:0:
152,104,148991,1,8,0:0:0:0:
152,104,149153,1,0,0:0:0:0:
152,112,149234,1,8,0:0:0:0:
152,104,149315,1,0,0:0:0:0:
128,128,149477,1,0,0:0:0:0:
160,112,149558,1,0,0:0:0:0:
136,112,149639,1,8,0:0:0:0:
176,72,149720,1,8,0:0:0:0:
176,72,149802,1,8,0:0:0:0:
192,120,149964,1,4,0:0:0:0:
152,104,150288,1,8,0:0:0:0:
152,104,150450,1,8,0:0:0:0:
152,112,150531,1,8,0:0:0:0:
152,104,150612,1,0,0:0:0:0:
128,128,150775,1,0,0:0:0:0:
136,112,150937,1,8,0:0:0:0:
192,120,151261,1,0,0:0:0:0:
200,128,151342,1,0,0:0:0:0:
176,160,151423,1,0,0:0:0:0:
152,104,151585,1,8,0:0:0:0:
152,104,151747,1,0,0:0:0:0:
152,104,151910,1,8,0:0:0:0:
152,112,151991,1,8,0:0:0:0:
128,128,152072,1,0,0:0:0:0:
208,24,152153,1,0,0:0:0:0:
136,112,152234,1,8,0:0:0:0:
192,120,152558,1,0,0:0:0:0:
184,160,152720,1,0,0:0:0:0:
152,112,152802,1,0,0:0:0:0:
152,104,152883,1,8,0:0:0:0:
152,104,153045,1,0,0:0:0:0:
152,104,153207,1,0,0:0:0:0:
104,112,153288,1,8,0:0:0:0:
128,128,153369,1,0,0:0:0:0:
136,112,153531,1,8,0:0:0:0:
192,120,153856,1,0,0:0:0:0:
184,24,153937,1,0,0:0:0:0:
184,160,154018,1,0,0:0:0:0:
152,104,154180,1,8,0:0:0:0:
152,104,154342,1,0,0:0:0:0:
152,104,154504,1,8,0:0:0:0:
128,128,154585,1,0,0:0:0:0:
152,112,154666,1,8,0:0:0:0:
136,112,154747,1,8,0:0:0:0:
104,112,154829,1,0,0:0:0:0:
176,72,154991,1,0,0:0:0:0:
192,120,155153,1,4,0:0:0:0:
160,152,155315,1,4,0:0:0:0:
160,152,155477,1,4,0:0:0:0:
192,120,155802,1,12,0:0:0:0:
160,152,155964,1,12,0:0:0:0:
160,152,156126,1,12,0:0:0:0:
192,120,156450,1,4,0:0:0:0:
160,152,156612,1,12,0:0:0:0:
160,152,156775,1,4,0:0:0:0:
192,120,157099,1,12,0:0:0:0:
160,152,157261,1,4,0:0:0:0:
160,152,157423,1,12,0:0:0:0:
192,120,157747,1,4,0:0:0:0:
160,152,157910,1,4,0:0:0:0:
160,152,158072,1,4,0:0:0:0:
192,120,158396,1,12,0:0:0:0:
160,152,158558,1,12,0:0:0:0:
160,152,158720,1,12,0:0:0:0:
160,88,159045,1,4,0:0:0:0:
160,88,159207,1,0,0:0:0:0:
160,88,159288,1,0,0:0:0:0:
152,80,159369,1,8,0:0:0:0:
152,80,159531,1,0,0:0:0:0:
152,88,159693,1,8,0:0:0:0:
152,88,159775,1,8,0:0:0:0:
160,96,159856,1,0,0:0:0:0:
152,96,159937,1,0,0:0:0:0:
152,96,160018,1,8,0:0:0:0:
152,96,160180,1,0,0:0:0:0:
208,112,160342,1,12,0:0:0:0:
208,136,161639,1,8,0:0:0:0:
200,136,161693,1,8,0:0:0:0:
200,136,161747,1,8,0:0:0:0:
192,128,161802,1,0,0:0:0:0:
208,136,161964,1,8,0:0:0:0:
200,136,162018,1,8,0:0:0:0:
200,136,162072,1,8,0:0:0:0:
192,128,162126,1,0,0:0:0:0:
208,136,162288,1,8,0:0:0:0:
200,136,162369,1,8,0:0:0:0:
192,128,162450,1,0,0:0:0:0:
160,72,162612,1,8,0:0:0:0:
160,88,162775,1,0,0:0:0:0:
144,88,162937,1,4,0:0:0:0:
208,184,163099,1,0,0:0:0:0:
208,184,163261,1,8,0:0:0:0:
208,184,163423,1,0,0:0:0:0:
208,184,163504,1,8,0:0:0:0:
208,184,163585,1,0,0:0:0:0:
208,184,163747,1,0,0:0:0:0:
208,192,163910,1,8,0:0:0:0:
208,192,163991,1,8,0:0:0:0:
208,192,164072,1,0,0:0:0:0:
208,192,164153,1,0,0:0:0:0:
216,184,164234,1,8,0:0:0:0:
208,168,164396,1,0,0:0:0:0:
208,168,164558,1,8,0:0:0:0:
216,168,164720,1,0,0:0:0:0:
216,168,164802,1,8,0:0:0:0:
216,168,164883,1,8,0:0:0:0:
216,160,165045,1,0,0:0:0:0:
216,160,165207,1,8,0:0:0:0:
216,160,165288,1,0,0:0:0:0:
208,168,165369,1,8,0:0:0:0:
176,64,165531,1,0,0:0:0:0:
176,64,165693,1,0,0:0:0:0:
160,136,165856,1,8,0:0:0:0:
160,136,166018,1,0,0:0:0:0:
160,136,166099,1,8,0:0:0:0:
160,136,166180,1,0,0:0:0:0:
160,136,166261,1,8,0:0:0:0:
160,136,166342,1,0,0:0:0:0:
152,128,166504,1,8,0:0:0:0:
160,128,166666,1,0,0:0:0:0:
152,128,166747,1,0,0:0:0:0:
152,128,166829,1,8,0:0:0:0:
160,128,166991,1,0,0:0:0:0:
160,128,167153,1,8,0:0:0:0:
160,128,167315,1,0,0:0:0:0:
160,128,167396,1,8,0:0:0:0:
160,128,167477,1,8,0:0:0:0:
160,128,167639,1,0,0:0:0:0:
280,64,167720,1,0,0:0:0:0:
184,40,167802,1,8,0:0:0:0:
208,80,167883,1,0,0:0:0:0:
184,40,167964,1,8,0:0:0:0:
144,88,168126,1,4,0:0:0:0:
208,184,168288,1,0,0:0:0:0:
208,184,168450,1,8,0:0:0:0:
200,96,168612,1,8,0:0:0:0:
208,184,168693,1,8,0:0:0:0:
208,184,168775,1,0,0:0:0:0:
208,184,168856,1,0,0:0:0:0:
208,184,168937,1,0,0:0:0:0:
208,192,169099,1,8,0:0:0:0:
208,192,169261,1,0,0:0:0:0:
208,192,169342,1,0,0:0:0:0:
216,184,169423,1,8,0:0:0:0:
208,168,169585,1,0,0:0:0:0:
208,168,169747,1,8,0:0:0:0:
216,168,169910,1,0,0:0:0:0:
216,168,169991,1,8,0:0:0:0:
216,168,170072,1,8,0:0:0:0:
208,192,170153,1,0,0:0:0:0:
216,160,170234,1,0,0:0:0:0:
216,160,170396,1,8,0:0:0:0:
208,168,170558,1,0,0:0:0:0:
216,160,170639,1,0,0:0:0:0:
176,64,170720,1,0,0:0:0:0:
176,64,170883,1,0,0:0:0:0:
160,136,171045,1,8,0:0:0:0:
160,136,171207,1,0,0:0:0:0:
160,136,171288,1,8,0:0:0:0:
160,136,171369,1,0,0:0:0:0:
160,136,171450,1,8,0:0:0:0:
160,136,171531,1,0,0:0:0:0:
152,128,171693,1,8,0:0:0:0:
160,128,171856,1,0,0:0:0:0:
152,128,171937,1,0,0:0:0:0:
152,128,172018,1,8,0:0:0:0:
160,128,172180,1,0,0:0:0:0:
160,128,172342,1,8,0:0:0:0:
160,128,172504,1,0,0:0:0:0:
160,128,172585,1,8,0:0:0:0:
160,128,172666,1,8,0:0:0:0:
208,80,172747,1,8,0:0:0:0:
160,128,172829,1,0,0:0:0:0:
184,40,172991,1,8,0:0:0:0:
144,88,173315,1,4,0:0:0:0:
208,184,173477,1,0,0:0:0:0:
208,184,173639,1,8,0:0:0:0:
208,184,173802,1,0,0:0:0:0:
208,184,173883,1,8,0:0:0:0:
208,184,173964,1,0,0:0:0:0:
208,192,174045,1,8,0:0:0:0:
208,184,174126,1,0,0:0:0:0:
208,192,174288,1,8,0:0:0:0:
208,192,174450,1,0,0:0:0:0:
208,192,174531,1,0,0:0:0:0:
216,184,174612,1,8,0:0:0:0:
208,168,174775,1,0,0:0:0:0:
208,168,174937,1,8,0:0:0:0:
216,168,175099,1,0,0:0:0:0:
216,168,175180,1,8,0:0:0:0:
216,168,175261,1,8,0:0:0:0:
216,56,175342,1,8,0:0:0:0:
216,160,175423,1,0,0:0:0:0:
216,160,175585,1,8,0:0:0:0:
216,160,175666,1,0,0:0:0:0:
208,168,175747,1,8,0:0:0:0:
216,56,175829,1,8,0:0:0:0:
176,64,175910,1,0,0:0:0:0:
176,64,176072,1,0,0:0:0:0:
160,136,176234,1,8,0:0:0:0:
160,136,176396,1,0,0:0:0:0:
160,136,176477,1,8,0:0:0:0:
160,136,176558,1,0,0:0:0:0:
160,136,176639,1,8,0:0:0:0:
160,136,176720,1,8,0:0:0:0:
152,128,176883,1,8,0:0:0:0:
160,128,177045,1,0,0:0:0:0:
152,128,177126,1,0,0:0:0:0:
152,128,177207,1,8,0:0:0:0:
160,128,177369,1,0,0:0:0:0:
160,128,177531,1,8,0:0:0:0:
160,128,177693,1,0,0:0:0:0:
160,128,177775,1,8,0:0:0:0:
160,128,177856,1,8,0:0:0:0:
280,64,177937,1,0,0:0:0:0:
160,128,178018,1,0,0:0:0:0:
184,40,178180,1,8,0:0:0:0:
208,80,178261,1,0,0:0:0:0:
184,40,178342,1,8,0:0:0:0:
144,88,178504,1,4,0:0:0:0:
208,184,178666,1,0,0:0:0:0:
208,184,178829,1,8,0:0:0:0:
208,184,178910,1,0,0:0:0:0:
200,96,178991,1,8,0:0:0:0:
208,184,179072,1,0,0:0:0:0:
208,184,179153,1,0,0:0:0:0:
208,184,179315,1,0,0:0:0:0:
208,192,179477,1,8,0:0:0:0:
208,192,179639,1,0,0:0:0:0:
208,192,179720,1,0,0:0:0:0:
216,184,179802,1,8,0:0:0:0:
208,168,179964,1,0,0:0:0:0:
208,168,180126,1,8,0:0:0:0:
208,192,180207,1,0,0:0:0:0:
216,168,180288,1,0,0:0:0:0:
216,168,180369,1,8,0:0:0:0:
216,168,180450,1,8,0:0:0:0:
216,160,180612,1,0,0:0:0:0:
216,160,180775,1,8,0:0:0:0:
160,80,180856,1,8,0:0:0:0:
208,168,180937,1,0,0:0:0:0:
216,160,181018,1,0,0:0:0:0:
176,64,181099,1,0,0:0:0:0:
176,64,181261,1,0,0:0:0:0:
160,136,181423,1,8,0:0:0:0:
160,136,181585,1,0,0:0:0:0:
160,136,181666,1,8,0:0:0:0:
160,136,181747,1,0,0:0:0:0:
160,136,181829,1,8,0:0:0:0:
160,136,181910,1,0,0:0:0:0:
152,128,182072,1,8,0:0:0:0:
160,128,182234,1,8,0:0:0:0:
192,96,182396,1,4,0:0:0:0:
192,64,183045,1,4,0:0:0:0:
256,192,183693,12,0,184666,0:0:0:0:
208,120,184991,5,8,0:0:0:0:
208,120,185072,1,8,0:0:0:0:
208,120,185153,1,8,0:0:0:0:
208,120,185234,1,8,0:0:0:0:
208,120,185315,1,8,0:0:0:0:
208,112,185477,1,8,0:0:0:0:
208,112,185639,1,8,0:0:0:0:
200,120,185964,1,12,0:0:0:0:
144,88,186288,1,4,0:0:0:0:
208,184,186450,1,0,0:0:0:0:
208,184,186612,1,8,0:0:0:0:
208,192,186693,1,8,0:0:0:0:
208,184,186775,1,0,0:0:0:0:
208,184,186856,1,8,0:0:0:0:
208,184,186937,1,0,0:0:0:0:
208,184,187099,1,0,0:0:0:0:
208,192,187261,1,8,0:0:0:0:
208,192,187423,1,0,0:0:0:0:
208,192,187504,1,0,0:0:0:0:
216,184,187585,1,8,0:0:0:0:
208,168,187747,1,0,0:0:0:0:
208,168,187910,1,8,0:0:0:0:
216,168,188072,1,0,0:0:0:0:
216,168,188153,1,8,0:0:0:0:
216,168,188234,1,8,0:0:0:0:
184,128,188315,1,8,0:0:0:0:
216,160,188396,1,0,0:0:0:0:
216,160,188558,1,8,0:0:0:0:
208,168,188720,1,0,0:0:0:0:
216,160,188802,1,0,0:0:0:0:
176,64,188883,1,0,0:0:0:0:
176,64,189045,1,0,0:0:0:0:
160,136,189207,1,8,0:0:0:0:
160,136,189369,1,0,0:0:0:0:
160,136,189450,1,8,0:0:0:0:
160,136,189531,1,0,0:0:0:0:
160,136,189693,1,0,0:0:0:0:
152,128,189856,1,8,0:0:0:0:
160,136,189937,1,8,0:0:0:0:
160,128,190018,1,0,0:0:0:0:
152,128,190099,1,0,0:0:0:0:
152,128,190180,1,8,0:0:0:0:
160,128,190342,1,0,0:0:0:0:
160,128,190504,1,8,0:0:0:0:
160,128,190666,1,0,0:0:0:0:
160,128,190747,1,8,0:0:0:0:
160,128,190829,1,8,0:0:0:0:
280,64,190910,1,0,0:0:0:0:
160,128,190991,1,0,0:0:0:0:
184,40,191153,1,8,0:0:0:0:
184,40,191234,1,8,0:0:0:0:
208,80,191315,1,0,0:0:0:0:
144,88,191477,1,4,0:0:0:0:
208,184,191639,1,0,0:0:0:0:
208,184,191802,1,8,0:0:0:0:
208,184,191964,1,0,0:0:0:0:
208,184,192045,1,8,0:0:0:0:
208,184,192126,1,0,0:0:0:0:
208,192,192207,1,8,0:0:0:0:
208,184,192288,1,0,0:0:0:0:
208,192,192450,1,8,0:0:0:0:
208,192,192612,1,0,0:0:0:0:
208,192,192693,1,0,0:0:0:0:
216,184,192775,1,8,0:0:0:0:
208,168,192937,1,0,0:0:0:0:
208,168,193099,1,8,0:0:0:0:
184,128,193180,1,8,0:0:0:0:
216,168,193261,1,0,0:0:0:0:
216,168,193342,1,8,0:0:0:0:
216,168,193423,1,8,0:0:0:0:
216,160,193585,1,0,0:0:0:0:
216,160,193747,1,8,0:0:0:0:
208,168,193910,1,0,0:0:0:0:
216,160,193991,1,0,0:0:0:0:
176,64,194072,1,0,0:0:0:0:
176,64,194234,1,0,0:0:0:0:
160,136,194396,1,8,0:0:0:0:
160,80,194477,1,8,0:0:0:0:
160,136,194558,1,0,0:0:0:0:
160,136,194639,1,8,0:0:0:0:
160,136,194720,1,0,0:0:0:0:
160,136,194883,1,0,0:0:0:0:
152,128,195045,1,8,0:0:0:0:
160,128,195207,1,0,0:0:0:0:
152,128,195369,1,8,0:0:0:0:
160,136,195450,1,8,0:0:0:0:
160,128,195531,1,8,0:0:0:0:
240,80,195612,1,8,0:0:0:0:
160,128,195693,1,8,0:0:0:0:
160,128,195856,1,8,0:0:0:0:
160,128,196018,1,8,0:0:0:0:
184,40,196342,1,12,0:0:0:0:
192,120,196666,1,4,0:0:0:0:
152,104,196991,1,8,0:0:0:0:
152,104,197153,1,0,0:0:0:0:
152,112,197234,1,8,0:0:0:0:
152,104,197315,1,0,0:0:0:0:
128,128,197477,1,0,0:0:0:0:
136,112,197639,1,8,0:0:0:0:
192,120,197964,1,0,0:0:0:0:
192,48,198045,1,0,0:0:0:0:
176,160,198126,1,0,0:0:0:0:
152,104,198288,1,8,0:0:0:0:
152,104,198450,1,0,0:0:0:0:
152,104,198612,1,0,0:0:0:0:
152,112,198693,1,0,0:0:0:0:
128,128,198775,1,0,0:0:0:0:
160,80,198856,1,0,0:0:0:0:
136,112,198937,1,8,0:0:0:0:
192,120,199261,1,0,0:0:0:0:
184,160,199423,1,0,0:0:0:0:
152,112,199504,1,0,0:0:0:0:
152,104,199585,1,8,0:0:0:0:
104,112,199666,1,0,0:0:0:0:
152,104,199747,1,0,0:0:0:0:
152,104,199910,1,0,0:0:0:0:
128,128,200072,1,0,0:0:0:0:
192,112,200153,1,0,0:0:0:0:
136,112,200234,1,8,0:0:0:0:
192,120,200558,1,0,0:0:0:0:
104,112,200639,1,0,0:0:0:0:
184,160,200720,1,0,0:0:0:0:
152,104,200883,1,8,0:0:0:0:
152,104,201045,1,0,0:0:0:0:
152,112,201126,1,8,0:0:0:0:
152,104,201207,1,0,0:0:0:0:
128,128,201369,1,0,0:0:0:0:
136,112,201531,1,8,0:0:0:0:
176,72,201612,1,0,0:0:0:0:
176,72,201693,1,8,0:0:0:0:
192,120,201856,1,4,0:0:0:0:
152,104,202180,1,8,0:0:0:0:
152,104,202342,1,0,0:0:0:0:
152,112,202423,1,0,0:0:0:0:
152,104,202504,1,0,0:0:0:0:
136,112,202666,1,8,0:0:0:0:
192,32,202747,1,0,0:0:0:0:
128,128,202829,1,8,0:0:0:0:
176,160,202910,1,8,0:0:0:0:
136,112,202991,1,0,0:0:0:0:
192,120,203153,1,0,0:0:0:0:
152,104,203477,1,8,0:0:0:0:
152,104,203639,1,0,0:0:0:0:
152,112,203720,1,8,0:0:0:0:
152,104,203802,1,0,0:0:0:0:
128,128,203964,1,0,0:0:0:0:
176,104,204045,1,0,0:0:0:0:
136,112,204126,1,8,0:0:0:0:
144,80,204207,1,8,0:0:0:0:
208,96,204288,1,8,0:0:0:0:
192,120,204450,1,0,0:0:0:0:
184,160,204612,1,0,0:0:0:0:
152,112,204693,1,0,0:0:0:0:
152,104,204775,1,8,0:0:0:0:
152,104,204937,1,0,0:0:0:0:
152,104,205099,1,8,0:0:0:0:
104,112,205180,1,8,0:0:0:0:
128,128,205261,1,0,0:0:0:0:
160,40,205342,1,0,0:0:0:0:
136,112,205423,1,8,0:0:0:0:
192,120,205585,1,0,0:0:0:0:
104,112,205666,1,0,0:0:0:0:
184,160,205747,1,0,0:0:0:0:
152,104,206072,1,8,0:0:0:0:
152,104,206234,1,0,0:0:0:0:
152,112,206315,1,8,0:0:0:0:
152,104,206396,1,0,0:0:0:0:
128,128,206558,1,0,0:0:0:0:
136,112,206720,1,8,0:0:0:0:
176,72,206802,1,8,0:0:0:0:
176,72,206883,1,8,0:0:0:0:
192,120,207045,1,4,0:0:0:0:
152,104,207369,1,8,0:0:0:0:
152,104,207531,1,0,0:0:0:0:
152,104,207693,1,0,0:0:0:0:
152,112,207775,1,0,0:0:0:0:
128,128,207856,1,0,0:0:0:0:
136,112,208018,1,8,0:0:0:0:
192,120,208342,1,0,0:0:0:0:
192,48,208423,1,0,0:0:0:0:
176,160,208504,1,0,0:0:0:0:
152,104,208666,1,8,0:0:0:0:
152,104,208829,1,0,0:0:0:0:
160,80,208910,1,8,0:0:0:0:
152,104,208991,1,0,0:0:0:0:
152,112,209072,1,8,0:0:0:0:
128,128,209153,1,0,0:0:0:0:
136,112,209315,1,8,0:0:0:0:
192,120,209639,1,0,0:0:0:0:
184,160,209802,1,0,0:0:0:0:
152,112,209883,1,0,0:0:0:0:
152,104,209964,1,8,0:0:0:0:
104,112,210045,1,0,0:0:0:0:
152,104,210126,1,0,0:0:0:0:
152,104,210288,1,0,0:0:0:0:
128,128,210450,1,0,0:0:0:0:
192,112,210531,1,0,0:0:0:0:
136,112,210612,1,8,0:0:0:0:
192,120,210937,1,0,0:0:0:0:
104,112,211018,1,0,0:0:0:0:
184,160,211099,1,0,0:0:0:0:
152,104,211261,1,8,0:0:0:0:
152,104,211423,1,0,0:0:0:0:
152,112,211504,1,8,0:0:0:0:
152,104,211585,1,0,0:0:0:0:
128,128,211747,1,0,0:0:0:0:
144,128,211829,1,0,0:0:0:0:
136,112,211910,1,8,0:0:0:0:
176,72,211991,1,8,0:0:0:0:
176,72,212072,1,8,0:0:0:0:
192,120,212234,1,4,0:0:0:0:
152,104,212558,1,8,0:0:0:0:
152,104,212720,1,0,0:0:0:0:
152,112,212802,1,0,0:0:0:0:
152,104,212883,1,0,0:0:0:0:
136,112,213045,1,8,0:0:0:0:
192,32,213126,1,0,0:0:0:0:
128,128,213207,1,8,0:0:0:0:
176,160,213288,1,8,0:0:0:0:
136,112,213369,1,0,0:0:0:0:
192,120,213531,1,0,0:0:0:0:
152,104,213856,1,8,0:0:0:0:
152,104,214018,1,0,0:0:0:0:
152,112,214099,1,8,0:0:0:0:
152,104,214180,1,0,0:0:0:0:
128,128,214342,1,0,0:0:0:0:
136,112,214504,1,8,0:0:0:0:
144,80,214585,1,8,0:0:0:0:
208,96,214666,1,8,0:0:0:0:
192,120,214829,1,0,0:0:0:0:
184,160,214991,1,0,0:0:0:0:
152,112,215072,1,0,0:0:0:0:
152,104,215153,1,8,0:0:0:0:
184,48,215234,1,8,0:0:0:0:
152,104,215315,1,0,0:0:0:0:
152,104,215477,1,8,0:0:0:0:
160,40,215558,1,0,0:0:0:0:
136,112,215639,1,8,0:0:0:0:
104,112,215720,1,8,0:0:0:0:
128,128,215802,1,0,0:0:0:0:
192,120,215964,1,0,0:0:0:0:
200,48,216045,1,0,0:0:0:0:
184,160,216126,1,0,0:0:0:0:
152,104,216450,5,8,0:0:0:0:
152,104,216612,1,0,0:0:0:0:
152,112,216693,1,8,0:0:0:0:
152,104,216775,1,0,0:0:0:0:
176,72,216856,1,8,0:0:0:0:
128,128,216937,1,0,0:0:0:0:
136,112,217099,1,8,0:0:0:0:
176,72,217261,1,8,0:0:0:0:
192,120,217423,5,4,0:0:0:0:
152,104,217747,1,8,0:0:0:0:
152,104,217910,1,8,0:0:0:0:
176,120,217991,1,8,0:0:0:0:
152,104,218072,1,0,0:0:0:0:
128,128,218234,1,0,0:0:0:0:
136,112,218396,1,8,0:0:0:0:
200,128,218477,1,0,0:0:0:0:
152,112,218558,1,8,0:0:0:0:
176,160,218639,1,8,0:0:0:0:
192,120,218720,1,0,0:0:0:0:
152,104,219045,1,8,0:0:0:0:
152,104,219207,1,0,0:0:0:0:
152,112,219288,1,0,0:0:0:0:
152,104,219369,1,8,0:0:0:0:
128,128,219531,1,0,0:0:0:0:
136,112,219693,1,8,0:0:0:0:
192,120,220018,1,0,0:0:0:0:
184,160,220180,1,0,0:0:0:0:
152,112,220261,1,0,0:0:0:0:
152,104,220342,1,8,0:0:0:0:
152,104,220504,1,0,0:0:0:0:
152,104,220666,1,0,0:0:0:0:
104,112,220747,1,8,0:0:0:0:
128,128,220829,1,0,0:0:0:0:
208,96,220910,1,0,0:0:0:0:
136,112,220991,1,8,0:0:0:0:
192,120,221315,1,0,0:0:0:0:
184,24,221396,1,0,0:0:0:0:
184,160,221477,1,0,0:0:0:0:
152,104,221639,1,8,0:0:0:0:
152,104,221802,1,0,0:0:0:0:
152,104,221964,1,8,0:0:0:0:
152,112,222045,1,8,0:0:0:0:
128,128,222126,1,0,0:0:0:0:
104,112,222207,1,0,0:0:0:0:
136,112,222288,1,8,0:0:0:0:
176,72,222450,1,0,0:0:0:0:
192,120,222612,1,4,0:0:0:0:
160,152,222775,1,4,0:0:0:0:
160,152,222937,1,4,0:0:0:0:
192,120,223261,1,12,0:0:0:0:
160,152,223423,1,12,0:0:0:0:
160,152,223585,1,12,0:0:0:0:
192,120,223910,1,4,0:0:0:0:
160,152,224072,1,4,0:0:0:0:
160,152,224234,1,4,0:0:0:0:
192,120,224558,1,12,0:0:0:0:
160,152,224720,1,12,0:0:0:0:
160,152,224883,1,12,0:0:0:0:
192,120,225207,1,4,0:0:0:0:
160,152,225369,1,4,0:0:0:0:
160,152,225531,1,4,0:0:0:0:
192,120,225856,1,12,0:0:0:0:
160,152,226018,1,12,0:0:0:0:
160,152,226180,1,12,0:0:0:0:
160,88,226504,1,4,0:0:0:0:
160,88,226666,1,0,0:0:0:0:
160,88,226747,1,0,0:0:0:0:
152,80,226829,1,8,0:0:0:0:
152,80,226991,1,0,0:0:0:0:
152,88,227153,1,8,0:0:0:0:
152,88,227234,1,8,0:0:0:0:
160,96,227315,1,0,0:0:0:0:
152,96,227396,1,0,0:0:0:0:
152,96,227477,1,8,0:0:0:0:
152,96,227639,1,0,0:0:0:0:
208,112,227802,1,12,0:0:0:0:
168,216,228450,2,0,L|440:216,1,262.5
208,128,229099,1,8,0:0:0:0:
200,128,229153,1,8,0:0:0:0:
200,128,229207,1,8,0:0:0:0:
192,120,229261,1,0,0:0:0:0:
208,128,229423,1,8,0:0:0:0:
200,128,229477,1,8,0:0:0:0:
200,128,229531,1,8,0:0:0:0:
192,120,229585,1,0,0:0:0:0:
208,128,229747,1,8,0:0:0:0:
200,128,229829,1,8,0:0:0:0:
192,120,229910,1,0,0:0:0:0:
160,64,230072,1,8,0:0:0:0:
160,80,230234,1,0,0:0:0:0:
208,120,230396,5,0,0:0:0:0:
208,120,230477,1,0,0:0:0:0:
208,120,230558,1,0,0:0:0:0:
208,120,230639,1,0,0:0:0:0:
208,120,230720,1,8,0:0:0:0:
208,128,230802,1,0,0:0:0:0:
208,128,230883,1,0,0:0:0:0:
208,128,230964,1,0,0:0:0:0:
168,72,231045,1,8,0:0:0:0:
160,64,231126,1,8,0:0:0:0:
160,64,231207,1,0,0:0:0:0:
160,64,231288,1,0,0:0:0:0:
152,72,231369,1,8,0:0:0:0:
152,72,231450,1,8,0:0:0:0:
152,72,231531,1,8,0:0:0:0:
152,72,231612,1,8,0:0:0:0:
152,64,231693,1,0,0:0:0:0:
152,64,231775,1,0,0:0:0:0:
152,72,231856,1,0,0:0:0:0:
152,64,231937,1,0,0:0:0:0:
144,136,232018,1,8,0:0:0:0:
152,72,232099,1,0,0:0:0:0:
160,112,232180,1,0,0:0:0:0:
160,112,232261,1,0,0:0:0:0:
160,112,232342,1,0,0:0:0:0:
160,112,232423,1,0,0:0:0:0:
160,112,232504,1,0,0:0:0:0:
160,104,232585,1,0,0:0:0:0:
168,96,232666,1,8,0:0:0:0:
160,88,232747,1,0,0:0:0:0:
160,88,232829,1,8,0:0:0:0:
160,88,232910,1,0,0:0:0:0:
160,88,232991,1,8,0:0:0:0:
160,80,233072,1,0,0:0:0:0:
160,80,233153,1,0,0:0:0:0:
152,80,233234,1,0,0:0:0:0:
168,64,233315,1,8,0:0:0:0:
160,64,233396,1,0,0:0:0:0:
160,64,233477,1,8,0:0:0:0:
168,64,233558,1,0,0:0:0:0:
168,64,233639,1,8,0:0:0:0:
168,64,233720,1,8,0:0:0:0:
168,64,233802,1,0,0:0:0:0:
160,64,233883,1,0,0:0:0:0:
160,64,233964,1,8,0:0:0:0:
160,64,234045,1,8,0:0:0:0:
160,64,234126,1,8,0:0:0:0:
160,64,234207,1,8,0:0:0:0:
160,64,234288,1,0,0:0:0:0:
160,64,234369,1,0,0:0:0:0:
160,64,234450,1,0,0:0:0:0:
160,64,234531,1,0,0:0:0:0:
192,112,234612,1,8,0:0:0:0:
192,112,234693,1,0,0:0:0:0:
192,112,234775,1,0,0:0:0:0:
192,112,234856,1,0,0:0:0:0:
192,112,234937,1,8,0:0:0:0:
192,112,235018,1,8,0:0:0:0:
192,112,235099,1,0,0:0:0:0:
192,112,235180,1,0,0:0:0:0:
192,96,235261,1,8,0:0:0:0:
200,96,235342,1,8,0:0:0:0:
192,96,235423,1,8,0:0:0:0:
200,96,235504,1,8,0:0:0:0:
208,120,235585,5,0,0:0:0:0:
208,120,235666,1,0,0:0:0:0:
208,120,235747,1,0,0:0:0:0:
208,120,235829,1,0,0:0:0:0:
208,120,235910,1,8,0:0:0:0:
208,128,235991,1,0,0:0:0:0:
168,72,236072,1,8,0:0:0:0:
208,128,236153,1,8,0:0:0:0:
208,128,236234,1,0,0:0:0:0:
160,64,236315,1,0,0:0:0:0:
160,64,236396,1,0,0:0:0:0:
160,64,236477,1,0,0:0:0:0:
152,72,236558,1,8,0:0:0:0:
152,72,236639,1,8,0:0:0:0:
152,72,236720,1,0,0:0:0:0:
152,64,236802,1,0,0:0:0:0:
152,72,236883,1,8,0:0:0:0:
152,64,236964,1,0,0:0:0:0:
152,72,237045,1,0,0:0:0:0:
152,64,237126,1,0,0:0:0:0:
144,136,237207,1,8,0:0:0:0:
152,72,237288,1,0,0:0:0:0:
160,112,237369,1,8,0:0:0:0:
160,112,237450,1,8,0:0:0:0:
160,112,237531,1,0,0:0:0:0:
160,112,237612,1,0,0:0:0:0:
160,112,237693,1,0,0:0:0:0:
160,104,237775,1,0,0:0:0:0:
168,96,237856,1,8,0:0:0:0:
160,88,237937,1,8,0:0:0:0:
160,88,238018,1,8,0:0:0:0:
160,88,238099,1,0,0:0:0:0:
160,88,238180,1,8,0:0:0:0:
160,80,238261,1,0,0:0:0:0:
160,80,238342,1,0,0:0:0:0:
152,80,238423,1,0,0:0:0:0:
168,64,238504,1,8,0:0:0:0:
160,64,238585,1,0,0:0:0:0:
160,64,238666,1,8,0:0:0:0:
168,64,238747,1,8,0:0:0:0:
168,64,238829,1,0,0:0:0:0:
168,64,238910,1,0,0:0:0:0:
168,64,238991,1,0,0:0:0:0:
160,64,239072,1,0,0:0:0:0:
160,64,239153,1,8,0:0:0:0:
160,64,239234,1,8,0:0:0:0:
160,64,239315,1,0,0:0:0:0:
160,64,239396,1,0,0:0:0:0:
160,64,239477,1,8,0:0:0:0:
160,64,239639,1,0,0:0:0:0:
192,112,239802,1,8,0:0:0:0:
192,112,239964,1,0,0:0:0:0:
192,112,240126,1,8,0:0:0:0:
192,112,240207,1,8,0:0:0:0:
192,112,240288,1,0,0:0:0:0:
192,96,240450,1,8,0:0:0:0:
240,96,240612,1,0,0:0:0:0:
144,88,240775,1,4,0:0:0:0:
208,184,240937,1,0,0:0:0:0:
208,184,241099,1,8,0:0:0:0:
208,184,241261,1,0,0:0:0:0:
208,184,241342,1,8,0:0:0:0:
208,184,241423,1,0,0:0:0:0:
208,184,241585,1,0,0:0:0:0:
208,192,241747,1,8,0:0:0:0:
208,192,241829,1,8,0:0:0:0:
208,192,241910,1,0,0:0:0:0:
208,192,241991,1,0,0:0:0:0:
216,184,242072,1,8,0:0:0:0:
208,168,242234,1,0,0:0:0:0:
208,168,242396,1,8,0:0:0:0:
216,168,242558,1,0,0:0:0:0:
216,168,242639,1,8,0:0:0:0:
216,168,242720,1,8,0:0:0:0:
216,56,242802,1,8,0:0:0:0:
216,160,242883,1,0,0:0:0:0:
216,160,243045,1,8,0:0:0:0:
208,168,243207,1,8,0:0:0:0:
216,56,243288,1,8,0:0:0:0:
176,64,243369,1,0,0:0:0:0:
176,64,243531,1,0,0:0:0:0:
160,136,243693,1,8,0:0:0:0:
160,136,243775,1,8,0:0:0:0:
160,136,243856,1,0,0:0:0:0:
160,136,243937,1,8,0:0:0:0:
160,136,244018,1,0,0:0:0:0:
160,136,244180,1,0,0:0:0:0:
152,128,244342,1,8,0:0:0:0:
136,72,244423,1,8,0:0:0:0:
160,128,244504,1,0,0:0:0:0:
152,128,244585,1,0,0:0:0:0:
152,128,244666,1,8,0:0:0:0:
160,128,244829,1,0,0:0:0:0:
160,128,244991,1,8,0:0:0:0:
160,128,245153,1,0,0:0:0:0:
160,128,245234,1,8,0:0:0:0:
160,128,245315,1,8,0:0:0:0:
160,128,245477,1,0,0:0:0:0:
280,64,245558,1,0,0:0:0:0:
184,40,245639,1,8,0:0:0:0:
208,80,245720,1,0,0:0:0:0:
184,40,245802,1,8,0:0:0:0:
144,88,245964,1,4,0:0:0:0:
208,184,246126,1,0,0:0:0:0:
208,184,246288,1,8,0:0:0:0:
200,96,246369,1,0,0:0:0:0:
208,184,246450,1,8,0:0:0:0:
208,184,246531,1,8,0:0:0:0:
208,184,246612,1,0,0:0:0:0:
208,184,246775,1,0,0:0:0:0:
208,192,246937,1,8,0:0:0:0:
176,72,247018,1,8,0:0:0:0:
208,192,247099,1,0,0:0:0:0:
208,192,247180,1,0,0:0:0:0:
216,184,247261,1,8,0:0:0:0:
208,168,247423,1,0,0:0:0:0:
208,168,247585,1,8,0:0:0:0:
216,168,247747,1,0,0:0:0:0:
216,168,247829,1,8,0:0:0:0:
216,168,247910,1,8,0:0:0:0:
208,192,247991,1,8,0:0:0:0:
216,160,248072,1,0,0:0:0:0:
216,160,248234,1,8,0:0:0:0:
208,168,248396,1,0,0:0:0:0:
216,160,248477,1,0,0:0:0:0:
176,64,248558,1,8,0:0:0:0:
176,64,248720,1,0,0:0:0:0:
160,136,248883,1,8,0:0:0:0:
160,136,248964,1,8,0:0:0:0:
160,136,249045,1,0,0:0:0:0:
160,136,249126,1,8,0:0:0:0:
160,136,249207,1,0,0:0:0:0:
160,136,249369,1,0,0:0:0:0:
152,128,249531,1,8,0:0:0:0:
160,128,249693,1,8,0:0:0:0:
192,96,249856,1,4,0:0:0:0:
192,64,250504,1,4,0:0:0:0:
144,88,251153,1,4,0:0:0:0:
208,184,251315,1,0,0:0:0:0:
208,184,251477,1,8,0:0:0:0:
216,88,251558,1,8,0:0:0:0:
208,184,251639,1,0,0:0:0:0:
208,184,251720,1,8,0:0:0:0:
208,184,251802,1,0,0:0:0:0:
216,88,251883,1,0,0:0:0:0:
208,184,251964,1,0,0:0:0:0:
208,192,252126,1,8,0:0:0:0:
208,192,252207,1,8,0:0:0:0:
208,192,252288,1,0,0:0:0:0:
216,184,252450,1,8,0:0:0:0:
208,168,252612,1,0,0:0:0:0:
208,168,252775,1,8,0:0:0:0:
160,160,252856,1,0,0:0:0:0:
216,168,252937,1,0,0:0:0:0:
216,168,253018,1,8,0:0:0:0:
216,168,253099,1,8,0:0:0:0:
192,112,253180,1,8,0:0:0:0:
216,160,253261,1,0,0:0:0:0:
216,160,253423,1,8,0:0:0:0:
216,160,253504,1,0,0:0:0:0:
208,168,253585,1,8,0:0:0:0:
208,192,253666,1,8,0:0:0:0:
176,64,253747,1,0,0:0:0:0:
176,64,253910,1,0,0:0:0:0:
160,136,254072,1,8,0:0:0:0:
160,136,254153,1,8,0:0:0:0:
160,136,254234,1,0,0:0:0:0:
160,136,254315,1,8,0:0:0:0:
160,136,254396,1,0,0:0:0:0:
176,80,254477,1,0,0:0:0:0:
160,136,254558,1,8,0:0:0:0:
152,128,254720,1,8,0:0:0:0:
160,128,254883,1,0,0:0:0:0:
152,128,254964,1,0,0:0:0:0:
152,128,255045,1,8,0:0:0:0:
160,128,255207,1,0,0:0:0:0:
160,128,255369,1,8,0:0:0:0:
280,64,255450,1,0,0:0:0:0:
160,128,255531,1,0,0:0:0:0:
160,128,255612,1,8,0:0:0:0:
160,128,255693,1,8,0:0:0:0:
176,88,255775,1,0,0:0:0:0:
160,128,255856,1,0,0:0:0:0:
184,40,256018,1,8,0:0:0:0:
208,80,256099,1,0,0:0:0:0:
184,40,256180,1,8,0:0:0:0:
144,88,256342,1,4,0:0:0:0:
208,184,256504,1,0,0:0:0:0:
208,184,256585,1,0,0:0:0:0:
208,184,256666,1,8,0:0:0:0:
152,144,256747,1,0,0:0:0:0:
200,96,256829,1,8,0:0:0:0:
208,184,256910,1,8,0:0:0:0:
208,184,256991,1,0,0:0:0:0:
208,184,257153,1,0,0:0:0:0:
208,192,257315,1,8,0:0:0:0:
208,192,257396,1,8,0:0:0:0:
208,192,257477,1,0,0:0:0:0:
216,184,257639,1,8,0:0:0:0:
208,168,257802,1,0,0:0:0:0:
208,192,257883,1,0,0:0:0:0:
208,168,257964,1,8,0:0:0:0:
168,112,258045,1,0,0:0:0:0:
216,168,258126,1,8,0:0:0:0:
216,168,258207,1,8,0:0:0:0:
216,168,258288,1,8,0:0:0:0:
216,160,258450,1,0,0:0:0:0:
216,160,258612,1,8,0:0:0:0:
208,168,258775,1,0,0:0:0:0:
216,160,258856,1,0,0:0:0:0:
176,64,258937,1,0,0:0:0:0:
176,64,259099,1,0,0:0:0:0:
160,136,259261,1,8,0:0:0:0:
232,56,259342,1,8,0:0:0:0:
160,136,259423,1,0,0:0:0:0:
160,136,259504,1,8,0:0:0:0:
160,136,259585,1,8,0:0:0:0:
160,136,259666,1,8,0:0:0:0:
160,136,259747,1,0,0:0:0:0:
152,128,259910,1,8,0:0:0:0:
168,128,259991,1,0,0:0:0:0:
160,128,260072,1,0,0:0:0:0:
152,128,260153,1,0,0:0:0:0:
152,128,260234,1,8,0:0:0:0:
160,128,260396,1,0,0:0:0:0:
160,128,260558,1,8,0:0:0:0:
168,80,260639,1,0,0:0:0:0:
160,128,260720,1,0,0:0:0:0:
160,128,260802,1,8,0:0:0:0:
160,128,260883,1,0,0:0:0:0:
208,80,260964,1,8,0:0:0:0:
160,128,261045,1,0,0:0:0:0:
184,40,261207,1,8,0:0:0:0:
144,88,261531,1,4,0:0:0:0:
208,184,261693,1,0,0:0:0:0:
208,184,261856,1,8,0:0:0:0:
208,184,262018,1,0,0:0:0:0:
208,184,262099,1,8,0:0:0:0:
208,184,262180,1,0,0:0:0:0:
208,184,262261,1,0,0:0:0:0:
216,88,262342,1,8,0:0:0:0:
216,88,262423,1,0,0:0:0:0:
208,192,262504,1,8,0:0:0:0:
208,192,262666,1,0,0:0:0:0:
208,192,262747,1,0,0:0:0:0:
216,184,262829,1,8,0:0:0:0:
208,168,262991,1,0,0:0:0:0:
208,168,263153,1,8,0:0:0:0:
216,168,263315,1,0,0:0:0:0:
216,168,263396,1,8,0:0:0:0:
216,168,263477,1,8,0:0:0:0:
192,112,263558,1,8,0:0:0:0:
216,160,263639,1,0,0:0:0:0:
160,160,263720,1,0,0:0:0:0:
216,160,263802,1,8,0:0:0:0:
208,168,263964,1,8,0:0:0:0:
208,192,264045,1,8,0:0:0:0:
176,64,264126,1,0,0:0:0:0:
176,64,264288,1,0,0:0:0:0:
160,136,264450,1,8,0:0:0:0:
160,136,264612,1,0,0:0:0:0:
160,136,264693,1,8,0:0:0:0:
160,136,264775,1,0,0:0:0:0:
176,80,264856,1,0,0:0:0:0:
160,136,264937,1,8,0:0:0:0:
160,136,265018,1,8,0:0:0:0:
152,128,265099,1,8,0:0:0:0:
160,128,265261,1,0,0:0:0:0:
152,128,265342,1,0,0:0:0:0:
152,128,265423,1,8,0:0:0:0:
160,128,265585,1,0,0:0:0:0:
160,128,265747,1,8,0:0:0:0:
160,128,265910,1,0,0:0:0:0:
160,128,265991,1,8,0:0:0:0:
160,128,266072,1,8,0:0:0:0:
176,88,266153,1,0,0:0:0:0:
160,128,266234,1,0,0:0:0:0:
208,80,266315,1,0,0:0:0:0:
184,40,266396,1,8,0:0:0:0:
184,40,266558,1,8,0:0:0:0:
144,88,266720,1,4,0:0:0:0:
208,184,266883,1,0,0:0:0:0:
208,184,267045,1,8,0:0:0:0:
152,144,267126,1,0,0:0:0:0:
200,96,267207,1,8,0:0:0:0:
208,184,267288,1,8,0:0:0:0:
208,184,267369,1,0,0:0:0:0:
208,184,267450,1,0,0:0:0:0:
208,184,267531,1,0,0:0:0:0:
208,192,267693,1,8,0:0:0:0:
208,192,267856,1,0,0:0:0:0:
208,192,267937,1,0,0:0:0:0:
216,184,268018,1,8,0:0:0:0:
208,168,268180,1,0,0:0:0:0:
208,168,268342,1,8,0:0:0:0:
168,112,268423,1,0,0:0:0:0:
216,168,268504,1,8,0:0:0:0:
216,168,268585,1,8,0:0:0:0:
216,168,268666,1,8,0:0:0:0:
208,192,268747,1,0,0:0:0:0:
216,160,268829,1,0,0:0:0:0:
216,160,268991,1,8,0:0:0:0:
208,168,269153,1,0,0:0:0:0:
216,160,269234,1,0,0:0:0:0:
176,64,269315,1,0,0:0:0:0:
176,64,269477,1,0,0:0:0:0:
160,136,269639,1,8,0:0:0:0:
160,136,269802,1,0,0:0:0:0:
160,136,269883,1,8,0:0:0:0:
160,136,269964,1,8,0:0:0:0:
160,136,270045,1,8,0:0:0:0:
160,136,270126,1,0,0:0:0:0:
232,56,270207,1,0,0:0:0:0:
152,128,270288,1,8,0:0:0:0:
160,128,270450,1,0,0:0:0:0:
152,128,270612,1,4,0:0:0:0:
160,128,271261,1,4,0:0:0:0:
256,88,271910,1,4,0:0:0:0:
256,192,280991,12,0,282126,0:0:0:0:
136,136,282288,5,4,0:0:0:0:
136,144,282612,1,8,0:0:0:0:
136,144,282775,1,0,0:0:0:0:
136,144,283099,1,8,0:0:0:0:
136,144,283261,1,0,0:0:0:0:
136,144,283585,1,8,0:0:0:0:
176,112,284072,1,0,0:0:0:0:
176,112,284153,1,0,0:0:0:0:
176,112,284234,1,8,0:0:0:0:
224,136,284558,1,0,0:0:0:0:
224,136,284720,1,0,0:0:0:0:
136,136,284883,1,0,0:0:0:0:
136,144,285207,1,8,0:0:0:0:
136,144,285369,1,0,0:0:0:0:
136,144,285693,1,0,0:0:0:0:
136,144,285856,1,8,0:0:0:0:
136,144,286180,1,0,0:0:0:0:
176,112,286666,1,0,0:0:0:0:
176,112,286747,1,0,0:0:0:0:
176,112,286829,1,8,0:0:0:0:
224,136,287153,1,0,0:0:0:0:
224,136,287315,1,0,0:0:0:0:
136,136,287477,1,0,0:0:0:0:
136,144,287802,1,0,0:0:0:0:
136,144,287964,1,8,0:0:0:0:
136,144,288288,1,8,0:0:0:0:
136,144,288450,1,0,0:0:0:0:
200,48,288612,1,0,0:0:0:0:
136,144,288775,1,8,0:0:0:0:
208,56,289099,1,0,0:0:0:0:
176,112,289261,1,0,0:0:0:0:
176,112,289342,1,0,0:0:0:0:
176,112,289423,1,8,0:0:0:0:
224,136,289747,1,0,0:0:0:0:
224,136,289910,1,8,0:0:0:0:
136,136,290072,1,0,0:0:0:0:
136,144,290396,1,0,0:0:0:0:
136,144,290558,1,8,0:0:0:0:
200,56,290720,1,0,0:0:0:0:
136,144,290883,1,0,0:0:0:0:
136,144,291045,1,8,0:0:0:0:
136,144,291369,1,0,0:0:0:0:
176,112,291856,1,0,0:0:0:0:
176,112,291937,1,0,0:0:0:0:
176,112,292018,1,8,0:0:0:0:
224,136,292342,1,0,0:0:0:0:
224,136,292504,1,8,0:0:0:0:
136,136,292666,1,4,0:0:0:0:
224,72,292829,1,0,0:0:0:0:
136,144,292991,1,0,0:0:0:0:
136,144,293153,1,8,0:0:0:0:
200,64,293315,1,0,0:0:0:0:
136,144,293477,1,0,0:0:0:0:
136,144,293639,1,8,0:0:0:0:
232,80,293802,1,0,0:0:0:0:
136,144,293964,1,8,0:0:0:0:
192,104,294288,1,0,0:0:0:0:
176,112,294450,1,8,0:0:0:0:
176,112,294531,1,8,0:0:0:0:
176,112,294612,1,8,0:0:0:0:
224,136,294937,1,8,0:0:0:0:
224,136,295099,1,8,0:0:0:0:
136,136,295261,1,0,0:0:0:0:
224,72,295423,1,0,0:0:0:0:
136,144,295585,1,0,0:0:0:0:
136,144,295747,1,8,0:0:0:0:
216,136,295910,1,8,0:0:0:0:
136,144,296072,1,0,0:0:0:0:
136,144,296234,1,8,0:0:0:0:
224,128,296396,1,0,0:0:0:0:
136,144,296558,1,0,0:0:0:0:
176,96,296883,1,0,0:0:0:0:
176,112,297045,1,8,0:0:0:0:
176,112,297126,1,8,0:0:0:0:
176,112,297207,1,8,0:0:0:0:
224,136,297531,1,8,0:0:0:0:
224,136,297693,1,8,0:0:0:0:
136,136,297856,1,0,0:0:0:0:
208,24,298018,1,0,0:0:0:0:
136,144,298180,1,0,0:0:0:0:
136,144,298342,1,8,0:0:0:0:
208,48,298504,1,0,0:0:0:0:
136,144,298666,1,0,0:0:0:0:
136,144,298829,1,8,0:0:0:0:
208,48,298991,1,8,0:0:0:0:
136,144,299153,1,0,0:0:0:0:
168,88,299477,1,0,0:0:0:0:
176,112,299639,1,8,0:0:0:0:
176,112,299720,1,8,0:0:0:0:
176,112,299802,1,8,0:0:0:0:
224,136,300126,1,0,0:0:0:0:
224,136,300288,1,8,0:0:0:0:
136,136,300450,1,0,0:0:0:0:
192,80,300612,1,0,0:0:0:0:
136,144,300775,1,0,0:0:0:0:
136,144,300937,1,8,0:0:0:0:
184,88,301099,1,0,0:0:0:0:
136,144,301261,1,0,0:0:0:0:
136,144,301423,1,8,0:0:0:0:
152,120,301585,1,8,0:0:0:0:
136,144,301747,1,0,0:0:0:0:
208,136,302072,1,0,0:0:0:0:
176,112,302234,1,8,0:0:0:0:
176,112,302315,1,8,0:0:0:0:
176,112,302396,1,8,0:0:0:0:
224,136,302720,1,0,0:0:0:0:
224,136,302883,1,8,0:0:0:0:
160,112,303045,5,4,0:0:0:0:
160,112,308234,5,0,0:0:0:0:
184,120,313423,5,4,0:0:0:0:
176,120,313747,1,0,0:0:0:0:
176,120,313910,1,8,0:0:0:0:
176,120,314072,1,0,0:0:0:0:
192,120,314396,1,8,0:0:0:0:
184,120,314720,1,0,0:0:0:0:
176,120,315045,1,0,0:0:0:0:
176,120,315207,1,8,0:0:0:0:
176,120,315369,1,0,0:0:0:0:
192,120,315693,1,8,0:0:0:0:
184,120,316018,1,0,0:0:0:0:
176,120,316342,1,0,0:0:0:0:
176,120,316504,1,8,0:0:0:0:
176,120,316666,1,0,0:0:0:0:
192,120,316991,1,8,0:0:0:0:
184,120,317315,1,0,0:0:0:0:
176,120,317639,1,0,0:0:0:0:
176,120,317802,1,8,0:0:0:0:
176,120,317964,1,0,0:0:0:0:
192,120,318288,1,8,0:0:0:0:
192,104,318612,1,0,0:0:0:0:
184,104,318775,1,8,0:0:0:0:
176,104,318937,1,0,0:0:0:0:
176,104,319099,1,8,0:0:0:0:
168,104,319261,1,0,0:0:0:0:
176,96,319423,1,8,0:0:0:0:
176,96,319585,1,0,0:0:0:0:
176,104,319747,1,8,0:0:0:0:
192,104,319910,1,0,0:0:0:0:
184,104,320072,1,8,0:0:0:0:
176,104,320234,1,0,0:0:0:0:
176,104,320396,1,8,0:0:0:0:
168,104,320558,1,0,0:0:0:0:
176,96,320720,1,8,0:0:0:0:
176,96,320883,1,0,0:0:0:0:
176,104,321045,1,8,0:0:0:0:
168,160,321207,1,0,0:0:0:0:
168,160,321288,1,0,0:0:0:0:
168,160,321369,1,8,0:0:0:0:
168,160,321450,1,8,0:0:0:0:
168,160,321531,1,0,0:0:0:0:
168,152,321612,1,8,0:0:0:0:
168,160,321693,1,8,0:0:0:0:
168,160,321775,1,8,0:0:0:0:
176,160,321856,1,0,0:0:0:0:
176,160,321937,1,0,0:0:0:0:
176,160,322018,1,8,0:0:0:0:
176,160,322099,1,8,0:0:0:0:
176,160,322180,1,0,0:0:0:0:
176,160,322261,1,8,0:0:0:0:
176,160,322342,1,0,0:0:0:0:
176,160,322423,1,0,0:0:0:0:
184,72,322504,1,8,0:0:0:0:
184,72,322558,1,8,0:0:0:0:
184,80,322612,1,8,0:0:0:0:
176,160,322666,1,0,0:0:0:0:
176,128,322747,1,0,0:0:0:0:
176,160,322829,1,8,0:0:0:0:
184,80,322883,1,8,0:0:0:0:
184,72,322937,1,8,0:0:0:0:
184,72,322991,1,0,0:0:0:0:
176,128,323153,1,8,0:0:0:0:
96,96,323193,1,8,0:0:0:0:
152,40,323315,1,8,0:0:0:0:
152,48,323356,1,8,0:0:0:0:
168,104,323477,1,0,0:0:0:0:
168,88,323639,1,8,0:0:0:0:
168,80,323802,1,4,0:0:0:0:
192,112,324450,1,8,0:0:0:0:
192,80,324612,1,0,0:0:0:0:
192,80,324775,1,8,0:0:0:0:
192,80,324937,1,8,0:0:0:0:
192,80,325018,1,0,0:0:0:0:
192,80,325099,1,8,0:0:0:0:
192,72,325261,1,0,0:0:0:0:
192,72,325423,1,8,0:0:0:0:
232,96,325585,1,8,0:0:0:0:
232,96,325666,1,8,0:0:0:0:
232,96,325747,1,0,0:0:0:0:
200,96,326072,1,8,0:0:0:0:
200,96,326234,1,0,0:0:0:0:
200,96,326315,1,8,0:0:0:0:
200,96,326396,1,0,0:0:0:0:
200,96,326558,1,0,0:0:0:0:
208,88,326720,1,8,0:0:0:0:
208,88,326883,1,0,0:0:0:0:
152,72,326964,1,0,0:0:0:0:
144,64,327045,1,8,0:0:0:0:
176,112,327207,1,0,0:0:0:0:
168,112,327288,1,8,0:0:0:0:
168,112,327450,1,0,0:0:0:0:
168,112,327531,1,8,0:0:0:0:
160,120,327612,1,8,0:0:0:0:
184,96,327693,1,0,0:0:0:0:
192,88,328018,1,0,0:0:0:0:
184,88,328180,1,8,0:0:0:0:
184,88,328261,1,0,0:0:0:0:
184,88,328342,1,8,0:0:0:0:
184,88,328504,1,0,0:0:0:0:
184,88,328585,1,8,0:0:0:0:
184,88,328666,1,0,0:0:0:0:
160,112,328991,1,0,0:0:0:0:
160,112,329315,1,8,0:0:0:0:
160,112,329477,1,0,0:0:0:0:
160,112,329558,1,0,0:0:0:0:
160,112,329639,1,8,0:0:0:0:
216,112,329802,1,0,0:0:0:0:
224,96,329883,1,8,0:0:0:0:
224,96,330045,1,0,0:0:0:0:
224,96,330126,1,8,0:0:0:0:
216,72,330288,1,0,0:0:0:0:
280,112,330369,1,0,0:0:0:0:
216,72,330450,1,8,0:0:0:0:
216,72,330531,1,0,0:0:0:0:
216,72,330612,1,8,0:0:0:0:
184,104,330775,1,8,0:0:0:0:
184,104,330937,1,0,0:0:0:0:
176,104,331261,1,0,0:0:0:0:
176,104,331423,1,8,0:0:0:0:
176,104,331585,1,4,0:0:0:0:
216,112,331747,1,8,0:0:0:0:
208,112,331829,1,0,0:0:0:0:
208,112,331910,1,8,0:0:0:0:
208,104,332072,1,0,0:0:0:0:
192,152,332234,1,4,0:0:0:0:
184,128,332396,1,0,0:0:0:0:
200,112,332477,1,0,0:0:0:0:
184,128,332558,1,8,0:0:0:0:
184,128,332639,1,8,0:0:0:0:
184,128,332720,1,8,0:0:0:0:
184,128,332802,1,8,0:0:0:0:
184,128,332883,1,4,0:0:0:0:
152,80,333207,1,0,0:0:0:0:
152,80,333369,1,8,0:0:0:0:
152,80,333450,1,8,0:0:0:0:
152,80,333531,1,0,0:0:0:0:
184,120,333612,1,8,0:0:0:0:
184,120,333693,1,0,0:0:0:0:
144,120,334018,1,0,0:0:0:0:
144,112,334099,1,8,0:0:0:0:
144,120,334180,1,0,0:0:0:0:
192,112,334829,1,8,0:0:0:0:
192,80,334991,1,0,0:0:0:0:
192,80,335153,1,8,0:0:0:0:
192,80,335315,1,8,0:0:0:0:
192,80,335396,1,0,0:0:0:0:
192,80,335477,1,8,0:0:0:0:
192,72,335639,1,0,0:0:0:0:
192,72,335802,1,8,0:0:0:0:
216,104,335883,1,0,0:0:0:0:
232,96,335964,1,8,0:0:0:0:
232,96,336045,1,8,0:0:0:0:
232,96,336126,1,0,0:0:0:0:
200,96,336450,1,8,0:0:0:0:
200,96,336612,1,0,0:0:0:0:
200,96,336693,1,8,0:0:0:0:
200,96,336775,1,0,0:0:0:0:
200,96,336937,1,0,0:0:0:0:
208,88,337099,1,8,0:0:0:0:
208,88,337261,1,0,0:0:0:0:
152,72,337342,1,0,0:0:0:0:
144,64,337423,1,8,0:0:0:0:
176,112,337585,1,0,0:0:0:0:
168,112,337666,1,8,0:0:0:0:
168,96,337747,1,0,0:0:0:0:
168,112,337829,1,0,0:0:0:0:
168,112,337910,1,8,0:0:0:0:
240,80,337991,1,8,0:0:0:0:
184,96,338072,1,0,0:0:0:0:
192,88,338396,1,0,0:0:0:0:
184,88,338558,1,8,0:0:0:0:
184,88,338639,1,0,0:0:0:0:
184,88,338720,1,8,0:0:0:0:
184,88,338883,1,0,0:0:0:0:
184,88,338964,1,8,0:0:0:0:
184,88,339045,1,0,0:0:0:0:
160,112,339369,1,0,0:0:0:0:
160,112,339693,1,8,0:0:0:0:
160,112,339856,1,0,0:0:0:0:
160,112,339937,1,0,0:0:0:0:
160,112,340018,1,8,0:0:0:0:
216,112,340180,1,0,0:0:0:0:
224,96,340261,1,8,0:0:0:0:
216,72,340342,1,0,0:0:0:0:
224,96,340423,1,0,0:0:0:0:
224,96,340504,1,8,0:0:0:0:
216,72,340666,1,0,0:0:0:0:
184,104,340747,1,0,0:0:0:0:
216,72,340829,1,8,0:0:0:0:
216,72,340910,1,0,0:0:0:0:
216,72,340991,1,8,0:0:0:0:
184,104,341153,1,8,0:0:0:0:
184,104,341315,1,0,0:0:0:0:
176,104,341639,1,0,0:0:0:0:
176,104,341802,1,8,0:0:0:0:
176,104,341964,1,4,0:0:0:0:
216,112,342126,1,8,0:0:0:0:
208,112,342207,1,0,0:0:0:0:
208,112,342288,1,8,0:0:0:0:
216,88,342369,1,8,0:0:0:0:
208,104,342450,1,0,0:0:0:0:
192,152,342612,1,4,0:0:0:0:
184,128,342775,1,0,0:0:0:0:
208,120,342856,1,0,0:0:0:0:
184,128,342937,1,8,0:0:0:0:
184,128,343018,1,8,0:0:0:0:
184,128,343099,1,8,0:0:0:0:
184,128,343180,1,8,0:0:0:0:
184,128,343261,1,4,0:0:0:0:
192,112,344234,1,8,0:0:0:0:
184,152,344558,1,4,0:0:0:0:
192,104,344883,1,8,0:0:0:0:
192,104,345045,1,0,0:0:0:0:
184,104,345126,1,0,0:0:0:0:
192,104,345207,1,8,0:0:0:0:
176,104,345369,1,0,0:0:0:0:
176,96,345531,1,8,0:0:0:0:
184,104,345693,1,0,0:0:0:0:
152,120,345775,1,8,0:0:0:0:
152,120,345856,1,0,0:0:0:0:
160,128,346018,1,8,0:0:0:0:
176,80,346180,1,0,0:0:0:0:
176,80,346261,1,0,0:0:0:0:
176,72,346342,1,0,0:0:0:0:
184,144,346504,1,8,0:0:0:0:
176,160,346666,1,0,0:0:0:0:
176,168,346747,1,0,0:0:0:0:
176,168,346829,1,8,0:0:0:0:
176,168,346991,1,8,0:0:0:0:
216,112,347153,1,0,0:0:0:0:
216,112,347477,1,8,0:0:0:0:
176,112,347639,1,8,0:0:0:0:
176,112,347720,1,8,0:0:0:0:
176,112,347802,1,0,0:0:0:0:
208,112,347964,1,0,0:0:0:0:
208,112,348126,1,8,0:0:0:0:
208,112,348288,1,0,0:0:0:0:
208,112,348369,1,0,0:0:0:0:
208,112,348450,1,8,0:0:0:0:
224,152,348612,1,8,0:0:0:0:
224,152,348775,1,0,0:0:0:0:
224,152,348856,1,0,0:0:0:0:
224,152,348937,1,0,0:0:0:0:
168,120,349099,1,8,0:0:0:0:
160,120,349261,1,0,0:0:0:0:
160,120,349342,1,8,0:0:0:0:
160,120,349423,1,0,0:0:0:0:
160,128,349585,1,8,0:0:0:0:
184,152,349747,1,4,0:0:0:0:
192,104,350072,1,8,0:0:0:0:
192,104,350234,1,0,0:0:0:0:
184,104,350315,1,0,0:0:0:0:
192,104,350396,1,8,0:0:0:0:
176,104,350558,1,0,0:0:0:0:
176,96,350720,1,8,0:0:0:0:
152,120,350802,1,8,0:0:0:0:
184,104,350883,1,0,0:0:0:0:
184,152,351045,1,4,0:0:0:0:
184,104,351207,1,0,0:0:0:0:
184,104,351288,1,0,0:0:0:0:
192,104,351369,1,8,0:0:0:0:
192,104,351531,1,8,0:0:0:0:
192,104,351693,1,8,0:0:0:0:
176,104,351856,1,0,0:0:0:0:
152,120,351937,1,0,0:0:0:0:
176,96,352018,1,8,0:0:0:0:
184,104,352180,1,0,0:0:0:0:
216,112,352342,1,4,0:0:0:0:
216,112,352666,1,8,0:0:0:0:
176,112,352829,1,8,0:0:0:0:
176,112,352910,1,8,0:0:0:0:
176,112,352991,1,0,0:0:0:0:
208,112,353153,1,8,0:0:0:0:
208,112,353315,1,0,0:0:0:0:
208,112,353396,1,0,0:0:0:0:
208,112,353477,1,0,0:0:0:0:
208,112,353639,1,8,0:0:0:0:
224,152,353802,1,8,0:0:0:0:
224,152,353883,1,8,0:0:0:0:
224,152,353964,1,0,0:0:0:0:
224,152,354126,1,0,0:0:0:0:
168,120,354288,1,8,0:0:0:0:
160,8,354369,1,8,0:0:0:0:
160,120,354450,1,0,0:0:0:0:
160,120,354531,1,8,0:0:0:0:
160,120,354612,1,0,0:0:0:0:
160,128,354775,1,8,0:0:0:0:
240,32,354937,1,4,0:0:0:0:
192,104,355261,1,8,0:0:0:0:
192,104,355423,1,0,0:0:0:0:
192,104,355585,1,8,0:0:0:0:
176,104,355747,1,0,0:0:0:0:
176,96,355910,1,8,0:0:0:0:
184,56,355991,1,8,0:0:0:0:
184,104,356072,1,0,0:0:0:0:
152,120,356153,1,8,0:0:0:0:
152,120,356234,1,0,0:0:0:0:
160,128,356396,1,8,0:0:0:0:
176,80,356558,1,0,0:0:0:0:
176,80,356639,1,0,0:0:0:0:
176,72,356720,1,0,0:0:0:0:
232,128,356802,1,0,0:0:0:0:
184,144,356883,1,8,0:0:0:0:
176,160,357045,1,0,0:0:0:0:
176,168,357207,1,8,0:0:0:0:
176,168,357288,1,0,0:0:0:0:
176,168,357369,1,8,0:0:0:0:
216,112,357531,1,0,0:0:0:0:
216,112,357856,1,8,0:0:0:0:
176,112,357937,1,0,0:0:0:0:
176,112,358018,1,8,0:0:0:0:
160,64,358099,1,8,0:0:0:0:
176,112,358180,1,0,0:0:0:0:
208,112,358342,1,0,0:0:0:0:
208,112,358504,1,8,0:0:0:0:
208,112,358666,1,0,0:0:0:0:
208,112,358747,1,0,0:0:0:0:
208,112,358829,1,8,0:0:0:0:
224,152,358991,1,8,0:0:0:0:
224,152,359153,1,0,0:0:0:0:
224,152,359234,1,0,0:0:0:0:
224,152,359315,1,0,0:0:0:0:
200,48,359396,1,0,0:0:0:0:
168,120,359477,1,8,0:0:0:0:
160,120,359639,1,0,0:0:0:0:
160,120,359720,1,8,0:0:0:0:
160,120,359802,1,0,0:0:0:0:
160,128,359964,1,8,0:0:0:0:
184,152,360126,1,4,0:0:0:0:
192,104,360450,1,8,0:0:0:0:
192,64,360531,1,8,0:0:0:0:
192,104,360612,1,0,0:0:0:0:
184,104,360693,1,0,0:0:0:0:
192,104,360775,1,8,0:0:0:0:
176,104,360937,1,0,0:0:0:0:
176,96,361099,1,8,0:0:0:0:
152,120,361180,1,8,0:0:0:0:
184,104,361261,1,0,0:0:0:0:
184,152,361423,1,4,0:0:0:0:
184,104,361585,1,0,0:0:0:0:
128,56,361666,1,0,0:0:0:0:
192,104,361747,1,8,0:0:0:0:
184,104,361829,1,0,0:0:0:0:
192,104,361910,1,8,0:0:0:0:
192,104,362072,1,8,0:0:0:0:
176,104,362234,1,0,0:0:0:0:
152,120,362315,1,0,0:0:0:0:
176,96,362396,1,8,0:0:0:0:
184,104,362558,1,0,0:0:0:0:
216,112,362720,1,4,0:0:0:0:
216,112,363045,1,8,0:0:0:0:
176,112,363207,1,8,0:0:0:0:
176,112,363369,1,4,0:0:0:0:
208,112,363531,1,0,0:0:0:0:
208,112,363612,1,0,0:0:0:0:
208,112,363693,1,0,0:0:0:0:
208,112,363856,1,8,0:0:0:0:
208,112,364018,1,4,0:0:0:0:
224,152,364180,1,8,0:0:0:0:
224,152,364261,1,8,0:0:0:0:
224,152,364342,1,0,0:0:0:0:
224,152,364504,1,0,0:0:0:0:
168,120,364666,1,8,0:0:0:0:
176,40,364775,1,8,0:0:0:0:
160,120,364883,1,8,0:0:0:0:
160,120,364991,1,8,0:0:0:0:
160,120,365099,1,8,0:0:0:0:
160,128,365207,1,8,0:0:0:0:
208,144,365315,1,4,0:0:0:0:
256,192,365477,12,0,376991,0:0:0:0:
