osu file format v14

[General]
AudioFilename: audio.mp3
AudioLeadIn: 0
PreviewTime: 59769
Countdown: 0
SampleSet: None
StackLeniency: 0.7
Mode: 0
LetterboxInBreaks: 0
WidescreenStoryboard: 0

[Editor]
Bookmarks: 216269
DistanceSpacing: 0.5
BeatDivisor: 4
GridSize: 4
TimelineZoom: 3.899999

[Metadata]
Title:Monosugoi Mawashichau Kagiyama-san ga Monosugoi Uta
TitleUnicode:物凄い回しちゃう鍵山さんが物凄いうた
Artist:Nanahira
ArtistUnicode:ななひら
Creator:DeathAdderz
Version:Lunatic
Source:東方Project
Tags:touhou sumijun digihalo nexus halozy digital wing c84 comiket 84 the road of apotropaic god dark side fate kagiyama hina mountain faith
BeatmapID:1212077
BeatmapSetID:571978

[Difficulty]
HPDrainRate:6
CircleSize:4
OverallDifficulty:8
ApproachRate:9.2
SliderMultiplier:1.39999990463257
SliderTickRate:1

[Events]
//Background and Video events
0,0,"Kagiyama.Hina.full.1948339.jpg",0,0
//Break Periods
//Storyboard Layer 0 (Background)
//Storyboard Layer 1 (Fail)
//Storyboard Layer 2 (Pass)
//Storyboard Layer 3 (Foreground)
//Storyboard Sound Samples

[TimingPoints]
14436,333.333333333333,4,2,0,70,1,0
23769,-50,4,2,0,50,0,0
24436,-100,4,2,0,50,0,0
25102,-100,4,2,0,30,0,0
26436,-100,4,2,0,50,0,0
31435,-66.6666666666667,4,2,0,50,0,0
31769,-100,4,2,0,50,0,0
35602,-76.9230769230769,4,2,0,50,0,0
35935,-71.4285714285714,4,2,0,50,0,0
37102,-100,4,2,0,50,0,0
39102,-66.6666666666667,4,2,0,50,0,0
39769,-100,4,2,0,50,0,0
41769,-71.4285714285714,4,2,0,50,0,0
42102,-55.5555555555556,4,2,0,50,0,0
42435,-100,4,2,0,50,0,0
45769,-83.3333333333333,4,2,0,50,0,0
46269,-62.5,4,2,0,50,0,0
47769,-90.9090909090909,4,2,0,50,0,0
53269,-100,4,2,0,50,0,0
58435,-100,4,2,0,20,0,0
59769,-100,4,2,0,50,0,0
60102,-125,4,2,0,50,0,0
60435,-166.666666666667,4,2,0,50,0,0
60769,-200,4,2,0,50,0,0
61102,-83.3333333333333,4,2,0,70,0,1
64435,-55.5555555555556,4,2,0,70,0,1
66102,-83.3333333333333,4,2,0,70,0,1
70269,-100,4,2,0,70,0,1
71769,-83.3333333333333,4,2,0,70,0,1
82435,-100,4,2,0,70,0,0
91769,-50,4,2,0,50,0,0
92435,-100,4,2,0,50,0,0
98102,-50,4,2,0,50,0,0
98435,-100,4,2,0,50,0,0
108769,-50,4,2,0,50,0,0
109102,-100,4,2,0,50,0,0
123769,-50,4,2,0,50,0,0
125102,-100,4,2,0,50,0,0
126769,-125,4,2,0,50,0,0
127102,-166.666666666667,4,2,0,50,0,0
127435,-200,4,2,0,50,0,0
127769,-83.3333333333333,4,2,0,50,0,1
131102,-62.5,4,2,0,50,0,1
131769,-55.5555555555556,4,2,0,50,0,1
132769,-83.3333333333333,4,2,0,50,0,1
146435,-50,4,2,0,50,0,1
149102,-100,4,2,0,50,0,0
158935,-133.333333333333,4,2,0,50,0,0
170435,-83.3333333333333,4,2,0,50,0,1
173102,-66.6666666666667,4,2,0,50,0,1
173769,-83.3333333333333,4,2,0,50,0,1
179769,-200,4,2,0,50,0,0
185102,-133.333333333333,4,2,0,50,0,0
186435,-66.6666666666667,4,2,0,50,0,0
191769,-83.3333333333333,4,2,0,50,0,1
195769,-50,4,2,0,50,0,1
196769,-83.3333333333333,4,2,0,50,0,1
202435,-100,4,2,0,50,0,0
216935,-50,4,2,0,50,0,0
217435,-100,4,2,0,50,0,0
222435,-50,4,2,0,50,0,0
223102,-100,4,2,0,50,0,0

[Colours]
Combo1 : 255,228,52
Combo2 : 105,176,255
Combo3 : 255,255,255
Combo4 : 58,220,62

[HitObjects]
92,72,14436,5,0,0:0:0:0:
204,156,14603,1,0,0:0:0:0:
328,84,14770,1,0,0:0:0:0:
328,84,14853,1,0,0:0:0:0:
328,84,14937,1,0,0:0:0:0:
360,220,15103,2,0,L|232:288,1,139.999990463257,0|0,0:0|0:0,0:0:0:0:
76,200,15603,21,0,0:0:0:0:
180,104,15770,2,0,L|276:88,1,69.9999952316285,0|0,0:0|0:0,0:0:0:0:
280,108,16020,1,0,0:0:0:0:
308,128,16103,1,0,0:0:0:0:
328,156,16187,1,0,0:0:0:0:
332,192,16270,1,0,0:0:0:0:
324,224,16353,1,0,0:0:0:0:
304,252,16437,2,0,B|196:272,1,104.999992847443,0|0,0:0|0:0,0:0:0:0:
100,84,16937,5,0,0:0:0:0:
84,216,17102,2,0,L|176:336,1,139.999990463257,0|0,0:0|0:0,0:0:0:0:
248,108,17602,5,0,0:0:0:0:
232,240,17769,2,0,L|324:360,1,139.999990463257,0|0,0:0|0:0,0:0:0:0:
408,144,18270,5,0,0:0:0:0:
396,284,18437,1,0,0:0:0:0:
364,292,18687,1,0,0:0:0:0:
332,304,18937,1,0,0:0:0:0:
260,300,19103,1,0,0:0:0:0:
244,292,19187,1,0,0:0:0:0:
228,284,19270,1,0,0:0:0:0:
212,276,19353,1,0,0:0:0:0:
200,264,19437,1,0,0:0:0:0:
76,36,19770,5,0,0:0:0:0:
212,76,19937,1,0,0:0:0:0:
340,136,20103,1,0,0:0:0:0:
340,136,20187,1,0,0:0:0:0:
340,136,20270,1,0,0:0:0:0:
344,276,20437,2,0,P|272:316|204:276,1,139.999990463257,0|0,0:0|0:0,0:0:0:0:
76,264,20937,5,0,0:0:0:0:
132,136,21103,1,0,0:0:0:0:
256,68,21270,1,0,0:0:0:0:
280,92,21353,1,0,0:0:0:0:
300,120,21437,1,0,0:0:0:0:
324,148,21520,1,0,0:0:0:0:
340,180,21603,1,0,0:0:0:0:
352,212,21687,1,0,0:0:0:0:
356,248,21770,2,0,L|200:208,1,139.999990463257,0|0,0:0|0:0,0:0:0:0:
192,76,22270,1,0,0:0:0:0:
52,76,22437,5,0,0:0:0:0:
56,92,22520,1,0,0:0:0:0:
60,108,22603,1,0,0:0:0:0:
68,124,22687,1,0,0:0:0:0:
76,140,22770,1,0,0:0:0:0:
84,156,22853,1,0,0:0:0:0:
96,168,22937,1,0,0:0:0:0:
108,180,23020,1,0,0:0:0:0:
120,192,23103,5,0,0:0:0:0:
136,204,23187,1,0,0:0:0:0:
152,212,23270,1,0,0:0:0:0:
168,216,23353,1,0,0:0:0:0:
184,220,23437,1,0,0:0:0:0:
200,224,23520,1,0,0:0:0:0:
216,224,23603,1,0,0:0:0:0:
232,224,23687,1,0,0:0:0:0:
248,220,23770,6,0,L|260:180,7,34.9999976158143
376,144,24103,2,0,L|376:104,7,34.9999976158142
256,108,24436,6,0,L|256:52,4,34.9999976158143,0|0|0|0|0,0:0|0:0|0:0|0:0|0:0,0:0:0:0:
256,192,25102,12,0,26269,0:0:0:0:
68,104,26436,5,0,0:0:0:0:
204,68,26602,1,0,0:0:0:0:
344,88,26769,1,0,0:0:0:0:
280,212,26936,1,0,0:0:0:0:
404,276,27102,2,0,P|376:332|284:336,1,139.999990463257
96,292,27602,2,0,L|156:304,1,34.9999976158143
240,320,27769,5,0,0:0:0:0:
348,308,27936,1,0,0:0:0:0:
284,116,28102,1,0,0:0:0:0:
376,80,28269,1,0,0:0:0:0:
176,52,28436,2,0,P|128:96|112:140,2,104.999992847443,0|0|0,0:0|0:0|0:0,0:0:0:0:
432,96,29102,5,0,0:0:0:0:
384,228,29269,1,0,0:0:0:0:
252,180,29436,1,0,0:0:0:0:
148,272,29602,1,0,0:0:0:0:
96,140,29769,2,0,P|176:84|240:96,1,139.999990463257,0|0,0:0|0:0,0:0:0:0:
440,200,30269,2,0,L|400:228,1,34.9999976158143
280,272,30436,5,0,0:0:0:0:
296,132,30602,1,0,0:0:0:0:
160,96,30769,1,0,0:0:0:0:
88,216,30935,1,0,0:0:0:0:
188,316,31102,2,0,L|304:256,1,104.999992847443
328,272,31435,2,0,L|356:168,1,104.999996852875
128,48,31769,5,0,0:0:0:0:
96,184,31935,1,0,0:0:0:0:
204,272,32102,1,0,0:0:0:0:
288,160,32269,1,0,0:0:0:0:
420,208,32435,2,0,P|456:112|424:72,1,139.999990463257
256,48,32935,2,0,L|244:80,1,34.9999976158143
136,172,33102,5,0,0:0:0:0:
244,264,33269,1,0,0:0:0:0:
372,208,33435,2,0,L|408:96,1,104.999992847443
384,76,33769,2,0,P|320:64|264:96,2,104.999992847443
428,312,34435,5,0,0:0:0:0:
296,264,34602,1,0,0:0:0:0:
280,124,34769,1,0,0:0:0:0:
168,208,34935,1,0,0:0:0:0:
80,96,35102,2,0,P|160:48|220:68,1,139.999990463257
400,100,35602,6,0,P|420:192|376:232,1,136.499984453202
356,248,35935,2,0,P|256:296|144:248,1,195.999980667115
160,260,36352,1,0,0:0:0:0:
152,248,36435,1,0,0:0:0:0:
144,236,36519,1,0,0:0:0:0:
136,216,36602,1,0,0:0:0:0:
128,192,36685,1,0,0:0:0:0:
116,164,36769,5,0,0:0:0:0:
104,136,36852,1,0,0:0:0:0:
92,108,36935,1,0,0:0:0:0:
80,80,37019,1,0,0:0:0:0:
72,52,37102,6,0,P|136:36|156:36,1,69.9999952316285
344,56,37435,1,0,0:0:0:0:
448,152,37602,1,0,0:0:0:0:
340,288,37769,2,0,P|248:272|236:232,1,139.999990463257
128,60,38269,6,0,P|116:92|120:104,1,34.9999976158143
100,240,38435,1,0,0:0:0:0:
224,172,38602,1,0,0:0:0:0:
396,120,38769,2,0,P|424:180|408:208,1,69.9999952316285
380,304,39102,2,0,L|260:256,1,104.999996852875
244,312,39352,2,0,L|124:264,1,104.999996852875
128,248,39602,1,0,0:0:0:0:
296,64,39769,5,0,0:0:0:0:
428,108,39935,1,0,0:0:0:0:
308,180,40102,1,0,0:0:0:0:
360,312,40269,2,0,L|320:312,1,34.9999976158143
184,280,40435,2,0,L|60:160,1,139.999990463257
72,64,40935,6,0,L|132:60,1,34.9999976158143
256,52,41102,1,0,0:0:0:0:
316,180,41269,1,0,0:0:0:0:
184,224,41435,1,0,0:0:0:0:
112,344,41602,1,0,0:0:0:0:
280,308,41769,2,0,P|352:276|376:188,1,146.999985500336
448,112,42102,2,0,L|464:240,1,125.999987571717
436,276,42435,6,0,L|340:272,1,69.9999952316285
228,308,42769,1,0,0:0:0:0:
132,204,42935,1,0,0:0:0:0:
172,68,43102,2,0,P|256:44|332:48,1,139.999990463257
436,56,43602,2,0,L|440:104,1,34.9999976158143
428,232,43769,5,0,0:0:0:0:
336,128,43935,1,0,0:0:0:0:
260,248,44102,1,0,0:0:0:0:
172,140,44269,1,0,0:0:0:0:
108,264,44435,2,0,L|184:332,1,69.9999952316285
280,236,44769,2,0,L|220:164,1,69.9999952316285
76,56,45102,5,0,0:0:0:0:
232,48,45269,1,0,0:0:0:0:
184,196,45435,1,0,0:0:0:0:
340,188,45602,1,0,0:0:0:0:
456,288,45769,2,0,P|372:320|288:308,1,167.999983428956
108,264,46269,6,0,P|76:176|104:104,1,167.999988555908
144,80,46602,2,0,B|232:80|252:48|324:48,1,167.999988555908
384,48,46935,2,0,L|404:116,1,55.9999961853028
428,200,47102,2,0,B|348:268|232:316|92:240,1,335.999977111817
64,56,47769,5,0,0:0:0:0:
68,80,48269,5,0,0:0:0:0:
76,232,48435,1,0,0:0:0:0:
112,264,48935,5,0,0:0:0:0:
172,124,49102,1,0,0:0:0:0:
220,92,49602,5,0,0:0:0:0:
208,244,49769,1,0,0:0:0:0:
248,292,50269,5,0,0:0:0:0:
268,140,50435,1,0,0:0:0:0:
304,172,50935,5,0,0:0:0:0:
356,316,51102,1,0,0:0:0:0:
388,260,51602,5,0,0:0:0:0:
404,108,51769,1,0,0:0:0:0:
368,72,52269,5,0,0:0:0:0:
224,124,52435,1,0,0:0:0:0:
172,148,52935,5,0,0:0:0:0:
64,36,53102,5,0,0:0:0:0:
168,44,53268,1,0,0:0:0:0:
112,132,53435,5,0,0:0:0:0:
216,140,53602,1,0,0:0:0:0:
172,236,53768,5,0,0:0:0:0:
276,244,53934,1,0,0:0:0:0:
228,340,54102,5,0,0:0:0:0:
332,348,54268,1,0,0:0:0:0:
444,272,54435,5,0,0:0:0:0:
444,272,54602,1,0,0:0:0:0:
368,152,54768,5,0,0:0:0:0:
368,152,54935,1,0,0:0:0:0:
240,224,55102,5,0,0:0:0:0:
240,224,55268,1,0,0:0:0:0:
140,124,55435,5,0,0:0:0:0:
140,124,55602,1,0,0:0:0:0:
60,60,55769,5,0,0:0:0:0:
64,88,55852,1,0,0:0:0:0:
68,116,55935,1,0,0:0:0:0:
80,140,56019,1,0,0:0:0:0:
92,164,56102,1,0,0:0:0:0:
112,184,56185,1,0,0:0:0:0:
132,204,56269,1,0,0:0:0:0:
152,224,56352,1,0,0:0:0:0:
176,236,56435,5,0,0:0:0:0:
204,244,56519,1,0,0:0:0:0:
232,248,56602,1,0,0:0:0:0:
260,248,56685,1,0,0:0:0:0:
288,244,56769,1,0,0:0:0:0:
316,240,56852,1,0,0:0:0:0:
340,228,56935,1,0,0:0:0:0:
364,212,57019,1,0,0:0:0:0:
384,196,57102,6,0,L|392:168,15,17.4999988079071
248,184,57769,2,0,L|248:160,14,17.4999988079071
80,312,58435,5,0,0:0:0:0:
80,288,58602,1,0,0:0:0:0:
80,256,58769,2,0,L|80:220,1,34.9999976158143
72,52,59102,5,0,0:0:0:0:
72,72,59269,1,0,0:0:0:0:
72,100,59435,2,0,L|72:120,7,17.4999988079071
60,176,59769,6,0,L|184:184,1,104.999992847443
192,248,60102,2,0,L|300:240,1,83.9999942779542
296,156,60435,2,0,L|376:160,1,62.9999937858584
384,240,60769,2,0,L|440:232,1,52.4999964237214
456,324,61102,6,0,P|376:336|268:312,1,167.999983428956
108,252,61602,1,0,0:0:0:0:
140,60,61769,2,0,P|212:48|308:88,1,167.999983428956
452,172,62269,1,0,0:0:0:0:
424,336,62435,1,0,0:0:0:0:
424,336,62602,1,0,0:0:0:0:
240,316,62769,1,0,0:0:0:0:
240,316,62935,1,0,0:0:0:0:
60,184,63102,5,0,0:0:0:0:
448,136,63435,1,0,0:0:0:0:
456,320,63769,6,0,P|380:348|280:312,1,167.999983428956
124,260,64269,1,0,0:0:0:0:
352,236,64435,2,0,P|432:160|416:104,1,125.999987571717
416,148,64685,2,0,B|352:128|316:140|272:88,1,125.999987571717
260,104,64935,2,0,P|208:116|192:152,1,62.9999937858584
116,192,65102,2,0,B|240:356|460:332|452:36,1,503.999950286867
451,73,66102,6,0,P|384:48|340:52,1,83.9999917144779
188,52,66435,2,0,B|160:152|92:188|44:200|52:352,1,335.999966857912
196,228,67269,1,0,0:0:0:0:
336,320,67435,1,0,0:0:0:0:
368,156,67602,1,0,0:0:0:0:
212,220,67769,1,0,0:0:0:0:
340,296,67935,1,0,0:0:0:0:
348,160,68102,1,0,0:0:0:0:
232,228,68269,1,0,0:0:0:0:
356,276,68435,1,0,0:0:0:0:
248,108,68769,5,0,0:0:0:0:
84,68,68935,1,0,0:0:0:0:
356,56,69102,2,0,B|368:136|436:156|460:216|468:316|368:336,1,335.999966857912
304,180,69935,1,0,0:0:0:0:
244,336,70102,1,0,0:0:0:0:
68,300,70269,2,0,B|96:136|216:76|292:72,1,314.999978542328
388,44,71102,2,0,L|408:192,1,139.999990463257
392,216,71519,1,0,0:0:0:0:
380,256,71602,1,0,0:0:0:0:
368,296,71685,1,0,0:0:0:0:
352,332,71769,6,0,L|176:328,1,167.999983428956
48,208,72269,1,0,0:0:0:0:
88,44,72435,2,0,L|256:40,1,167.999983428956
456,48,72935,1,0,0:0:0:0:
280,132,73102,1,0,0:0:0:0:
96,64,73269,1,0,0:0:0:0:
48,252,73435,1,0,0:0:0:0:
232,320,73602,1,0,0:0:0:0:
456,176,73769,5,0,0:0:0:0:
68,176,74102,1,0,0:0:0:0:
456,176,74435,6,0,P|456:268|388:300,1,167.999983428956
256,192,74935,1,0,0:0:0:0:
92,56,75102,2,0,P|148:80|236:40,2,125.999987571717
92,268,75769,2,0,B|140:232|208:176|296:216|344:268|424:156,1,335.999966857912
364,344,76769,6,0,L|372:256,1,83.9999917144779
152,256,77102,5,0,0:0:0:0:
276,96,77269,1,0,0:0:0:0:
324,292,77435,1,0,0:0:0:0:
168,164,77602,1,0,0:0:0:0:
368,128,77769,1,0,0:0:0:0:
176,68,77935,1,0,0:0:0:0:
296,228,78102,1,0,0:0:0:0:
96,220,78269,1,0,0:0:0:0:
128,332,78435,5,0,0:0:0:0:
172,324,78519,1,0,0:0:0:0:
216,316,78602,1,0,0:0:0:0:
260,308,78685,1,0,0:0:0:0:
304,296,78769,1,0,0:0:0:0:
344,276,78852,1,0,0:0:0:0:
380,244,78935,1,0,0:0:0:0:
408,208,79019,1,0,0:0:0:0:
424,164,79102,5,0,0:0:0:0:
392,132,79185,1,0,0:0:0:0:
356,104,79269,1,0,0:0:0:0:
316,84,79352,1,0,0:0:0:0:
272,80,79435,1,0,0:0:0:0:
224,76,79519,1,0,0:0:0:0:
180,72,79602,1,0,0:0:0:0:
136,68,79685,1,0,0:0:0:0:
96,72,79769,6,0,L|80:52,4,20.9999979286195
92,96,80019,5,0,0:0:0:0:
88,116,80102,1,0,0:0:0:0:
88,136,80185,1,0,0:0:0:0:
84,156,80269,1,0,0:0:0:0:
80,176,80352,1,0,0:0:0:0:
76,196,80435,2,0,L|60:224,4,20.9999979286195
112,248,80685,5,0,0:0:0:0:
124,256,80769,1,0,0:0:0:0:
136,264,80852,1,0,0:0:0:0:
148,272,80935,1,0,0:0:0:0:
156,280,81019,1,0,0:0:0:0:
168,288,81102,2,0,L|200:276,4,20.9999979286195
204,300,81352,1,0,0:0:0:0:
212,312,81435,1,0,0:0:0:0:
220,324,81518,1,0,0:0:0:0:
228,336,81602,1,0,0:0:0:0:
236,348,81685,1,0,0:0:0:0:
364,208,82102,6,0,L|364:188,7,20.9999979286195
420,108,82435,5,0,0:0:0:0:
288,156,82602,1,0,0:0:0:0:
164,88,82769,1,0,0:0:0:0:
164,88,82852,1,0,0:0:0:0:
164,88,82935,1,0,0:0:0:0:
64,244,83102,2,0,P|136:276|224:264,1,139.999990463257
400,320,83602,1,0,0:0:0:0:
456,160,83769,5,0,0:0:0:0:
316,160,83935,1,0,0:0:0:0:
304,184,84019,1,0,0:0:0:0:
296,208,84102,1,0,0:0:0:0:
288,232,84185,1,0,0:0:0:0:
280,256,84269,1,0,0:0:0:0:
268,276,84352,1,0,0:0:0:0:
256,296,84435,2,0,L|112:264,1,139.999990463257
64,56,84935,5,0,0:0:0:0:
120,184,85102,1,0,0:0:0:0:
92,120,85602,5,0,0:0:0:0:
148,248,85769,1,0,0:0:0:0:
120,184,86269,5,0,0:0:0:0:
176,312,86436,1,0,0:0:0:0:
212,312,86685,1,0,0:0:0:0:
248,312,86935,1,0,0:0:0:0:
284,312,87102,1,0,0:0:0:0:
300,308,87185,1,0,0:0:0:0:
316,304,87269,1,0,0:0:0:0:
332,300,87352,1,0,0:0:0:0:
348,296,87435,1,0,0:0:0:0:
432,72,87769,6,0,L|432:168,1,69.9999952316285
300,72,88102,1,0,0:0:0:0:
300,108,88185,1,0,0:0:0:0:
300,144,88269,1,0,0:0:0:0:
172,80,88435,2,0,B|160:24|60:60|96:132,1,139.999990463257
76,304,88935,5,0,0:0:0:0:
132,176,89102,1,0,0:0:0:0:
232,76,89269,1,0,0:0:0:0:
264,64,89352,1,0,0:0:0:0:
296,56,89435,1,0,0:0:0:0:
332,60,89519,1,0,0:0:0:0:
360,80,89602,1,0,0:0:0:0:
384,104,89685,1,0,0:0:0:0:
400,136,89769,2,0,P|408:188|320:224,1,139.999990463257
244,128,90269,1,0,0:0:0:0:
124,56,90435,5,0,0:0:0:0:
108,68,90519,1,0,0:0:0:0:
96,80,90602,1,0,0:0:0:0:
88,96,90685,1,0,0:0:0:0:
84,112,90769,1,0,0:0:0:0:
80,128,90852,1,0,0:0:0:0:
80,144,90935,1,0,0:0:0:0:
84,160,91019,1,0,0:0:0:0:
88,176,91102,5,0,0:0:0:0:
96,192,91185,1,0,0:0:0:0:
108,204,91269,1,0,0:0:0:0:
120,216,91352,1,0,0:0:0:0:
132,228,91435,1,0,0:0:0:0:
144,240,91519,1,0,0:0:0:0:
156,252,91602,1,0,0:0:0:0:
172,260,91685,1,0,0:0:0:0:
188,272,91769,6,0,L|232:268,7,34.9999976158143
288,196,92102,2,0,L|324:188,7,34.9999976158143
384,104,92435,6,0,L|416:88,4,34.9999976158143
288,52,93102,5,0,0:0:0:0:
196,64,93269,1,0,0:0:0:0:
116,108,93435,2,0,L|36:160,1,69.9999952316285
100,228,93769,2,0,L|224:148,1,139.999990463257
436,128,94269,2,0,L|436:168,1,34.9999976158143
416,328,94435,6,0,P|344:288|296:296,1,104.999992847443
312,296,94769,2,0,P|260:320|204:312,1,104.999992847443
192,288,95102,2,0,L|84:320,2,104.999992847443
64,144,95769,5,0,0:0:0:0:
140,96,95935,1,0,0:0:0:0:
276,208,96102,1,0,0:0:0:0:
352,260,96269,1,0,0:0:0:0:
456,176,96435,2,0,P|448:104|400:56,1,139.999990463257
232,56,96935,2,0,L|196:56,1,34.9999976158143
56,64,97102,5,0,0:0:0:0:
104,180,97269,1,0,0:0:0:0:
208,108,97435,1,0,0:0:0:0:
208,108,97602,1,0,0:0:0:0:
292,44,97769,2,0,L|400:44,1,104.999992847443
464,48,98102,2,0,L|464:240,1,139.999990463257
436,328,98435,5,0,0:0:0:0:
320,248,98602,1,0,0:0:0:0:
204,328,98769,1,0,0:0:0:0:
88,248,98936,1,0,0:0:0:0:
88,248,99102,2,0,P|60:180|64:108,1,139.999990463257
240,56,99602,2,0,L|232:96,1,34.9999976158143
408,68,99769,5,0,0:0:0:0:
408,68,99935,2,0,L|392:160,1,69.9999952316285
428,276,100269,1,0,0:0:0:0:
240,320,100435,2,0,L|364:308,2,104.999992847443
68,264,101102,5,0,0:0:0:0:
188,228,101269,1,0,0:0:0:0:
188,104,101435,1,0,0:0:0:0:
312,124,101602,1,0,0:0:0:0:
436,60,101769,2,0,L|340:48,1,69.9999952316285
120,64,102102,2,0,L|92:84,1,34.9999976158143
68,92,102269,2,0,L|84:232,2,139.999990463257
92,80,103019,5,0,0:0:0:0:
104,76,103102,1,0,0:0:0:0:
116,72,103185,1,0,0:0:0:0:
128,68,103269,1,0,0:0:0:0:
144,64,103352,1,0,0:0:0:0:
160,60,103435,1,0,0:0:0:0:
180,56,103519,1,0,0:0:0:0:
204,52,103602,1,0,0:0:0:0:
232,44,103685,1,0,0:0:0:0:
260,40,103769,5,0,0:0:0:0:
392,80,103935,1,0,0:0:0:0:
292,180,104102,1,0,0:0:0:0:
416,244,104269,1,0,0:0:0:0:
296,312,104435,2,0,P|188:320|152:288,1,139.999990463257
88,312,104935,2,0,L|88:268,1,34.9999976158143
80,160,105102,5,0,0:0:0:0:
80,160,105269,1,0,0:0:0:0:
236,64,105435,1,0,0:0:0:0:
236,64,105602,1,0,0:0:0:0:
408,192,105769,2,0,P|340:196|304:220,2,104.999992847443
352,64,106435,6,0,L|256:60,1,69.9999952316285
140,56,106769,1,0,0:0:0:0:
216,172,106935,1,0,0:0:0:0:
344,112,107102,2,0,P|424:104|440:160,1,139.999990463257
468,288,107602,2,0,L|432:304,1,34.9999976158143
284,324,107769,5,0,0:0:0:0:
148,300,107935,1,0,0:0:0:0:
132,136,108102,1,0,0:0:0:0:
132,136,108269,1,0,0:0:0:0:
236,44,108435,2,0,L|360:40,1,104.999992847443
340,40,108769,2,0,L|340:192,1,139.999990463257
72,88,109102,6,0,L|156:64,1,69.9999952316285
256,148,109435,1,0,0:0:0:0:
148,240,109602,1,0,0:0:0:0:
280,288,109769,2,0,P|376:264|396:220,1,139.999990463257
468,116,110269,2,0,L|444:80,1,34.9999976158143
332,48,110435,5,0,0:0:0:0:
192,52,110602,1,0,0:0:0:0:
216,192,110769,1,0,0:0:0:0:
348,240,110935,1,0,0:0:0:0:
244,336,111102,2,0,P|180:336|128:296,2,104.999992847443
448,304,111769,6,0,L|388:228,1,69.9999952316285
424,68,112102,1,0,0:0:0:0:
296,124,112269,1,0,0:0:0:0:
136,52,112435,2,0,P|120:88|88:96,1,69.9999952316285
88,280,112769,5,0,0:0:0:0:
408,216,112936,1,0,0:0:0:0:
112,92,113269,1,0,0:0:0:0:
296,60,113602,1,0,0:0:0:0:
444,48,113769,5,0,0:0:0:0:
444,64,113852,1,0,0:0:0:0:
444,84,113935,1,0,0:0:0:0:
444,104,114019,1,0,0:0:0:0:
444,128,114102,1,0,0:0:0:0:
444,156,114185,1,0,0:0:0:0:
444,188,114269,1,0,0:0:0:0:
444,224,114352,1,0,0:0:0:0:
444,260,114435,5,0,0:0:0:0:
448,336,114935,5,0,0:0:0:0:
376,216,115102,1,0,0:0:0:0:
232,328,115602,5,0,0:0:0:0:
260,192,115769,1,0,0:0:0:0:
128,328,116269,5,0,0:0:0:0:
108,188,116436,1,0,0:0:0:0:
88,64,116935,5,0,0:0:0:0:
52,200,117101,1,0,0:0:0:0:
172,340,117602,5,0,0:0:0:0:
180,200,117769,1,0,0:0:0:0:
296,256,118269,5,0,0:0:0:0:
328,120,118435,1,0,0:0:0:0:
436,180,118935,5,0,0:0:0:0:
344,72,119102,1,0,0:0:0:0:
172,48,119602,5,0,0:0:0:0:
60,88,119769,5,0,0:0:0:0:
60,88,119852,1,0,0:0:0:0:
60,88,119935,1,0,0:0:0:0:
60,92,120019,1,0,0:0:0:0:
64,100,120102,1,0,0:0:0:0:
64,104,120185,1,0,0:0:0:0:
64,108,120269,1,0,0:0:0:0:
64,112,120352,1,0,0:0:0:0:
64,128,120435,5,0,0:0:0:0:
76,140,120519,1,0,0:0:0:0:
92,152,120602,1,0,0:0:0:0:
104,164,120685,1,0,0:0:0:0:
112,188,120769,1,0,0:0:0:0:
116,212,120852,1,0,0:0:0:0:
124,236,120935,1,0,0:0:0:0:
140,256,121019,1,0,0:0:0:0:
168,272,121102,5,0,0:0:0:0:
200,276,121185,1,0,0:0:0:0:
232,272,121269,1,0,0:0:0:0:
260,260,121352,1,0,0:0:0:0:
292,248,121435,1,0,0:0:0:0:
324,236,121519,1,0,0:0:0:0:
356,224,121602,1,0,0:0:0:0:
380,200,121685,1,0,0:0:0:0:
404,176,121769,5,0,0:0:0:0:
416,144,121852,1,0,0:0:0:0:
408,112,121935,1,0,0:0:0:0:
384,88,122019,1,0,0:0:0:0:
352,76,122102,1,0,0:0:0:0:
320,64,122185,1,0,0:0:0:0:
284,56,122269,1,0,0:0:0:0:
248,52,122352,1,0,0:0:0:0:
212,48,122435,5,0,0:0:0:0:
168,48,122519,1,0,0:0:0:0:
128,52,122602,1,0,0:0:0:0:
88,52,122685,1,0,0:0:0:0:
88,96,122769,1,0,0:0:0:0:
88,136,122852,1,0,0:0:0:0:
88,176,122935,1,0,0:0:0:0:
88,220,123019,1,0,0:0:0:0:
88,260,123102,5,0,0:0:0:0:
124,292,123185,1,0,0:0:0:0:
172,308,123269,1,0,0:0:0:0:
220,312,123352,1,0,0:0:0:0:
268,308,123435,1,0,0:0:0:0:
316,304,123519,1,0,0:0:0:0:
364,300,123602,1,0,0:0:0:0:
412,292,123685,1,0,0:0:0:0:
448,252,123769,2,0,L|448:212,31,34.9999976158143
444,132,125102,5,0,0:0:0:0:
440,104,125269,1,0,0:0:0:0:
436,76,125435,2,0,L|416:40,1,34.9999976158143
184,136,125769,5,0,0:0:0:0:
180,108,125935,1,0,0:0:0:0:
176,80,126102,2,0,L|172:56,7,17.4999988079071
236,40,126435,6,0,L|240:148,1,104.999992847443
300,128,126769,2,0,L|296:216,1,83.9999942779542
208,208,127102,2,0,L|216:288,1,62.9999937858584
296,284,127435,2,0,L|276:348,1,52.4999964237214
188,336,127769,6,0,B|176:248|112:232|96:180,1,167.999983428956
260,140,128269,1,0,0:0:0:0:
404,56,128435,2,0,P|328:56|216:88,1,167.999983428956
80,132,128935,1,0,0:0:0:0:
156,280,129102,5,0,0:0:0:0:
156,280,129269,1,0,0:0:0:0:
364,284,129435,1,0,0:0:0:0:
364,284,129602,1,0,0:0:0:0:
424,128,129769,5,0,0:0:0:0:
88,128,130102,1,0,0:0:0:0:
80,56,130435,6,0,P|68:128|144:204,1,167.999983428956
288,164,130935,1,0,0:0:0:0:
436,52,131102,2,0,B|380:84|388:120|336:132,1,111.999992370606
276,120,131352,2,0,B|276:192|344:192|364:224,1,111.999992370606
400,184,131602,1,0,0:0:0:0:
388,332,131769,2,0,B|320:232|176:280|192:152|248:88|88:168|52:56|276:40,1,503.999950286867
76,76,132769,5,0,0:0:0:0:
76,76,132935,1,0,0:0:0:0:
76,76,133102,2,0,B|76:192|208:148|232:272|324:232|364:280,1,335.999966857912
376,96,133935,1,0,0:0:0:0:
164,96,134102,1,0,0:0:0:0:
164,288,134269,1,0,0:0:0:0:
348,288,134435,1,0,0:0:0:0:
348,124,134602,1,0,0:0:0:0:
204,124,134769,1,0,0:0:0:0:
204,248,134935,1,0,0:0:0:0:
328,248,135102,1,0,0:0:0:0:
420,68,135435,5,0,0:0:0:0:
260,64,135602,1,0,0:0:0:0:
380,104,135769,2,0,B|416:172|416:172|372:240|428:240|428:240|388:328|288:304,1,335.999966857912
192,296,136602,1,0,0:0:0:0:
72,264,136769,1,0,0:0:0:0:
56,68,136935,2,0,B|112:36|184:84|128:92|224:40|272:32|320:40|240:104|224:52|360:84|376:36|440:68|380:64|376:144,1,377.999962715151
436,176,137769,2,0,P|432:264|356:252,1,167.999983428956
356,272,138185,1,0,0:0:0:0:
336,284,138269,1,0,0:0:0:0:
316,296,138352,1,0,0:0:0:0:
292,308,138435,6,0,L|104:308,1,167.999983428956
60,152,138935,1,0,0:0:0:0:
196,52,139102,2,0,L|340:52,1,125.999987571717
384,64,139435,1,0,0:0:0:0:
248,164,139602,1,0,0:0:0:0:
412,204,139769,1,0,0:0:0:0:
312,68,139935,1,0,0:0:0:0:
292,192,140102,1,0,0:0:0:0:
136,128,140269,1,0,0:0:0:0:
68,320,140435,5,0,0:0:0:0:
452,320,140769,1,0,0:0:0:0:
64,112,141102,6,0,P|112:80|180:104,1,125.999987571717
173,97,141435,2,0,P|240:72|316:112,1,125.999987571717
400,136,141769,2,0,B|472:192|404:248|384:260,2,125.999987571717
388,328,142435,2,0,B|328:236|264:320|196:320|196:320|120:316|128:232,1,335.999966857912
92,172,143435,6,0,P|64:128|92:80,1,83.9999917144779
248,48,143769,5,0,0:0:0:0:
252,52,143852,1,0,0:0:0:0:
256,56,143935,1,0,0:0:0:0:
260,60,144019,1,0,0:0:0:0:
264,64,144102,1,0,0:0:0:0:
268,68,144185,1,0,0:0:0:0:
272,72,144269,1,0,0:0:0:0:
276,76,144352,1,0,0:0:0:0:
288,88,144435,5,0,0:0:0:0:
304,96,144519,1,0,0:0:0:0:
316,104,144602,1,0,0:0:0:0:
328,116,144685,1,0,0:0:0:0:
344,132,144769,1,0,0:0:0:0:
352,152,144852,1,0,0:0:0:0:
360,172,144935,1,0,0:0:0:0:
364,192,145019,1,0,0:0:0:0:
364,220,145102,5,0,0:0:0:0:
348,244,145185,1,0,0:0:0:0:
324,264,145269,1,0,0:0:0:0:
296,276,145352,1,0,0:0:0:0:
268,284,145435,1,0,0:0:0:0:
240,288,145519,1,0,0:0:0:0:
212,288,145602,1,0,0:0:0:0:
184,284,145685,1,0,0:0:0:0:
152,264,145769,5,0,0:0:0:0:
128,236,145852,1,0,0:0:0:0:
112,200,145935,1,0,0:0:0:0:
108,164,146019,1,0,0:0:0:0:
124,128,146102,1,0,0:0:0:0:
148,100,146185,1,0,0:0:0:0:
184,88,146269,1,0,0:0:0:0:
220,84,146352,1,0,0:0:0:0:
260,76,146435,6,0,L|288:52,4,34.9999976158143
288,88,146685,5,0,0:0:0:0:
308,96,146769,1,0,0:0:0:0:
328,104,146852,1,0,0:0:0:0:
348,108,146935,1,0,0:0:0:0:
368,108,147019,1,0,0:0:0:0:
388,104,147102,2,0,L|404:60,4,34.9999976158143
400,124,147352,5,0,0:0:0:0:
400,144,147435,1,0,0:0:0:0:
400,164,147519,1,0,0:0:0:0:
396,184,147602,1,0,0:0:0:0:
400,204,147685,1,0,0:0:0:0:
404,224,147769,2,0,L|408:264,4,34.9999976158143
408,284,148019,5,0,0:0:0:0:
408,304,148102,1,0,0:0:0:0:
408,324,148186,1,0,0:0:0:0:
408,344,148269,1,0,0:0:0:0:
408,364,148352,1,0,0:0:0:0:
92,312,149102,6,0,B|160:296|184:264|192:200,1,139.999990463257
96,164,149602,1,0,0:0:0:0:
152,92,149769,2,0,L|232:84,1,69.9999952316285
260,168,150102,1,0,0:0:0:0:
416,52,150269,2,0,B|384:80|436:100|436:100|388:116|440:140|440:140|408:172|380:204|440:208,1,209.999985694886
312,320,151102,6,0,L|216:320,1,69.9999952316285
412,312,151435,1,0,0:0:0:0:
412,216,151602,2,0,B|372:212|356:192|352:160|352:160|376:152|388:136|392:128|392:128|352:128|328:128|312:112|336:112,1,209.999985694886
260,68,152269,1,0,0:0:0:0:
196,120,152435,1,0,0:0:0:0:
128,72,152602,1,0,0:0:0:0:
76,140,152769,1,0,0:0:0:0:
64,224,152935,2,0,B|144:240|144:240|144:288|200:272,1,139.999990463257
248,324,153435,1,0,0:0:0:0:
352,256,153602,2,0,B|400:232|400:232|368:204|368:176|384:152,1,139.999990463257
416,56,154269,5,0,0:0:0:0:
416,56,154435,2,0,B|368:32|352:72|316:96|260:112|232:56|168:24|144:92,1,279.999980926514
200,148,155269,1,0,0:0:0:0:
124,184,155435,1,0,0:0:0:0:
88,260,155602,2,0,B|148:260|148:260|128:296|180:304|204:272|228:248|252:276|252:276|264:296|280:292,1,209.999985694886
408,288,156435,5,0,0:0:0:0:
448,212,156602,1,0,0:0:0:0:
460,128,156768,1,0,0:0:0:0:
408,60,156935,2,0,B|356:32|340:64|316:28|316:28|304:64|304:64|272:40|232:40,1,209.999985694886
238,40,157602,1,0,0:0:0:0:
156,60,157769,1,0,0:0:0:0:
84,100,157935,1,0,0:0:0:0:
56,180,158102,1,0,0:0:0:0:
104,248,158269,2,0,B|128:208|128:208|184:196|184:196|184:232,1,139.999990463257
184,296,158769,1,0,0:0:0:0:
264,320,158935,2,0,L|392:320,1,104.999996852875
432,184,159435,5,0,0:0:0:0:
432,184,159602,1,0,0:0:0:0:
432,184,159769,2,0,B|380:200|368:160|368:160|332:192|332:192|292:184|284:160|236:160,1,209.999985694886
272,56,160602,5,0,0:0:0:0:
168,112,160769,1,0,0:0:0:0:
156,204,160935,1,0,0:0:0:0:
156,204,161019,1,0,0:0:0:0:
156,204,161102,2,0,L|180:200,1,17.4999988079071
356,192,161269,2,0,L|332:196,1,17.4999988079071
196,116,161435,2,0,L|212:136,1,17.4999988079071
256,284,161602,2,0,L|256:256,1,17.4999988079071
320,116,161769,2,0,L|304:132,1,17.4999988079071
56,196,162435,6,0,B|92:152|92:152|112:184|136:152|136:152|184:152,1,157.499995279312
176,64,163102,1,0,0:0:0:0:
252,116,163269,1,0,0:3:0:0:
324,60,163435,1,0,0:3:0:0:
400,112,163602,2,0,B|388:152|428:168|428:168|412:200|392:200,1,104.999996852875
288,204,164102,1,0,0:0:0:0:
180,120,164269,2,0,B|140:160|172:188|172:188|144:204,1,104.999996852875
149,200,164935,1,0,0:0:0:0:
96,340,165102,6,0,B|144:304|144:304|180:336|180:336|220:312,1,139.999990463257
252,212,165769,1,0,0:0:0:0:
336,312,165935,1,0,0:0:0:0:
412,224,166102,1,0,0:0:0:0:
392,112,166269,2,0,B|340:68|340:68|308:124|248:132|232:72|192:76,1,209.999985694886
284,304,167102,5,0,0:0:0:0:
356,260,167269,1,0,0:0:0:0:
400,188,167435,2,0,L|428:120,1,69.9999952316285
340,48,167769,5,0,0:0:0:0:
340,60,167935,1,0,0:0:0:0:
340,72,168102,1,0,0:0:0:0:
340,84,168269,1,0,0:0:0:0:
340,96,168435,1,0,0:0:0:0:
340,108,168602,1,0,0:0:0:0:
340,120,168769,1,0,0:0:0:0:
340,132,168935,5,0,0:0:0:0:
340,148,169019,1,0,0:0:0:0:
336,160,169102,1,0,0:0:0:0:
332,172,169185,1,0,0:0:0:0:
324,184,169269,1,0,0:0:0:0:
316,196,169352,1,0,0:0:0:0:
308,208,169435,1,0,0:0:0:0:
296,216,169519,1,0,0:0:0:0:
284,220,169602,5,0,0:0:0:0:
268,224,169685,1,0,0:0:0:0:
252,220,169769,1,0,0:0:0:0:
236,216,169852,1,0,0:0:0:0:
220,208,169935,2,0,L|192:192,4,17.4999988079071
100,200,170269,1,0,0:0:0:0:
84,76,170435,6,0,B|144:56|144:56|160:92|204:92|204:92|248:64,1,167.999983428956
288,168,170935,1,0,0:0:0:0:
256,320,171102,2,0,B|324:332|324:332|340:296|372:280|392:236,1,167.999983428956
392,100,171602,1,0,0:0:0:0:
252,132,171769,1,0,0:0:0:0:
352,288,171935,1,0,0:0:0:0:
148,232,172102,1,0,0:0:0:0:
60,92,172269,1,0,0:0:0:0:
168,64,172435,2,0,L|356:64,1,167.999983428956
420,196,173102,6,0,B|348:176|348:176|328:240|328:240|296:180|264:180|264:180|264:240|192:236,1,314.999990558624
116,312,173769,2,0,L|80:212,1,83.9999917144779
136,60,174102,2,0,L|192:148,1,83.9999917144779
336,140,174435,6,0,L|316:180,3,41.999995857239
220,264,174769,2,0,L|248:216,3,41.999995857239
312,120,175102,2,0,L|296:168,3,41.999995857239
244,288,175435,2,0,L|264:240,3,41.999995857239
380,340,175769,5,0,0:0:0:0:
384,328,175852,1,0,0:0:0:0:
392,316,175935,1,0,0:0:0:0:
400,304,176019,1,0,0:0:0:0:
404,292,176102,1,0,0:0:0:0:
408,280,176185,1,0,0:0:0:0:
412,268,176269,1,0,0:0:0:0:
412,256,176352,1,0,0:0:0:0:
412,244,176435,5,0,0:0:0:0:
408,224,176519,1,0,0:0:0:0:
404,204,176602,1,0,0:0:0:0:
392,180,176685,1,0,0:0:0:0:
376,156,176769,1,0,0:0:0:0:
356,132,176852,1,0,0:0:0:0:
332,108,176935,2,0,L|276:72,1,41.999995857239
168,72,177102,5,0,0:0:0:0:
144,96,177185,1,0,0:0:0:0:
132,128,177269,1,0,0:0:0:0:
136,160,177352,1,0,0:0:0:0:
156,184,177435,1,0,0:0:0:0:
184,200,177519,1,0,0:0:0:0:
216,212,177602,1,0,0:0:0:0:
248,220,177685,1,0,0:0:0:0:
280,220,177769,5,0,0:0:0:0:
312,232,177852,1,0,0:0:0:0:
336,252,177935,1,0,0:0:0:0:
356,280,178019,1,0,0:0:0:0:
388,292,178102,1,0,0:0:0:0:
412,272,178185,1,0,0:0:0:0:
428,240,178269,1,0,0:0:0:0:
432,208,178352,1,0,0:0:0:0:
428,176,178435,6,0,L|424:144,4,20.9999979286195
400,128,178685,1,0,0:0:0:0:
368,124,178769,1,0,0:0:0:0:
336,124,178852,1,0,0:0:0:0:
304,124,178935,1,0,0:0:0:0:
272,124,179019,1,0,0:0:0:0:
240,120,179102,6,0,L|220:120,4,20.9999979286195
184,144,179352,1,0,0:0:0:0:
180,164,179435,1,0,0:0:0:0:
172,184,179519,1,0,0:0:0:0:
164,204,179602,1,0,0:0:0:0:
156,224,179685,1,0,0:0:0:0:
148,244,179769,6,0,L|204:260,1,52.4999964237214
244,272,180102,2,0,L|300:280,1,52.4999964237214
308,320,180435,2,0,L|376:328,1,52.4999964237214
400,328,180769,2,0,L|464:320,1,52.4999964237214
472,288,181102,5,0,0:0:0:0:
392,132,181435,1,0,0:0:0:0:
324,124,181602,1,0,0:0:0:0:
256,116,181769,1,0,0:0:0:0:
136,188,182102,1,0,0:0:0:0:
156,220,182269,1,0,0:0:0:0:
240,152,182435,1,0,0:0:0:0:
272,128,182602,1,0,0:0:0:0:
312,224,182769,1,0,0:0:0:0:
332,256,182935,1,0,0:0:0:0:
352,288,183102,5,0,0:0:0:0:
172,288,183435,1,0,0:0:0:0:
80,256,183769,5,0,0:0:0:0:
156,128,184102,1,0,0:0:0:0:
172,112,184269,1,0,0:0:0:0:
188,96,184435,1,0,0:0:0:0:
68,88,184685,1,0,0:0:0:0:
132,192,184935,1,0,0:0:0:0:
128,228,185102,6,0,B|164:216|164:216|164:240|164:240|192:256|208:248|212:216|212:216|240:224|264:244|300:220,1,209.99999370575
316,256,185852,1,0,0:0:0:0:
316,256,185935,1,0,0:0:0:0:
316,256,186019,1,0,0:0:0:0:
316,256,186102,1,0,0:0:0:0:
316,256,186185,1,0,0:0:0:0:
316,256,186269,1,0,0:0:0:0:
316,256,186352,1,0,0:0:0:0:
316,256,186435,6,0,P|376:256|408:208,1,104.999996852875
320,264,186769,2,0,P|380:264|412:216,1,104.999996852875
324,272,187102,2,0,P|384:272|416:224,1,104.999996852875
328,280,187435,2,0,P|388:280|420:232,1,104.999996852875
408,144,187769,6,0,P|376:104|316:96,1,104.999996852875
416,136,188102,2,0,P|384:96|324:88,1,104.999996852875
424,128,188435,2,0,P|392:88|332:80,1,104.999996852875
432,116,188769,2,0,P|400:76|340:68,1,104.999996852875
240,92,189102,6,0,P|189:101|157:142,1,104.999996852875
231,83,189435,2,0,P|180:92|148:133,1,104.999996852875
223,75,189768,2,0,P|172:84|140:125,1,104.999996852875
216,63,190102,2,0,P|165:72|133:113,1,104.999996852875
64,212,190435,5,0,0:0:0:0:
128,308,190602,1,0,0:0:0:0:
180,204,190769,1,0,0:0:0:0:
236,304,190935,1,0,0:0:0:0:
348,280,191102,5,0,0:0:0:0:
372,260,191185,1,0,0:0:0:0:
396,236,191269,1,0,0:0:0:0:
404,208,191352,1,0,0:0:0:0:
420,180,191435,1,0,0:0:0:0:
428,148,191519,1,0,0:0:0:0:
428,116,191602,1,0,0:0:0:0:
416,84,191685,1,0,0:0:0:0:
400,56,191769,6,0,B|356:36|288:68|224:56,1,167.999983428956
68,92,192269,1,0,0:0:0:0:
180,120,192435,2,0,B|192:176|192:176|264:192|304:164,1,167.999983428956
424,168,192935,1,0,0:0:0:0:
340,312,193102,1,0,0:0:0:0:
252,168,193269,1,0,0:0:0:0:
176,316,193435,1,0,0:0:0:0:
320,228,193602,1,0,0:0:0:0:
64,120,193769,5,0,0:0:0:0:
448,120,194102,1,0,0:0:0:0:
104,76,194435,6,0,B|64:108|44:152|68:200|116:228,1,167.999983428956
152,148,194935,1,0,0:0:0:0:
240,104,195102,2,0,P|300:72|368:92,2,125.999987571717
424,316,195769,2,0,B|372:320|332:300|304:264|296:212|300:180|332:148|392:144|424:164|440:188|444:212|432:244|416:260|352:292|280:312|196:264|176:224,1,559.999961853028
76,128,196769,5,0,0:0:0:0:
328,48,196935,1,0,0:0:0:0:
184,96,197102,1,0,0:0:0:0:
176,116,197185,1,0,0:0:0:0:
164,132,197269,1,0,0:0:0:0:
148,144,197352,1,0,0:0:0:0:
132,156,197435,1,0,0:0:0:0:
128,176,197519,1,0,0:0:0:0:
132,196,197602,1,0,0:0:0:0:
136,216,197685,1,0,0:0:0:0:
140,236,197769,5,0,0:0:0:0:
156,260,197852,1,0,0:0:0:0:
184,264,197935,1,0,0:0:0:0:
212,256,198019,1,0,0:0:0:0:
236,240,198102,1,0,0:0:0:0:
260,252,198185,1,0,0:0:0:0:
284,272,198269,2,0,L|328:296,1,41.999995857239
404,224,198435,5,0,0:0:0:0:
400,188,198519,1,0,0:0:0:0:
380,156,198602,1,0,0:0:0:0:
344,140,198685,1,0,0:0:0:0:
308,136,198769,1,0,0:0:0:0:
272,128,198852,1,0,0:0:0:0:
236,120,198935,1,0,0:0:0:0:
200,112,199019,1,0,0:0:0:0:
164,104,199102,5,0,0:0:0:0:
128,120,199185,1,0,0:0:0:0:
124,160,199269,1,0,0:0:0:0:
124,200,199352,1,0,0:0:0:0:
132,240,199435,1,0,0:0:0:0:
156,272,199519,1,0,0:0:0:0:
192,296,199602,1,0,0:0:0:0:
228,320,199685,1,0,0:0:0:0:
272,324,199769,6,0,L|272:348,4,20.9999979286195
312,316,200019,1,0,0:0:0:0:
320,304,200102,1,0,0:0:0:0:
328,288,200185,1,0,0:0:0:0:
336,272,200269,1,0,0:0:0:0:
344,256,200352,1,0,0:0:0:0:
352,240,200435,6,0,L|368:208,4,20.9999979286195
388,252,200685,1,0,0:0:0:0:
396,264,200769,1,0,0:0:0:0:
404,276,200852,1,0,0:0:0:0:
412,288,200935,1,0,0:0:0:0:
420,300,201019,1,0,0:0:0:0:
428,312,201102,6,0,L|408:336,4,20.9999979286195
384,336,201352,1,0,0:0:0:0:
376,336,201435,1,0,0:0:0:0:
368,336,201519,1,0,0:0:0:0:
360,336,201602,1,0,0:0:0:0:
352,336,201685,1,0,0:0:0:0:
332,176,202102,6,0,L|332:136,7,20.9999979286195
396,120,202435,5,0,0:0:0:0:
240,184,202602,1,0,0:0:0:0:
104,84,202769,1,0,0:0:0:0:
104,84,202852,1,0,0:0:0:0:
104,84,202935,1,0,0:0:0:0:
68,220,203102,2,0,P|68:280|144:304,1,139.999990463257
340,256,203602,5,0,0:0:0:0:
412,168,203769,1,0,0:0:0:0:
300,84,203935,1,0,0:0:0:0:
264,84,204019,1,0,0:0:0:0:
228,88,204102,1,0,0:0:0:0:
196,96,204185,1,0,0:0:0:0:
164,112,204269,1,0,0:0:0:0:
136,128,204352,1,0,0:0:0:0:
108,148,204435,2,0,B|128:204|168:228|208:220,1,104.999992847443
100,72,204935,5,0,0:0:0:0:
208,160,205102,1,0,0:0:0:0:
208,160,205602,5,0,0:0:0:0:
100,252,205769,1,0,0:0:0:0:
100,252,206269,5,0,0:0:0:0:
228,312,206436,1,0,0:0:0:0:
272,304,206686,1,0,0:0:0:0:
312,292,206936,1,0,0:0:0:0:
400,272,207103,1,0,0:0:0:0:
408,284,207186,1,0,0:0:0:0:
416,296,207269,1,0,0:0:0:0:
424,308,207353,1,0,0:0:0:0:
432,320,207436,1,0,0:0:0:0:
420,56,207769,5,0,0:0:0:0:
424,196,207935,1,0,0:0:0:0:
268,120,208102,1,0,0:0:0:0:
268,144,208185,1,0,0:0:0:0:
268,168,208269,1,0,0:0:0:0:
136,76,208435,2,0,P|96:140|112:216,1,139.999990463257
68,304,208935,5,0,0:0:0:0:
208,284,209102,2,0,L|280:272,1,69.9999952316285
300,256,209352,1,0,0:0:0:0:
324,240,209435,1,0,0:0:0:0:
340,216,209519,1,0,0:0:0:0:
352,192,209602,1,0,0:0:0:0:
364,168,209685,1,0,0:0:0:0:
372,140,209769,2,0,B|412:84|412:84|348:68,1,104.999992847443
412,152,210269,5,0,0:0:0:0:
312,252,210435,1,0,0:0:0:0:
100,152,210935,5,0,0:0:0:0:
200,252,211101,1,0,0:0:0:0:
256,192,211602,5,0,0:0:0:0:
256,332,211769,1,0,0:0:0:0:
256,304,212019,1,0,0:0:0:0:
256,272,212269,1,0,0:0:0:0:
256,192,212435,2,0,L|256:152,4,34.9999976158143
84,68,213102,5,0,0:0:0:0:
172,176,213269,1,0,0:0:0:0:
304,128,213435,1,0,0:0:0:0:
304,128,213519,1,0,0:0:0:0:
304,128,213602,1,0,0:0:0:0:
444,120,213769,2,0,L|416:264,1,139.999990463257
400,316,214269,5,0,0:0:0:0:
396,176,214435,1,0,0:0:0:0:
284,264,214602,1,0,0:0:0:0:
260,264,214685,1,0,0:0:0:0:
236,264,214769,1,0,0:0:0:0:
212,264,214852,1,0,0:0:0:0:
188,264,214935,1,0,0:0:0:0:
164,264,215019,1,0,0:0:0:0:
140,264,215102,2,0,P|124:204|120:144,1,104.999992847443
92,40,215602,5,0,0:0:0:0:
208,116,215769,1,0,0:0:0:0:
420,120,216269,5,0,0:0:0:0:
304,196,216436,1,0,0:0:0:0:
256,80,216935,6,0,B|236:96|236:96|260:104|260:104|236:116|236:116|260:124|260:124|236:136|236:136|256:144|256:144|236:156|236:156|256:164|256:164|240:176|240:176|256:184|256:184|240:196|240:196|256:204|256:204|244:212|244:212,1,279.999980926514
184,288,217602,1,0,0:0:0:0:
328,304,217769,1,0,0:0:0:0:
328,304,217852,1,0,0:0:0:0:
328,304,217935,1,0,0:0:0:0:
328,304,218019,1,0,0:0:0:0:
328,304,218102,1,0,0:0:0:0:
424,164,218435,5,0,0:0:0:0:
296,220,218602,1,0,0:0:0:0:
216,104,218769,1,0,0:0:0:0:
208,92,218852,1,0,0:0:0:0:
200,80,218935,1,0,0:0:0:0:
340,64,219102,2,0,L|168:68,1,139.999990463257
68,108,219602,5,0,0:0:0:0:
200,160,219769,1,0,0:0:0:0:
108,264,219935,1,0,0:0:0:0:
132,288,220019,1,0,0:0:0:0:
156,312,220102,1,0,0:0:0:0:
192,316,220185,1,0,0:0:0:0:
228,316,220269,1,0,0:0:0:0:
260,308,220352,1,0,0:0:0:0:
292,300,220435,2,0,L|396:248,1,104.999992847443
404,68,220935,5,0,0:0:0:0:
404,208,221102,1,0,0:0:0:0:
256,120,221602,5,0,0:0:0:0:
256,260,221769,1,0,0:0:0:0:
108,68,222269,5,0,0:0:0:0:
108,208,222435,2,0,L|108:244,7,34.9999976158143
204,264,222769,2,0,L|204:300,7,34.9999976158143
304,208,223102,2,0,L|304:248,4,34.9999976158143
412,124,223769,6,0,L|340:84,1,69.9999952316285
332,88,224019,1,0,0:0:0:0:
316,88,224102,1,0,0:0:0:0:
300,88,224185,1,0,0:0:0:0:
284,88,224269,1,0,0:0:0:0:
268,88,224352,1,0,0:0:0:0:
252,88,224435,1,0,0:0:0:0:
236,88,224519,1,0,0:0:0:0:
220,88,224602,1,0,0:0:0:0:
204,88,224685,1,0,0:0:0:0:
188,88,224769,6,0,L|156:92,7,17.4999988079071
256,192,225102,12,0,227769,0:0:0:0:
