osu file format v14

[General]
AudioFilename: nana.mp3
AudioLeadIn: 0
PreviewTime: 95431
Countdown: 0
SampleSet: Soft
StackLeniency: 0.5
Mode: 0
LetterboxInBreaks: 0
WidescreenStoryboard: 0

[Editor]
DistanceSpacing: 1.2
BeatDivisor: 4
GridSize: 4
TimelineZoom: 1.4

[Metadata]
Title:Monosugoi Live de Cirno ga Sokohakatonaku Monosugoi Uta
TitleUnicode:物凄いライヴでチルノがそこはかとなく物凄いうた
Artist:Nanahira
ArtistUnicode:ななひら
Creator:Snowy Dream
Version:9x icecream
Source:東方紅魔郷 ~ the Embodiment of Scarlet Devil.
Tags:⑨ reitasai10 博麗神社例大祭10 loli kawaii genki halozy チルノ Touhou project stream とうほうこうまきょう land Koumakyou eosd Tomboyish Girl in Love beloved Daughter おてんば恋娘 Otenba Koimusume ZUN team shanghai alice
BeatmapID:266055
BeatmapSetID:99999

[Difficulty]
HPDrainRate:6
CircleSize:4
OverallDifficulty:7.2
ApproachRate:8.8
SliderMultiplier:1.2
SliderTickRate:1

[Events]
//Background and Video events
0,0,"background.jpg",0,0
//Break Periods
2,116347,127518
//Storyboard Layer 0 (Background)
//Storyboard Layer 1 (Fail)
//Storyboard Layer 2 (Pass)
//Storyboard Layer 3 (Foreground)
//Storyboard Sound Samples

[TimingPoints]
35427,545.454545454546,4,2,0,100,1,0
65965.2073891901,272.727272727273,4,2,1,100,1,0
130204,-100,4,2,0,15,0,0
131295,-100,4,2,1,100,0,0
160886,545.454545454546,4,2,0,100,1,0
200158,272.727272727273,4,2,0,100,1,0
208748,-100,4,2,1,100,0,0
288249,-100,4,1,0,100,0,0

[Colours]
Combo1 : 47,244,170
Combo2 : 23,193,242
Combo3 : 45,88,228
Combo4 : 200,38,38
Combo5 : 255,150,0

[HitObjects]
188,104,36790,5,0,0:0:0:0:
252,72,37063,1,0,0:0:0:0:
324,72,37336,1,0,0:0:0:0:
392,100,37608,2,0,P|420:152|416:224,1,120,4|0,0:0|0:0,0:0:0:0:
372,268,38427,1,0,0:0:0:0:
304,252,38699,2,0,P|272:256|240:272,1,60
188,308,39245,2,0,P|160:324|128:328,1,60
60,316,39790,1,0,0:0:0:0:
156,104,41154,5,0,0:0:0:0:
156,104,41427,1,0,0:0:0:0:
156,104,41699,1,0,0:0:0:0:
156,104,41972,2,0,B|192:152|192:152|252:120|316:152,1,180
320,220,43063,2,0,P|328:252|344:280,1,60
412,292,43608,2,0,P|444:304|468:328,2,60
184,320,45790,5,0,0:0:0:0:
184,320,46336,2,0,P|196:232|148:156,1,180,4|0,0:0|0:0,0:0:0:0:
84,128,47427,2,0,P|76:92|80:68,1,60
144,36,47972,2,0,P|176:52|196:84,1,60
244,120,48517,2,0,P|276:128|308:124,2,60
260,48,49336,1,0,0:0:0:0:
260,48,49608,1,0,0:0:0:0:
360,152,50154,5,0,0:0:0:0:
360,152,50699,2,0,L|340:212,1,60,4|0,0:0|0:0,0:0:0:0:
280,152,51245,2,0,L|260:208,1,60
200,152,51790,2,0,L|180:208,1,60
120,152,52336,2,0,L|100:208,1,60
96,280,52881,2,0,B|156:268|256:356|336:320,1,240
327,323,54517,1,0,0:0:0:0:
428,220,55063,6,0,P|440:188|440:160,1,60
408,96,55608,1,0,0:0:0:0:
408,96,55881,1,0,0:0:0:0:
300,136,56154,2,0,P|280:108|272:80,1,60
220,32,56699,1,0,0:0:0:0:
148,48,56972,1,0,0:0:0:0:
96,96,57245,2,0,P|80:152|92:224,1,120
180,320,58336,5,0,0:0:0:0:
256,260,58608,1,0,0:0:0:0:
332,320,58881,1,0,0:0:0:0:
256,260,59154,1,0,0:0:0:0:
256,192,59427,12,4,63790,0:0:0:0:
132,88,65965,5,4,0:0:0:0:
132,88,66101,2,0,P|192:72|248:88,1,120,0|0,0:0|0:0,0:0:0:0:
296,148,66510,2,0,P|312:176|340:200,1,60
412,192,66783,2,0,P|428:224|432:260,1,60
408,320,67056,1,0,0:0:0:0:
332,340,67192,2,0,P|300:332|276:312,1,60
216,268,67465,1,0,0:0:0:0:
140,268,67601,2,0,P|116:288|100:320,2,60
176,200,68010,1,0,0:0:0:0:
108,160,68147,6,0,L|80:92,1,60,4|0,0:0|0:0,0:0:0:0:
180,112,68419,2,0,L|152:44,1,60
256,76,68692,2,0,P|316:92|376:76,1,120,0|0,0:0|0:0,0:0:0:0:
448,100,69101,1,0,0:0:0:0:
436,176,69237,2,0,P|436:212|452:244,1,60
484,304,69510,2,0,P|484:336|472:372,1,60
408,324,69783,1,0,0:0:0:0:
408,324,69919,1,0,0:0:0:0:
332,312,70056,2,0,P|312:284|300:252,1,60
176,260,70328,6,0,L|112:268,3,60
60,212,70874,2,0,L|40:84,1,120,4|0,0:0|0:0,0:0:0:0:
96,40,71283,1,0,0:0:0:0:
172,44,71419,2,0,P|204:60|224:88,1,60
216,156,71692,2,0,P|220:192|236:228,1,60
296,256,71965,1,0,0:0:0:0:
372,272,72101,1,0,0:0:0:0:
440,236,72237,2,0,P|464:212|480:180,1,60
436,124,72510,6,0,L|408:64,1,60
360,140,72783,2,0,L|332:80,1,60,0|0,0:0|0:0,0:0:0:0:
284,156,73056,2,0,L|256:96,1,60
208,172,73329,2,0,L|180:112,1,60,0|4,0:0|0:0,0:0:0:0:
28,124,73737,5,0,0:0:0:0:
28,124,73874,1,0,0:0:0:0:
28,124,74010,1,0,0:0:0:0:
24,204,74147,2,0,P|48:224|80:232,1,60
152,224,74419,2,0,P|184:240|208:264,1,60
236,328,74692,5,4,0:0:0:0:
236,328,74828,1,0,0:0:0:0:
312,320,74965,2,0,P|340:308|364:284,1,60
408,224,75237,1,0,0:0:0:0:
408,224,75374,1,0,0:0:0:0:
408,224,75510,1,0,0:0:0:0:
408,224,75647,2,0,P|368:176|356:116,1,120,4|0,0:0|0:0,0:0:0:0:
316,52,76056,5,0,0:0:0:0:
316,52,76192,1,0,0:0:0:0:
240,72,76328,2,0,P|208:84|184:104,1,60
109,108,76601,2,0,L|98:145,4,30,0|0|0|0|0,1:0|1:0|1:0|1:0|1:0,0:0:0:0:
156,304,77147,6,0,P|184:320|216:324,2,60
112,236,77556,1,0,0:0:0:0:
112,236,77692,1,0,0:0:0:0:
188,216,77828,2,0,P|246:212|290:166,2,120,4|0|0,0:0|0:0|0:0,0:0:0:0:
212,135,78510,1,4,0:0:0:0:
448,340,79056,5,0,0:0:0:0:
448,340,79192,1,0,0:0:0:0:
440,264,79328,2,0,P|432:228|416:204,1,60
420,128,79601,2,0,P|392:104|360:96,1,60
312,44,79874,2,0,P|280:48|248:60,1,60
180,32,80147,2,0,P|160:56|148:84,1,60
84,128,80419,2,0,P|100:160|124:184,1,60
184,216,80692,2,0,P|188:248|180:284,1,60
124,324,80965,1,0,0:0:0:0:
124,324,81101,1,0,0:0:0:0:
76,260,81237,6,0,P|72:224|80:188,1,60
136,148,81510,2,0,P|164:128|180:96,1,60
236,52,81783,2,0,P|268:56|300:48,1,60
372,32,82056,1,0,0:0:0:0:
372,32,82192,1,0,0:0:0:0:
440,68,82328,6,0,L|468:104,4,30,0|0|0|0|0,1:0|1:0|1:0|1:0|1:0,0:0:0:0:
360,288,82874,2,0,L|332:252,4,30,0|0|0|0|0,1:0|1:0|1:0|1:0|1:0,0:0:0:0:
212,340,83419,6,0,P|180:332|152:316,1,60
104,260,83692,1,0,0:0:0:0:
104,260,83828,1,0,0:0:0:0:
148,196,83965,2,0,P|160:164|160:136,1,60
144,64,84237,1,0,0:0:0:0:
144,64,84374,1,0,0:0:0:0:
212,24,84510,2,0,P|248:32|284:24,1,60
348,28,84783,1,0,0:0:0:0:
348,28,84919,1,0,0:0:0:0:
408,76,85056,2,0,P|432:100|448:136,1,60
388,180,85328,2,0,P|372:212|368:248,1,60
448,236,85601,5,0,0:0:0:0:
448,236,85737,1,0,0:0:0:0:
424,312,85874,1,0,0:0:0:0:
424,312,86010,1,0,0:0:0:0:
352,340,86147,1,0,0:0:0:0:
352,340,86283,1,0,0:0:0:0:
276,332,86419,1,0,0:0:0:0:
276,332,86556,1,0,0:0:0:0:
216,280,86692,5,4,0:0:0:0:
216,280,87237,1,4,0:0:0:0:
460,88,87783,6,0,P|468:56|464:24,2,60
384,64,88192,2,0,P|328:80|288:132,1,120
272,204,88601,1,0,0:0:0:0:
272,204,88737,1,0,0:0:0:0:
196,220,88874,6,0,P|184:252|184:288,2,60
212,144,89283,2,0,P|176:96|112:76,1,120
52,112,89692,1,0,0:0:0:0:
52,112,89828,1,0,0:0:0:0:
32,188,89965,6,0,P|24:220|28:256,2,60
108,204,90374,2,0,P|128:264|176:312,1,120
244,316,90783,1,0,0:0:0:0:
456,216,91056,6,0,L|432:160,1,60
404,88,91328,1,0,0:0:0:0:
340,44,91465,2,0,B|320:84|320:84|284:64|248:84,1,120
176,116,91874,1,0,0:0:0:0:
112,260,92147,6,0,P|92:228|88:200,2,60
172,208,92556,1,0,0:0:0:0:
312,276,92828,1,0,0:0:0:0:
312,276,92965,2,0,P|352:232|360:168,1,120
336,100,93374,1,0,0:0:0:0:
400,56,93510,1,0,0:0:0:0:
476,68,93647,2,0,P|504:120|508:188,1,120
496,256,94056,1,0,0:0:0:0:
436,304,94192,1,0,0:0:0:0:
256,192,94328,12,4,95419,0:0:0:0:
256,92,95692,5,0,0:0:0:0:
169,242,95965,1,0,2:0:0:0:
342,242,96237,1,0,2:0:0:0:
408,44,96510,6,0,B|408:88|408:88|440:116|440:160,1,120,4|0,0:0|0:0,0:0:0:0:
360,152,96919,1,0,0:0:0:0:
284,176,97056,2,0,P|264:200|256:240,1,60
188,268,97328,1,0,0:0:0:0:
188,268,97465,1,0,0:0:0:0:
188,268,97601,2,0,P|128:248|84:196,1,120
64,132,98010,1,0,0:0:0:0:
132,96,98147,2,0,L|160:32,1,60
212,96,98419,2,0,L|240:32,1,60
316,40,98692,6,0,P|368:60|408:124,1,120
428,184,99101,1,0,0:0:0:0:
388,252,99237,2,0,L|400:320,1,60
324,332,99510,1,0,0:0:0:0:
272,272,99647,1,0,0:0:0:0:
220,216,99783,1,0,0:0:0:0:
125,340,100056,1,0,0:0:0:0:
313,94,100328,1,0,0:0:0:0:
454,304,100601,2,0,L|484:282,4,30,0|0|0|0|4,0:0|0:0|0:0|0:0|0:0,0:0:0:0:
250,319,101147,5,0,0:0:0:0:
193,265,101283,1,0,0:0:0:0:
267,243,101419,1,0,0:0:0:0:
371,56,101692,1,0,0:0:0:0:
430,105,101828,1,0,0:0:0:0:
356,131,101965,2,0,P|345:158|348:198,1,60
427,283,102237,2,0,P|438:256|435:216,1,60
296,61,102647,1,0,0:0:0:0:
132,201,102919,1,0,0:0:0:0:
161,305,103056,6,0,P|166:243|128:198,1,120
92,268,103465,1,0,0:0:0:0:
128,122,103601,2,0,P|71:148|51:204,1,120
92,268,104010,1,0,0:0:0:0:
92,268,104147,5,0,0:0:0:0:
218,65,104419,1,0,0:0:0:0:
423,189,104692,1,0,0:0:0:0:
417,111,104828,2,0,P|430:80|450:62,2,60
488,236,105237,2,0,P|440:268|382:258,1,120
207,172,105783,6,0,P|190:197|182:232,1,60
88,266,106056,2,0,P|61:247|46:221,1,60
86,130,106328,2,0,P|140:112|176:59,1,120
248,34,106737,1,0,0:0:0:0:
349,97,106874,2,0,P|341:64|321:41,1,60
281,161,107147,2,0,P|272:127|278:99,1,60
386,279,107419,6,0,P|390:216|354:170,1,120
316,239,107828,1,0,0:0:0:0:
268,301,107965,2,0,P|248:276|240:249,1,60
163,237,108237,2,0,P|138:254|120:280,1,60
34,214,108510,2,0,P|3:158|15:94,1,120
56,41,108919,1,0,0:0:0:0:
124,78,109056,2,0,L|151:20,1,60
215,65,109328,2,0,L|231:32,4,30,0|0|0|0|0,1:0|1:0|1:0|1:0|1:0,0:0:0:0:
426,119,109874,5,0,0:0:0:0:
467,184,110010,1,0,0:0:0:0:
388,190,110147,1,0,0:0:0:0:
388,190,110283,1,0,0:0:0:0:
202,328,110556,1,0,0:0:0:0:
149,270,110692,2,0,P|134:237|132:212,2,60
210,221,111101,1,0,0:0:0:0:
210,221,111374,1,0,0:0:0:0:
210,221,111647,1,0,0:0:0:0:
219,99,111783,6,0,P|169:131|108:132,1,120
40,95,112192,1,0,0:0:0:0:
86,33,112328,2,0,P|111:11|138:4,2,60
40,95,112737,1,0,0:0:0:0:
130,234,112874,2,0,P|172:184|141:75,1,180
253,32,113419,2,0,L|295:77,1,60
348,131,113692,1,0,0:0:0:0:
253,324,113965,5,0,0:0:0:0:
179,83,114238,1,0,0:0:0:0:
381,235,114511,1,0,0:0:0:0:
129,230,114784,1,0,0:0:0:0:
335,86,115056,1,0,0:0:0:0:
256,192,115124,12,4,116147,0:0:0:0:
256,192,128147,5,4,0:0:0:0:
256,192,128692,1,4,0:0:0:0:
256,192,129237,1,4,0:0:0:0:
82,112,130328,5,0,0:0:0:0:
82,268,130601,1,0,0:0:0:0:
156,112,130874,1,0,0:0:0:0:
156,268,131147,1,0,0:0:0:0:
290,189,131419,6,0,P|320:173|338:148,1,60
365,80,131692,1,0,0:0:0:0:
412,141,131828,2,0,P|420:203|396:256,1,120
349,316,132237,1,0,0:0:0:0:
210,243,132510,6,0,P|182:256|160:276,2,60
275,286,132919,2,0,P|287:223|253:176,1,120
170,82,133328,2,0,P|177:114|193:137,1,60
248,81,133601,2,0,P|270:58|282:30,2,60
202,16,134010,2,0,P|141:15|103:55,1,120
89,132,134419,1,0,0:0:0:0:
216,325,134692,6,0,P|211:291|198:267,2,60
128,251,135101,2,0,P|164:203|221:197,1,120
276,252,135510,1,0,0:0:0:0:
404,72,135783,2,0,P|432:56|460:52,2,60
432,235,136192,2,0,P|465:180|451:123,1,120
387,169,136601,1,0,0:0:0:0:
333,334,136874,2,0,P|305:350|277:354,2,60
305,171,137283,2,0,P|272:226|286:283,1,120
350,237,137692,1,0,0:0:0:0:
174,93,137965,6,0,L|218:137,1,60
52,135,138237,2,0,L|95:93,1,60
92,258,138510,2,0,L|47:213,1,60
214,216,138782,2,0,L|171:258,1,60
135,171,139056,1,0,0:0:0:0:
317,57,139328,5,0,0:0:0:0:
431,240,139601,1,0,0:0:0:0:
247,355,139874,1,0,0:0:0:0:
135,171,140147,6,0,P|105:116|118:58,1,120
180,105,140556,1,0,0:0:0:0:
241,152,140692,2,0,P|255:122|255:92,1,60
329,68,140965,2,0,P|354:88|383:94,1,60
454,118,141237,2,0,B|478:174|478:174|455:232,1,120
396,177,141647,1,0,0:0:0:0:
385,296,141783,2,0,L|354:244,1,60
277,257,142056,2,0,L|308:309,1,60
198,363,142328,6,0,B|154:336|154:336|160:301|144:269,1,120
164,193,142737,1,0,0:0:0:0:
226,145,142874,2,0,P|254:134|285:134,2,60
164,193,143283,1,0,0:0:0:0:
253,317,143419,2,0,B|284:265|284:265|269:202,1,120
206,252,143828,1,0,0:0:0:0:
334,342,143965,2,0,L|350:315,3,30
367,281,144237,2,0,L|383:254,3,30
402,221,144510,1,0,0:0:0:0:
273,94,144783,5,0,0:0:0:0:
129,203,145056,1,0,0:0:0:0:
206,364,145328,1,0,0:0:0:0:
258,306,145465,1,0,0:0:0:0:
181,292,145601,2,0,P|151:288|122:294,2,60
315,358,146010,2,0,P|334:300|309:248,2,120
412,331,146692,6,0,B|423:291|423:291|467:292|497:261,1,120
432,215,147101,1,0,0:0:0:0:
411,99,147237,2,0,B|422:139|422:139|466:138|496:169,1,120
432,215,147647,1,0,0:0:0:0:
336,153,147783,1,0,0:0:0:0:
182,321,148056,1,0,0:0:0:0:
11,170,148328,1,0,0:0:0:0:
48,101,148465,6,0,P|57:68|53:43,2,60
185,116,148874,2,0,P|140:160|83:167,1,120
49,237,149283,1,0,0:0:0:0:
85,305,149419,2,0,P|98:333|98:363,2,60
126,238,149828,1,0,0:0:0:0:
166,305,149965,2,0,P|225:321|281:306,1,120
299,230,150374,1,0,0:0:0:0:
404,266,150510,1,0,0:0:0:0:
440,160,150647,6,0,P|462:182|475:210,2,60
299,230,151056,2,0,P|317:172|374:141,1,120
420,87,151465,1,0,0:0:0:0:
359,37,151601,2,0,P|329:29|307:9,1,60
229,4,151874,1,0,0:0:0:0:
152,18,152010,1,0,0:0:0:0:
91,67,152147,2,0,P|78:129|101:181,1,120
155,234,152556,1,0,0:0:0:0:
199,330,152692,2,0,L|217:295,3,30
229,267,152965,5,0,0:0:0:0:
414,313,153237,1,0,0:0:0:0:
502,142,153510,1,0,0:0:0:0:
313,104,153783,2,0,P|346:91|377:91,2,60
243,139,154192,1,0,0:0:0:0:
149,192,154328,5,0,0:0:0:0:
78,80,154464,1,0,0:0:0:0:
170,102,154600,1,0,0:0:0:0:
57,171,154737,1,0,0:0:0:0:
167,313,155010,1,0,0:0:0:0:
344,285,155282,1,0,0:0:0:0:
361,196,155419,6,0,P|331:194|302:202,2,60
431,229,155828,1,0,0:0:0:0:
421,358,155965,2,0,P|437:333|444:304,2,60
431,229,156374,1,0,0:0:0:0:
297,305,156510,6,0,P|193:253|314:280,1,360
348,96,157601,5,0,0:0:0:0:
125,215,157874,1,0,0:0:0:0:
375,250,158147,1,0,0:0:0:0:
193,74,158419,1,0,0:0:0:0:
237,323,158692,1,0,0:0:0:0:
256,192,158760,12,0,160886,0:0:0:0:
