osu file format v14

[General]
AudioFilename: audio.mp3
AudioLeadIn: 0
PreviewTime: 65154
Countdown: 1
SampleSet: Normal
StackLeniency: 0.7
Mode: 0
LetterboxInBreaks: 0
WidescreenStoryboard: 0

[Editor]
DistanceSpacing: 0.6
BeatDivisor: 6
GridSize: 4
TimelineZoom: 1.8

[Metadata]
Title:Masemate~ikku ma+ma=Magic!
TitleUnicode:ませまてぃっく♥ま+ま=まじっく!
Artist:Nanahira
ArtistUnicode:ななひら
Creator:Lufu
Version:EXHAUST
Source:SOUND VOLTEX II -infinite infection-
Tags:sdvx camellia
BeatmapID:1074967
BeatmapSetID:505303

[Difficulty]
HPDrainRate:6
CircleSize:4
OverallDifficulty:8
ApproachRate:9.3
SliderMultiplier:2
SliderTickRate:1

[Events]
//Background and Video events
0,0,"55239890_p0.jpg",0,0
//Break Periods
//Storyboard Layer 0 (Background)
//Storyboard Layer 1 (Fail)
//Storyboard Layer 2 (Pass)
//Storyboard Layer 3 (Foreground)
//Storyboard Sound Samples

[TimingPoints]
154,312.5,4,2,0,60,1,0
2654,-100,4,2,0,60,0,0
12029,-66.6666666666667,4,2,0,60,0,0
12185,-76.9230769230769,4,1,0,60,0,0
12497,-90.9090909090909,4,1,0,60,0,0
21404,-66.6666666666667,4,1,0,60,0,0
22029,-90.9090909090909,4,1,0,60,0,0
23904,-142.857142857143,4,1,0,60,0,0
24450,-90.9090909090909,4,2,0,60,0,0
32654,-90.9090909090909,4,3,0,60,0,0
32966,-90.9090909090909,4,1,0,60,0,0
35154,-90.9090909090909,4,3,0,60,0,0
35466,-90.9090909090909,4,1,0,60,0,0
37654,-90.9090909090909,4,3,0,60,0,0
37966,-90.9090909090909,4,1,0,60,0,0
40151,-90.9090909090909,4,3,0,60,0,0
40466,-90.9090909090909,4,1,0,60,0,0
42341,-66.6666666666667,4,1,0,60,0,0
42497,-90.9090909090909,4,1,0,60,0,0
47966,-83.3333333333333,4,1,0,60,0,0
48122,-90.9090909090909,4,1,0,60,0,0
52654,-142.857142857143,4,1,0,60,0,0
57654,-90.9090909090909,4,1,0,60,0,0
62654,-90.9090909090909,4,2,0,60,0,0
63901,-76.9230769230769,4,1,0,60,0,0
63904,-55.5555555555556,4,1,0,60,0,0
65154,-76.9230769230769,4,1,0,60,0,1
74529,-66.6666666666667,4,1,0,60,0,1
74685,-76.9230769230769,4,1,0,60,0,1
85154,-100,4,1,0,60,0,1
85779,-76.9230769230769,4,1,0,60,0,1
87654,-90.9090909090909,4,1,0,60,0,0
88904,-100,4,1,0,60,0,0
89216,-90.9090909090909,4,1,0,60,0,0
93904,-111.111111111111,4,1,0,60,0,0
94216,-90.9090909090909,4,1,0,60,0,0
95154,-111.111111111111,4,1,0,60,0,0
95466,-90.9090909090909,4,1,0,60,0,0
98904,-111.111111111111,4,3,0,60,0,0
100466,-90.9090909090908,4,1,0,60,0,0
106716,-76.9230769230769,4,1,0,60,0,0

[HitObjects]
256,192,466,12,0,1404,0:0:0:0:
88,176,1560,5,0,0:0:0:0:
88,176,1638,1,0,0:0:0:0:
88,176,1716,1,0,2:0:0:0:
144,352,1872,1,0,0:0:0:0:
260,112,2029,1,0,0:0:0:0:
224,292,2185,1,0,0:0:0:0:
184,48,2341,1,0,0:0:0:0:
215,28,2419,1,0,0:0:0:0:
252,20,2497,1,0,0:0:0:0:
289,24,2575,1,0,0:0:0:0:
322,40,2654,6,0,P|384:84|404:208,1,200,4|8,0:0|0:0,0:0:0:0:
372,352,3122,1,0,0:0:0:0:
224,292,3279,2,0,P|176:284|116:292,1,100
272,212,3591,1,8,0:0:0:0:
184,48,3747,6,0,P|100:40|76:140,1,200
125,289,4216,1,8,0:0:0:0:
224,152,4372,2,0,P|284:136|348:200,1,150
356,292,4685,2,0,L|300:296,1,50,8|0,0:0|0:0,0:0:0:0:
436,152,4841,2,0,L|485:148,1,50,8|0,0:0|0:0,0:0:0:0:
184,76,5154,6,0,P|140:144|204:236,1,200,4|8,0:0|0:0,0:0:0:0:
356,284,5622,1,0,0:0:0:0:
208,356,5779,2,0,P|156:364|104:356,1,100
198,234,6091,1,8,0:0:0:0:
344,188,6247,6,0,P|391:111|315:19,1,200
184,76,6716,1,8,0:0:0:0:
272,216,6872,2,0,P|344:264|416:216,1,150
476,160,7185,2,0,L|484:216,1,50,8|0,0:0|0:0,0:0:0:0:
360,92,7341,2,0,L|352:42,1,50,8|0,0:0|0:0,0:0:0:0:
236,24,7497,6,4,P|152:8|124:116,1,200,4|0,0:0|0:0,0:0:0:0:
108,244,7966,2,0,P|156:250|200:224,1,100,8|0,0:0|0:0,0:0:0:0:
140,172,8279,2,0,P|185:135|188:85,1,100,8|0,0:0|0:0,0:0:0:0:
115,99,8591,2,0,P|51:51|3:62,1,100,8|0,0:0|0:0,0:0:0:0:
40,224,8904,6,0,P|32:168|60:100,1,100,8|0,0:0|0:0,0:0:0:0:
148,16,9216,1,0,0:0:0:0:
304,16,9372,2,0,P|356:20|388:64,1,100,8|0,0:0|0:0,0:0:0:0:
324,184,9685,2,0,P|308:128|336:64,1,100,8|0,0:0|0:0,0:0:0:0:
396,192,9997,6,0,P|361:250|304:256,1,100,8|0,0:0|3:0,3:0:0:0:
300,260,10232,1,0,3:0:0:0:
266,251,10310,1,0,3:0:0:0:
232,259,10388,1,0,3:0:0:0:
198,267,10466,1,0,3:0:0:0:
163,264,10544,1,0,3:0:0:0:
138,240,10622,1,0,3:0:0:0:
128,207,10700,1,0,3:0:0:0:
134,173,10779,5,0,3:0:0:0:
156,146,10857,1,0,3:0:0:0:
173,117,10935,1,0,3:0:0:0:
169,83,11013,1,0,3:0:0:0:
146,58,11091,1,0,3:0:0:0:
428,136,11247,1,8,0:0:0:0:
336,324,11560,5,4,3:0:0:0:
337,114,11716,1,4,3:0:0:0:
152,212,11872,1,4,3:0:0:0:
408,288,12029,2,0,B|364:211|324:281|287:209,1,150.000005722046
288,212,12263,1,0,0:0:0:0:
288,212,12341,1,0,0:0:0:0:
268,32,12497,6,0,P|216:20|152:40,1,110.000003356934
64,172,12810,2,0,L|16:192,2,36.6666677856446
104,156,12966,2,0,P|164:144|216:160,1,110.000003356934,8|0,0:0|0:0,0:0:0:0:
408,288,13279,2,0,P|348:304|300:284,1,110.000003356934
210,156,13591,1,8,0:0:0:0:
372,16,13747,6,0,P|395:132|337:245,1,220.000006713867
240,364,14216,1,8,0:0:0:0:
64,316,14372,2,0,P|28:256|108:252,1,165.000005035401
224,280,14685,2,0,L|232:216,1,55.0000016784668,8|0,0:0|0:0,0:0:0:0:
357,222,14841,2,0,L|363:276,1,55.0000016784668,8|0,0:0|0:0,0:0:0:0:
472,312,14997,1,0,0:0:0:0:
472,312,15154,6,0,L|484:180,1,110.000003356934
488,168,15388,1,0,0:0:0:0:
488,168,15466,1,8,0:0:0:0:
380,56,15622,2,0,L|304:64,1,55.0000016784668
228,88,15779,6,0,P|260:140|312:160,2,110.000003356934,0|0|8,0:0|0:0|0:0,0:0:0:0:
48,32,16247,1,0,0:0:0:0:
116,220,16404,1,0,0:0:0:0:
303,159,16560,2,0,L|319:211,3,36.6666677856446,0|0|0|8,0:0|0:0|0:0|0:0,0:0:0:0:
325,61,16872,2,0,L|316:28,4,27.5000008392334
144,72,17185,2,0,L|216:56,1,55.0000016784668,8|0,0:0|0:0,0:0:0:0:
169,208,17341,2,0,L|115:219,1,55.0000016784668,8|0,3:0|3:0,3:0:0:0:
24,184,17497,6,0,P|32:272|148:312,1,220.000006713867
356,256,17966,2,0,P|300:248|220:260,1,110.000003356934,8|0,0:0|0:0,0:0:0:0:
344,136,18279,2,0,P|400:144|480:132,1,110.000003356934
268,172,18591,1,8,0:0:0:0:
436,220,18747,1,0,0:0:0:0:
228,324,18904,6,0,P|176:276|180:224,1,110.000003356934
356,256,19216,1,8,0:0:0:0:
272,92,19372,2,0,P|216:84|136:96,1,110.000003356934
32,168,19685,2,0,P|88:176|168:164,1,110.000003356934,0|8,0:0|0:0,0:0:0:0:
316,28,19997,2,0,P|348:104|300:164,1,165.000005035401
196,224,20310,6,0,L|244:272,1,55.0000016784668
228,368,20466,2,0,P|316:329|338:265,1,165.000005035401,8|0,0:0|0:0,0:0:0:0:
356,159,20779,2,0,L|287:164,1,55.0000016784668
140,171,20935,1,0,0:0:0:0:
452,156,21091,1,8,0:0:0:0:
234,262,21247,1,0,0:0:0:0:
407,29,21404,6,0,B|382:59|395:104|395:104|362:116|353:167,1,150.000005722046,8|0,0:0|0:0,0:0:0:0:
441,268,21716,6,0,B|426:231|381:219|381:219|387:185|347:152,1,150.000005722046,8|0,0:0|0:0,0:0:0:0:
188,36,22029,5,8,0:0:0:0:
215,65,22107,1,0,0:0:0:0:
210,104,22185,1,0,0:0:0:0:
175,124,22263,1,0,0:0:0:0:
138,109,22341,1,0,0:0:0:0:
98,113,22419,1,0,0:0:0:0:
72,145,22497,1,0,0:0:0:0:
76,185,22575,1,0,3:0:0:0:
107,210,22654,6,0,P|160:228|228:200,1,110.000003356934,8|0,3:0|3:0,3:0:0:0:
302,47,22966,2,0,L|314:199,1,110.000003356934,0|0,3:0|3:0,3:0:0:0:
460,312,23279,2,0,P|416:344|348:344,1,110.000003356934,8|0,3:0|3:0,3:0:0:0:
193,311,23591,2,0,L|305:275,1,110.000003356934,0|0,3:0|3:0,3:0:0:0:
326,268,23825,1,0,3:0:0:0:
354,258,23904,6,4,P|415:183|307:159,1,244.999992523194
288,180,24529,1,0,0:0:0:0:
264,200,24607,2,0,P|208:212|140:196,1,110.000003356934
24,172,24841,2,0,L|8:232,1,55.0000016784668
140,112,24997,2,0,L|140:168,1,55.0000016784668
260,60,25154,6,0,L|312:160,1,110.000003356934
460,248,25466,2,0,P|412:264|356:248,1,110.000003356934,8|0,0:0|0:0,0:0:0:0:
206,158,25779,2,0,P|254:142|310:158,1,110.000003356934
400,352,26091,1,8,0:0:0:0:
264,228,26247,1,0,0:0:0:0:
264,228,26325,1,0,0:0:0:0:
263,227,26404,6,0,P|211:243|160:227,1,110.000003356934
459,183,26872,1,0,0:0:0:0:
159,226,27185,1,0,0:0:0:0:
285,64,27341,2,0,P|302:115|281:183,1,110.000003356934
272,196,27575,1,0,0:0:0:0:
263,227,27654,6,0,P|320:298|416:262,1,165.000005035401,8|0,0:0|0:0,0:0:0:0:
456,196,27966,2,0,L|344:216,1,110.000003356934,8|0,0:0|0:0,0:0:0:0:
184,240,28279,1,0,0:0:0:0:
84,380,28435,1,0,0:0:0:0:
96,212,28591,2,0,P|96:272|132:320,1,110.000003356934,8|0,0:0|0:0,0:0:0:0:
24,96,28904,6,0,P|65:61|129:55,1,110.000003356934
376,80,29216,2,0,P|408:140|384:236,1,165.000005035401
300,280,29529,2,0,L|308:335,1,55.0000016784668
192,240,29685,2,0,L|184:180,1,55.0000016784668
280,120,29841,2,0,L|288:175,1,55.0000016784668
172,92,29997,2,0,L|164:32,1,55.0000016784668
112,200,30154,2,0,P|132:308|232:332,1,220.000006713867
392,40,30779,5,2,0:0:0:0:
432,55,30857,1,0,0:0:0:0:
456,91,30935,1,0,0:0:0:0:
456,134,31013,1,0,0:0:0:0:
430,169,31091,1,4,0:0:0:0:
389,183,31169,1,0,0:0:0:0:
348,198,31247,1,0,0:0:0:0:
324,234,31325,1,0,0:0:0:0:
324,277,31403,5,0,0:0:0:0:
350,312,31481,1,0,0:0:0:0:
391,326,31559,1,0,0:0:0:0:
280,116,31716,1,8,0:0:0:0:
185,330,31872,1,8,0:0:0:0:
64,128,32029,2,0,P|106:27|201:54,1,220.000006713867,8|0,0:0|0:0,0:0:0:0:
112,296,32654,5,4,0:0:0:0:
146,318,32732,1,4,0:0:0:0:
185,330,32810,1,4,0:0:0:0:
226,329,32888,1,4,0:0:0:0:
265,315,32966,2,0,L|352:248,1,110.000003356934,8|0,0:0|0:0,0:0:0:0:
476,148,33279,1,0,0:0:0:0:
340,80,33435,1,0,0:0:0:0:
204,152,33591,2,0,L|76:164,1,110.000003356934,8|0,0:0|0:0,0:0:0:0:
265,315,33904,5,0,0:0:0:0:
366,162,34060,1,0,0:0:0:0:
366,162,34138,1,0,0:0:0:0:
366,162,34216,2,0,L|490:146,1,110.000003356934,8|0,0:0|0:0,0:0:0:0:
340,80,34529,6,0,P|280:144|292:200,1,110.000003356934
252,356,34841,2,0,P|312:292|300:236,1,110.000003356934,8|0,0:0|0:0,0:0:0:0:
196,56,35154,5,4,0:0:0:0:
191,96,35232,1,4,0:0:0:0:
187,137,35310,1,4,0:0:0:0:
183,178,35388,1,4,0:0:0:0:
178,220,35466,2,0,P|136:256|72:256,1,110.000003356934,8|0,0:0|0:0,0:0:0:0:
279,160,35779,1,0,0:0:0:0:
456,208,35935,1,0,0:0:0:0:
356,112,36091,2,0,P|368:168|336:232,1,110.000003356934,8|0,0:0|0:0,0:0:0:0:
232,320,36404,5,0,0:0:0:0:
83,259,36560,1,0,0:0:0:0:
83,259,36638,1,0,0:0:0:0:
83,259,36716,2,0,P|32:228|24:172,1,110.000003356934,8|0,0:0|0:0,0:0:0:0:
124,44,37029,6,0,P|173:47|166:101,1,110.000003356934
356,124,37341,2,0,P|306:120|313:66,1,110.000003356934,8|0,0:0|0:0,0:0:0:0:
456,208,37654,5,4,0:0:0:0:
444,247,37732,1,4,0:0:0:0:
419,280,37810,1,4,0:0:0:0:
385,302,37888,1,4,0:0:0:0:
345,312,37966,2,0,P|280:320|216:304,1,110.000003356934,8|0,0:0|0:0,0:0:0:0:
80,272,38279,1,0,0:0:0:0:
256,200,38435,1,0,0:0:0:0:
68,348,38591,2,0,P|12:304|24:224,1,110.000003356934,8|0,0:0|0:0,0:0:0:0:
8,104,38904,5,0,0:0:0:0:
151,199,39060,1,0,0:0:0:0:
151,199,39138,1,0,0:0:0:0:
151,199,39216,2,0,P|208:214|272:186,1,110.000003356934,8|0,0:0|0:0,0:0:0:0:
420,112,39529,5,0,0:0:0:0:
255,199,39685,1,0,0:0:0:0:
356,44,39841,1,8,0:0:0:0:
344,228,39997,1,0,0:0:0:0:
192,40,40154,5,4,0:0:0:0:
150,35,40232,1,4,0:0:0:0:
110,46,40310,1,4,0:0:0:0:
77,69,40388,1,4,0:0:0:0:
53,102,40466,2,0,P|36:160|56:216,1,110.000003356934,8|0,0:0|0:0,0:0:0:0:
144,344,40779,1,0,0:0:0:0:
304,240,40935,1,0,0:0:0:0:
240,352,41091,2,0,P|224:292|176:252,1,110.000003356934,8|0,0:0|0:0,0:0:0:0:
49,206,41404,5,0,0:0:0:0:
212,100,41560,1,0,0:0:0:0:
100,272,41716,1,8,0:0:0:0:
147,47,41872,1,0,0:0:0:0:
180,296,42029,1,0,0:0:0:0:
65,45,42185,1,0,0:0:0:0:
300,204,42341,2,0,P|368:224|448:200,1,150.000005722046,8|0,0:0|0:0,0:0:0:0:
236,120,42654,6,0,P|196:212|276:308,1,220.000006713867,0|8,0:0|0:0,0:0:0:0:
404,348,43122,1,0,0:0:0:0:
442,203,43279,2,0,P|448:152|428:92,1,110.000003356934
328,44,43591,1,8,0:0:0:0:
236,120,43747,6,0,P|184:140|108:108,1,110.000003356934
12,92,44060,2,0,L|24:236,1,110.000003356934,0|8,0:0|0:0,0:0:0:0:
160,40,44372,2,0,P|248:8|340:88,1,220.000006713867
372,180,44841,1,8,0:0:0:0:
176,232,44997,1,0,0:0:0:0:
372,180,45154,6,0,P|440:112|400:-4,1,220.000006713867,0|8,0:0|0:0,0:0:0:0:
492,180,45622,1,0,0:0:0:0:
384,296,45779,2,0,L|256:312,1,110.000003356934
128,320,46091,1,8,0:0:0:0:
12,204,46247,6,0,P|12:144|144:128,1,220.000006713867
256,208,46716,1,8,0:0:0:0:
376,140,46872,1,0,0:0:0:0:
476,240,47029,2,0,P|488:176|460:124,2,110.000003356934,0|0|8,0:0|0:0|0:0,0:0:0:0:
376,352,47497,1,0,0:0:0:0:
224,348,47654,6,0,P|212:284|248:224,1,110.000003356934
248,224,47888,1,0,0:0:0:0:
268,208,47966,2,0,P|220:192|136:212,1,119.999996337891,8|0,0:0|0:0,0:0:0:0:
20,280,48279,1,0,0:0:0:0:
8,128,48435,1,0,0:0:0:0:
136,44,48591,2,0,P|192:28|256:52,1,110.000003356934,8|0,0:0|0:0,0:0:0:0:
392,132,48904,6,0,P|336:148|272:124,1,110.000003356934
424,40,49216,1,8,0:0:0:0:
360,232,49372,2,0,P|284:320|156:300,1,220.000006713867
48,248,49841,1,8,0:0:0:0:
184,168,49997,1,0,0:0:0:0:
36,116,50154,6,0,P|24:64|44:0,2,110.000003356934,0|0|8,0:0|0:0|0:0,0:0:0:0:
176,48,50622,1,0,0:0:0:0:
316,108,50779,2,0,P|376:120|436:104,1,110.000003356934
448,268,51091,1,8,0:0:0:0:
304,188,51247,2,0,P|212:168|126:258,1,220.000006713867
422,110,51716,5,10,0:0:0:0:
236,276,52029,5,2,0:0:0:0:
128,40,52341,5,10,0:0:0:0:
157,298,52654,6,0,P|236:357|317:284,1,209.999993591309,4|0,0:0|0:0,0:0:0:0:
344,104,53279,1,0,0:0:0:0:
88,224,53591,1,8,0:0:0:0:
280,44,53904,6,0,B|384:-16|384:76|488:32,1,209.999993591309,4|0,0:0|0:0,0:0:0:0:
436,216,54529,1,0,0:0:0:0:
184,352,54841,1,8,0:0:0:0:
76,144,55154,6,0,P|92:60|200:88,1,209.999993591309,4|0,0:0|0:0,0:0:0:0:
316,232,55779,1,0,0:0:0:0:
136,112,56091,1,8,0:0:0:0:
264,292,56404,6,0,B|320:332|376:288|376:288|472:300,1,209.999993591309,4|0,0:0|0:0,0:0:0:0:
428,112,57029,1,0,0:0:0:0:
180,268,57341,1,8,0:0:0:0:
296,36,57654,5,0,0:0:0:0:
352,292,57810,1,0,0:0:0:0:
204,76,57966,1,0,0:0:0:0:
424,217,58122,1,0,0:0:0:0:
168,284,58279,1,0,0:0:0:0:
284,120,58435,6,0,L|338:111,1,55.0000016784668,8|0,0:0|0:0,0:0:0:0:
478,208,58591,2,0,L|400:220,1,55.0000016784668,8|0,0:0|0:0,0:0:0:0:
305,308,58747,5,0,0:0:0:0:
338,110,58904,1,0,0:0:0:0:
194,248,59060,1,0,0:0:0:0:
392,221,59216,1,0,0:0:0:0:
216,127,59372,2,0,P|140:148|88:228,1,165.000005035401
84,364,59685,6,0,L|152:348,1,55.0000016784668,8|0,0:0|0:0,0:0:0:0:
247,235,59841,2,0,L|179:251,1,55.0000016784668,8|0,0:0|0:0,0:0:0:0:
320,52,60154,5,0,0:0:0:0:
424,176,60310,1,0,0:0:0:0:
424,176,60388,1,0,0:0:0:0:
424,176,60466,2,0,P|440:240|404:296,1,110.000003356934
292,360,60779,1,0,0:0:0:0:
364,224,60935,1,0,0:0:0:0:
248,116,61091,2,0,P|192:104|128:124,1,110.000003356934
64,264,61404,5,0,0:0:0:0:
97,287,61482,1,0,0:0:0:0:
137,295,61560,1,0,0:0:0:0:
177,288,61638,1,0,0:0:0:0:
211,265,61716,1,0,0:0:0:0:
244,240,61794,1,0,0:0:0:0:
284,232,61872,1,0,0:0:0:0:
324,241,61950,1,0,0:0:0:0:
356,266,62028,5,0,0:0:0:0:
391,287,62107,1,0,0:0:0:0:
432,291,62185,1,0,0:0:0:0:
470,276,62263,1,0,0:0:0:0:
497,245,62341,1,0,0:0:0:0:
509,206,62419,1,0,0:0:0:0:
501,166,62497,1,0,0:0:0:0:
477,133,62575,1,0,0:0:0:0:
440,115,62654,6,0,P|388:100|324:120,1,110.000003356934
184,40,62966,2,0,P|236:55|300:35,1,110.000003356934
164,132,63279,1,0,0:0:0:0:
304,216,63435,1,0,0:0:0:0:
172,292,63591,1,0,0:0:0:0:
260,132,63747,1,0,0:0:0:0:
408,352,63904,6,0,P|416:264|404:148,1,179.999994506836,2|0,0:0|0:0,0:0:0:0:
96,84,64216,2,0,P|88:173|96:263,1,179.999994506836,2|0,0:0|0:0,0:0:0:0:
260,132,64529,1,2,0:0:0:0:
260,311,64685,1,0,0:0:0:0:
260,311,64763,1,0,0:0:0:0:
260,311,64841,2,0,L|259:122,1,179.999994506836,8|0,0:0|0:0,0:0:0:0:
444,60,65154,6,0,P|506:179|440:296,2,259.999988098145,0|8|0,0:0|0:0|0:0,0:0:0:0:
259,131,65935,1,0,0:0:0:0:
76,56,66091,2,0,P|48:112|77:167,1,129.999994049073,8|0,0:0|0:0,0:0:0:0:
232,292,66404,5,0,0:0:0:0:
352,140,66560,1,0,0:0:0:0:
504,280,66716,1,8,0:0:0:0:
398,70,66872,2,0,B|326:38|282:98|282:98|198:98,1,194.999991073609
77,167,67185,2,0,L|156:166,1,64.9999970245363,8|0,0:0|0:0,0:0:0:0:
330,311,67341,2,0,L|244:312,1,64.9999970245363,8|0,0:0|0:0,0:0:0:0:
1,157,67654,6,0,B|-2:106|65:66|117:94|117:94|174:113|219:96,1,259.999988098145,0|8,0:0|0:0,0:0:0:0:
380,16,68122,1,0,0:0:0:0:
487,161,68279,2,0,P|491:241|463:309,1,129.999994049073
300,364,68591,1,8,0:0:0:0:
115,320,68747,6,0,P|81:230|173:162,1,194.999991073609
308,128,69060,2,0,L|368:124,3,43.3333313496908,0|0|0|8,0:0|0:0|0:0|0:0,0:0:0:0:
472,32,69372,2,0,L|524:28,4,32.4999985122681
180,40,69685,2,0,L|292:36,1,64.9999970245363,8|0,0:0|0:0,0:0:0:0:
84,180,69841,2,0,L|19:182,1,64.9999970245363,8|0,0:0|0:0,0:0:0:0:
308,128,69997,6,0,P|420:164|408:288,1,259.999988098145
219,221,70466,2,0,P|279:241|340:220,1,129.999994049073,8|0,0:0|0:0,0:0:0:0:
484,104,70779,1,0,0:0:0:0:
409,286,70935,1,0,0:0:0:0:
308,128,71091,2,0,P|244:108|160:152,1,129.999994049073,8|0,0:0|0:0,0:0:0:0:
36,252,71404,5,0,0:0:0:0:
247,203,71560,1,0,0:0:0:0:
120,376,71716,1,8,0:0:0:0:
112,140,71872,2,0,B|104:64|180:28|232:68|232:68|272:84|312:64,1,259.999988098145
480,12,72341,1,8,0:0:0:0:
310,189,72497,2,0,P|292:122|323:44,1,129.999994049073
380,312,72810,6,0,L|296:316,1,64.9999970245363
188,172,72966,2,0,P|128:152|52:188,1,129.999994049073,8|0,0:0|0:0,0:0:0:0:
310,189,73279,2,0,P|370:208|430:187,1,129.999994049073
308,65,73591,1,8,0:0:0:0:
171,314,73747,6,0,P|56:293|92:157,1,259.999988098145
191,70,74216,2,0,P|253:43|307:64,1,129.999994049073,8|0,0:0|0:0,0:0:0:0:
461,148,74529,2,0,L|301:170,1,150.000005722046,4|0,0:0|2:0,0:0:0:0:
144,192,74841,1,8,0:0:0:0:
268,340,74997,6,0,P|356:332|340:240,1,194.999991073609
247,135,75310,2,0,L|300:128,2,43.3333313496908
196,76,75466,2,0,P|117:54|37:150,1,194.999991073609,8|0,0:0|0:0,0:0:0:0:
4,284,75779,2,0,P|40:340|116:348,1,129.999994049073
280,376,76091,1,8,0:0:0:0:
181,224,76247,6,0,P|201:152|289:152,1,129.999994049073
432,132,76560,1,0,0:0:0:0:
488,320,76716,1,8,0:0:0:0:
512,96,76872,2,0,P|436:44|348:108,1,194.999991073609
320,208,77185,2,0,L|244:212,1,64.9999970245363,8|0,0:0|0:0,0:0:0:0:
423,324,77341,2,0,L|487:320,1,64.9999970245363,8|0,0:0|0:0,0:0:0:0:
355,90,77654,6,0,P|312:40|236:52,1,129.999994049073
252,41,77888,1,0,0:0:0:0:
252,41,77966,1,0,0:0:0:0:
320,208,78122,1,0,0:0:0:0:
232,352,78279,2,0,P|172:360|84:348,2,129.999994049073,0|0|8,0:0|0:0|0:0,0:0:0:0:
320,208,78747,1,0,0:0:0:0:
168,280,78904,5,0,0:0:0:0:
48,188,79060,2,0,L|-8:188,3,43.3333313496908,0|0|0|8,0:0|0:0|0:0|0:0,0:0:0:0:
128,48,79372,2,0,L|160:48,4,32.4999985122681
352,28,79685,2,0,L|424:28,1,64.9999970245363,8|0,0:0|0:0,0:0:0:0:
504,176,79841,2,0,L|432:176,1,64.9999970245363,8|0,0:0|0:0,0:0:0:0:
312,340,79997,6,0,B|192:408|192:292|48:356,1,259.999988098145
252,264,80466,2,0,P|320:244|380:272,1,129.999994049073,8|0,0:0|0:0,0:0:0:0:
180,204,80779,1,0,0:0:0:0:
328,44,80935,1,0,0:0:0:0:
180,204,81091,2,0,P|112:224|52:196,1,129.999994049073,8|0,0:0|0:0,0:0:0:0:
252,264,81404,5,0,0:0:0:0:
76,352,81560,1,0,0:0:0:0:
272,356,81716,2,0,P|320:332|344:256,2,129.999994049073,8|0|0,0:0|0:0|0:0,0:0:0:0:
100,268,82185,1,0,0:0:0:0:
292,200,82341,2,0,P|348:180|416:216,1,129.999994049073,8|0,0:0|0:0,0:0:0:0:
496,360,82654,1,0,0:0:0:0:
480,160,82810,1,0,0:0:0:0:
480,160,82888,1,0,0:0:0:0:
480,160,82966,6,0,P|460:96|396:68,1,129.999994049073,8|0,0:0|0:0,0:0:0:0:
292,200,83279,2,0,P|236:220|168:184,1,129.999994049073
296,108,83591,1,8,0:0:0:0:
256,304,83747,1,0,0:0:0:0:
387,141,83904,5,0,0:0:0:0:
456,328,84060,1,0,0:0:0:0:
292,200,84216,1,8,0:0:0:0:
168,348,84372,1,0,0:0:0:0:
56,196,84529,5,0,0:0:0:0:
51,148,84607,1,0,0:0:0:0:
74,105,84685,1,0,0:0:0:0:
116,81,84763,1,0,0:0:0:0:
164,84,84841,1,0,0:0:0:0:
204,110,84919,1,0,0:0:0:0:
252,115,84997,1,0,0:0:0:0:
297,99,85075,1,0,0:0:0:0:
330,64,85154,2,0,P|464:76|424:224,1,300,4|0,0:0|0:0,0:0:0:0:
80,268,85779,6,2,B|176:336|176:236|280:304,1,194.999991073609,10|0,0:0|0:0,0:0:0:0:
344,368,86091,2,0,L|488:372,1,129.999994049073,8|0,1:0|0:0,0:0:0:0:
368,152,86404,5,8,0:0:0:0:
212,360,86560,1,8,0:0:0:0:
156,112,86716,1,8,0:0:0:0:
336,296,86872,1,8,0:0:0:0:
280,24,87185,1,4,0:0:0:0:
280,24,87341,2,0,P|212:36|136:16,1,129.999994049073,4|0,0:0|2:0,0:0:0:0:
28,136,87654,6,0,P|48:224|136:240,1,165.000005035401,4|0,0:0|0:0,0:0:0:0:
208,168,87966,2,0,P|156:151|103:163,1,110.000003356934,8|0,0:0|0:0,0:0:0:0:
355,250,88279,1,0,0:0:0:0:
191,337,88435,1,0,0:0:0:0:
276,116,88591,2,0,P|292:167|275:219,1,110.000003356934,8|0,0:0|0:0,0:0:0:0:
254,245,88825,1,0,0:0:0:0:
254,245,88904,6,0,P|293:323|419:309,1,200,4|0,0:0|0:0,0:0:0:0:
444,164,89372,1,0,0:0:0:0:
328,40,89529,2,0,P|272:24|212:48,1,110.000003356934
72,100,89841,2,0,L|80:176,1,55.0000016784668
136,332,89997,2,0,L|130:277,1,55.0000016784668
209,162,90154,6,0,P|229:226|269:242,1,110.000003356934
408,176,90466,2,0,P|424:232|396:300,2,110.000003356934,8|0|0,0:0|0:0|0:0,0:0:0:0:
328,40,90935,1,0,0:0:0:0:
209,162,91091,2,0,P|157:174|89:154,1,110.000003356934,8|0,0:0|0:0,0:0:0:0:
102,161,91325,1,0,0:0:0:0:
102,161,91404,1,0,0:0:0:0:
316,116,91560,1,0,0:0:0:0:
408,268,91872,6,0,B|300:332|300:220|174:284,1,220.000006713867,4|0,0:0|0:0,0:0:0:0:
72,348,92341,2,0,P|56:284|84:232,1,110.000003356934
92,216,92575,1,0,0:0:0:0:
116,192,92654,6,0,P|140:120|100:44,1,165.000005035401
216,116,92966,2,0,P|272:132|336:100,1,110.000003356934,8|0,0:0|0:0,0:0:0:0:
452,24,93279,1,0,0:0:0:0:
480,180,93435,1,0,0:0:0:0:
368,52,93591,2,0,P|316:35|264:51,1,110.000003356934
116,192,93904,6,0,P|164:200|232:184,3,89.9999972534181
340,120,94529,6,0,L|352:192,1,55.0000016784668
436,304,94685,2,0,L|426:249,1,55.0000016784668
300,240,94841,2,0,L|236:252,1,55.0000016784668
432,168,94997,2,0,L|486:157,1,55.0000016784668
280,48,95154,2,4,P|200:56|256:112,1,179.999994506836
76,264,95779,5,0,0:0:0:0:
104,296,95857,1,0,0:0:0:0:
144,314,95935,1,0,0:0:0:0:
188,312,96013,1,0,0:0:0:0:
227,293,96091,1,0,0:0:0:0:
254,258,96169,1,0,0:0:0:0:
287,229,96247,1,0,0:0:0:0:
328,216,96325,1,0,0:0:0:0:
372,221,96403,5,0,0:0:0:0:
410,243,96481,1,0,0:0:0:0:
435,278,96559,1,4,0:0:0:0:
488,80,96716,1,4,0:0:0:0:
336,328,96872,1,4,0:0:0:0:
248,56,97029,2,0,P|176:28|100:96,1,165.000005035401,4|0,0:0|0:0,0:0:0:0:
148,208,97341,2,0,P|184:164|180:100,1,110.000003356934,8|0,0:0|0:0,0:0:0:0:
336,32,97654,5,0,0:0:0:0:
432,172,97810,1,0,0:0:0:0:
264,192,97966,2,0,P|266:245|301:287,1,110.000003356934,8|0,0:0|0:0,0:0:0:0:
228,336,98279,1,0,0:0:0:0:
344,216,98435,1,0,0:0:0:0:
228,336,98591,2,0,P|160:352|112:320,1,110.000003356934,8|0,0:0|0:0,0:0:0:0:
100,312,98825,1,0,0:0:0:0:
84,288,98904,6,0,P|68:224|84:144,2,134.999995880127,0|0|0,3:0|3:0|3:0,3:0:0:0:
168,152,99529,1,0,3:0:0:0:
195,133,99607,1,0,3:0:0:0:
228,127,99685,1,0,3:0:0:0:
261,134,99763,1,0,3:0:0:0:
289,153,99841,2,0,P|368:188|448:136,1,179.999994506836,0|0,3:0|3:0,3:0:0:0:
488,312,100310,5,0,0:0:0:0:
488,312,100466,2,0,P|436:332|368:308,1,110.000003356934,8|0,0:0|0:0,0:0:0:0:
248,228,100779,1,0,0:0:0:0:
364,100,100935,1,0,0:0:0:0:
168,152,101091,2,0,P|144:192|144:260,1,110.000003356934,8|0,0:0|0:0,0:0:0:0:
76,64,101404,5,0,0:0:0:0:
272,68,101560,1,0,0:0:0:0:
272,68,101638,1,0,0:0:0:0:
272,68,101716,1,0,0:0:0:0:
64,104,101872,1,0,0:0:0:0:
288,100,102029,1,0,0:0:0:0:
142,254,102185,1,0,0:0:0:0:
288,100,102341,2,0,P|340:80|392:108,1,110.000003356934
488,200,102575,1,0,0:0:0:0:
488,200,102654,6,0,P|408:236|328:200,1,165.000005035401
228,164,102966,2,0,P|176:156|116:216,1,110.000003356934,8|0,0:0|0:0,0:0:0:0:
56,320,103279,1,0,0:0:0:0:
192,236,103435,1,0,0:0:0:0:
328,320,103591,2,0,P|388:332|460:308,1,110.000003356934,8|0,0:0|0:0,0:0:0:0:
434,321,103825,1,0,0:0:0:0:
434,321,103904,5,0,0:0:0:0:
452,168,104060,2,0,L|512:160,2,55.0000016784668
300,184,104372,1,0,0:0:0:0:
232,48,104529,2,0,L|300:40,1,55.0000016784668
174,121,104685,2,0,L|120:128,1,55.0000016784668
245,190,104841,2,0,L|299:183,1,55.0000016784668
186,273,104997,2,0,L|132:280,1,55.0000016784668
340,96,105154,6,0,P|384:140|324:276,1,220.000006713867,4|0,0:0|0:0,0:0:0:0:
112,360,105779,1,8,0:0:0:0:
74,337,105857,1,0,0:0:0:0:
53,299,105935,1,0,0:0:0:0:
55,256,106013,1,0,0:0:0:0:
78,219,106091,1,0,0:0:0:0:
117,200,106169,1,0,0:0:0:0:
154,225,106247,1,0,0:0:0:0:
195,238,106325,1,0,0:0:0:0:
239,238,106403,5,0,0:0:0:0:
281,224,106481,1,0,0:0:0:0:
317,199,106559,1,0,0:0:0:0:
408,36,106716,2,0,P|348:52|284:32,1,129.999994049073,10|0,0:0|0:0,0:0:0:0:
488,188,107029,1,8,0:0:0:0:
