osu file format v14

[General]
AudioFilename: audio.mp3
AudioLeadIn: 0
PreviewTime: -1
Countdown: 1
SampleSet: Normal
StackLeniency: 0.7
Mode: 0
LetterboxInBreaks: 0
WidescreenStoryboard: 0

[Editor]
DistanceSpacing: 0.8
BeatDivisor: 12
GridSize: 32
TimelineZoom: 1

[Metadata]
Title:HoneyTrap
TitleUnicode:Honey♥Trap
Artist:Nanahira
ArtistUnicode:Nanahira
Creator:NerfWorm
Version:Insane
Source:
Tags:
BeatmapID:1421103
BeatmapSetID:672262

[Difficulty]
HPDrainRate:5
CircleSize:4
OverallDifficulty:9
ApproachRate:9
SliderMultiplier:3.39999990463257
SliderTickRate:4

[Events]
//Background and Video events
0,0,"m1000x1000.jpg",0,0
//Break Periods
2,36923,40230
2,42638,93016
2,99995,124052
//Storyboard Layer 0 (Background)
//Storyboard Layer 1 (Fail)
//Storyboard Layer 2 (Pass)
//Storyboard Layer 3 (Foreground)
//Storyboard Sound Samples

[TimingPoints]
-62,428.571428571429,4,1,0,100,1,0

[HitObjects]
128,96,23938,5,0,0:0:0:0:
160,128,24045,1,0,0:0:0:0:
192,160,24152,1,0,0:0:0:0:
224,192,24259,1,0,0:0:0:0:
416,96,24473,5,0,0:0:0:0:
480,128,24580,1,0,0:0:0:0:
352,288,24759,5,0,0:0:0:0:
352,192,25080,1,0,0:0:0:0:
128,64,26009,5,0,0:0:0:0:
160,96,26080,1,0,0:0:0:0:
352,96,26188,5,0,0:0:0:0:
192,256,26402,1,0,0:0:0:0:
352,192,26580,1,0,0:0:0:0:
320,224,26652,1,0,0:0:0:0:
288,256,26795,1,0,0:0:0:0:
256,288,26884,1,0,0:0:0:0:
192,160,27080,1,0,0:0:0:0:
160,192,27188,1,0,0:0:0:0:
128,224,27259,1,0,0:0:0:0:
96,256,27366,1,0,0:0:0:0:
352,128,27580,1,0,0:0:0:0:
352,128,27634,1,0,0:0:0:0:
352,288,27848,1,0,0:0:0:0:
192,192,28143,5,0,0:0:0:0:
256,96,28545,5,0,0:0:0:0:
256,128,28625,1,0,0:0:0:0:
256,160,28732,1,0,0:0:0:0:
256,192,28813,1,0,0:0:0:0:
256,224,28920,1,0,0:0:0:0:
128,192,29116,5,0,0:0:0:0:
128,192,29188,1,0,0:0:0:0:
128,96,29294,5,0,0:0:0:0:
128,96,29366,1,0,0:0:0:0:
320,96,29688,5,0,0:0:0:0:
288,224,29866,5,0,0:0:0:0:
256,256,29973,1,0,0:0:0:0:
224,288,30080,1,0,0:0:0:0:
146,276,30152,2,0,B|128:256|99:195|99:99|163:67,1,226.666660308838
224,32,30652,5,0,0:0:0:0:
224,32,30723,1,0,0:0:0:0:
320,96,30938,1,0,0:0:0:0:
320,96,31223,2,0,B|320:160|320:288|192:288,1,254.999992847443
256,96,32223,5,0,0:0:0:0:
224,128,32295,1,0,0:0:0:0:
160,192,32402,5,0,0:0:0:0:
64,288,32616,2,0,L|224:320,1,141.666662693024
224,320,32866,1,0,0:0:0:0:
256,320,32973,1,0,0:0:0:0:
288,320,33080,1,0,0:0:0:0:
352,64,33259,2,0,B|352:192|224:288|224:288,1,254.999992847443
64,64,33795,5,0,0:0:0:0:
96,96,33866,1,0,0:0:0:0:
288,128,34045,5,0,0:0:0:0:
128,288,34330,1,0,0:0:0:0:
192,32,34652,5,0,0:0:0:0:
224,64,34723,1,0,0:0:0:0:
256,96,34795,1,0,0:0:0:0:
256,128,34902,1,0,0:0:0:0:
224,160,35009,1,0,0:0:0:0:
192,192,35116,1,0,0:0:0:0:
224,288,35295,5,0,0:0:0:0:
256,256,35402,1,0,0:0:0:0:
288,224,35509,1,0,0:0:0:0:
256,192,35617,1,0,0:0:0:0:
352,192,35866,5,0,0:0:0:0:
320,96,36045,5,0,0:0:0:0:
288,96,36151,1,0,0:0:0:0:
256,96,36259,1,0,0:0:0:0:
160,96,36402,2,0,B|64:192|96:320|128:352,1,254.999992847443
128,128,40830,5,0,0:0:0:0:
160,160,40902,1,0,0:0:0:0:
192,192,41009,1,0,0:0:0:0:
224,224,41116,2,0,B|256:224|288:192|288:160,1,84.9999976158143
288,160,41330,1,0,0:0:0:0:
352,288,41473,5,0,0:0:0:0:
384,256,41580,1,0,0:0:0:0:
384,224,41688,1,0,0:0:0:0:
384,192,41795,1,0,0:0:0:0:
256,96,42080,5,0,0:0:0:0:
160,160,42259,5,0,0:0:0:0:
192,192,42366,1,0,0:0:0:0:
224,224,42438,1,0,0:0:0:0:
64,32,93616,6,0,L|64:192,1,141.666662693024
160,32,94009,2,0,L|160:192,1,141.666662693024
256,32,94402,2,0,L|256:192,1,141.666662693024
352,32,94795,2,0,L|352:192,1,141.666662693024
448,32,95188,2,0,L|448:192,1,141.666662693024
448,352,95580,6,0,L|448:192,1,141.666662693024
352,352,95973,2,0,L|352:192,1,141.666662693024
256,352,96366,2,0,L|256:192,1,141.666662693024
160,352,96759,2,0,L|160:192,1,141.666662693024
64,352,97152,2,0,L|64:192,1,141.666662693024
96,192,97545,6,0,L|256:192,1,141.666662693024
416,192,97938,2,0,L|256:192,1,141.666662693024
448,32,98330,5,0,0:0:0:0:
444,82,98437,1,0,0:0:0:0:
434,132,98544,1,0,0:0:0:0:
417,180,98651,1,0,0:0:0:0:
391,224,98758,1,0,0:0:0:0:
359,263,98865,1,0,0:0:0:0:
318,294,98972,1,0,0:0:0:0:
271,313,99079,1,0,0:0:0:0:
224,320,99188,2,0,L|224:256,7,56.6666650772095
224,192,99795,1,0,0:0:0:0:
480,32,124652,5,0,0:0:0:0:
