osu file format v14

[General]
AudioFilename: audio.mp3
AudioLeadIn: 0
PreviewTime: 55090
Countdown: 0
SampleSet: Soft
StackLeniency: 0.5
Mode: 0
LetterboxInBreaks: 0
WidescreenStoryboard: 0

[Editor]
Bookmarks: 3379,20827,20985
DistanceSpacing: 1.2
BeatDivisor: 4
GridSize: 4
TimelineZoom: 3.499999

[Metadata]
Title:Hey, my dear!!
TitleUnicode:Hey, my dear!!
Artist:Nanahira
ArtistUnicode:ななひら
Creator:My Angel Mir
Version:My Dear
Source:
Tags:Massive New Krew Secretale Confetto
BeatmapID:1251140
BeatmapSetID:591194

[Difficulty]
HPDrainRate:6.5
CircleSize:4.3
OverallDifficulty:8.3
ApproachRate:9.3
SliderMultiplier:1.9
SliderTickRate:1

[Events]
//Background and Video events
0,0,"bg.jpg",0,0
//Break Periods
2,66583,72952
2,77083,250172
2,252111,292268
2,296005,304425
//Storyboard Layer 0 (Background)
//Storyboard Layer 1 (Fail)
//Storyboard Layer 2 (Pass)
//Storyboard Layer 3 (Foreground)
//Storyboard Sound Samples

[TimingPoints]
3069,315.789473684211,4,2,1,40,1,0
3069,-100,4,2,1,60,0,0
11911,-250,4,2,1,20,0,0
13095,-250,4,2,1,5,0,0
13174,-142.857142857143,4,2,1,60,0,0
23279,-111.111111111111,4,2,1,60,0,0
33305,-111.111111111111,4,2,1,5,0,0
33384,-166.666666666667,4,2,1,60,0,0
43016,-111.111111111111,4,2,1,60,0,0
43253,-111.111111111111,4,2,1,5,0,0
43332,-111.111111111111,4,2,1,60,0,0
43490,-125,4,2,1,60,0,0
47121,-90.9090909090909,4,2,1,60,0,0
47595,-125,4,2,1,60,0,0
47832,-125,4,2,1,5,0,0
47911,-125,4,2,1,60,0,0
48542,-100,4,2,1,60,0,0
55174,-125,4,2,1,60,0,0
55411,-125,4,2,1,5,0,0
55490,-125,4,2,1,60,0,0
55726,-125,4,2,1,5,0,0
55805,-100,4,2,1,60,0,0
56042,-100,4,2,1,5,0,0
56121,-86.9565217391304,4,2,1,70,0,1
56674,-86.9565217391304,4,2,1,5,0,1
56753,-86.9565217391304,4,2,1,70,0,1
58569,-86.9565217391304,4,2,1,5,0,1
58647,-86.9565217391304,4,2,1,70,0,1
60463,-86.9565217391304,4,2,1,5,0,1
60542,-86.9565217391304,4,2,1,70,0,1
61095,-86.9565217391304,4,2,1,5,0,1
61174,-86.9565217391304,4,2,1,70,0,1
61411,-86.9565217391304,4,2,1,5,0,1
61490,-86.9565217391304,4,2,1,70,0,1
63937,-86.9565217391304,4,2,1,5,0,1
64016,-86.9565217391304,4,2,1,70,0,1
66147,-86.9565217391304,4,2,1,5,0,1
66226,-86.9565217391304,4,2,1,70,0,1
75621,-86.9565217391304,4,2,1,5,0,1
75700,-86.9565217391304,4,2,1,70,0,0
76332,-86.9565217391304,4,2,1,70,0,1
76884,-86.9565217391304,4,2,1,5,0,1
76963,-86.9565217391304,4,2,1,70,0,1
96542,-125,4,2,1,60,0,0
101595,-100,4,2,1,60,0,0
106647,-166.666666666667,4,2,1,60,0,0
115332,-100,4,2,1,60,0,0
116753,-111.111111111111,4,2,1,60,0,0
126858,-166.666666666667,4,2,1,60,0,0
136963,-125,4,2,1,60,0,0
142016,-100,4,2,1,60,0,0
309858,-100,4,2,1,5,0,0
310016,-100,4,2,1,60,0,0

[Colours]
Combo1 : 0,217,136
Combo2 : 126,225,254
Combo3 : 211,116,252
Combo4 : 253,61,13

[HitObjects]
256,192,532,12,0,2743,3:0:0:0:
104,136,3069,6,0,P|147:167|194:160,1,95,12|0,0:0|3:0,0:0:0:0:
292,120,3384,1,0,3:0:0:0:
100,276,3542,2,0,L|108:370,1,95,8|0,0:0|3:0,0:0:0:0:
396,276,3858,2,0,L|388:182,1,95,8|0,0:0|3:0,0:0:0:0:
208,313,4174,6,0,P|245:343|291:341,1,95,8|0,0:0|3:0,0:0:0:0:
394,286,4490,1,0,3:0:0:0:
247,146,4647,5,8,0:0:0:0:
212,18,4805,1,0,3:0:0:0:
327,204,4963,5,8,0:0:0:0:
315,72,5121,1,0,3:0:0:0:
396,276,5279,5,8,0:0:0:0:
407,144,5437,1,0,3:0:0:0:
187,225,5595,6,0,P|132:236|84:208,1,95,12|0,0:0|3:0,0:0:0:0:
24,109,5911,1,0,3:0:0:0:
30,288,6069,2,0,L|38:382,1,95,8|0,0:0|3:0,0:0:0:0:
203,125,6384,2,0,L|194:219,1,95,8|0,0:0|3:0,0:0:0:0:
318,56,6700,6,0,P|362:76|426:56,1,95,8|0,0:0|3:0,0:0:0:0:
504,8,7016,1,0,3:0:0:0:
371,178,7174,1,8,0:0:0:0:
383,310,7332,1,0,3:0:0:0:
240,203,7490,5,8,0:0:0:0:
236,167,7568,1,8,0:0:0:0:
233,132,7647,1,8,0:0:0:0:
230,96,7726,1,8,0:0:0:0:
227,61,7805,1,8,0:0:0:0:
108,188,7963,1,0,3:0:0:0:
357,76,8121,6,0,P|402:62|449:71,1,95,12|0,0:0|3:0,0:0:0:0:
512,167,8437,1,0,3:0:0:0:
280,131,8595,2,0,L|271:36,1,95,8|0,0:0|3:0,0:0:0:0:
456,244,8911,2,0,L|447:338,1,95,8|0,0:0|3:0,0:0:0:0:
143,220,9226,6,0,P|187:206|234:215,1,95,8|0,0:0|3:0,0:0:0:0:
342,254,9542,1,0,3:0:0:0:
175,372,9700,5,8,0:0:0:0:
42,384,9858,1,0,3:0:0:0:
246,303,10016,5,8,0:0:0:0:
113,292,10174,1,0,3:0:0:0:
328,247,10332,5,8,0:0:0:0:
200,214,10490,1,0,3:0:0:0:
440,52,10647,6,0,P|491:127|456:212,1,190,12|0,0:0|3:0,0:0:0:0:
256,308,11121,1,0,3:0:0:0:
198,33,11279,5,2,3:2:0:0:
170,359,11437,1,2,3:2:0:0:
403,46,11595,5,2,3:2:0:0:
431,372,11753,1,2,3:2:0:0:
345,321,11911,6,0,L|348:283,2,38,2|0|0,0:0|0:0|0:0,0:0:0:0:
244,320,12384,2,0,L|251:244,1,76,2|0,0:0|0:0,0:0:0:0:
314,159,12858,2,0,L|319:216,1,57,2|0,0:0|0:0,0:0:0:0:
241,326,13174,6,0,P|209:335|171:329,1,66.4999979705811,4|0,3:2|3:0,0:0:0:0:
48,289,13490,1,8,0:0:0:0:
51,295,14121,1,8,0:0:0:0:
54,301,14753,1,8,0:0:0:0:
57,307,15384,1,8,0:0:0:0:
128,262,15700,6,0,P|131:229|123:197,1,66.4999979705811,0|0,3:2|3:0,0:0:0:0:
64,76,16016,1,8,0:0:0:0:
67,82,16647,1,8,0:0:0:0:
70,88,17279,1,8,0:0:0:0:
73,94,17910,1,8,0:0:0:0:
146,126,18226,6,0,P|179:132|216:123,1,66.4999979705811,0|0,3:2|3:0,0:0:0:0:
335,72,18542,1,8,0:0:0:0:
332,78,19173,1,8,0:0:0:0:
330,84,19805,1,8,0:0:0:0:
327,91,20436,1,8,0:0:0:0:
287,162,20753,6,0,P|284:195|292:227,1,66.4999979705811,0|0,3:2|3:0,0:0:0:0:
372,336,21069,1,8,0:0:0:0:
369,342,21700,1,8,0:0:0:0:
367,348,22332,1,8,0:0:0:0:
376,265,22647,5,0,3:0:0:0:
376,265,22805,1,0,3:0:0:0:
364,355,22963,1,8,0:0:0:0:
292,227,23121,1,0,3:0:0:0:
447,111,23279,6,0,P|449:154|435:194,1,85.4999973907472,4|0,3:2|3:0,0:0:0:0:
289,219,23595,2,0,P|261:186|223:167,1,85.4999973907472,8|0,0:0|3:0,0:0:0:0:
113,130,23832,1,0,3:0:0:0:
113,130,23911,2,0,P|124:182|112:240,1,85.4999973907472,2|0,3:2|3:0,0:0:0:0:
32,360,24226,1,8,0:0:0:0:
124,317,24384,6,0,L|239:306,1,85.4999973907472,2|0,3:2|3:0,0:0:0:0:
389,273,24700,2,0,L|304:266,1,85.4999973907472,2|8,3:2|0:0,0:0:0:0:
220,142,25016,1,2,3:2:0:0:
220,142,25095,1,0,3:0:0:0:
220,142,25174,2,0,P|216:184|229:225,1,85.4999973907472,0|0,3:2|3:0,0:0:0:0:
295,99,25490,1,8,0:0:0:0:
138,115,25647,1,2,3:2:0:0:
366,144,25805,6,0,P|408:152|448:138,1,85.4999973907472,2|0,3:2|3:0,0:0:0:0:
213,74,26121,1,8,0:0:0:0:
266,208,26279,1,2,3:2:0:0:
293,219,26358,1,0,3:0:0:0:
322,220,26437,1,0,3:0:0:0:
123,186,26595,2,0,P|80:190|44:212,1,85.4999973907472,2|8,3:2|0:0,0:0:0:0:
250,289,26911,6,0,P|267:250|266:208,1,85.4999973907472,2|0,3:2|3:0,0:0:0:0:
210,66,27226,1,2,3:2:0:0:
131,189,27384,1,8,0:0:0:0:
308,109,27542,1,2,3:2:0:0:
327,99,27621,1,0,3:0:0:0:
347,94,27700,2,0,P|390:87|431:98,1,85.4999973907472,0|0,3:2|3:0,3:0:0:0:
262,200,28016,1,8,0:0:0:0:
267,16,28174,1,0,3:2:0:0:
148,276,28332,6,0,P|92:284|40:260,1,85.4999973907472,4|0,3:2|3:2,0:2:0:0:
228,344,28647,2,0,P|269:352|310:343,1,85.4999973907472,8|0,0:2|3:2,0:2:0:0:
397,284,28884,1,0,3:0:0:0:
397,284,28963,2,0,L|403:369,1,85.4999973907472,2|0,3:2|3:0,0:0:0:0:
471,212,29279,1,8,0:0:0:0:
300,248,29437,6,0,P|258:249|214:225,1,85.4999973907472,2|0,3:2|3:0,0:0:0:0:
372,188,29753,1,2,3:2:0:0:
237,343,29911,1,8,0:0:0:0:
172,148,30069,1,2,3:2:0:0:
168,116,30147,1,0,3:0:0:0:
173,84,30226,1,0,3:0:0:0:
220,230,30384,5,2,3:2:0:0:
135,225,30542,1,8,0:0:0:0:
87,154,30700,1,2,3:2:0:0:
110,306,30858,6,0,P|70:317|28:310,1,85.4999973907472,2|0,3:2|3:0,0:0:0:0:
132,219,31174,1,8,0:0:0:0:
197,336,31332,1,2,3:2:0:0:
216,343,31411,1,0,3:0:0:0:
237,347,31490,1,0,3:0:0:0:
370,281,31647,2,0,P|330:269|288:275,1,85.4999973907472,2|8,3:2|0:2,3:2:0:0:
191,333,31963,1,2,3:2:0:0:
226,201,32121,5,0,3:0:0:0:
197,336,32279,1,0,3:0:0:0:
316,180,32437,1,8,0:0:0:0:
143,254,32595,1,8,0:0:0:0:
143,254,32674,1,8,0:0:0:0:
143,254,32753,6,8,L|100:250,1,42.7499986953736,10|8,0:0|0:0,0:0:0:0:
16,163,32911,2,8,L|59:160,1,42.7499986953736,10|0,0:0|3:0,0:0:0:0:
228,75,33069,2,0,P|210:135|158:170,1,128.249996086121,12|0,0:0|0:0,0:0:0:0:
239,225,33384,6,0,L|249:352,1,113.999996520996,4|0,3:2|3:0,3:0:0:0:
320,176,34016,1,8,0:0:0:0:
320,176,34332,2,0,L|326:251,1,56.9999982604981,8|0,0:0|3:0,0:0:0:0:
373,346,34647,2,0,P|372:318|379:291,1,56.9999982604981,2|8,0:0|0:0,0:0:0:0:
423,177,34963,1,0,3:0:0:0:
423,177,35279,2,0,P|353:194|305:158,1,113.999996520996,8|2,0:0|0:0,0:0:0:0:
251,133,35753,1,8,0:0:0:0:
251,133,35832,1,8,0:0:0:0:
251,133,35911,6,0,L|245:189,1,56.9999982604981,0|0,3:0|3:0,0:0:0:0:
246,190,36384,1,0,3:0:0:0:
92,251,36542,2,0,P|144:272|197:253,1,113.999996520996,8|8,0:0|0:0,0:0:0:0:
246,190,37016,2,0,P|234:244|266:289,1,113.999996520996,0|8,3:0|0:0,0:0:0:0:
308,139,37490,1,4,3:2:0:0:
308,139,37805,5,8,0:0:0:0:
266,290,37963,1,8,0:3:0:0:
246,190,38121,1,4,0:3:0:0:
272,300,38437,6,0,P|331:321|391:285,1,113.999996520996,4|2,3:2|3:2,0:0:0:0:
448,138,39069,2,0,L|438:251,1,113.999996520996,8|2,0:0|3:2,0:0:0:0:
376,302,39542,2,0,P|323:320|271:299,1,113.999996520996,2|8,3:2|0:0,0:0:0:0:
198,269,40016,2,0,L|200:325,1,56.9999982604981,2|0,0:0|3:0,0:0:0:0:
149,205,40332,2,0,P|198:230|252:215,1,113.999996520996,8|2,0:0|0:0,0:0:0:0:
299,151,40805,1,8,0:0:0:0:
302,278,40963,6,0,P|252:312|188:304,2,113.999996520996,2|2|8,3:2|3:2|0:0,0:0:0:0:
294,144,41911,1,8,0:0:0:0:
368,324,42069,2,0,P|424:348|484:316,1,113.999996520996,4|0,3:2|3:0,0:0:0:0:
360,222,42542,1,8,0:0:0:0:
438,239,42700,1,0,3:0:0:0:
466,239,42778,1,0,3:0:0:0:
492,228,42857,1,8,0:0:0:0:
351,215,43016,6,0,B|342:178|351:151|351:151|337:115|347:89,1,128.249996086121,2|0,3:2|0:0,0:0:0:0:
358,100,43332,1,8,0:0:0:0:
358,100,43411,1,8,0:0:0:0:
357,99,43490,6,0,P|321:106|283:102,1,76,4|0,3:2|3:0,0:0:0:0:
431,44,43805,1,8,0:0:0:0:
474,177,43963,1,0,3:0:0:0:
474,177,44042,1,0,3:0:0:0:
474,176,44121,2,0,P|437:184|400:180,1,76,2|0,3:2|3:0,0:0:0:0:
509,92,44437,1,8,0:0:0:0:
504,264,44595,1,0,3:0:0:0:
504,264,44674,1,0,3:0:0:0:
504,264,44753,6,0,P|496:300|500:338,1,76,2|0,3:2|3:0,0:0:0:0:
410,297,45069,2,0,P|373:289|335:293,1,76,8|0,0:0|3:0,0:0:0:0:
242,327,45305,1,0,3:0:0:0:
242,327,45384,2,0,P|249:290|245:252,1,76,2|0,3:2|3:0,0:0:0:0:
196,124,45700,1,0,0:0:0:0:
324,204,45858,1,2,3:2:0:0:
343,206,45937,1,0,3:0:0:0:
362,203,46016,6,0,P|369:166|365:129,1,76,0|0,3:0|3:0,0:0:0:0:
319,302,46332,1,0,0:0:0:0:
467,184,46490,1,0,3:0:0:0:
467,184,46569,1,0,3:0:0:0:
467,184,46648,2,0,P|474:147|470:109,1,76,0|0,3:0|3:0,0:0:0:0:
433,293,46963,1,8,0:0:0:0:
223,348,47121,6,0,B|144:372|80:332|80:332|116:344|139:334,1,209.000006378174,4|0,3:2|3:0,0:0:0:0:
248,268,47595,6,0,P|256:212|208:160,1,114,8|0,0:0|0:0,0:0:0:0:
141,128,47911,1,2,3:2:0:0:
305,123,48069,2,0,L|342:120,1,38,0|2,3:0|0:0,0:0:0:0:
219,0,48226,1,8,0:0:0:0:
136,136,48384,1,2,3:2:0:0:
344,208,48542,5,6,3:2:0:0:
436,140,48700,1,0,3:0:0:0:
412,28,48858,1,8,0:0:0:0:
277,357,49016,2,0,P|347:298|343:207,1,190,6|0,3:2|3:0,0:0:0:0:
172,264,49490,2,0,P|216:278|259:258,1,95,8|0,0:0|0:0,0:0:0:0:
88,213,49805,5,6,3:2:0:0:
42,107,49963,1,0,3:0:0:0:
118,22,50121,1,8,0:0:0:0:
155,363,50279,2,0,P|84:304|88:213,1,190,6|0,3:2|3:0,0:0:0:0:
258,258,50753,2,0,P|216:278|172:264,1,95,12|0,0:0|0:0,0:0:0:0:
343,207,51069,5,6,3:2:0:0:
288,353,51226,1,0,3:0:0:0:
291,123,51384,2,0,P|336:107|382:116,1,95,8|0,0:0|0:0,0:0:0:0:
373,301,51700,5,0,3:2:0:0:
208,175,51858,1,0,3:0:0:0:
461,251,52016,2,0,P|479:296|468:348,1,95,8|0,0:0|0:0,3:2:0:0:
268,268,52332,5,0,3:0:0:0:
452,167,52490,1,0,3:0:0:0:
240,356,52647,2,0,P|196:328|177:259,1,95,8|0,0:0|0:0,0:0:0:0:
303,114,52963,5,0,0:0:0:0:
367,348,53121,1,0,0:0:0:0:
413,40,53279,1,8,0:0:0:0:
312,272,53437,1,0,3:0:0:0:
312,272,53516,1,0,3:0:0:0:
312,272,53595,5,8,0:0:0:0:
228,260,53805,1,8,0:3:0:0:
280,196,54016,1,4,0:3:0:0:
218,343,54226,5,8,0:3:0:0:
151,290,54436,1,4,0:3:0:0:
228,260,54647,1,0,3:0:0:0:
84,237,54858,5,4,3:2:0:0:
84,237,55174,6,0,P|108:185|84:129,1,114,2|0,0:0|0:0,0:0:0:0:
152,72,55490,2,0,P|204:96|260:72,1,114,2|0,0:0|0:0,0:0:0:0:
338,94,55805,6,0,B|354:150|326:198|326:198|317:165,1,142.5,0|0,3:0|0:0,0:0:0:0:
312,16,56121,5,6,0:0:0:0:
460,212,56279,1,0,3:0:0:0:
189,220,56437,2,0,P|239:159|317:165,1,163.875003125668,8|0,0:0|0:0,0:0:0:0:
377,227,56753,5,2,0:0:0:0:
316,23,56911,1,0,3:0:0:0:
272,238,57069,1,8,0:0:0:0:
464,204,57226,6,0,P|472:152|436:96,1,109.250002083778,2|0,0:0|3:0,0:0:0:0:
320,30,57542,1,0,3:0:0:0:
460,292,57700,1,8,0:0:0:0:
439,98,57858,1,0,3:0:0:0:
311,158,58016,6,0,P|263:182|209:173,1,109.250002083778,2|0,0:0|3:0,0:0:0:0:
335,47,58332,2,0,B|364:96|327:179|327:179|311:158,1,163.875003125668,8|0,0:0|0:0,0:0:0:0:
251,98,58647,5,2,0:0:0:0:
448,92,58805,1,0,3:0:0:0:
192,180,58963,1,8,0:0:0:0:
335,47,59121,2,0,P|348:104|333:155,1,109.250002083778,2|0,0:0|0:0,0:0:0:0:
184,184,59437,5,2,3:2:0:0:
455,88,59595,1,8,0:0:0:0:
174,280,59753,6,0,B|120:212|156:132|156:132|160:164|184:184,1,218.500004167557,6|0,0:0|3:0,0:0:0:0:
344,240,60226,2,0,P|428:244|479:175,1,163.875003125668,8|0,0:0|0:0,0:0:0:0:
490,103,60542,1,2,0:0:0:0:
388,340,60700,1,0,3:0:0:0:
237,84,60858,6,0,B|221:122|228:157|251:194|251:194|226:174|207:171,1,163.875003125668,8|0,0:0|0:0,0:0:0:0:
109,213,61174,6,0,P|177:170|252:195,1,163.875003125668,6|0,3:2|0:0,0:0:0:0:
324,260,61490,1,8,0:0:0:0:
188,368,61647,2,0,P|176:315|188:263,1,109.250002083778,2|0,0:0|3:0,0:3:0:0:
300,103,61963,1,0,3:0:0:0:
110,212,62121,5,8,0:0:0:0:
140,40,62279,1,2,0:0:0:0:
280,236,62437,5,2,3:2:0:0:
139,128,62595,1,0,3:0:0:0:
315,9,62753,1,8,0:0:0:0:
276,228,62911,2,0,B|224:144|256:80|256:80|252:116|266:140,1,218.500004167557,2|0,0:0|3:0,0:0:0:0:
391,179,63384,6,0,P|418:178|443:169,1,54.6250010418892,8|0,0:0|0:0,0:0:0:0:
136,121,63542,2,0,P|108:120|83:130,1,54.6250010418892,2|0,0:0|0:0,0:0:0:0:
202,351,63700,6,0,P|267:306|276:228,1,163.875003125668,6|0,3:2|0:0,0:0:0:0:
266,140,64016,1,8,0:0:0:0:
359,257,64174,2,0,P|416:268|484:240,1,109.250002083778,2|0,0:0|3:0,0:0:0:0:
261,133,64490,5,2,0:2:0:0:
332,344,64647,1,8,0:0:0:0:
326,67,64805,6,0,P|226:44|167:128,1,218.500004167557,6|0,3:2|3:0,0:0:0:0:
352,252,65279,1,8,0:0:0:0:
167,129,65437,2,0,B|154:137|140:169|138:189|138:189|148:121|136:81|92:57,1,218.500004167557,0|0,3:2|3:0,0:0:0:0:
261,133,65911,6,0,B|234:170|235:228|260:252|260:252|270:204,1,163.875003125668,6|0,0:0|0:0,0:0:0:0:
172,260,66226,6,0,P|164:320|76:340,1,109.250002083778
336,0,74753,5,8,0:0:0:0:
153,191,74911,6,0,B|192:168|212:120|205:49|205:49|208:80|233:97,1,218.500004167557,6|0,3:2|3:0,0:0:0:0:
396,125,75384,2,0,B|427:149|492:141|505:103|505:103|448:97,1,163.875003125668,8|0,0:0|0:0,0:0:0:0:
320,72,75700,5,10,0:0:0:0:
317,99,75778,1,8,0:0:0:0:
315,126,75857,1,8,0:0:0:0:
312,153,75936,1,8,0:0:0:0:
272,216,76016,5,10,0:0:0:0:
274,243,76094,1,8,0:0:0:0:
276,270,76173,1,8,0:0:0:0:
279,297,76252,1,8,0:0:0:0:
334,359,76332,5,6,3:2:0:0:
390,120,76490,1,0,3:0:0:0:
116,87,76647,2,0,P|132:163|208:181,1,163.875003125668,8|0,0:0|0:0,0:0:0:0:
256,192,250726,12,0,251911,0:0:0:0:
256,192,294069,12,0,295805,3:0:0:0:
256,192,306226,5,4,3:2:0:0:
256,192,306305,12,0,309858,0:0:0:0:
256,192,310016,5,0,0:0:0:0:
256,192,310332,1,0,0:0:0:0:
256,192,310647,1,0,0:0:0:0:
123,201,310805,5,0,3:0:0:0:
330,303,310963,1,0,3:2:0:0:
314,72,311121,1,0,3:0:0:0:
