osu file format v14

[General]
AudioFilename: audio.mp3
AudioLeadIn: 0
PreviewTime: 44081
Countdown: 0
SampleSet: None
StackLeniency: 0.7
Mode: 3
LetterboxInBreaks: 0
SpecialStyle: 0
WidescreenStoryboard: 0

[Editor]
DistanceSpacing: 0.8
BeatDivisor: 4
GridSize: 4
TimelineZoom: 2.5

[Metadata]
Title:Fly Away!
TitleUnicode:Fly Away!
Artist:Nanahira
ArtistUnicode:ななひら
Creator:Verniy_Chan
Version:NM Lv. 6
Source:
Tags:P*Light Colory Starry コミックマーケット comiket comic market 88 コミケット Electronic Happy Hardcore Pop Dubstep Arzenvald ajeemaniz ExUsagi Maxus DixonBlackwing Cut Short Version
BeatmapID:1350184
BeatmapSetID:636300

[Difficulty]
HPDrainRate:7.5
CircleSize:4
OverallDifficulty:6
ApproachRate:5
SliderMultiplier:1.4
SliderTickRate:1

[Events]
//Background and Video events
0,0,"BG.jpg",0,0
//Break Periods
//Storyboard Layer 0 (Background)
//Storyboard Layer 1 (Fail)
//Storyboard Layer 2 (Pass)
//Storyboard Layer 3 (Foreground)
//Storyboard Sound Samples

[TimingPoints]
82,333.333333333333,4,3,1,40,1,0
45415,-100,4,3,1,40,0,1
56081,-100,4,3,1,40,0,0
66748,-100,4,3,1,40,0,1
88081,-100,4,3,1,40,0,0

[HitObjects]
448,192,1415,128,0,2415:0:0:0:0:
320,192,1915,128,0,2415:0:0:0:0:
64,192,2415,1,8,0:0:0:0:
192,192,2415,1,4,0:0:0:0:
320,192,2748,1,4,2:0:0:0:
64,192,2748,128,2,2915:0:0:0:0:
448,192,3081,128,0,3248:0:0:0:0:
448,192,3581,128,0,3748:0:0:0:0:
320,192,3915,128,0,4248:0:0:0:0:
64,192,4415,128,0,4581:0:0:0:0:
64,192,4915,128,0,5081:0:0:0:0:
320,192,5248,128,0,5415:0:0:0:0:
192,192,5415,128,0,5581:0:0:0:0:
448,192,5748,128,0,5915:0:0:0:0:
448,192,6248,128,0,6415:0:0:0:0:
64,192,6581,128,0,6748:0:0:0:0:
192,192,6915,128,0,7081:0:0:0:0:
320,192,7248,128,0,7581:0:0:0:0:
64,192,7748,128,0,7915:0:0:0:0:
192,192,8081,128,0,8248:0:0:0:0:
320,192,8248,1,0,0:0:0:0:
448,192,8415,128,0,8581:0:0:0:0:
64,192,8581,1,0,0:0:0:0:
192,192,8748,1,0,0:0:0:0:
320,192,8915,128,0,9081:0:0:0:0:
64,192,9081,1,0,0:0:0:0:
448,192,9248,128,0,9415:0:0:0:0:
192,192,9415,128,0,9581:0:0:0:0:
64,192,9581,1,0,0:0:0:0:
320,192,9748,128,0,9915:0:0:0:0:
192,192,9915,1,0,0:0:0:0:
448,192,10081,1,0,0:0:0:0:
64,192,10248,128,0,10415:0:0:0:0:
320,192,10415,1,0,0:0:0:0:
192,192,10581,128,0,10748:0:0:0:0:
448,192,10748,128,0,10915:0:0:0:0:
64,192,10915,1,0,0:0:0:0:
320,192,11081,128,0,11248:0:0:0:0:
192,192,11248,1,0,0:0:0:0:
448,192,11415,1,0,0:0:0:0:
64,192,11581,128,0,11748:0:0:0:0:
192,192,11748,1,0,0:0:0:0:
448,192,11915,128,0,12081:0:0:0:0:
320,192,12081,128,0,12248:0:0:0:0:
64,192,12248,1,0,0:0:0:0:
192,192,12415,128,0,12581:0:0:0:0:
320,192,12581,1,0,0:0:0:0:
448,192,12748,1,0,0:0:0:0:
64,192,12915,128,0,13081:0:0:0:0:
320,192,13081,1,0,0:0:0:0:
448,192,13248,128,0,13415:0:0:0:0:
64,192,13415,1,4,2:0:0:0:
192,192,13415,1,2,0:0:0:0:
192,192,13748,1,4,0:0:0:0:
320,192,13748,1,0,0:0:0:0:
448,192,14248,1,2,0:0:0:0:
64,192,14415,1,4,0:0:0:0:
320,192,14415,1,0,0:0:0:0:
192,192,14748,1,2,0:0:0:0:
448,192,15081,1,4,0:0:0:0:
320,192,15081,1,0,0:0:0:0:
64,192,15248,1,2,0:0:0:0:
192,192,15581,1,2,0:0:0:0:
64,192,15748,1,4,0:0:0:0:
320,192,15748,1,0,0:0:0:0:
448,192,16081,1,2,0:0:0:0:
320,192,16415,1,4,0:0:0:0:
192,192,16415,1,0,0:0:0:0:
64,192,16915,1,2,0:0:0:0:
192,192,17081,1,4,0:0:0:0:
448,192,17081,1,0,0:0:0:0:
320,192,17248,128,2,17415:0:0:0:0:
192,192,17581,128,2,17748:0:0:0:0:
320,192,17748,1,4,0:0:0:0:
448,192,17748,1,0,0:0:0:0:
64,192,17915,128,2,18248:0:0:0:0:
320,192,18248,1,2,0:0:0:0:
192,192,18415,1,4,0:0:0:0:
448,192,18415,128,0,18581:0:0:0:0:
64,192,18748,1,2,0:0:0:0:
320,192,19081,1,4,0:0:0:0:
192,192,19081,1,0,0:0:0:0:
448,192,19581,1,2,0:0:0:0:
192,192,19748,1,4,0:0:0:0:
64,192,19748,1,0,0:0:0:0:
320,192,20081,1,2,0:0:0:0:
192,192,20415,1,4,0:0:0:0:
448,192,20415,1,0,0:0:0:0:
64,192,20581,1,2,0:0:0:0:
320,192,20915,1,2,0:0:0:0:
192,192,21081,1,4,0:0:0:0:
64,192,21081,1,0,0:0:0:0:
448,192,21248,128,0,22248:0:0:0:0:
192,192,21415,1,2,0:0:0:0:
64,192,21748,1,4,0:0:0:0:
320,192,21748,1,0,0:0:0:0:
64,192,22248,1,2,0:0:0:0:
192,192,22415,1,0,0:0:0:0:
320,192,22415,1,4,0:0:0:0:
448,192,22581,1,2,0:0:0:0:
64,192,22748,1,2,0:0:0:0:
192,192,22748,1,4,0:2:0:0:
448,192,22915,1,2,0:0:0:0:
320,192,22915,1,4,0:2:0:0:
64,192,23081,1,2,0:0:0:0:
192,192,23081,1,4,0:2:0:0:
448,192,23748,1,8,0:0:0:0:
192,192,23748,1,4,0:0:0:0:
64,192,24081,128,8,24415:0:0:0:0:
192,192,24415,128,8,24748:0:0:0:0:
448,192,24748,128,8,24915:0:0:0:0:
320,192,24915,128,0,25081:0:0:0:0:
64,192,25081,128,8,25248:0:0:0:0:
192,192,25248,128,0,25415:0:0:0:0:
448,192,25415,128,8,25748:0:0:0:0:
320,192,25581,128,0,25748:0:0:0:0:
192,192,25748,1,8,0:0:0:0:
64,192,25915,128,0,26748:0:0:0:0:
448,192,26081,1,8,0:0:0:0:
192,192,26415,1,8,0:0:0:0:
320,192,26748,128,8,27081:0:0:0:0:
448,192,27081,128,8,27415:0:0:0:0:
64,192,27415,128,8,27581:0:0:0:0:
320,192,27581,128,0,27748:0:0:0:0:
448,192,27748,128,8,27915:0:0:0:0:
192,192,27915,128,0,28081:0:0:0:0:
320,192,28081,128,8,28415:0:0:0:0:
64,192,28248,128,0,28415:0:0:0:0:
448,192,28415,1,8,0:0:0:0:
192,192,28581,128,0,29415:0:0:0:0:
320,192,28748,1,8,0:0:0:0:
64,192,29081,1,8,0:0:0:0:
448,192,29415,128,8,29748:0:0:0:0:
320,192,29748,128,8,30081:0:0:0:0:
192,192,30081,128,8,30248:0:0:0:0:
448,192,30248,128,0,30415:0:0:0:0:
64,192,30415,128,8,30581:0:0:0:0:
320,192,30581,128,0,30748:0:0:0:0:
448,192,30748,128,8,31081:0:0:0:0:
64,192,30915,128,0,31081:0:0:0:0:
192,192,31081,1,8,0:0:0:0:
320,192,31248,128,0,32081:0:0:0:0:
64,192,31415,1,8,0:0:0:0:
448,192,31748,1,8,0:0:0:0:
192,192,32081,1,8,0:0:0:0:
64,192,32248,128,0,32415:0:0:0:0:
448,192,32415,128,8,32581:0:0:0:0:
64,192,32581,128,0,32748:0:0:0:0:
320,192,32748,128,0,32915:0:0:0:0:
192,192,32915,128,0,33248:0:0:0:0:
448,192,33081,128,8,33248:0:0:0:0:
64,192,33248,128,0,33748:0:0:0:0:
192,192,33581,128,0,33748:0:0:0:0:
320,192,33748,1,8,0:0:0:0:
448,192,33915,128,0,34748:0:0:0:0:
64,192,34081,1,8,0:0:0:0:
192,192,34415,1,8,0:0:0:0:
320,192,34748,1,2,0:0:0:0:
64,192,34748,1,4,2:0:0:0:
192,192,34915,128,8,35081:0:0:0:0:
448,192,35081,1,8,0:0:0:0:
320,192,35248,128,8,35415:0:0:0:0:
64,192,35415,1,8,0:0:0:0:
192,192,35581,128,8,35748:0:0:0:0:
448,192,35748,128,8,35915:0:0:0:0:
64,192,35915,128,8,36081:0:0:0:0:
320,192,36081,1,8,0:0:0:0:
448,192,36248,128,8,36415:0:0:0:0:
192,192,36415,128,8,36581:0:0:0:0:
320,192,36581,128,8,36748:0:0:0:0:
64,192,36748,128,8,36915:0:0:0:0:
448,192,36915,128,8,37081:0:0:0:0:
320,192,37081,128,8,37248:0:0:0:0:
64,192,37248,1,8,0:0:0:0:
192,192,37415,128,8,37581:0:0:0:0:
448,192,37581,128,8,37748:0:0:0:0:
64,192,37748,1,8,0:0:0:0:
320,192,37915,128,8,38081:0:0:0:0:
192,192,38081,1,8,0:0:0:0:
64,192,38248,128,8,38415:0:0:0:0:
448,192,38415,128,8,38581:0:0:0:0:
192,192,38581,128,8,38748:0:0:0:0:
320,192,38748,1,8,0:0:0:0:
448,192,38915,128,8,39081:0:0:0:0:
192,192,39081,128,8,39248:0:0:0:0:
320,192,39248,128,8,39415:0:0:0:0:
64,192,39415,128,8,39581:0:0:0:0:
448,192,39581,128,8,39748:0:0:0:0:
192,192,39748,128,8,39915:0:0:0:0:
320,192,39915,1,8,0:0:0:0:
64,192,40081,1,8,0:0:0:0:
192,192,40081,1,2,0:0:0:0:
320,192,40248,1,8,0:0:0:0:
448,192,40415,1,8,0:0:0:0:
64,192,40581,1,8,0:0:0:0:
192,192,40748,1,8,0:0:0:0:
320,192,40915,1,8,0:0:0:0:
448,192,41081,1,8,0:0:0:0:
64,192,41248,1,8,0:0:0:0:
320,192,41415,1,2,0:0:0:0:
448,192,41415,1,8,0:0:0:0:
192,192,41581,1,8,0:0:0:0:
320,192,41748,1,8,0:0:0:0:
192,192,41915,1,8,0:0:0:0:
448,192,42081,1,8,0:0:0:0:
64,192,42248,1,8,0:0:0:0:
448,192,42415,1,8,0:0:0:0:
64,192,42581,1,8,0:0:0:0:
448,192,42748,1,2,0:0:0:0:
320,192,42748,1,8,0:0:0:0:
192,192,42915,1,8,0:0:0:0:
320,192,43081,1,8,0:0:0:0:
448,192,43248,1,8,0:0:0:0:
192,192,43415,1,8,0:0:0:0:
64,192,43415,1,2,0:0:0:0:
320,192,43581,1,8,0:0:0:0:
192,192,43748,1,8,0:0:0:0:
64,192,43915,1,8,0:0:0:0:
320,192,44081,128,0,44248:0:0:0:0:
192,192,44248,128,0,44581:0:0:0:0:
448,192,44415,128,0,44748:0:0:0:0:
64,192,44581,128,0,44748:0:0:0:0:
320,192,44748,128,0,44915:0:0:0:0:
192,192,44915,1,0,0:0:0:0:
448,192,45081,1,8,0:0:0:0:
64,192,45081,1,4,0:0:0:0:
320,192,45415,1,4,0:2:0:0:
192,192,45415,128,2,45581:0:0:0:0:
448,192,45581,128,0,45748:0:0:0:0:
448,192,45915,128,0,46081:0:0:0:0:
64,192,46248,128,0,46415:0:0:0:0:
192,192,46415,128,8,46581:0:0:0:0:
320,192,46581,128,0,46748:0:0:0:0:
192,192,46915,128,0,47081:0:0:0:0:
448,192,47081,128,8,47248:0:0:0:0:
320,192,47248,128,0,47415:0:0:0:0:
64,192,47415,128,2,47581:0:0:0:0:
192,192,47581,128,0,47748:0:0:0:0:
448,192,47748,128,8,47915:0:0:0:0:
64,192,47915,1,0,0:0:0:0:
320,192,48081,128,2,48248:0:0:0:0:
192,192,48248,128,0,48415:0:0:0:0:
192,192,48581,128,0,48748:0:0:0:0:
448,192,48915,128,0,49081:0:0:0:0:
320,192,49081,128,8,49248:0:0:0:0:
192,192,49248,128,0,49415:0:0:0:0:
448,192,49415,128,2,49748:0:0:0:0:
320,192,49581,128,0,49748:0:0:0:0:
64,192,49748,128,8,50081:0:0:0:0:
192,192,49915,128,0,50081:0:0:0:0:
448,192,50081,128,2,50415:0:0:0:0:
64,192,50415,128,8,50748:0:0:0:0:
320,192,50415,128,2,50581:0:0:0:0:
448,192,50748,1,4,2:0:0:0:
192,192,50748,1,2,0:0:0:0:
448,192,51081,128,2,51248:0:0:0:0:
192,192,51248,1,0,0:0:0:0:
64,192,51415,128,2,51581:0:0:0:0:
320,192,51581,1,0,0:0:0:0:
192,192,51748,128,2,51915:0:0:0:0:
448,192,51915,1,0,0:0:0:0:
64,192,52081,1,2,0:0:0:0:
64,192,52248,1,0,0:0:0:0:
320,192,52415,128,2,52581:0:0:0:0:
192,192,52581,1,0,0:0:0:0:
448,192,52748,1,2,0:0:0:0:
320,192,52915,1,0,0:0:0:0:
192,192,53081,1,2,0:0:0:0:
448,192,53415,1,2,0:0:0:0:
64,192,53748,128,2,53915:0:0:0:0:
320,192,53915,1,0,0:0:0:0:
448,192,54081,128,2,54248:0:0:0:0:
192,192,54248,1,0,0:0:0:0:
320,192,54415,128,2,54581:0:0:0:0:
64,192,54581,1,0,0:0:0:0:
448,192,54748,1,2,0:0:0:0:
192,192,54748,128,0,54915:0:0:0:0:
448,192,54915,1,0,0:0:0:0:
320,192,55081,128,2,55248:0:0:0:0:
192,192,55248,1,0,0:0:0:0:
64,192,55415,128,2,55748:0:0:0:0:
448,192,55581,128,0,55748:0:0:0:0:
192,192,55748,1,4,0:0:0:0:
320,192,55748,1,8,0:0:0:0:
448,192,56081,1,4,2:0:0:0:
64,192,56081,1,2,0:0:0:0:
192,192,56331,1,2,0:0:0:0:
448,192,56415,1,2,0:0:0:0:
320,192,56581,1,2,0:0:0:0:
64,192,56748,1,0,0:0:0:0:
320,192,56915,128,2,57081:0:0:0:0:
192,192,57081,1,8,0:0:0:0:
64,192,57081,1,0,0:0:0:0:
448,192,57248,128,0,57415:0:0:0:0:
64,192,57415,1,2,0:0:0:0:
320,192,57498,1,2,0:0:0:0:
192,192,57665,1,2,0:0:0:0:
448,192,57748,1,2,0:0:0:0:
64,192,57915,1,2,0:0:0:0:
320,192,58248,128,2,58415:0:0:0:0:
64,192,58415,1,8,0:0:0:0:
448,192,58415,1,0,0:0:0:0:
192,192,58581,128,0,58748:0:0:0:0:
320,192,58748,1,2,0:0:0:0:
64,192,58998,1,2,0:0:0:0:
448,192,59081,1,2,0:0:0:0:
192,192,59248,1,2,0:0:0:0:
320,192,59581,128,2,59748:0:0:0:0:
192,192,59748,1,8,0:0:0:0:
448,192,59748,1,0,0:0:0:0:
64,192,59915,128,0,60081:0:0:0:0:
320,192,60081,1,2,0:0:0:0:
192,192,60331,1,2,0:0:0:0:
448,192,60415,128,2,60581:0:0:0:0:
64,192,60581,1,2,0:0:0:0:
192,192,60748,128,0,61081:0:0:0:0:
320,192,60915,128,2,61081:0:0:0:0:
448,192,61081,1,4,0:0:0:0:
64,192,61081,1,8,0:0:0:0:
192,192,61415,128,4,62081:2:0:0:0:
448,192,62081,1,2,0:0:0:0:
448,192,62248,1,0,0:0:0:0:
64,192,62415,1,0,0:0:0:0:
64,192,62581,1,0,0:0:0:0:
320,192,62748,128,2,63415:0:0:0:0:
64,192,63081,128,2,63415:0:0:0:0:
448,192,63415,128,8,63581:0:0:0:0:
192,192,63581,128,0,63748:0:0:0:0:
448,192,63748,128,0,63915:0:0:0:0:
192,192,63915,128,0,64081:0:0:0:0:
64,192,64081,128,2,64748:0:0:0:0:
320,192,64415,128,2,64748:0:0:0:0:
448,192,64748,128,8,64915:0:0:0:0:
320,192,64915,128,0,65081:0:0:0:0:
192,192,65081,128,0,65248:0:0:0:0:
64,192,65248,128,0,65415:0:0:0:0:
448,192,65415,1,4,0:0:0:0:
320,192,65415,128,0,65581:0:0:0:0:
192,192,65581,1,2,0:0:0:0:
448,192,65748,1,4,0:0:0:0:
320,192,65748,128,0,65915:0:0:0:0:
64,192,65915,1,2,0:0:0:0:
448,192,66081,1,4,0:0:0:0:
320,192,66081,128,0,66248:0:0:0:0:
192,192,66248,1,2,0:0:0:0:
448,192,66415,1,4,0:0:0:0:
64,192,66415,128,0,66748:0:0:0:0:
320,192,66748,1,4,2:0:0:0:
448,192,66748,128,0,66915:0:0:0:0:
192,192,67081,128,8,67248:0:0:0:0:
320,192,67415,128,2,67581:0:0:0:0:
64,192,67748,1,8,0:0:0:0:
448,192,67915,128,0,68248:0:0:0:0:
192,192,68248,128,0,68415:0:0:0:0:
320,192,68415,128,8,68581:0:0:0:0:
64,192,68581,128,0,68748:0:0:0:0:
448,192,68748,128,2,68915:0:0:0:0:
192,192,68915,128,0,69081:0:0:0:0:
320,192,69081,128,8,69415:0:0:0:0:
64,192,69248,128,0,69415:0:0:0:0:
448,192,69415,1,2,0:0:0:0:
192,192,69581,1,0,0:0:0:0:
192,192,69748,128,8,69915:0:0:0:0:
448,192,70081,128,2,70248:0:0:0:0:
64,192,70415,1,8,0:0:0:0:
320,192,70581,128,0,70915:0:0:0:0:
192,192,70915,128,0,71081:0:0:0:0:
448,192,71081,128,8,71248:0:0:0:0:
320,192,71248,128,0,71415:0:0:0:0:
64,192,71415,128,2,71581:0:0:0:0:
192,192,71581,128,0,71915:0:0:0:0:
448,192,71748,128,8,72081:0:0:0:0:
64,192,71915,128,0,72081:0:0:0:0:
320,192,72081,128,2,72248:0:0:0:0:
320,192,72415,128,8,72581:0:0:0:0:
64,192,72748,128,2,72915:0:0:0:0:
448,192,72915,128,0,73081:0:0:0:0:
192,192,73081,1,8,0:0:0:0:
320,192,73248,128,0,73415:0:0:0:0:
192,192,73415,128,2,73581:0:0:0:0:
448,192,73581,128,0,73748:0:0:0:0:
64,192,73748,128,0,73915:0:0:0:0:
192,192,73915,128,0,74081:0:0:0:0:
320,192,74081,128,2,74248:0:0:0:0:
64,192,74248,128,0,74415:0:0:0:0:
448,192,74415,128,8,74748:0:0:0:0:
192,192,74581,128,0,74748:0:0:0:0:
320,192,74748,1,2,0:0:0:0:
64,192,74915,1,0,0:0:0:0:
64,192,75081,128,8,75248:0:0:0:0:
192,192,75415,128,2,75581:0:0:0:0:
448,192,75748,1,8,0:0:0:0:
320,192,75915,128,0,76081:0:0:0:0:
64,192,76081,128,2,76248:0:0:0:0:
448,192,76248,128,0,76415:0:0:0:0:
192,192,76415,128,8,76581:0:0:0:0:
320,192,76581,128,0,76748:0:0:0:0:
448,192,76748,128,2,77081:0:0:0:0:
64,192,76915,128,0,77081:0:0:0:0:
320,192,77081,1,4,0:0:0:0:
192,192,77081,1,8,0:0:0:0:
64,192,77415,1,4,2:0:0:0:
448,192,77415,128,2,77581:0:0:0:0:
320,192,77748,128,8,77915:0:0:0:0:
192,192,78081,128,2,78248:0:0:0:0:
448,192,78415,1,8,0:0:0:0:
64,192,78581,128,0,78915:0:0:0:0:
320,192,78915,128,0,79081:0:0:0:0:
448,192,79081,128,8,79248:0:0:0:0:
192,192,79248,128,0,79415:0:0:0:0:
320,192,79415,128,2,79581:0:0:0:0:
64,192,79581,128,0,79748:0:0:0:0:
448,192,79748,128,8,80081:0:0:0:0:
192,192,79915,128,0,80081:0:0:0:0:
64,192,80081,1,2,0:0:0:0:
320,192,80248,1,0,0:0:0:0:
320,192,80415,128,8,80581:0:0:0:0:
64,192,80748,128,2,80915:0:0:0:0:
448,192,81081,1,8,0:0:0:0:
192,192,81248,128,0,81581:0:0:0:0:
320,192,81581,128,0,81748:0:0:0:0:
64,192,81748,128,8,81915:0:0:0:0:
448,192,81915,128,0,82081:0:0:0:0:
192,192,82081,128,2,82248:0:0:0:0:
64,192,82248,128,0,82581:0:0:0:0:
448,192,82415,128,8,82748:0:0:0:0:
320,192,82581,128,0,82748:0:0:0:0:
192,192,82748,128,2,82915:0:0:0:0:
192,192,83081,128,8,83248:0:0:0:0:
320,192,83415,128,2,83581:0:0:0:0:
64,192,83581,128,0,83748:0:0:0:0:
192,192,83748,1,8,0:0:0:0:
448,192,83915,128,0,84081:0:0:0:0:
320,192,84081,128,2,84248:0:0:0:0:
64,192,84248,128,0,84415:0:0:0:0:
192,192,84415,128,8,84581:0:0:0:0:
320,192,84581,128,0,84748:0:0:0:0:
64,192,84748,128,2,84915:0:0:0:0:
448,192,84915,128,0,85081:0:0:0:0:
192,192,85081,128,8,85415:0:0:0:0:
320,192,85248,128,0,85415:0:0:0:0:
64,192,85415,1,2,0:0:0:0:
448,192,85581,1,0,0:0:0:0:
448,192,85748,128,8,85915:0:0:0:0:
64,192,85915,128,0,86748:0:0:0:0:
320,192,86081,128,2,86248:0:0:0:0:
448,192,86415,1,8,0:0:0:0:
192,192,86581,128,0,86748:0:0:0:0:
320,192,86748,1,2,0:0:0:0:
448,192,86748,128,4,87748:2:0:0:0:
320,192,87415,128,0,87748:0:0:0:0:
64,192,87748,1,8,0:0:0:0:
192,192,87748,1,4,0:0:0:0:
192,192,88081,128,2,88415:0:0:0:0:
320,192,88415,128,8,88748:0:0:0:0:
64,192,88748,128,2,88915:0:0:0:0:
448,192,88915,128,0,89081:0:0:0:0:
192,192,89081,128,8,89248:0:0:0:0:
64,192,89248,128,0,89415:0:0:0:0:
320,192,89415,128,2,89748:0:0:0:0:
448,192,89581,128,0,89748:0:0:0:0:
192,192,89748,1,8,0:0:0:0:
64,192,89915,128,0,90748:0:0:0:0:
320,192,90081,1,2,0:0:0:0:
320,192,90415,1,8,0:0:0:0:
448,192,90748,128,2,91081:0:0:0:0:
320,192,91081,128,8,91415:0:0:0:0:
64,192,91415,128,2,91581:0:0:0:0:
192,192,91581,128,0,91748:0:0:0:0:
448,192,91748,128,8,91915:0:0:0:0:
320,192,91915,128,0,92081:0:0:0:0:
64,192,92081,128,2,92415:0:0:0:0:
448,192,92248,128,0,92415:0:0:0:0:
320,192,92415,1,8,0:0:0:0:
192,192,92581,128,0,93415:0:0:0:0:
448,192,92748,1,2,0:0:0:0:
448,192,93081,1,8,0:0:0:0:
320,192,93415,128,2,93748:0:0:0:0:
64,192,93748,128,8,94081:0:0:0:0:
448,192,94081,128,2,94248:0:0:0:0:
192,192,94248,128,0,94415:0:0:0:0:
320,192,94415,128,8,94581:0:0:0:0:
64,192,94581,128,0,94748:0:0:0:0:
448,192,94748,128,2,95081:0:0:0:0:
192,192,94915,128,0,95081:0:0:0:0:
64,192,95081,1,8,0:0:0:0:
320,192,95248,128,0,96081:0:0:0:0:
192,192,95415,1,2,0:0:0:0:
192,192,95748,1,8,0:0:0:0:
64,192,96081,1,2,0:0:0:0:
448,192,96248,128,0,96415:0:0:0:0:
192,192,96415,128,8,96581:0:0:0:0:
448,192,96581,128,0,96748:0:0:0:0:
64,192,96748,128,2,96915:0:0:0:0:
320,192,96915,128,0,97248:0:0:0:0:
448,192,97081,128,8,97248:0:0:0:0:
192,192,97248,128,0,97748:0:0:0:0:
448,192,97581,128,0,97748:0:0:0:0:
64,192,97748,1,8,0:0:0:0:
320,192,97915,128,0,98415:0:0:0:0:
192,192,98081,1,2,0:0:0:0:
448,192,98415,1,8,0:0:0:0:
64,192,98415,1,4,0:0:0:0:
192,192,98748,1,8,0:0:0:0:
448,192,98748,1,2,0:2:0:0:
64,192,98915,1,8,0:0:0:0:
320,192,99081,1,8,0:0:0:0:
192,192,99248,1,8,0:0:0:0:
448,192,99415,1,8,0:0:0:0:
64,192,99581,1,8,0:0:0:0:
320,192,99748,1,8,0:0:0:0:
192,192,99915,1,8,0:0:0:0:
64,192,100081,1,8,0:0:0:0:
448,192,100248,1,8,0:0:0:0:
192,192,100415,1,8,0:0:0:0:
320,192,100581,1,8,0:0:0:0:
64,192,100748,128,8,100915:0:0:0:0:
448,192,100915,1,8,0:0:0:0:
192,192,101081,128,8,101248:0:0:0:0:
320,192,101248,1,8,0:0:0:0:
448,192,101415,1,8,0:0:0:0:
64,192,101415,1,2,0:0:0:0:
192,192,101581,1,8,0:0:0:0:
64,192,101748,1,8,0:0:0:0:
448,192,101915,1,8,0:0:0:0:
320,192,102081,1,8,0:0:0:0:
192,192,102248,1,8,0:0:0:0:
448,192,102415,1,8,0:0:0:0:
64,192,102581,1,8,0:0:0:0:
192,192,102748,1,8,0:0:0:0:
320,192,102915,1,8,0:0:0:0:
64,192,103081,1,8,0:0:0:0:
320,192,103248,1,8,0:0:0:0:
192,192,103415,128,8,103581:0:0:0:0:
448,192,103581,1,8,0:0:0:0:
64,192,103748,128,8,103915:0:0:0:0:
320,192,103915,1,8,0:0:0:0:
192,192,104081,128,2,104415:0:0:0:0:
448,192,104081,128,8,104748:0:0:0:0:
64,192,104415,128,8,104748:0:0:0:0:
320,192,104748,128,8,104915:0:0:0:0:
192,192,104915,128,8,105081:0:0:0:0:
448,192,105081,128,8,105248:0:0:0:0:
64,192,105248,128,8,105415:0:0:0:0:
320,192,105415,128,2,105581:0:0:0:0:
192,192,105415,128,8,105581:0:0:0:0:
448,192,105581,128,8,105748:0:0:0:0:
64,192,105915,128,8,106748:0:0:0:0:
320,192,106748,128,2,106915:0:0:0:0:
448,192,106748,128,8,106915:0:0:0:0:
192,192,106915,128,8,107081:0:0:0:0:
448,192,107081,128,8,107248:0:0:0:0:
64,192,107248,128,8,107415:0:0:0:0:
320,192,107415,128,2,107581:0:0:0:0:
192,192,107415,128,8,107581:0:0:0:0:
448,192,107581,128,8,107748:0:0:0:0:
64,192,107748,128,8,107915:0:0:0:0:
320,192,107915,128,8,108081:0:0:0:0:
192,192,108081,128,2,108248:0:0:0:0:
64,192,108081,128,8,109081:0:0:0:0:
448,192,108248,128,8,108415:0:0:0:0:
320,192,108581,128,8,109081:0:0:0:0:
448,192,109081,1,8,0:0:0:0:
192,192,109081,1,4,0:0:0:0:
64,192,109415,1,4,0:2:0:0:
320,192,109415,1,2,0:0:0:0:
