osu file format v14

[General]
AudioFilename: Chocograv.mp3
AudioLeadIn: 0
PreviewTime: 44583
Countdown: 0
SampleSet: Normal
StackLeniency: 0.7
Mode: 0
LetterboxInBreaks: 0
WidescreenStoryboard: 0

[Editor]
DistanceSpacing: 0.7
BeatDivisor: 4
GridSize: 4
TimelineZoom: 1.4

[Metadata]
Title:Chocolate Gravity
TitleUnicode:チョコレートグラビティ
Artist:Nanahira
ArtistUnicode:ななひら
Creator:Alonevpk
Version:I want to hug a Nanahira
Source:
Tags:cute KiraKira*Fraulein Harunaba
BeatmapID:1329478
BeatmapSetID:629782

[Difficulty]
HPDrainRate:7
CircleSize:4
OverallDifficulty:8.5
ApproachRate:9.5
SliderMultiplier:1.9
SliderTickRate:1

[Events]
//Background and Video events
0,0,"made one.png",0,0
//Break Periods
2,128918,144237
2,179981,186364
2,192947,197328
//Storyboard Layer 0 (Background)
//Storyboard Layer 1 (Fail)
//Storyboard Layer 2 (Pass)
//Storyboard Layer 3 (Foreground)
//Storyboard Sound Samples

[TimingPoints]
1100,319.148936170213,4,1,0,65,1,0
31419,319.148936170213,4,1,0,65,1,0
31658,319.148936170213,4,1,0,65,1,0
31897,319.148936170213,4,1,0,65,1,0
44662,-100,4,1,0,65,0,1
67482,-100,4,1,0,65,0,0
87588,319.148936170213,4,1,0,65,1,0
87827,319.148936170213,4,1,0,65,1,0
88067,319.148936170213,4,1,0,65,1,0
100832,-100,4,1,0,65,0,1
123652,-100,4,1,0,65,0,0
144875,-166.666666666667,4,1,0,65,0,0
147747,-125,4,1,0,65,0,0
148067,-100,4,1,0,65,0,0
164184,319.148936170213,4,1,0,65,1,0
164423,319.148936170213,4,1,0,65,1,0
164662,319.148936170213,4,1,0,65,1,0
177427,-100,4,1,0,65,0,1
177507,-100,4,1,0,65,0,0
187640,-111.111111111111,4,1,0,65,0,0
192747,-125,4,1,0,65,0,0
200406,-100,4,1,0,65,0,1
223225,-100,4,1,0,65,0,0
241098,-111.111111111111,4,1,0,65,0,0

[Colours]
Combo1 : 251,181,77
Combo2 : 130,214,67
Combo3 : 89,162,251
Combo4 : 247,98,120

[HitObjects]
440,72,1100,6,0,B|468:232|352:180|392:344,1,285
391,341,1897,1,0,0:0:0:0:
429,268,2057,1,0,0:0:0:0:
373,209,2217,1,0,0:0:0:0:
299,246,2376,1,0,0:0:0:0:
311,327,2536,1,0,0:0:0:0:
429,268,2695,1,0,0:0:0:0:
429,268,2775,1,0,0:0:0:0:
429,268,2855,1,0,0:0:0:0:
299,246,3014,2,0,L|288:312,1,47.5
280,372,3174,1,0,0:0:0:0:
180,288,3334,1,0,0:0:0:0:
156,288,3413,1,0,0:0:0:0:
132,296,3493,1,0,0:0:0:0:
48,360,3653,6,0,B|40:264|40:264|72:216|72:216|56:80,1,285
152,137,4291,2,0,L|200:132,1,47.5
292,120,4451,1,0,0:0:0:0:
315,117,4530,1,0,0:0:0:0:
339,114,4610,1,0,0:0:0:0:
188,40,4770,1,0,0:0:0:0:
220,236,4929,1,0,0:0:0:0:
364,112,5089,1,0,0:0:0:0:
176,168,5248,1,0,0:0:0:0:
174,156,5327,1,0,0:0:0:0:
172,144,5407,1,0,0:0:0:0:
170,132,5487,1,0,0:0:0:0:
168,120,5568,2,0,P|196:116|224:96,1,47.5
284,36,5727,1,0,0:0:0:0:
112,28,5887,1,0,0:0:0:0:
284,36,6046,1,0,0:0:0:0:
16,80,6206,6,0,P|8:132|184:176,1,285
104,120,6844,1,0,0:0:0:0:
36,172,7004,1,0,0:0:0:0:
52,256,7163,1,0,0:0:0:0:
168,300,7323,1,0,0:0:0:0:
256,192,7482,1,0,0:0:0:0:
52,256,7642,1,0,0:0:0:0:
192,336,7802,1,0,0:0:0:0:
207,338,7881,1,0,0:0:0:0:
223,340,7961,1,0,0:0:0:0:
238,343,8041,1,0,0:0:0:0:
254,345,8121,1,0,0:0:0:0:
270,348,8200,1,0,0:0:0:0:
285,350,8280,2,0,P|280:308|304:232,1,95
312,228,8520,1,0,0:0:0:0:
312,228,8600,1,0,0:0:0:0:
464,352,8759,6,0,P|492:292|424:160,1,190
372,308,9238,1,0,0:0:0:0:
292,180,9397,2,0,L|288:236,1,47.5
260,312,9557,1,0,0:0:0:0:
237,319,9636,1,0,0:0:0:0:
213,319,9716,1,0,0:0:0:0:
191,312,9796,1,0,0:0:0:0:
171,299,9876,1,0,0:0:0:0:
196,128,10036,5,0,0:0:0:0:
136,184,10195,1,0,0:0:0:0:
117,104,10355,1,0,0:0:0:0:
264,72,10514,1,0,0:0:0:0:
220,224,10674,1,0,0:0:0:0:
117,104,10834,1,0,0:0:0:0:
308,176,10993,1,0,0:0:0:0:
40,348,11312,6,0,P|40:296|36:240,1,95
88,80,11631,1,0,0:0:0:0:
16,152,11791,1,0,0:0:0:0:
128,252,11951,2,0,L|188:248,1,47.5
256,240,12110,1,0,0:0:0:0:
279,238,12189,1,0,0:0:0:0:
303,236,12269,1,0,0:0:0:0:
176,348,12429,1,0,0:0:0:0:
368,336,12589,2,0,L|372:272,1,47.5
376,196,12748,1,0,0:0:0:0:
224,88,12908,2,0,P|236:128|292:160,1,95
428,68,13227,2,0,P|444:88|448:144,1,47.5
392,180,13387,2,0,P|376:200|372:256,1,47.5
408,316,13546,1,0,0:0:0:0:
408,316,13626,1,0,0:0:0:0:
408,316,13706,1,0,0:0:0:0:
232,216,13865,6,0,P|256:212|288:184,1,47.5
320,120,14025,1,0,0:0:0:0:
140,80,14185,2,0,P|148:127|152:180,1,95
88,352,14504,1,0,0:0:0:0:
83,328,14583,1,0,0:0:0:0:
79,305,14663,1,0,0:0:0:0:
77,281,14743,1,0,0:0:0:0:
76,257,14823,1,0,0:0:0:0:
220,324,14982,1,0,0:0:0:0:
24,196,15142,2,0,L|88:200,1,47.5
200,240,15302,1,0,0:0:0:0:
100,112,15461,2,0,P|96:64|104:4,1,95
226,152,15780,2,0,L|180:160,1,47.5
24,196,15940,2,0,L|88:200,1,47.5
200,240,16100,1,0,0:0:0:0:
48,112,16259,1,0,0:0:0:0:
272,72,16419,5,0,0:0:0:0:
272,72,16498,1,0,0:0:0:0:
272,72,16578,1,0,0:0:0:0:
352,156,16738,2,0,P|364:188|360:248,1,95
332,352,17057,1,0,0:0:0:0:
364,338,17136,1,0,0:0:0:0:
400,334,17216,1,0,0:0:0:0:
434,341,17296,1,0,0:0:0:0:
466,358,17376,1,0,0:0:0:0:
496,220,17536,1,0,0:0:0:0:
372,280,17695,2,0,L|316:272,1,47.5
240,256,17855,1,0,0:0:0:0:
452,120,18014,2,0,P|440:168|432:228,1,95
312,64,18334,1,0,0:0:0:0:
344,60,18413,1,0,0:0:0:0:
376,48,18493,1,0,0:0:0:0:
208,96,18653,2,0,P|204:120|208:160,1,47.5
336,212,18812,1,0,0:0:0:0:
172,264,18972,6,0,P|148:260|108:264,1,47.5
52,148,19131,2,0,P|48:172|52:212,1,47.5
84,352,19291,1,0,0:0:0:0:
152,168,19451,1,0,0:0:0:0:
16,64,19610,1,0,0:0:0:0:
128,88,19770,1,0,0:0:0:0:
220,24,19929,1,0,0:0:0:0:
52,148,20089,1,0,0:0:0:0:
220,196,20248,2,0,P|204:224|192:264,1,47.5
128,324,20408,1,0,0:0:0:0:
340,352,20568,5,0,0:0:0:0:
144,316,20727,1,0,0:0:0:0:
384,328,20887,1,0,0:0:0:0:
203,242,21046,1,0,0:0:0:0:
436,324,21206,1,0,0:0:0:0:
318,152,21365,1,0,0:0:0:0:
488,268,21525,6,0,L|484:364,1,95
318,152,21844,2,0,L|322:56,1,95
458,151,22163,2,0,P|434:151|412:144,1,47.5
345,189,22323,2,0,P|328:172|317:151,1,47.5
238,135,22482,1,0,0:0:0:0:
238,111,22561,1,0,0:0:0:0:
245,88,22641,1,0,0:0:0:0:
180,252,22802,2,0,L|188:316,1,47.5
104,188,22961,1,0,0:0:0:0:
272,284,23121,2,0,P|316:276|360:236,1,95
238,135,23440,1,0,0:0:0:0:
249,155,23520,1,0,0:0:0:0:
265,172,23599,1,0,0:0:0:0:
392,88,23759,2,0,P|373:107|350:159,1,47.5
360,264,23919,1,0,0:0:0:0:
496,188,24078,5,0,0:0:0:0:
464,184,24158,1,0,0:0:0:0:
432,180,24238,1,0,0:0:0:0:
348,352,24397,1,0,0:0:0:0:
456,328,24557,1,0,0:0:0:0:
240,328,24717,1,0,0:0:0:0:
348,352,24877,1,0,0:0:0:0:
140,368,25036,2,0,P|140:320|132:260,1,95
228,160,25355,2,0,P|205:168|182:171,1,47.5
51,196,25515,1,0,0:0:0:0:
184,72,25674,1,0,0:0:0:0:
134,273,25834,1,0,0:0:0:0:
28,120,25993,1,0,0:0:0:0:
23,97,26072,1,0,0:0:0:0:
20,73,26152,1,0,0:0:0:0:
19,50,26232,1,0,0:0:0:0:
21,27,26312,1,0,0:0:0:0:
160,148,26472,1,0,0:0:0:0:
16,248,26631,6,0,P|36:264|92:284,1,47.5
176,304,26791,1,0,0:0:0:0:
268,148,26951,2,0,L|260:36,1,95
144,156,27270,2,0,P|172:160|212:128,1,47.5
392,60,27429,2,0,P|364:56|324:88,1,47.5
264,244,27589,2,0,L|272:356,1,95
472,204,27908,2,0,P|436:208|408:232,1,47.5
356,292,28068,1,0,0:0:0:0:
328,80,28227,2,0,P|368:81|415:130,1,95
236,220,28546,1,0,0:0:0:0:
216,196,28626,1,0,0:0:0:0:
208,164,28706,1,0,0:0:0:0:
176,332,28865,2,0,L|112:336,1,47.5
24,340,29025,1,0,0:0:0:0:
296,264,29185,6,0,P|312:288|304:364,1,95
200,256,29424,1,0,0:0:0:0:
176,232,29504,2,0,P|160:208|168:132,1,95
272,60,29823,1,0,0:0:0:0:
88,40,29982,1,0,0:0:0:0:
68,224,30142,1,0,0:0:0:0:
88,40,30301,1,0,0:0:0:0:
280,144,30461,2,0,P|312:136|344:100,1,47.5
388,40,30621,1,0,0:0:0:0:
440,260,30780,2,0,P|428:208|448:148,1,95
352,216,31020,1,0,0:0:0:0:
339,244,31100,2,0,P|293:236|248:248,1,95
268,332,31339,1,0,0:0:0:0:
296,332,31419,6,0,P|352:264|348:216,1,95
114,156,31658,6,0,P|145:239|189:259,1,95
304,152,31897,6,0,L|317:57,1,95
444,272,32216,2,0,L|457:177,1,95
148,196,32535,2,0,L|161:101,1,95
296,356,32854,1,0,0:0:0:0:
308,256,33014,2,0,L|264:280,1,47.5
40,336,33173,6,0,L|160:352,1,95
36,112,33492,2,0,L|156:128,1,95
368,36,33811,2,0,L|488:52,1,95
324,120,34051,1,0,0:0:0:0:
324,120,34131,2,0,L|444:136,1,95
280,204,34370,1,0,0:0:0:0:
280,204,34450,6,0,P|252:184|232:112,1,95
404,316,34769,2,0,P|432:296|452:224,1,95
112,256,35088,2,0,P|84:236|64:164,1,95
320,124,35407,1,0,0:0:0:0:
152,72,35567,2,0,P|140:92|140:156,1,47.5
216,248,35726,6,0,P|252:244|300:192,1,95
164,42,36045,2,0,P|149:75|170:142,1,95
368,100,36365,2,0,P|346:70|277:55,1,95
104,272,36684,1,0,0:0:0:0:
104,272,36764,1,0,0:0:0:0:
104,272,36843,1,0,0:0:0:0:
104,272,36923,1,0,0:0:0:0:
104,272,37003,6,0,B|144:300|144:300|212:296,1,95
248,100,37322,2,0,B|203:120|203:120|173:181,1,95
324,310,37641,2,0,B|329:261|329:261|291:204,1,95
276,200,37881,1,0,0:0:0:0:
276,200,37960,1,0,0:0:0:0:
192,352,38120,2,0,L|256:348,1,47.5
408,352,38279,2,0,B|432:284|432:284|405:218,1,142.5
356,192,38599,2,0,B|329:126|329:126|353:58,1,142.5
404,44,38918,1,0,0:0:0:0:
382,77,38997,1,0,0:0:0:0:
351,100,39077,1,0,0:0:0:0:
313,111,39157,1,0,0:0:0:0:
274,108,39237,1,0,0:0:0:0:
238,92,39316,1,0,0:0:0:0:
210,64,39397,6,0,P|171:43|99:59,1,95
152,152,39716,1,0,0:0:0:0:
152,152,39795,1,0,0:0:0:0:
152,152,39875,2,0,P|110:165|70:227,1,95
172,256,40194,1,0,0:0:0:0:
172,256,40274,1,0,0:0:0:0:
172,256,40354,1,0,0:0:0:0:
160,352,40514,1,0,0:0:0:0:
195,354,40593,1,0,0:0:0:0:
228,341,40673,1,0,0:0:0:0:
252,315,40753,1,0,0:0:0:0:
262,281,40833,1,0,0:0:0:0:
120,120,40992,1,0,0:0:0:0:
108,156,41072,1,0,0:0:0:0:
112,192,41152,1,0,0:0:0:0:
256,84,41311,1,0,0:0:0:0:
68,24,41471,1,0,0:0:0:0:
140,224,41631,1,0,0:0:0:0:
300,108,41790,1,0,0:0:0:0:
40,116,41950,6,0,P|76:60|192:44,1,190
148,144,42428,1,0,0:0:0:0:
264,184,42588,1,0,0:0:0:0:
284,216,42668,1,0,0:0:0:0:
288,252,42748,1,0,0:0:0:0:
160,360,42907,2,0,P|152:337|152:313,1,47.5
188,232,43067,1,0,0:0:0:0:
368,332,43226,1,0,0:0:0:0:
248,368,43386,2,0,L|284:184,1,142.5
292,160,43705,1,0,0:0:0:0:
376,264,43865,1,0,0:0:0:0:
172,316,44024,1,0,0:0:0:0:
308,76,44184,6,0,L|372:88,1,47.5
484,148,44343,2,0,L|420:160,1,47.5
288,204,44503,2,0,L|352:216,1,47.5
480,296,44662,6,0,B|408:304|408:304|380:336|380:336|284:348,2,190
256,280,45460,1,0,0:0:0:0:
464,208,45620,2,0,P|486:166|484:119,1,95
279,30,45939,2,0,P|300:118|388:139,2,190
368,52,46737,1,0,0:0:0:0:
184,152,46897,2,0,L|84:132,1,95
196,340,47216,2,0,B|163:292|122:281|122:281|83:309|23:307,2,190
49,210,48014,1,0,0:0:0:0:
248,248,48173,2,0,P|288:252|344:220,1,95
368,72,48492,5,0,0:0:0:0:
240,132,48652,2,0,L|307:142,1,47.5
415,162,48811,1,0,0:0:0:0:
376,16,48971,2,0,L|366:83,1,47.5
340,224,49131,1,0,0:0:0:0:
500,84,49290,2,0,L|433:74,1,47.5
280,116,49450,1,0,0:0:0:0:
256,120,49529,1,0,0:0:0:0:
233,116,49609,1,0,0:0:0:0:
212,105,49689,1,0,0:0:0:0:
196,88,49769,6,0,P|128:80|56:152,1,142.5
16,188,50088,2,0,P|44:225|48:271,1,95
144,352,50407,2,0,L|140:292,1,47.5
152,176,50567,1,0,0:0:0:0:
236,324,50726,1,0,0:0:0:0:
384,240,50886,1,0,0:0:0:0:
252,112,51045,6,0,P|244:144|252:216,1,95
256,232,51285,1,0,0:0:0:0:
268,256,51365,1,0,0:0:0:0:
448,60,51524,2,0,L|332:48,1,95
179,104,51843,1,0,0:0:0:0:
215,108,51922,1,0,0:0:0:0:
252,112,52002,1,0,0:0:0:0:
76,92,52162,1,0,0:0:0:0:
188,272,52322,6,0,P|200:248|208:200,1,47.5
179,104,52482,1,0,0:0:0:0:
172,76,52561,1,0,0:0:0:0:
160,52,52641,2,0,P|144:84|132:172,1,95
228,336,52960,1,0,0:0:0:0:
252,160,53120,1,0,0:0:0:0:
168,260,53279,1,0,0:0:0:0:
356,356,53439,6,0,P|408:336|484:348,1,95
504,280,53678,1,0,0:0:0:0:
488,256,53758,2,0,P|442:223|366:215,1,95
332,184,53997,1,0,0:0:0:0:
341,156,54077,2,0,P|376:112|447:85,1,95
484,64,54317,1,0,0:0:0:0:
508,52,54397,2,0,L|380:36,1,95
216,96,54716,1,0,0:0:0:0:
216,96,54795,1,0,0:0:0:0:
216,96,54875,6,0,B|186:112|160:108|160:108|104:52|24:80,2,190
76,184,55673,1,0,0:0:0:0:
236,220,55833,2,0,L|340:212,1,95
80,280,56152,2,0,B|180:256|160:336|258:313,2,190
108,376,56950,1,0,0:0:0:0:
348,272,57109,2,0,P|356:220|344:156,1,95
223,33,57428,2,0,B|216:72|236:104|236:104|300:120|345:80,2,190
96,76,58226,1,0,0:0:0:0:
96,76,58306,1,0,0:0:0:0:
96,76,58386,2,0,P|104:112|100:192,1,95
36,296,58705,6,0,P|92:280|156:360,1,142.5
180,360,59024,2,0,P|200:344|252:340,1,47.5
288,256,59184,1,0,0:0:0:0:
328,260,59264,1,0,0:0:0:0:
356,288,59343,1,0,0:0:0:0:
368,324,59423,1,0,0:0:0:0:
400,348,59503,1,0,0:0:0:0:
440,348,59583,1,0,0:0:0:0:
472,332,59662,1,0,0:0:0:0:
436,204,59822,1,0,0:0:0:0:
484,80,59982,6,0,P|440:96|376:76,1,95
332,44,60221,2,0,P|285:35|241:51,1,95
204,120,60460,1,0,0:0:0:0:
92,208,60620,2,0,P|96:144|80:40,1,142.5
60,24,60939,1,0,0:0:0:0:
188,136,61099,6,0,L|288:120,1,95
104,232,61418,2,0,L|4:216,1,95
228,256,61737,1,0,0:0:0:0:
52,352,61897,2,0,B|112:356|152:316|152:316|232:348,1,190
368,272,62375,1,0,0:0:0:0:
368,272,62455,1,0,0:0:0:0:
368,272,62535,1,0,0:0:0:0:
316,368,62694,6,0,L|296:300,1,47.5
268,216,62854,1,0,0:0:0:0:
464,256,63014,1,0,0:0:0:0:
364,136,63173,2,0,L|352:236,1,95
448,352,63492,1,0,0:0:0:0:
288,344,63652,2,0,P|310:336|328:321,1,47.5
448,220,63811,6,0,P|440:192|372:140,1,95
384,68,64051,2,0,P|354:66|284:115,1,95
219,81,64290,2,0,P|209:108|233:190,2,95
219,81,64769,1,0,0:0:0:0:
264,256,64928,1,0,0:0:0:0:
264,256,65008,1,0,0:0:0:0:
264,256,65088,6,0,P|216:248|168:272,1,95
52,308,65407,2,0,P|82:270|86:216,1,95
4,116,65726,2,0,P|60:132|124:96,1,95
124,104,65965,2,0,P|156:55|142:-16,1,95
68,32,66205,6,0,L|280:48,1,190
284,48,66604,1,0,0:0:0:0:
312,48,66684,2,0,P|336:36|384:40,1,47.5
416,112,66843,2,0,P|434:131|445:178,1,47.5
400,248,67003,1,0,0:0:0:0:
240,228,67162,1,0,0:0:0:0:
336,128,67322,1,0,0:0:0:0:
374,323,67482,6,0,B|268:308|292:372|192:360,1,190
92,308,67960,1,0,0:0:0:0:
208,212,68120,1,0,0:0:0:0:
212,240,68199,1,0,0:0:0:0:
216,268,68279,1,0,0:0:0:0:
76,212,68439,1,0,0:0:0:0:
72,184,68519,1,0,0:0:0:0:
68,156,68598,1,0,0:0:0:0:
188,80,68758,1,0,0:0:0:0:
208,212,68918,1,0,0:0:0:0:
52,56,69077,1,0,0:0:0:0:
52,56,69157,1,0,0:0:0:0:
52,56,69237,1,0,0:0:0:0:
72,184,69397,1,0,0:0:0:0:
184,108,69556,6,0,P|200:64|180:0,1,95
52,56,69875,1,0,0:0:0:0:
208,212,70035,2,0,P|260:216|356:108,1,190
316,32,70514,1,0,0:0:0:0:
244,104,70673,1,0,0:0:0:0:
476,48,70833,2,0,P|464:92|464:248,1,190
353,127,71311,1,0,0:0:0:0:
352,324,71471,2,0,L|452:340,1,95
484,348,71710,1,0,0:0:0:0:
484,348,71790,1,0,0:0:0:0:
312,240,71950,2,0,P|288:248|268:280,1,47.5
232,360,72109,1,0,0:0:0:0:
204,364,72189,1,0,0:0:0:0:
176,356,72269,1,0,0:0:0:0:
36,272,72428,1,0,0:0:0:0:
324,344,72588,6,0,L|512:304,1,190
492,280,72987,1,0,0:0:0:0:
469,263,73066,1,0,0:0:0:0:
441,255,73146,1,0,0:0:0:0:
413,256,73226,1,0,0:0:0:0:
387,267,73306,1,0,0:0:0:0:
366,286,73385,1,0,0:0:0:0:
352,310,73465,1,0,0:0:0:0:
336,336,73545,1,0,0:0:0:0:
312,352,73625,1,0,0:0:0:0:
284,356,73705,1,0,0:0:0:0:
256,356,73785,1,0,0:0:0:0:
232,344,73865,1,0,0:0:0:0:
216,320,73944,1,0,0:0:0:0:
212,292,74024,1,0,0:0:0:0:
220,264,74104,1,0,0:0:0:0:
244,248,74184,1,0,0:0:0:0:
272,248,74264,1,0,0:0:0:0:
296,264,74343,1,0,0:0:0:0:
308,292,74423,1,0,0:0:0:0:
300,320,74503,1,0,0:0:0:0:
276,340,74583,1,0,0:0:0:0:
244,344,74662,2,0,L|124:336,1,95
24,324,74982,1,0,0:0:0:0:
272,248,75141,6,0,B|312:247|338:269|338:269|401:239|398:176,1,190
392,140,75540,1,0,0:0:0:0:
370,108,75619,1,0,0:0:0:0:
338,89,75699,1,0,0:0:0:0:
301,84,75779,1,0,0:0:0:0:
264,94,75859,1,0,0:0:0:0:
236,119,75938,1,0,0:0:0:0:
219,153,76018,1,0,0:0:0:0:
218,190,76098,1,0,0:0:0:0:
232,225,76178,1,0,0:0:0:0:
260,252,76258,1,0,0:0:0:0:
296,264,76338,1,0,0:0:0:0:
332,260,76418,1,0,0:0:0:0:
364,240,76498,1,0,0:0:0:0:
388,208,76577,1,0,0:0:0:0:
350,204,76656,1,0,0:0:0:0:
312,209,76736,1,0,0:0:0:0:
278,224,76816,1,0,0:0:0:0:
249,249,76896,1,0,0:0:0:0:
218,271,76975,1,0,0:0:0:0:
182,282,77055,1,0,0:0:0:0:
144,283,77135,1,0,0:0:0:0:
108,272,77216,2,0,L|80:208,1,47.5
168,176,77375,1,0,0:0:0:0:
164,140,77454,1,0,0:0:0:0:
160,105,77534,1,0,0:0:0:0:
156,69,77614,1,0,0:0:0:0:
152,34,77694,1,0,0:0:0:0:
168,176,77854,5,0,0:0:0:0:
48,52,78014,1,0,0:0:0:0:
252,104,78173,2,0,L|268:44,1,47.5
16,192,78412,2,0,L|28:237,1,47.5
232,272,78652,1,0,0:0:0:0:
108,328,78811,1,0,0:0:0:0:
288,364,78971,1,0,0:0:0:0:
204,176,79131,2,0,P|180:232|232:304,1,142.5
336,284,79450,2,0,P|360:228|308:156,1,142.5
172,184,79769,2,0,P|148:240|200:312,1,142.5
408,268,80088,1,0,0:0:0:0:
472,80,80248,6,0,B|408:104|408:104|280:24,1,190
416,8,80726,1,0,0:0:0:0:
332,160,80886,2,0,L|308:208,1,47.5
332,160,81205,2,0,P|316:204|332:336,1,142.5
384,352,81524,1,0,0:0:0:0:
384,352,81604,1,0,0:0:0:0:
384,352,81684,2,0,P|304:348|236:376,1,142.5
246,369,82003,1,0,0:0:0:0:
80,308,82162,2,0,P|107:313|152:299,1,47.5
228,236,82322,1,0,0:0:0:0:
64,120,82482,2,0,B|42:159|50:189|50:189|71:214|115:218,1,142.5
115,222,82801,1,0,0:0:0:0:
232,32,82960,6,0,P|216:56|208:92,1,47.5
200,172,83120,1,0,0:0:0:0:
416,144,83279,1,0,0:0:0:0:
312,76,83439,2,0,L|304:144,1,47.5
312,76,83758,2,0,P|304:140|220:212,1,142.5
176,176,84077,1,0,0:0:0:0:
176,176,84157,1,0,0:0:0:0:
176,176,84237,2,0,P|120:192|56:112,1,142.5
88,32,84556,2,0,P|144:16|208:96,1,142.5
176,208,84875,2,0,L|164:276,1,47.5
152,336,85035,1,0,0:0:0:0:
64,208,85194,1,0,0:0:0:0:
83,194,85273,1,0,0:0:0:0:
106,187,85353,1,0,0:0:0:0:
129,187,85433,1,0,0:0:0:0:
152,194,85514,6,0,P|189:221|276:200,1,95
304,148,85753,1,0,0:0:0:0:
308,168,85833,2,0,L|324:296,1,95
327,299,86072,1,0,0:0:0:0:
333,336,86152,1,0,0:0:0:0:
136,280,86311,2,0,P|180:256|244:264,1,95
428,300,86631,2,0,L|368:320,1,47.5
288,348,86790,1,0,0:0:0:0:
416,200,86950,2,0,L|404:100,1,95
300,32,87269,1,0,0:0:0:0:
276,58,87348,1,0,0:0:0:0:
244,73,87428,1,0,0:0:0:0:
208,74,87508,1,0,0:0:0:0:
175,61,87588,6,0,P|140:64|80:116,1,95
256,224,87827,6,0,P|272:191|256:113,1,95
75,212,88067,6,0,P|94:242|170:267,1,95
219,370,88386,2,0,P|253:360|301:297,1,95
414,282,88705,2,0,P|415:246|370:181,1,95
390,69,89024,1,0,0:0:0:0:
232,128,89184,2,0,P|260:144|304:140,1,47.5,0|0,0:0|0:0,0:0:0:0:
484,48,89343,6,0,P|472:91|471:171,1,95,0|0,0:0|0:0,0:0:0:0:
292,24,89662,2,0,P|335:35|415:36,1,95,0|0,0:0|0:0,0:0:0:0:
292,184,89902,1,0,0:0:0:0:
268,216,89981,2,0,P|279:172|280:92,1,95
432,212,90221,1,0,0:0:0:0:
460,240,90301,2,0,P|416:228|336:227,1,95
272,296,90540,1,0,0:0:0:0:
248,312,90620,6,0,L|352:324,1,95
124,140,90939,2,0,L|228:152,1,95
368,100,91258,2,0,L|472:112,1,95
68,240,91577,2,0,L|172:252,1,95
248,296,91817,1,0,0:0:0:0:
248,296,91896,6,0,P|270:277|285:191,1,95
252,96,92215,2,0,P|233:73|147:58,1,95
52,92,92535,2,0,P|29:110|14:196,1,95
188,204,92854,1,0,0:0:0:0:
80,272,93013,1,0,0:0:0:0:
64,288,93093,1,0,0:0:0:0:
48,304,93173,6,0,B|92:296|128:316|128:316|152:340,1,95
328,240,93492,2,0,B|284:232|248:252|248:252|224:276,1,95
88,148,93731,1,0,0:0:0:0:
96,124,93811,2,0,B|132:149|144:189|144:189|144:222,1,95
280,52,94050,1,0,0:0:0:0:
272,28,94130,2,0,B|235:53|223:93|223:93|223:126,1,95
344,180,94370,1,0,0:0:0:0:
372,200,94449,6,0,L|388:84,1,95
284,260,94690,1,0,0:0:0:0:
256,240,94769,2,0,L|240:356,1,95
240,372,95008,1,0,0:0:0:0:
240,372,95088,1,0,0:0:0:0:
348,304,95247,1,0,0:0:0:0:
152,152,95407,1,0,0:0:0:0:
360,212,95567,6,0,P|420:192|408:48,1,190
376,24,95965,1,0,0:0:0:0:
376,24,96045,2,0,L|388:136,1,95
480,244,96364,2,0,L|400:256,1,47.5
292,200,96524,1,0,0:0:0:0:
340,352,96684,2,0,B|348:328|348:328|344:284,1,47.5
236,280,96843,2,0,B|228:304|228:304|232:348,1,47.5
132,364,97003,5,0,0:0:0:0:
64,232,97162,1,0,0:0:0:0:
60,260,97242,1,0,0:0:0:0:
56,288,97322,1,0,0:0:0:0:
172,208,97481,1,0,0:0:0:0:
8,140,97641,1,0,0:0:0:0:
128,132,97801,1,0,0:0:0:0:
196,16,97960,1,0,0:0:0:0:
8,140,98120,6,0,P|52:212|160:188,1,190
220,164,98519,1,0,0:0:0:0:
220,164,98598,2,0,P|244:184|252:256,1,95
88,340,98918,1,0,0:0:0:0:
118,324,98997,1,0,0:0:0:0:
156,324,99077,1,0,0:0:0:0:
324,364,99237,1,0,0:0:0:0:
356,349,99316,1,0,0:0:0:0:
381,324,99396,1,0,0:0:0:0:
394,291,99476,1,0,0:0:0:0:
395,256,99556,1,0,0:0:0:0:
448,80,99715,6,0,L|458:139,1,47.5
340,160,99875,1,0,0:0:0:0:
306,142,99954,1,0,0:0:0:0:
286,110,100034,1,0,0:0:0:0:
286,73,100114,1,0,0:0:0:0:
305,41,100194,1,0,0:0:0:0:
337,22,100273,1,0,0:0:0:0:
375,24,100354,2,0,B|276:72|280:-4|160:60,1,190
128,108,100753,1,0,0:0:0:0:
116,136,100832,6,0,L|100:348,2,190
12,208,101630,1,0,0:0:0:0:
208,188,101790,2,0,L|216:80,1,95
200,296,102109,2,0,P|132:288|36:368,2,190
288,372,102907,1,0,0:0:0:0:
376,296,103067,2,0,P|420:300|468:360,1,95
512,128,103386,2,0,P|496:176|344:176,2,190
332,76,104184,1,0,0:0:0:0:
420,120,104343,2,0,P|428:92|412:20,1,95
268,156,104662,6,0,B|276:264|276:264|308:296,1,142.5
328,312,104981,1,0,0:0:0:0:
176,244,105141,1,0,0:0:0:0:
140,252,105221,1,0,0:0:0:0:
112,280,105301,1,0,0:0:0:0:
32,156,105460,2,0,P|20:180|24:228,1,47.5
48,356,105620,1,0,0:0:0:0:
204,152,105779,1,0,0:0:0:0:
204,152,105859,1,0,0:0:0:0:
204,152,105939,6,0,L|52:140,1,142.5
36,108,106258,1,0,0:0:0:0:
208,72,106418,1,0,0:0:0:0:
104,268,106577,2,0,L|88:200,1,47.5
122,91,106737,1,0,0:0:0:0:
260,220,106896,1,0,0:0:0:0:
76,276,107056,1,0,0:0:0:0:
148,28,107215,6,0,P|90:20|13:101,1,142.5
18,105,107535,1,0,0:0:0:0:
204,104,107694,2,0,P|236:108|276:148,1,47.5
312,184,107854,1,0,0:0:0:0:
380,64,108013,1,0,0:0:0:0:
424,68,108093,1,0,0:0:0:0:
460,48,108173,1,0,0:0:0:0:
256,20,108332,1,0,0:0:0:0:
399,199,108492,6,0,P|421:191|440:176,1,47.5
460,48,108652,1,0,0:0:0:0:
296,232,108811,2,0,P|291:255|295:278,1,47.5
396,359,108971,1,0,0:0:0:0:
484,204,109130,2,0,P|429:200|371:250,1,95
232,360,109449,1,0,0:0:0:0:
168,204,109609,1,0,0:0:0:0:
296,240,109769,5,0,0:0:0:0:
104,324,109928,1,0,0:0:0:0:
136,96,110088,1,0,0:0:0:0:
217,214,110247,2,0,P|174:244|94:236,1,95
348,116,110567,6,0,B|372:157|372:157|417:169,1,95
271,47,110806,2,0,B|316:59|316:59|340:100,1,95
139,146,111045,6,0,P|180:64|270:47,2,190
244,148,111843,1,0,0:0:0:0:
96,248,112003,2,0,P|44:244|-20:264,1,95
208,364,112322,2,0,B|344:340|344:340|400:368,2,190
248,256,113120,1,0,0:0:0:0:
420,177,113279,2,0,P|430:223|416:268,1,95
312,132,113598,2,0,L|508:160,2,190
476,60,114396,1,0,0:0:0:0:
340,36,114556,2,0,L|245:22,1,95
24,228,114875,6,0,P|76:236|160:132,1,190
68,36,115354,1,0,0:0:0:0:
36,52,115434,1,0,0:0:0:0:
16,84,115513,1,0,0:0:0:0:
12,120,115593,1,0,0:0:0:0:
32,152,115673,1,0,0:0:0:0:
68,168,115753,1,0,0:0:0:0:
104,168,115832,1,0,0:0:0:0:
140,180,115912,1,0,0:0:0:0:
168,208,115992,1,0,0:0:0:0:
184,244,116072,1,0,0:0:0:0:
180,280,116152,6,0,P|144:304|56:280,1,95
52,160,116391,2,0,P|88:136|176:160,1,95
116,220,116630,1,0,0:0:0:0:
378,209,116790,2,0,P|296:249|284:340,1,190
476,228,117269,2,0,P|480:200|436:128,1,95
272,44,117588,2,0,P|268:72|312:144,1,95
428,52,117907,1,0,0:0:0:0:
336,212,118067,2,0,L|356:12,1,190
200,160,118545,1,0,0:0:0:0:
204,196,118625,1,0,0:0:0:0:
208,232,118705,5,0,0:0:0:0:
368,336,118864,1,0,0:0:0:0:
144,364,119024,1,0,0:0:0:0:
336,212,119184,1,0,0:0:0:0:
136,148,119343,2,0,P|120:112|128:44,1,95
244,84,119662,1,0,0:0:0:0:
8,148,119822,1,0,0:0:0:0:
204,204,119981,2,0,P|188:252|112:280,1,95
44,264,120221,2,0,P|93:253|155:305,1,95
176,372,120460,2,0,P|142:334|156:254,1,95
300,248,120779,1,0,0:0:0:0:
20,184,120939,2,0,P|84:168|180:204,1,142.5
184,216,121258,6,0,L|168:88,1,95
328,216,121577,2,0,L|344:88,1,95
256,24,121896,1,0,0:0:0:0:
256,160,122056,1,0,0:0:0:0:
256,188,122136,1,0,0:0:0:0:
256,320,122295,1,0,0:0:0:0:
256,348,122375,2,0,P|197:309|128:319,1,142.5
108,348,122694,1,0,0:0:0:0:
108,348,122774,1,0,0:0:0:0:
108,348,122854,1,0,0:0:0:0:
132,318,122933,1,0,0:0:0:0:
143,282,123013,1,0,0:0:0:0:
140,245,123093,1,0,0:0:0:0:
122,211,123173,1,0,0:0:0:0:
216,76,123332,1,0,0:0:0:0:
48,48,123492,1,0,0:0:0:0:
264,168,123652,6,0,P|304:132|292:0,1,190
276,24,124051,1,0,0:0:0:0:
256,44,124130,1,0,0:0:0:0:
440,144,124449,5,0,0:0:0:0:
452,220,124608,1,0,0:0:0:0:
464,296,124768,1,0,0:0:0:0:
312,360,125088,6,0,L|324:260,1,95
328,228,125327,1,0,0:0:0:0:
328,228,125407,1,0,0:0:0:0:
56,308,125726,5,0,0:0:0:0:
201,348,125965,5,0,0:0:0:0:
164,202,126205,5,0,0:0:0:0:
328,52,144875,6,0,P|380:44|448:104,1,142.499995651245
368,128,145354,1,0,0:0:0:0:
368,128,145434,1,0,0:0:0:0:
368,128,145513,2,0,P|348:180|356:264,1,113.999996520996
400,312,145992,1,0,0:0:0:0:
264,204,146152,2,0,P|216:204|148:248,1,113.999996520996
159,235,146790,6,0,P|68:196|180:164,1,284.999991302491
178,161,147747,6,0,P|148:144|144:56,1,114
212,24,148067,5,0,0:0:0:0:
48,108,148306,1,0,0:0:0:0:
48,108,148386,2,0,P|36:136|36:168,1,47.5
72,236,148545,1,0,0:0:0:0:
80,272,148625,1,0,0:0:0:0:
76,308,148705,1,0,0:0:0:0:
208,184,148864,2,0,P|240:204|228:316,1,142.5
176,352,149184,1,0,0:0:0:0:
176,352,149263,1,0,0:0:0:0:
176,352,149343,6,0,L|224:344,1,47.5
376,312,149503,2,0,L|328:304,1,47.5
184,256,149662,1,0,0:0:0:0:
360,204,149822,2,0,P|336:200|308:184,1,47.5
256,92,149981,1,0,0:0:0:0:
448,48,150141,1,0,0:0:0:0:
364,112,150301,2,0,P|353:65|347:18,1,95
472,160,150620,1,0,0:0:0:0:
288,196,150779,1,0,0:0:0:0:
448,48,150939,1,0,0:0:0:0:
260,20,151098,1,0,0:0:0:0:
260,20,151178,1,0,0:0:0:0:
260,20,151258,2,0,P|232:24|196:40,1,47.5
164,148,151418,2,0,P|186:155|210:158,1,47.5
132,56,151577,1,0,0:0:0:0:
106,50,151656,1,0,0:0:0:0:
84,46,151736,1,0,0:0:0:0:
60,44,151816,1,0,0:0:0:0:
38,41,151896,6,0,L|32:88,1,47.5
32,200,152056,1,0,0:0:0:0:
32,200,152136,1,0,0:0:0:0:
32,200,152215,1,0,0:0:0:0:
144,328,152375,2,0,L|140:272,1,47.5
132,172,152535,1,0,0:0:0:0:
36,320,152694,1,0,0:0:0:0:
244,368,152854,1,0,0:0:0:0:
238,333,152933,1,0,0:0:0:0:
247,298,153013,1,0,0:0:0:0:
269,270,153093,1,0,0:0:0:0:
300,253,153173,2,0,L|468:264,1,142.5
480,268,153492,1,0,0:0:0:0:
352,352,153652,1,0,0:0:0:0:
352,352,153731,1,0,0:0:0:0:
352,352,153811,1,0,0:0:0:0:
480,168,153971,1,0,0:0:0:0:
446,173,154050,1,0,0:0:0:0:
413,166,154130,1,0,0:0:0:0:
384,149,154210,1,0,0:0:0:0:
364,121,154290,1,0,0:0:0:0:
355,89,154369,1,0,0:0:0:0:
360,55,154449,5,0,0:0:0:0:
160,59,154609,1,0,0:0:0:0:
256,192,154769,2,0,B|180:216|188:164|117:186,1,142.5
56,252,155088,1,0,0:0:0:0:
56,252,155168,1,0,0:0:0:0:
56,252,155247,1,0,0:0:0:0:
32,72,155407,1,0,0:0:0:0:
73,95,155486,1,0,0:0:0:0:
120,97,155566,1,0,0:0:0:0:
163,79,155646,1,0,0:0:0:0:
194,44,155726,2,0,L|204:112,1,47.5
288,200,155886,2,0,L|294:152,1,47.5
384,40,156045,1,0,0:0:0:0:
201,91,156205,1,0,0:0:0:0:
408,124,156364,2,0,L|401:171,1,47.5
384,296,156524,1,0,0:0:0:0:
384,296,156684,1,0,0:0:0:0:
341,279,156763,1,0,0:0:0:0:
298,282,156843,1,0,0:0:0:0:
259,305,156923,1,0,0:0:0:0:
234,341,157003,6,0,P|237:315|235:289,1,47.5
96,216,157162,2,0,P|93:241|113:293,1,47.5
140,368,157322,1,0,0:0:0:0:
272,188,157481,1,0,0:0:0:0:
32,276,157641,2,0,P|65:273|96:284,1,47.5
232,320,157801,1,0,0:0:0:0:
72,128,157960,2,0,P|68:151|71:174,1,47.5
200,120,158120,1,0,0:0:0:0:
196,76,158199,1,0,0:0:0:0:
168,44,158279,2,0,P|120:44|44:112,1,142.5
71,174,158598,1,0,0:0:0:0:
276,120,158758,1,0,0:0:0:0:
276,120,158838,1,0,0:0:0:0:
276,120,158918,1,0,0:0:0:0:
240,348,159077,1,0,0:0:0:0:
201,351,159156,1,0,0:0:0:0:
164,343,159236,1,0,0:0:0:0:
133,322,159316,1,0,0:0:0:0:
109,294,159396,1,0,0:0:0:0:
95,259,159475,1,0,0:0:0:0:
94,221,159556,6,0,L|101:164,1,47.5
228,116,159715,2,0,L|153:106,1,47.5
32,32,159875,2,0,B|60:75|60:75|150:83,1,142.5
224,40,160194,1,0,0:0:0:0:
256,44,160274,1,0,0:0:0:0:
288,48,160354,1,0,0:0:0:0:
416,152,160513,1,0,0:0:0:0:
397,121,160593,1,0,0:0:0:0:
394,86,160673,1,0,0:0:0:0:
407,53,160753,1,0,0:0:0:0:
432,29,160832,2,0,P|449:43|462:94,1,47.5
361,224,160992,2,0,P|343:209|330:158,1,47.5
496,140,161152,1,0,0:0:0:0:
284,104,161311,2,0,L|356:92,1,47.5
476,228,161471,2,0,L|429:220,1,47.5
268,188,161630,1,0,0:0:0:0:
230,197,161709,1,0,0:0:0:0:
198,218,161789,1,0,0:0:0:0:
174,248,161869,1,0,0:0:0:0:
159,284,161949,1,0,0:0:0:0:
155,321,162028,1,0,0:0:0:0:
164,359,162109,6,0,P|136:349|108:348,1,47.5
12,232,162269,2,0,P|35:231|57:222,1,47.5
188,132,162428,1,0,0:0:0:0:
24,80,162588,1,0,0:0:0:0:
24,80,162668,1,0,0:0:0:0:
24,80,162747,1,0,0:0:0:0:
180,216,162907,1,0,0:0:0:0:
160,44,163067,1,0,0:0:0:0:
308,172,163226,1,0,0:0:0:0:
308,172,163306,1,0,0:0:0:0:
308,172,163386,2,0,P|261:187|248:304,1,142.5
268,332,163705,1,0,0:0:0:0:
492,264,163864,2,0,L|432:256,1,47.5
356,244,164024,1,0,0:0:0:0:
432,48,164184,6,0,P|464:80|464:164,1,95
272,120,164423,6,0,P|283:76|356:34,1,95
415,223,164662,6,0,P|371:234|298:192,1,95
268,328,164981,2,0,P|229:304|207:223,1,95
89,298,165300,2,0,P|78:254|120:181,1,95
244,128,165619,1,0,0:0:0:0:
60,24,165779,2,0,P|88:28|120:60,1,47.5
44,216,165938,6,0,L|52:96,1,95
168,340,166257,2,0,L|176:220,1,95
316,312,166497,1,0,0:0:0:0:
344,340,166576,2,0,L|336:220,1,95
436,220,166816,1,0,0:0:0:0:
468,216,166896,2,0,L|461:121,1,95
376,56,167135,1,0,0:0:0:0:
377,86,167215,6,0,P|414:115|461:121,1,95
240,104,167534,2,0,P|269:67|274:20,1,95
257,241,167853,2,0,P|236:224|208:216,1,47.5
124,216,168013,1,0,0:0:0:0:
394,223,168172,1,0,0:0:0:0:
368,364,168332,2,0,P|384:348|396:304,1,47.5
208,292,168491,6,0,L|328:288,1,95
504,192,168810,2,0,L|384:188,1,95
204,112,169130,2,0,L|264:108,2,47.5
488,44,169449,1,0,0:0:0:0:
450,42,169528,1,0,0:0:0:0:
413,41,169608,1,0,0:0:0:0:
375,40,169688,1,0,0:0:0:0:
338,39,169768,6,0,L|224:32,1,95
40,136,170087,2,0,L|154:129,1,95
308,220,170326,1,0,0:0:0:0:
338,233,170406,2,0,L|224:226,1,95
68,320,170646,1,0,0:0:0:0:
40,330,170725,2,0,L|154:323,1,95
240,352,170965,1,0,0:0:0:0:
264,364,171044,6,0,P|252:328|252:248,1,95
184,180,171284,1,0,0:0:0:0:
184,180,171364,2,0,P|220:168|300:168,1,95
464,316,171683,1,0,0:0:0:0:
340,256,171842,1,0,0:0:0:0:
476,112,172002,1,0,0:0:0:0:
204,32,172162,6,0,P|192:76|304:148,1,190
364,96,172560,1,0,0:0:0:0:
364,96,172640,2,0,P|348:164|356:232,1,95
440,324,172959,2,0,L|452:248,1,47.5
468,152,173119,1,0,0:0:0:0:
252,264,173279,2,0,L|312:256,1,47.5
195,152,173438,2,0,L|172:208,1,47.5
320,159,173598,6,0,L|283:111,1,47.5
152,64,173757,1,0,0:0:0:0:
108,68,173837,1,0,0:0:0:0:
64,72,173917,1,0,0:0:0:0:
324,40,174076,1,0,0:0:0:0:
132,188,174236,1,0,0:0:0:0:
296,268,174396,1,0,0:0:0:0:
144,36,174555,1,0,0:0:0:0:
28,308,174715,6,0,B|132:296|96:360|208:348,1,190
244,332,175114,1,0,0:0:0:0:
280,320,175193,2,0,B|328:312|328:312|384:344,1,95
448,168,175513,1,0,0:0:0:0:
415,148,175592,1,0,0:0:0:0:
377,144,175672,1,0,0:0:0:0:
341,153,175752,1,0,0:0:0:0:
311,177,175832,1,0,0:0:0:0:
293,209,175911,1,0,0:0:0:0:
289,247,175991,1,0,0:0:0:0:
299,283,176071,1,0,0:0:0:0:
323,313,176151,1,0,0:0:0:0:
356,330,176231,1,0,0:0:0:0:
394,334,176310,1,0,0:0:0:0:
430,323,176390,1,0,0:0:0:0:
459,299,176470,1,0,0:0:0:0:
317,159,176630,6,0,P|308:186|309:242,1,47.5
356,330,176789,1,0,0:0:0:0:
460,209,176949,5,0,0:0:0:0:
428,195,177028,1,0,0:0:0:0:
395,192,177108,1,0,0:0:0:0:
362,197,177188,1,0,0:0:0:0:
331,211,177268,1,0,0:0:0:0:
307,233,177347,1,0,0:0:0:0:
289,262,177427,1,0,0:0:0:0:
88,319,187640,6,0,P|102:235|106:150,1,170.999994781494
80,68,188119,1,0,0:0:0:0:
196,184,188279,2,0,P|240:176|296:152,1,85.4999973907472
336,100,188598,1,0,0:0:0:0:
336,100,188757,1,0,0:0:0:0:
260,264,188917,2,0,P|252:308|248:372,1,85.4999973907472
368,196,189236,2,0,P|355:266|348:369,2,170.999994781494
368,196,190193,6,0,B|392:152|420:128|420:128|400:40,1,170.999994781494
316,24,190672,1,0,0:0:0:0:
460,236,190832,2,0,L|452:328,1,85.4999973907472
504,156,191151,1,0,0:0:0:0:
452,80,191310,1,0,0:0:0:0:
296,188,191470,2,0,P|248:176|196:60,1,170.999994781494
368,48,191949,2,0,P|332:71|291:83,1,85.4999973907472
168,148,192268,2,0,P|134:121|110:86,1,85.4999973907472
104,56,192747,5,0,0:0:0:0:
88,308,197853,6,0,P|120:312|164:328,1,76
156,228,198172,2,0,P|204:244|284:304,2,152
56,220,198970,1,0,0:0:0:0:
248,140,199289,6,0,L|240:84,2,38
312,200,199608,1,0,0:0:0:0:
456,120,199768,1,0,0:0:0:0:
312,28,199927,1,0,0:0:0:0:
303,51,200006,1,0,0:0:0:0:
297,76,200086,1,0,0:0:0:0:
296,101,200166,1,0,0:0:0:0:
298,126,200246,1,0,0:0:0:0:
304,151,200325,1,0,0:0:0:0:
313,175,200406,6,0,P|227:137|138:164,2,190
220,264,201204,1,0,0:0:0:0:
68,120,201364,2,0,P|48:88|56:28,1,95
112,232,201683,2,0,B|116:272|88:292|88:292|20:304|8:388,2,190
68,120,202481,1,0,0:0:0:0:
212,264,202640,2,0,P|216:308|216:372,1,95
332,188,202959,2,0,P|420:192|528:232,2,190
356,328,203757,1,0,0:0:0:0:
416,104,203917,2,0,P|468:116|536:132,1,95
220,196,204236,6,0,P|184:160|196:52,1,142.5
216,36,204555,1,0,0:0:0:0:
48,140,204715,2,0,L|56:195,1,47.5
74,287,204874,1,0,0:0:0:0:
313,218,205034,1,0,0:0:0:0:
278,220,205113,1,0,0:0:0:0:
248,238,205193,1,0,0:0:0:0:
227,266,205273,1,0,0:0:0:0:
219,301,205353,1,0,0:0:0:0:
225,334,205432,1,0,0:0:0:0:
245,363,205513,6,0,L|396:348,1,142.5
432,344,205832,1,0,0:0:0:0:
368,192,205991,1,0,0:0:0:0:
244,280,206151,2,0,L|180:272,1,47.5
112,208,206310,1,0,0:0:0:0:
92,368,206470,1,0,0:0:0:0:
256,188,206630,1,0,0:0:0:0:
16,124,206789,6,0,P|72:120|128:48,1,142.5
108,16,207108,1,0,0:0:0:0:
244,104,207268,1,0,0:0:0:0:
240,140,207348,1,0,0:0:0:0:
256,172,207427,1,0,0:0:0:0:
484,104,207587,2,0,P|461:96|437:95,1,47.5
344,116,207746,1,0,0:0:0:0:
432,252,207906,1,0,0:0:0:0:
368,24,208066,6,0,L|320:29,1,47.5
176,124,208225,2,0,L|223:118,1,47.5
320,228,208385,1,0,0:0:0:0:
176,336,208544,1,0,0:0:0:0:
64,212,208704,2,0,P|120:220|180:212,1,95
288,124,209023,1,0,0:0:0:0:
40,76,209183,1,0,0:0:0:0:
264,112,209342,6,0,L|364:88,1,95
164,44,209662,1,0,0:0:0:0:
324,280,209821,1,0,0:0:0:0:
324,280,210140,2,0,P|340:260|340:188,1,95
228,168,210379,2,0,P|212:188|212:260,1,95
342,193,210619,6,0,L|358:1,2,190
232,104,211417,1,0,0:0:0:0:
464,192,211576,2,0,P|476:228|460:304,1,95
256,368,211896,2,0,P|192:340|156:220,2,190
256,188,212693,1,0,0:0:0:0:
48,240,212853,2,0,P|32:276|32:340,1,95
184,96,213172,2,0,P|108:68|16:116,2,190
108,180,213970,1,0,0:0:0:0:
272,40,214130,2,0,P|304:48|392:32,1,95
444,288,214449,6,0,P|436:220|464:100,1,190
308,176,214927,1,0,0:0:0:0:
316,212,215007,1,0,0:0:0:0:
316,252,215087,1,0,0:0:0:0:
304,288,215167,1,0,0:0:0:0:
280,316,215247,1,0,0:0:0:0:
248,336,215326,1,0,0:0:0:0:
212,344,215406,1,0,0:0:0:0:
64,216,215566,2,0,L|128:208,1,47.5
208,232,215725,6,0,P|144:240|72:292,1,142.5
64,324,216044,1,0,0:0:0:0:
120,128,216204,1,0,0:0:0:0:
216,308,216364,1,0,0:0:0:0:
24,208,216523,1,0,0:0:0:0:
248,176,216683,1,0,0:0:0:0:
60,100,216842,1,0,0:0:0:0:
216,28,217002,5,0,0:0:0:0:
156,212,217162,1,0,0:0:0:0:
40,40,217321,1,0,0:0:0:0:
260,24,217481,1,0,0:0:0:0:
60,156,217640,1,0,0:0:0:0:
280,136,217800,1,0,0:0:0:0:
184,336,217959,1,0,0:0:0:0:
120,200,218119,2,0,P|152:200|204:220,1,47.5
344,348,218279,5,0,0:0:0:0:
416,196,218438,1,0,0:0:0:0:
244,252,218598,1,0,0:0:0:0:
172,100,218757,1,0,0:0:0:0:
412,88,218917,1,0,0:0:0:0:
272,184,219076,1,0,0:0:0:0:
340,8,219236,1,0,0:0:0:0:
484,180,219396,1,0,0:0:0:0:
260,224,219555,5,0,0:0:0:0:
352,88,219715,1,0,0:0:0:0:
400,332,219874,1,0,0:0:0:0:
168,248,220034,2,0,P|145:240|121:239,1,47.5
320,212,220193,1,0,0:0:0:0:
128,352,220353,1,0,0:0:0:0:
108,104,220513,1,0,0:0:0:0:
356,84,220672,2,0,P|324:96|292:92,1,47.5
100,64,220832,5,0,0:0:0:0:
224,160,220991,1,0,0:0:0:0:
79,220,221151,1,0,0:0:0:0:
128,144,221310,1,0,0:0:0:0:
184,320,221470,1,0,0:0:0:0:
140,340,221550,1,0,0:0:0:0:
92,332,221630,1,0,0:0:0:0:
128,144,221789,1,0,0:0:0:0:
280,292,221949,2,0,P|344:308|412:196,1,190
272,32,222427,1,0,0:0:0:0:
260,72,222507,1,0,0:0:0:0:
268,116,222587,1,0,0:0:0:0:
296,148,222667,1,0,0:0:0:0:
340,156,222747,1,0,0:0:0:0:
452,88,222906,1,0,0:0:0:0:
272,32,223066,1,0,0:0:0:0:
364,272,223225,6,0,B|396:220|396:220|364:88,1,190
365,94,223704,1,0,0:0:0:0:
184,228,224183,1,0,0:0:0:0:
184,228,224263,1,0,0:0:0:0:
184,228,224343,1,0,0:0:0:0:
400,324,224821,1,0,0:0:0:0:
400,324,224901,1,0,0:0:0:0:
400,324,224981,1,0,0:0:0:0:
120,280,225300,6,0,P|172:280|260:260,1,142.5
112,48,225779,2,0,P|80:96|180:168,1,190
252,112,226257,1,0,0:0:0:0:
352,168,226417,1,0,0:0:0:0:
352,168,226497,1,0,0:0:0:0:
352,168,226576,1,0,0:0:0:0:
360,56,226736,1,0,0:0:0:0:
248,228,226896,1,0,0:0:0:0:
352,276,227055,1,0,0:0:0:0:
448,216,227215,5,0,0:0:0:0:
272,128,227374,1,0,0:0:0:0:
242,139,227453,1,0,0:0:0:0:
217,158,227533,1,0,0:0:0:0:
199,184,227613,1,0,0:0:0:0:
190,214,227693,1,0,0:0:0:0:
189,245,227772,1,0,0:0:0:0:
199,275,227852,1,0,0:0:0:0:
292,344,228013,1,0,0:0:0:0:
412,224,228172,1,0,0:0:0:0:
212,104,228332,6,0,P|302:131|397:130,1,190
397,130,228810,1,0,0:0:0:0:
348,48,228970,1,0,0:0:0:0:
272,176,229130,1,0,0:0:0:0:
120,196,229289,1,0,0:0:0:0:
52,28,229449,1,0,0:0:0:0:
232,88,229608,1,0,0:0:0:0:
44,164,229768,5,0,0:0:0:0:
200,220,229927,2,0,L|184:276,1,47.5
20,336,230167,2,0,L|33:290,1,47.5
296,292,230406,2,0,P|348:300|412:316,1,95
416,320,230646,1,0,0:0:0:0:
444,328,230725,1,0,0:0:0:0:
468,340,230805,1,0,0:0:0:0:
492,352,230885,6,0,P|480:268|472:156,1,190
376,24,231364,1,0,0:0:0:0:
480,64,231523,2,0,P|456:80|424:88,1,47.5
312,112,231683,1,0,0:0:0:0:
276,108,231763,1,0,0:0:0:0:
240,100,231842,1,0,0:0:0:0:
124,32,232002,1,0,0:0:0:0:
376,24,232162,6,0,L|352:216,1,190
212,364,232640,1,0,0:0:0:0:
356,316,232800,2,0,P|320:312|272:300,1,47.5
188,272,232959,1,0,0:0:0:0:
157,290,233038,1,0,0:0:0:0:
124,303,233118,1,0,0:0:0:0:
89,311,233198,1,0,0:0:0:0:
54,312,233278,1,0,0:0:0:0:
240,188,233438,6,0,P|248:116|216:4,1,190
128,148,233917,1,0,0:0:0:0:
348,188,234076,1,0,0:0:0:0:
378,169,234155,1,0,0:0:0:0:
403,144,234235,1,0,0:0:0:0:
421,114,234315,1,0,0:0:0:0:
431,80,234395,1,0,0:0:0:0:
260,96,234555,2,0,P|248:124|252:180,1,47.5
228,244,234715,2,0,P|250:264|305:277,1,47.5
388,236,234874,1,0,0:0:0:0:
152,176,235034,1,0,0:0:0:0:
152,176,235114,1,0,0:0:0:0:
152,176,235193,1,0,0:0:0:0:
340,140,235353,2,0,L|288:128,1,47.5
140,44,235513,6,0,P|112:64|88:128,1,95
176,264,235832,1,0,0:0:0:0:
176,264,235912,1,0,0:0:0:0:
176,264,235991,2,0,P|128:260|64:372,1,190
92,376,236390,1,0,0:0:0:0:
120,384,236470,2,0,L|102:245,1,95
12,172,236789,2,0,P|48:172|100:160,1,47.5
176,124,236949,1,0,0:0:0:0:
28,60,237108,1,0,0:0:0:0:
63,62,237187,1,0,0:0:0:0:
98,56,237267,1,0,0:0:0:0:
131,43,237347,1,0,0:0:0:0:
160,22,237427,6,0,P|152:80|160:180,1,142.5
168,200,237747,1,0,0:0:0:0:
336,160,237906,1,0,0:0:0:0:
264,352,238066,2,0,P|252:292|252:232,1,95
456,208,238385,1,0,0:0:0:0:
465,248,238464,1,0,0:0:0:0:
460,289,238544,1,0,0:0:0:0:
439,325,238624,1,0,0:0:0:0:
406,350,238704,6,0,P|388:336|368:304,1,47.5
344,224,238864,2,0,P|341:201|349:164,1,47.5
384,88,239023,2,0,P|412:56|496:28,1,95
280,96,239342,2,0,P|238:87|172:29,1,95
24,180,239662,1,0,0:0:0:0:
57,190,239741,1,0,0:0:0:0:
93,186,239821,1,0,0:0:0:0:
123,168,239901,1,0,0:0:0:0:
144,139,239981,6,0,P|92:120|-16:124,1,142.5
6,118,240300,1,0,0:0:0:0:
84,268,240459,1,0,0:0:0:0:
84,268,240539,1,0,0:0:0:0:
84,268,240619,2,0,P|140:264|184:228,1,95
232,84,240938,1,0,0:0:0:0:
232,84,241018,1,0,0:0:0:0:
232,84,241098,6,0,L|212:284,1,170.999994781494
240,344,241576,1,0,0:0:0:0:
360,292,241736,1,0,0:0:0:0:
360,292,241816,1,0,0:0:0:0:
360,292,241896,1,0,0:0:0:0:
260,368,242055,1,0,0:0:0:0:
360,200,242215,1,0,0:0:0:0:
464,368,242374,1,0,0:0:0:0:
288,156,242693,5,0,0:0:0:0:
392,208,242853,1,0,0:0:0:0:
476,80,243013,1,0,0:0:0:0:
476,80,243092,1,0,0:0:0:0:
476,80,243172,1,0,0:0:0:0:
352,52,243332,1,0,0:0:0:0:
436,232,243491,1,0,0:0:0:0:
256,192,243651,1,0,0:0:0:0:
