osu file format v14

[General]
AudioFilename: audio2.mp3
AudioLeadIn: 0
PreviewTime: 55858
Countdown: 0
SampleSet: Soft
StackLeniency: 0.5
Mode: 2
LetterboxInBreaks: 0
WidescreenStoryboard: 1

[Editor]
Bookmarks: 13171,23838,34505,42544,47838,56027,64117,68162,70858,74903,80296,86505,97171
DistanceSpacing: 1.4
BeatDivisor: 4
GridSize: 4
TimelineZoom: 1.5

[Metadata]
Title:Chikatto Chika Chika
TitleUnicode:Chikatto Chika Chika
Artist:Nanahira
ArtistUnicode:Nanahira
Creator:Tyrell
Version:uwu
Source:
Tags:
BeatmapID:2091011
BeatmapSetID:999730

[Difficulty]
HPDrainRate:4
CircleSize:3.5
OverallDifficulty:8.8
ApproachRate:8.8
SliderMultiplier:1.8
SliderTickRate:2

[Events]
//Background and Video events
0,0,"bg.jpg",0,0
//Break Periods
//Storyboard Layer 0 (Background)
//Storyboard Layer 1 (Fail)
//Storyboard Layer 2 (Pass)
//Storyboard Layer 3 (Foreground)
//Storyboard Sound Samples

[TimingPoints]
-602,337.078651685393,4,2,1,45,1,0
72,-100,4,2,1,45,0,0
10184,-100,4,2,1,60,0,0
13892,-100,4,2,1,60,0,0
14145,-100,4,2,1,5,0,0
14229,-100,4,2,1,70,0,0
19538,-100,4,2,1,5,0,0
19622,-100,4,2,1,60,0,0
30324,-100,4,2,1,5,0,0
30409,-100,4,2,1,60,0,0
41195,-100,4,2,1,60,0,0
42459,-100,4,2,1,5,0,0
42544,-100,4,2,1,45,0,0
47937,-100,4,2,1,60,0,0
50633,-100,4,2,1,70,0,0
55858,-100,4,2,1,70,0,0
74566,-100,4,2,1,70,0,0
74819,-100,4,2,1,5,0,0
74903,-100,4,2,1,70,0,0
80296,-100,4,2,1,70,0,0
87712,-100,4,2,1,70,0,0
91589,-100,4,2,1,5,0,0

[Colours]
Combo1 : 117,221,255
Combo2 : 255,202,91
Combo3 : 150,111,255

[HitObjects]
60,196,72,5,0,0:0:0:0:
188,194,746,1,0,0:0:0:0:
315,195,1420,1,0,0:0:0:0:
444,195,2094,1,0,0:0:0:0:
452,196,4117,5,0,0:0:0:0:
324,194,4791,1,0,0:0:0:0:
197,195,5465,1,0,0:0:0:0:
68,195,6139,1,0,0:0:0:0:
129,209,7487,5,0,0:0:0:0:
143,208,8836,1,0,0:0:0:0:
153,208,9510,1,0,0:0:0:0:
387,247,10184,6,0,B|425:163|425:163|388:73,1,180
122,247,10858,2,0,B|84:163|84:163|121:73,1,180
378,295,11532,2,0,B|444:205|452:174|385:31,1,270
103,121,12206,1,0,0:0:0:0:
376,214,13049,5,0,0:0:0:0:
232,135,13218,1,0,0:0:0:0:
384,66,13386,1,0,0:0:0:0:
104,283,13555,1,0,0:0:0:0:
374,202,13892,1,0,0:0:0:0:
158,196,14229,6,0,B|67:196|67:196|164:196,1,180
309,121,14735,2,0,B|404:121|404:121|404:205,1,180
251,303,15240,2,0,L|137:303,1,90
314,216,15577,6,0,L|314:122,1,90
152,197,15914,1,0,0:0:0:0:
62,127,16083,1,0,0:0:0:0:
151,52,16251,1,0,0:0:0:0:
241,48,16420,1,0,0:0:0:0:
403,327,16589,2,0,L|404:233,1,90
242,153,16926,6,0,B|150:153|150:153|149:252,1,180
311,328,17431,2,0,B|401:328|401:328|300:328,1,180
149,242,17937,2,0,L|149:148,1,90
392,167,18442,5,0,0:0:0:0:
257,96,18611,1,0,0:0:0:0:
401,43,18780,1,0,0:0:0:0:
114,290,18948,2,0,B|91:240|118:206|138:150|105:97,1,180
384,195,19622,6,0,B|385:106|385:106|291:106,1,180
132,263,20128,2,0,B|65:191|65:191|127:258,1,180
282,261,20633,2,0,L|374:261,1,90
209,158,20971,6,0,L|209:65,1,90
362,332,21308,1,0,0:0:0:0:
362,243,21476,1,0,0:0:0:0:
272,163,21645,1,0,0:0:0:0:
182,93,21813,1,0,0:0:0:0:
344,303,21982,2,0,L|438:303,1,90
272,231,22319,6,0,L|98:118,1,180
281,341,22824,2,0,L|437:248,1,180
282,170,23330,2,0,L|282:75,1,90
120,253,23667,6,0,L|119:152,1,90
272,74,24004,1,0,0:0:0:0:
109,212,24173,2,0,L|200:212,2,90
274,268,24678,2,0,L|381:268,1,90
202,176,25015,6,0,B|109:176|109:176|210:176,1,180
361,100,25521,2,0,L|461:100,2,90
199,214,26027,2,0,L|199:116,1,90
361,327,26364,6,0,B|437:254|437:254|356:333,1,180
214,187,26869,2,0,B|214:95|214:93|328:95,1,180
168,327,27375,2,0,L|42:328,1,90
358,268,27712,6,0,L|358:175,1,90
78,181,28049,2,0,L|77:89,1,90
384,338,28386,2,0,L|384:243,1,90
95,308,28723,2,0,L|94:212,1,90
383,156,29060,5,0,0:0:0:0:
94,106,29229,1,0,0:0:0:0:
220,235,29397,1,0,0:0:0:0:
85,307,29566,1,0,0:0:0:0:
383,327,29735,2,0,B|408:279|387:229|365:190|393:144,1,180
171,202,30409,6,0,B|171:111|171:111|270:111,1,180
359,112,30914,1,0,0:0:0:0:
197,322,31083,2,0,L|197:210,1,90
361,162,31420,2,0,L|361:52,1,90
180,245,31757,6,0,B|91:245|91:245|186:245,1,180
344,196,32263,2,0,L|193:89,1,180
359,314,32768,2,0,L|359:199,1,90
179,124,33105,6,0,L|76:124,1,90
260,243,33442,2,0,L|371:243,1,90
170,157,33780,2,0,L|66:157,2,90
333,74,34285,1,0,0:0:0:0:
171,313,34454,6,0,L|281:313,1,90
422,228,34791,1,0,0:0:0:0:
135,168,34959,2,0,B|44:168|44:168|140:169,1,180
307,93,35465,2,0,L|416:93,1,90
217,325,35802,6,0,L|374:217,1,180
202,122,36308,2,0,B|101:122|101:122|217:123,1,180
350,325,36813,2,0,L|350:220,1,90
171,149,37150,6,0,L|323:281,1,180
145,260,37656,2,0,B|146:167|146:167|249:167,1,180
404,172,38162,2,0,L|404:73,1,90
224,235,38499,6,0,L|119:235,1,90
424,328,38836,1,0,0:0:0:0:
424,243,39004,1,0,0:0:0:0:
333,160,39173,1,0,0:0:0:0:
243,86,39341,1,0,0:0:0:0:
71,274,39510,2,0,L|71:179,1,90
387,296,39847,6,0,L|288:296,2,90
99,161,40521,2,0,L|192:161,2,90
432,292,41195,6,0,L|68:292,1,360
361,197,42544,5,0,0:0:0:0:
199,120,42712,2,0,L|93:120,2,90
361,337,43218,2,0,L|361:246,1,90
235,170,43555,2,0,L|235:68,1,90
396,250,43892,6,0,L|396:147,1,90
234,238,44229,2,0,L|128:238,1,90
307,153,44566,1,0,0:0:0:0:
144,73,44735,2,0,L|45:73,1,90
343,319,45240,5,0,0:0:0:0:
179,229,45409,1,0,0:0:0:0:
179,137,45577,1,0,0:0:0:0:
271,63,45746,1,0,0:0:0:0:
433,320,45914,2,0,L|434:223,1,90
308,153,46251,2,0,L|308:47,1,90
126,263,46589,5,0,0:0:0:0:
289,197,46757,1,0,0:0:0:0:
199,115,46926,1,0,0:0:0:0:
110,197,47094,1,0,0:0:0:0:
273,312,47263,1,0,0:0:0:0:
103,175,47431,2,0,L|103:83,1,90
355,181,47937,6,0,L|245:181,1,90
130,95,48274,2,0,L|252:96,1,90
381,323,48611,2,0,L|381:231,1,90
210,162,48948,2,0,L|210:67,1,90
381,231,49285,5,0,0:0:0:0:
199,152,49454,1,0,0:0:0:0:
199,73,49622,1,0,0:0:0:0:
289,36,49791,1,0,0:0:0:0:
126,301,49959,2,0,L|221:301,1,90
381,231,50296,2,0,L|381:131,1,90
92,164,50633,6,0,B|92:72|92:72|201:72,1,180
345,301,51139,2,0,L|183:191,1,180
359,151,51645,2,0,L|359:52,1,90
189,257,51982,6,0,L|69:257,1,90
252,166,52319,2,0,L|136:166,1,90
342,321,52656,1,0,0:0:0:0:
431,243,52824,1,0,0:0:0:0:
343,167,52993,1,0,0:0:0:0:
433,93,53162,1,0,0:0:0:0:
119,260,53330,6,0,B|141:212|118:172|123:124|137:76,1,180
369,301,54004,2,0,B|396:242|372:200|346:165|373:118,1,180
63,239,54678,2,0,B|70:168|100:108|193:66|261:50|320:70|368:105|427:144|444:184|456:243|452:247,1,540
165,270,55858,6,0,L|56:270,2,90
327,190,56364,2,0,L|426:190,1,90
246,100,56701,2,0,L|138:100,1,90
332,284,57038,2,0,L|425:284,1,90
148,214,57375,6,0,L|54:214,1,90
339,139,57712,2,0,L|431:140,2,90
166,57,58218,1,0,0:0:0:0:
426,328,58386,1,0,0:0:0:0:
141,237,58555,5,0,0:0:0:0:
141,143,58723,1,0,0:0:0:0:
231,75,58892,1,0,0:0:0:0:
392,243,59060,2,0,L|282:243,1,90
130,149,59397,6,0,L|240:149,1,90
399,57,59735,2,0,L|298:57,1,90
147,320,60072,2,0,L|147:225,1,90
327,142,60409,2,0,L|434:142,1,90
137,54,60746,2,0,L|38:54,2,90
414,255,61251,5,0,0:0:0:0:
323,172,61420,1,0,0:0:0:0:
233,254,61589,1,0,0:0:0:0:
72,77,61757,2,0,L|71:188,1,90
236,319,62094,2,0,L|236:212,1,90
409,170,62431,2,0,L|410:69,1,90
122,85,62768,5,0,0:0:0:0:
389,322,62937,2,0,B|441:244|441:218|389:152,1,180
234,77,63442,2,0,L|234:181,1,90
68,275,63780,2,0,L|69:166,1,90
386,103,64117,6,0,L|291:103,2,90
116,214,64791,2,0,L|220:214,2,90
386,116,65296,1,0,0:0:0:0:
87,54,65465,6,0,L|196:54,2,90
375,344,66139,1,0,0:0:0:0:
438,280,66223,1,0,0:0:0:0:
438,280,66308,1,0,0:0:0:0:
375,344,66392,1,0,0:0:0:0:
105,168,66476,1,0,0:0:0:0:
370,82,66813,6,0,L|182:82,1,180
352,296,67319,2,0,B|352:201|352:201|253:201,1,180
97,122,67824,2,0,L|98:216,1,90
425,333,68162,5,0,0:0:0:0:
425,253,68330,1,0,0:0:0:0:
353,169,68499,1,0,0:0:0:0:
80,329,68836,1,0,0:0:0:0:
80,241,69005,1,0,0:0:0:0:
152,157,69173,1,0,0:0:0:0:
421,81,69341,1,0,0:0:0:0:
100,75,69510,6,0,L|212:76,2,90
379,319,70015,1,0,0:0:0:0:
103,222,70184,2,0,L|103:130,1,90
387,128,70521,2,0,L|387:222,1,90
70,318,70858,6,0,L|163:318,1,90
432,220,71195,1,0,0:0:0:0:
466,114,71532,2,0,L|353:114,1,90
100,112,71869,1,0,0:0:0:0:
371,337,72206,6,0,L|467:337,1,90
92,224,72544,2,0,L|203:224,1,90
397,192,73723,5,0,0:0:0:0:
262,105,73892,1,0,0:0:0:0:
397,43,74060,1,0,0:0:0:0:
108,281,74229,1,0,0:0:0:0:
378,199,74566,1,0,0:0:0:0:
107,212,74903,6,0,B|106:119|106:119|206:118,1,180
355,327,75409,2,0,B|458:327|459:327|362:244,1,180
195,134,75914,2,0,L|79:134,1,90
276,286,76251,6,0,L|379:286,2,90
114,191,76757,2,0,L|209:191,2,90
294,96,77263,1,0,0:0:0:0:
119,328,77431,5,0,0:0:0:0:
119,235,77600,1,0,0:0:0:0:
209,152,77768,1,0,0:0:0:0:
373,320,77937,6,0,L|267:320,1,90
112,110,78274,2,0,L|223:110,1,90
374,244,78611,2,0,L|252:244,1,90
104,167,78948,6,0,L|201:167,2,90
282,317,79454,1,0,0:0:0:0:
111,230,79622,1,0,0:0:0:0:
284,136,79791,2,0,L|383:136,1,90
93,59,80128,6,0,L|188:60,2,90
380,295,80633,2,0,L|380:190,1,90
87,301,80971,2,0,L|86:203,1,90
395,303,81308,2,0,L|395:195,1,90
105,123,81645,6,0,L|225:123,1,90
367,231,81982,2,0,L|367:328,1,90
92,123,82319,2,0,L|214:123,1,90
348,283,82656,2,0,L|446:283,1,90
149,207,82993,6,0,L|149:111,1,90
438,324,83330,2,0,L|338:324,1,90
69,82,83667,2,0,L|163:82,1,90
430,313,84004,2,0,L|430:207,1,90
42,304,84341,5,0,0:0:0:0:
168,231,84510,1,0,0:0:0:0:
42,304,84678,1,0,0:0:0:0:
168,231,84847,1,0,0:0:0:0:
446,313,85015,1,0,0:0:0:0:
319,226,85184,1,0,0:0:0:0:
446,313,85353,1,0,0:0:0:0:
319,226,85521,1,0,0:0:0:0:
256,192,87712,5,0,0:0:0:0:
256,192,87881,12,0,91589,0:0:0:0:
