osu file format v14

[General]
AudioFilename: audio.mp3
AudioLeadIn: 0
PreviewTime: -1
Countdown: 0
SampleSet: Soft
StackLeniency: 0.7
Mode: 0
LetterboxInBreaks: 0
WidescreenStoryboard: 0

[Editor]
DistanceSpacing: 5.5
BeatDivisor: 4
GridSize: 8
TimelineZoom: 2.2

[Metadata]
Title:Chikatto Chika Chika
TitleUnicode:Chikatto Chika Chika
Artist:Nanahira
ArtistUnicode:Nanahira
Creator:I Love Chiaki
Version:el sotarko
Source:かぐや様は告らせたい~天才たちの恋愛頭脳戦~
Tags:anime chika nanahira chika chikatto anime op cover
BeatmapID:2264143
BeatmapSetID:1082413

[Difficulty]
HPDrainRate:5.5
CircleSize:3.8
OverallDifficulty:9.2
ApproachRate:9.4
SliderMultiplier:1.2
SliderTickRate:1

[Events]
//Background and Video events
0,0,"chikadeadlol.png",0,0
//Break Periods
//Storyboard Layer 0 (Background)
//Storyboard Layer 1 (Fail)
//Storyboard Layer 2 (Pass)
//Storyboard Layer 3 (Foreground)
//Storyboard Layer 4 (Overlay)
//Storyboard Sound Samples

[TimingPoints]
-604,337.078651685393,4,2,0,100,1,0
70,-100,4,2,0,100,0,0
10182,-83.3333333333333,4,2,0,100,0,0
14227,-83.3333333333333,4,2,0,100,0,0
39845,-50,4,2,0,100,0,1
41193,-133.333333333333,4,2,0,100,0,0
47935,-100,4,2,0,100,0,0
54676,-142.857142857143,4,2,0,100,0,0
55772,-66.6666666666667,4,2,0,100,0,0
57542,-66.6666666666667,4,2,0,100,0,0
66811,-125,4,2,0,100,0,0
74901,-66.6666666666667,4,2,0,100,0,0
87710,-333.333333333333,4,2,0,100,0,0

[HitObjects]
442,69,70,6,0,B|309:76|378:159|227:155,3,240
115,249,4115,6,0,B|111:99|194:168|201:35,3,240
203,35,7485,1,0,0:0:0:0:
204,31,8834,1,0,0:0:0:0:
204,31,9508,1,0,0:0:0:0:
190,41,10182,6,0,L|184:141,1,71.9999978027344
163,353,10519,1,0,0:0:0:0:
302,40,10856,6,0,L|311:139,1,71.9999978027344
324,352,11193,1,0,0:0:0:0:
436,35,11530,2,0,P|456:129|457:182,1,143.999995605469
468,287,12036,5,0,0:0:0:0:
468,287,12120,1,0,0:0:0:0:
468,287,12204,2,0,B|288:303|386:196|191:210,1,287.999991210938
153,209,13047,5,0,0:0:0:0:
366,35,13216,1,0,0:0:0:0:
292,340,13384,1,0,0:0:0:0:
369,115,13553,2,0,B|435:154|435:154|461:237,1,143.999995605469
476,293,14227,6,0,P|401:324|337:315,1,143.999995605469
184,173,14733,2,0,P|258:141|322:150,1,143.999995605469
291,345,15238,1,0,0:0:0:0:
449,136,15407,1,0,0:0:0:0:
291,345,15575,5,0,0:0:0:0:
420,140,15744,1,0,0:0:0:0:
218,249,15912,1,0,0:0:0:0:
452,332,16081,1,0,0:0:0:0:
278,115,16249,1,0,0:0:0:0:
299,366,16418,1,0,0:0:0:0:
475,184,16587,6,0,P|420:139|391:133,1,71.9999978027344
203,58,16924,6,0,P|132:51|55:75,1,143.999995605469
147,242,17429,2,0,P|218:249|295:225,1,143.999995605469
171,39,17935,1,0,0:0:0:0:
469,311,18103,1,0,0:0:0:0:
251,62,18440,5,0,0:0:0:0:
351,308,18608,1,0,0:0:0:0:
354,18,18777,1,0,0:0:0:0:
222,360,18946,2,0,P|292:348|351:308,1,143.999995605469
390,42,19620,6,0,P|319:35|242:59,1,143.999995605469
115,213,20125,2,0,P|186:220|263:196,1,143.999995605469
211,41,20631,1,0,0:0:0:0:
116,332,20800,1,0,0:0:0:0:
446,151,20969,2,0,L|366:191,1,71.9999978027344,0|0,2:0|2:0,2:0:0:0:
285,333,21306,5,0,0:0:0:0:
343,36,21474,2,0,P|414:31|478:63,2,143.999995605469
161,273,22317,6,0,P|220:312|299:327,1,143.999995605469
179,27,22822,1,0,0:0:0:0:
487,139,22991,2,0,P|448:198|382:224,1,143.999995605469
254,27,23497,1,0,0:0:0:0:
173,328,23665,1,0,0:0:0:0:
99,83,23834,6,0,P|149:102|195:101,1,71.9999978027344
432,136,24171,2,0,P|378:141|337:162,1,71.9999978027344
265,352,24508,1,0,0:0:0:0:
182,70,24676,1,0,0:0:0:0:
157,250,25013,6,0,P|218:261|301:244,1,143.999995605469
234,48,25519,1,0,0:0:0:0:
376,327,25688,1,0,0:0:0:0:
99,176,25856,1,0,0:0:0:0:
410,118,26025,1,0,0:0:0:0:
246,365,26193,1,0,0:0:0:0:
410,118,26362,6,0,P|349:107|266:124,1,143.999995605469
78,328,26867,2,0,P|139:339|222:322,1,143.999995605469
218,323,27373,1,0,0:0:0:0:
143,79,27710,5,0,0:0:0:0:
230,356,27879,1,0,0:0:0:0:
273,71,28047,1,0,0:0:0:0:
120,336,28216,1,0,0:0:0:0:
357,151,28384,5,0,0:0:0:0:
43,269,28553,1,0,0:0:0:0:
365,272,28721,1,0,0:0:0:0:
60,119,28890,1,0,0:0:0:0:
251,347,29058,5,0,0:0:0:0:
195,11,29227,1,0,0:0:0:0:
73,333,29395,1,0,0:0:0:0:
333,130,29564,1,0,0:0:0:0:
19,184,29733,2,0,P|84:225|164:221,1,143.999995605469
407,46,30407,6,0,P|336:39|259:63,1,143.999995605469
139,201,30912,2,0,P|210:208|287:184,1,143.999995605469
460,51,31418,1,0,0:0:0:0:
451,343,31587,1,0,0:0:0:0:
320,94,31755,5,0,0:0:0:0:
238,334,31924,1,0,0:0:0:0:
421,163,32092,1,0,0:0:0:0:
164,117,32261,2,0,P|164:189|187:265,1,143.999995605469
305,335,32766,2,0,P|308:284|299:233,1,71.9999978027344
233,28,33103,6,0,P|230:79|239:130,1,71.9999978027344
197,336,33440,1,0,0:0:0:0:
412,165,33609,1,0,0:0:0:0:
60,257,33778,6,0,P|111:260|207:238,1,143.999995605469
272,34,34283,1,0,0:0:0:0:
30,149,34452,1,0,0:0:0:0:
265,266,34620,1,0,0:0:0:0:
146,15,34789,1,0,0:0:0:0:
275,265,34957,1,0,0:0:0:0:
310,45,35126,2,0,P|391:49|401:60,2,71.9999978027344
446,324,35800,6,0,P|376:339|305:328,1,143.999995605469
151,195,36306,2,0,P|220:179|291:190,1,143.999995605469
222,353,36811,1,0,0:0:0:0:
452,71,36980,1,0,0:0:0:0:
452,71,37148,6,0,P|381:60|311:75,1,143.999995605469
193,251,37654,2,0,P|263:261|333:246,1,143.999995605469
197,37,38160,1,0,0:0:0:0:
83,345,38328,1,0,0:0:0:0:
320,242,38497,2,0,P|384:212|434:161,1,143.999995605469
449,10,39002,6,0,P|383:39|332:90,1,143.999995605469
161,214,39508,2,0,P|220:241|256:242,1,71.9999978027344
391,285,39845,6,0,P|403:310|404:366,4,60
215,190,40519,2,0,P|203:165|202:109,4,60
289,125,41193,2,0,B|323:210|278:298|278:298|321:285|373:290,1,270.000010299683
138,93,42542,5,0,0:0:0:0:
124,209,42710,1,0,0:0:0:0:
220,173,42879,5,0,0:0:0:0:
262,281,43047,1,0,0:0:0:0:
311,196,43216,5,0,0:0:0:0:
395,276,43384,1,0,0:0:0:0:
420,148,43553,1,0,0:0:0:0:
311,196,43721,5,0,0:0:0:0:
326,321,43890,1,0,0:0:0:0:
188,156,44058,5,0,0:0:0:0:
256,261,44227,1,0,0:0:0:0:
259,52,44395,5,0,0:0:0:0:
274,177,44564,1,0,0:0:0:0:
370,48,44733,5,0,0:0:0:0:
269,183,44902,1,0,0:0:0:0:
157,251,45238,5,0,0:0:0:0:
300,86,45407,1,0,0:0:0:0:
281,303,45575,1,0,0:0:0:0:
169,116,45744,1,0,0:0:0:0:
370,202,45912,1,0,0:0:0:0:
25,193,46249,1,0,0:0:0:0:
25,193,46587,5,0,0:0:0:0:
370,202,46755,1,0,0:0:0:0:
169,116,46923,1,0,0:0:0:0:
281,303,47092,1,0,0:0:0:0:
300,86,47260,1,0,0:0:0:0:
157,251,47429,1,0,0:0:0:0:
382,187,47598,1,0,0:0:0:0:
100,69,47935,6,0,P|142:57|177:66,1,60
352,125,48272,1,0,0:0:0:0:
352,125,48440,2,0,P|317:151|281:156,1,60
113,225,48778,1,0,0:0:0:0:
113,225,48946,2,0,P|134:245|162:256,1,60
349,160,49283,1,0,0:0:0:0:
349,160,49451,6,0,P|354:188|349:217,1,60
238,282,49789,2,0,P|232:253|237:224,1,60
187,34,50294,1,0,0:0:0:0:
396,345,50463,1,0,0:0:0:0:
372,41,50631,2,0,P|386:81|377:119,1,60
315,342,50969,1,0,0:0:0:0:
195,174,51137,2,0,P|181:134|190:96,1,60
293,12,51474,5,0,0:0:0:0:
409,283,51643,2,0,P|423:323|414:361,1,60
302,265,51980,2,0,P|288:225|297:187,1,60
338,25,52317,1,0,0:0:0:0:
410,324,52485,1,0,0:0:0:0:
103,301,52654,6,0,B|99:151|182:220|189:87,1,240
249,337,54002,1,0,0:0:0:0:
89,46,54676,6,0,B|226:41|157:124|322:117,1,251.999992309571
404,68,55856,2,0,P|416:117|383:247,1,180.000006866455
266,358,56362,1,0,0:0:0:0:
92,33,56530,1,0,0:0:0:0:
376,324,56699,1,0,0:0:0:0:
55,111,56867,1,0,0:0:0:0:
426,242,57036,1,0,0:0:0:0:
60,217,57204,1,0,0:0:0:0:
356,139,57373,1,0,0:0:0:0:
166,298,57542,1,0,0:0:0:0:
192,81,57710,1,0,0:0:0:0:
344,304,57879,1,0,0:0:0:0:
149,190,58047,6,0,P|133:124|199:35,1,180.000006866455
465,195,58553,6,0,P|481:261|415:350,1,180.000006866455
300,51,59058,1,0,0:0:0:0:
215,334,59227,1,0,0:0:0:0:
220,55,59395,1,0,0:0:0:0:
295,318,59564,1,0,0:0:0:0:
361,81,59733,1,0,0:0:0:0:
278,318,59901,1,0,0:0:0:0:
222,81,60070,1,0,0:0:0:0:
358,321,60238,1,0,0:0:0:0:
374,91,60407,1,0,0:0:0:0:
367,322,60575,1,0,0:0:0:0:
222,94,60744,6,0,P|158:173|147:257,1,180.000006866455
224,362,61249,2,0,P|288:283|299:199,1,180.000006866455
352,35,61755,1,0,0:0:0:0:
272,313,61924,1,0,0:0:0:0:
147,116,62093,1,0,0:0:0:0:
391,290,62261,1,0,0:0:0:0:
337,24,62430,1,0,0:0:0:0:
195,258,62598,1,0,0:0:0:0:
382,155,62766,6,0,P|441:124|474:67,2,135.000005149841
219,203,63440,1,0,0:0:0:0:
127,49,64115,2,0,P|182:78|236:114,1,90.0000034332277
263,318,64452,1,0,0:0:0:0:
302,121,64789,6,0,P|357:92|411:56,2,90.0000034332277
221,318,65294,1,0,0:0:0:0:
130,85,65463,1,0,0:0:0:0:
206,312,65631,1,0,0:0:0:0:
284,82,65800,1,0,0:0:0:0:
210,306,65969,1,0,0:0:0:0:
100,138,66137,6,0,P|161:115|225:117,1,90.0000034332277
362,241,66474,2,0,P|301:264|237:262,1,90.0000034332277
88,55,66811,6,0,B|225:50|156:133|297:125,1,216
426,120,68160,5,0,0:0:0:0:
126,313,68328,1,0,0:0:0:0:
342,204,68834,5,0,0:0:0:0:
50,76,69002,1,0,0:0:0:0:
241,283,69508,5,0,0:0:0:0:
385,113,69676,1,0,0:0:0:0:
90,68,70182,5,0,0:0:0:0:
329,243,70351,1,0,0:0:0:0:
344,88,70856,5,0,0:0:0:0:
102,241,71025,1,0,0:0:0:0:
345,294,71530,5,0,0:0:0:0:
104,106,71699,1,0,0:0:0:0:
193,384,72204,5,0,0:0:0:0:
196,0,72372,1,0,0:0:0:0:
323,384,72541,1,0,0:0:0:0:
325,0,72709,1,0,0:0:0:0:
193,384,73721,5,0,0:0:0:0:
196,0,73889,1,0,0:0:0:0:
323,384,74058,1,0,0:0:0:0:
325,0,74226,1,0,0:0:0:0:
182,61,74901,6,0,P|262:86|342:154,1,180.000006866455
425,321,75407,2,0,P|345:296|265:228,1,180.000006866455
247,78,75912,1,0,0:0:0:0:
311,259,76081,1,0,0:0:0:0:
143,167,76249,1,0,0:0:0:0:
345,153,76418,1,0,0:0:0:0:
174,269,76587,1,0,0:0:0:0:
345,153,76755,1,0,0:0:0:0:
171,274,76924,1,0,0:0:0:0:
345,153,77092,1,0,0:0:0:0:
174,269,77261,1,0,0:0:0:0:
146,67,77429,5,0,0:0:0:0:
128,173,77598,1,0,0:0:0:0:
207,136,77766,5,0,0:0:0:0:
266,225,77935,1,0,0:0:0:0:
308,44,78103,5,0,0:0:0:0:
290,150,78272,1,0,0:0:0:0:
379,107,78440,5,0,0:0:0:0:
421,205,78609,1,0,0:0:0:0:
310,183,78778,1,0,0:0:0:0:
372,139,78946,5,0,0:0:0:0:
393,188,79115,1,0,0:0:0:0:
337,177,79284,1,0,0:0:0:0:
367,149,79452,5,0,0:0:0:0:
380,179,79621,1,0,0:0:0:0:
346,173,79790,1,0,0:0:0:0:
164,40,80294,1,0,0:0:0:0:
261,262,80463,1,0,0:0:0:0:
441,179,80631,1,0,0:0:0:0:
142,97,80800,1,0,0:0:0:0:
167,314,80969,1,0,0:0:0:0:
382,241,81137,1,0,0:0:0:0:
195,49,81306,1,0,0:0:0:0:
222,265,81474,1,0,0:0:0:0:
423,191,81643,1,0,0:0:0:0:
184,80,81811,1,0,0:0:0:0:
243,273,81980,1,0,0:0:0:0:
403,174,82148,1,0,0:0:0:0:
183,66,82317,1,0,0:0:0:0:
191,268,82485,1,0,0:0:0:0:
383,164,82654,1,0,0:0:0:0:
346,269,82823,1,0,0:0:0:0:
131,141,82991,1,0,0:0:0:0:
395,137,83160,1,0,0:0:0:0:
124,140,83328,1,0,0:0:0:0:
349,287,83497,1,0,0:0:0:0:
199,101,83665,1,0,0:0:0:0:
358,279,83833,1,0,0:0:0:0:
122,112,84002,1,0,0:0:0:0:
405,177,84170,1,0,0:0:0:0:
110,263,84339,1,0,0:0:0:0:
196,44,84508,1,0,0:0:0:0:
434,143,84676,1,0,0:0:0:0:
124,160,84845,1,0,0:0:0:0:
385,297,85013,1,0,0:0:0:0:
130,122,85182,1,0,0:0:0:0:
365,97,85351,1,0,0:0:0:0:
33,350,85519,1,0,0:0:0:0:
61,118,87710,6,0,B|333:89|160:293|422:257,1,413.999987365723
