osu file format v14

[General]
AudioFilename: audio.mp3
AudioLeadIn: 0
PreviewTime: 55784
Countdown: 0
SampleSet: Normal
StackLeniency: 0.7
Mode: 1
LetterboxInBreaks: 0
WidescreenStoryboard: 0

[Editor]
Bookmarks: 14239,19633,42554
DistanceSpacing: 1.1
BeatDivisor: 4
GridSize: 32
TimelineZoom: 1

[Metadata]
Title:Chikatto Chika Chika
TitleUnicode:チカっとチカ千花っ♡
Artist:Nanahira
ArtistUnicode:ななひら
Creator:Faputa
Version:Kantan
Source:かぐや様は告らせたい〜天才たちの恋愛頭脳戦〜
Tags:DON DA YO FAmoss すみじゅん Halozy Kaguya-sama Love Is War wa Kokurasetai Tensai tachi no Renai Zunousen [Zeth] Nardoxyribonucleic Nifty _Kobii K_a_b_i_- Leniane Dellvangel
BeatmapID:1945741
BeatmapSetID:931690

[Difficulty]
HPDrainRate:8
CircleSize:2
OverallDifficulty:3
ApproachRate:10
SliderMultiplier:1.4
SliderTickRate:1

[Events]
//Background and Video events
0,0,"nanahira-magic.jpeg",0,80
//Break Periods
//Storyboard Layer 0 (Background)
//Storyboard Layer 1 (Fail)
//Storyboard Layer 2 (Pass)
//Storyboard Layer 3 (Foreground)
//Storyboard Layer 4 (Overlay)
//Storyboard Sound Samples

[TimingPoints]
83,674.157303370787,3,1,0,80,1,0
83,-52.6315789473684,3,1,0,80,0,0
6150,337.078651685393,4,1,0,90,1,0
6150,-105.263157894737,4,1,0,90,0,0
55869,-105.263157894737,4,1,0,90,0,1
72723,-105.263157894737,4,1,0,90,0,0
87723,-105.263157894737,4,1,0,90,0,1
91599,-105.263157894737,4,1,0,90,0,0

[HitObjects]
256,192,83,5,0,0:0:0:0:
256,192,757,1,8,0:0:0:0:
256,192,1431,1,8,0:0:0:0:
256,192,2105,1,0,0:0:0:0:
256,192,4127,1,0,0:0:0:0:
256,192,4802,1,0,0:0:0:0:
256,192,5476,1,8,0:0:0:0:
256,192,6150,1,0,0:0:0:0:
256,192,7498,1,0,0:0:0:0:
256,192,8846,1,0,0:0:0:0:
256,192,9520,1,0,0:0:0:0:
256,192,10194,1,4,0:0:0:0:
256,192,10869,1,4,0:0:0:0:
256,192,11543,1,12,0:0:0:0:
256,192,12217,1,8,0:0:0:0:
256,192,13060,1,0,0:0:0:0:
256,192,13228,1,0,0:0:0:0:
256,192,13565,1,0,0:0:0:0:
256,192,14239,1,4,0:0:0:0:
256,192,15588,1,0,0:0:0:0:
256,192,15925,1,8,0:0:0:0:
256,192,16599,1,8,0:0:0:0:
256,192,16936,1,0,0:0:0:0:
256,192,18453,1,8,0:0:0:0:
256,192,18621,1,8,0:0:0:0:
256,192,18958,1,8,0:0:0:0:
256,192,19633,1,8,0:0:0:0:
256,192,20644,1,8,0:0:0:0:
256,192,20981,1,0,0:0:0:0:
256,192,22329,1,0,0:0:0:0:
256,192,22666,1,8,0:0:0:0:
256,192,23003,1,8,0:0:0:0:
256,192,23678,1,0,0:0:0:0:
256,192,25026,1,0,0:0:0:0:
256,192,25700,1,8,0:0:0:0:
256,192,26374,1,0,0:0:0:0:
256,192,26880,1,12,0:0:0:0:
256,192,27723,1,8,0:0:0:0:
256,192,28060,1,8,0:0:0:0:
256,192,28397,1,8,0:0:0:0:
256,192,28734,1,8,0:0:0:0:
256,192,29239,1,8,0:0:0:0:
256,192,29408,1,8,0:0:0:0:
256,192,29745,1,8,0:0:0:0:
256,192,30419,1,8,0:0:0:0:
256,192,31093,1,0,0:0:0:0:
256,192,31767,1,0,0:0:0:0:
256,192,33116,1,0,0:0:0:0:
256,192,33453,1,0,0:0:0:0:
256,192,33790,1,8,0:0:0:0:
256,192,34464,1,0,0:0:0:0:
256,192,34970,1,12,0:0:0:0:
256,192,35812,1,0,0:0:0:0:
256,192,36487,1,0,0:0:0:0:
256,192,37161,1,8,0:0:0:0:
256,192,37498,1,8,0:0:0:0:
256,192,38509,1,0,0:0:0:0:
256,192,38846,1,8,0:0:0:0:
256,192,39857,1,8,0:0:0:0:
256,192,40532,1,8,0:0:0:0:
256,192,41206,1,0,0:0:0:0:
256,192,42554,1,8,0:0:0:0:
256,192,43902,1,8,0:0:0:0:
256,192,44576,1,0,0:0:0:0:
256,192,45251,1,8,0:0:0:0:
256,192,46599,1,8,0:0:0:0:
256,192,47273,1,0,0:0:0:0:
256,192,47947,1,8,0:0:0:0:
256,192,48284,1,8,0:0:0:0:
256,192,48621,1,0,0:0:0:0:
256,192,49296,1,8,0:0:0:0:
256,192,49970,1,8,0:0:0:0:
256,192,50644,1,12,0:0:0:0:
256,192,51655,1,8,0:0:0:0:
256,192,51992,1,0,0:0:0:0:
256,192,52666,1,0,0:0:0:0:
256,192,53341,1,4,0:0:0:0:
256,192,54015,1,4,0:0:0:0:
256,192,54689,1,12,0:0:0:0:
256,192,56037,1,0,0:0:0:0:
256,192,56374,1,8,0:0:0:0:
256,192,57048,1,0,0:0:0:0:
256,192,57385,1,8,0:0:0:0:
256,192,58060,1,8,0:0:0:0:
256,192,58734,1,0,0:0:0:0:
256,192,59408,1,0,0:0:0:0:
256,192,59745,1,8,0:0:0:0:
256,192,60082,1,0,0:0:0:0:
256,192,61430,1,0,0:0:0:0:
256,192,62105,1,8,0:0:0:0:
256,192,62442,1,0,0:0:0:0:
256,192,62779,1,8,0:0:0:0:
256,192,63453,1,8,0:0:0:0:
256,192,64127,1,0,0:0:0:0:
256,192,64801,1,8,0:0:0:0:
256,192,65475,1,8,0:0:0:0:
256,192,66149,1,8,0:0:0:0:
256,192,66487,1,8,0:0:0:0:
256,192,66824,1,0,0:0:0:0:
256,192,68172,1,0,0:0:0:0:
256,192,68846,1,8,0:0:0:0:
256,192,69520,1,0,0:0:0:0:
256,192,70194,1,8,0:0:0:0:
256,192,70869,1,0,0:0:0:0:
256,192,71543,1,0,0:0:0:0:
256,192,72217,1,0,0:0:0:0:
256,192,72385,1,0,0:0:0:0:
256,192,72723,1,12,0:0:0:0:
256,192,73734,1,0,0:0:0:0:
256,192,73902,1,0,0:0:0:0:
256,192,74239,1,0,0:0:0:0:
256,192,74914,1,4,0:0:0:0:
256,192,75926,1,8,0:0:0:0:
266,191,76262,1,0,0:0:0:0:
256,192,77611,1,0,0:0:0:0:
256,192,78622,1,8,0:0:0:0:
256,192,79296,1,0,0:0:0:0:
256,192,79633,1,8,0:0:0:0:
256,192,80307,1,0,0:0:0:0:
256,192,80644,1,8,0:0:0:0:
256,192,80981,1,8,0:0:0:0:
256,192,81655,1,0,0:0:0:0:
256,192,82329,1,8,0:0:0:0:
256,192,83003,1,0,0:0:0:0:
256,192,83678,1,0,0:0:0:0:
256,192,84352,1,0,0:0:0:0:
256,192,84689,1,8,0:0:0:0:
256,192,85026,1,0,0:0:0:0:
256,192,85363,1,8,0:0:0:0:
256,192,85532,1,8,0:0:0:0:
256,192,87723,1,12,0:0:0:0:
256,192,87891,12,12,91599,0:0:0:0:
