osu file format v14

[General]
AudioFilename: audio.mp3
AudioLeadIn: 0
PreviewTime: 55719
Countdown: 0
SampleSet: Soft
StackLeniency: 0.7
Mode: 3
LetterboxInBreaks: 0
SpecialStyle: 0
WidescreenStoryboard: 1

[Editor]
DistanceSpacing: 0.8
BeatDivisor: 4
GridSize: 8
TimelineZoom: 1

[Metadata]
Title:Chikatto Chika Chika
TitleUnicode:チカっとチカ千花っ♡
Artist:Nanahira
ArtistUnicode:ななひら
Creator:- Theya -
Version:Normal
Source:かぐや様は告らせたい~天才たちの恋愛頭脳戦~
Tags:Kaguya-sama Love Is War Kaguya sama wa kokurasetai Tensai-tachi no Renai Zunousen wants to be confessed to japanese pop jpop j anime The Geniuses' War of Love and Brains utatte mita tv size
BeatmapID:2016264
BeatmapSetID:962991

[Difficulty]
HPDrainRate:8
CircleSize:4
OverallDifficulty:8
ApproachRate:5
SliderMultiplier:1.4
SliderTickRate:1

[Events]
//Background and Video events
0,0,"bg.jpg",0,0
//Break Periods
//Storyboard Layer 0 (Background)
//Storyboard Layer 1 (Fail)
//Storyboard Layer 2 (Pass)
//Storyboard Layer 3 (Foreground)
//Storyboard Sound Samples

[TimingPoints]
10226,337.078651685393,4,2,1,60,1,0
42585,-100,4,1,1,60,0,0
50675,-100,4,2,1,60,0,0
56068,-100,4,2,1,60,0,1
64158,-100,4,2,1,60,0,0
68203,-100,4,2,1,60,0,1
73596,-100,4,2,1,60,0,0
80338,-100,4,2,1,60,0,1
85563,-100,4,2,1,60,0,0

[HitObjects]
64,192,113,128,2,787:0:0:0:0:
448,192,787,128,2,1461:0:0:0:0:
320,192,1461,128,2,2136:0:0:0:0:
192,192,2136,128,2,4158:0:0:0:0:
64,192,4158,128,2,4832:0:0:0:0:
320,192,4832,128,2,5506:0:0:0:0:
192,192,5506,128,2,6181:0:0:0:0:
448,192,6181,128,2,7529:0:0:0:0:
64,192,7529,128,2,8877:0:0:0:0:
448,192,8877,128,2,9551:0:0:0:0:
192,192,9551,128,2,10225:0:0:0:0:
320,192,10225,1,8,0:0:0:0:
448,192,10225,128,2,10563:0:0:0:0:
192,192,10563,1,2,0:0:0:0:
64,192,10900,128,2,11237:0:0:0:0:
448,192,10900,1,8,0:0:0:0:
320,192,11237,1,2,0:0:0:0:
64,192,11574,128,2,12248:0:0:0:0:
192,192,11574,1,8,0:0:0:0:
448,192,12079,1,0,0:0:0:0:
320,192,12248,128,0,13091:0:0:0:0:
64,192,13091,1,8,0:0:0:0:
192,192,13091,1,0,0:0:0:0:
448,192,13259,1,8,0:0:0:0:
64,192,13428,1,8,0:0:0:0:
448,192,13596,1,8,0:0:0:0:
320,192,13596,1,0,0:0:0:0:
192,192,13933,128,4,14270:0:0:0:0:
320,192,14270,1,2,0:0:0:0:
192,192,14608,1,2,0:0:0:0:
64,192,14608,1,8,0:0:0:0:
448,192,14776,128,2,15113:0:0:0:0:
320,192,15113,1,2,0:0:0:0:
64,192,15282,1,2,0:0:0:0:
192,192,15282,1,8,0:0:0:0:
320,192,15450,1,0,0:0:0:0:
448,192,15619,1,2,0:0:0:0:
64,192,15787,1,0,0:0:0:0:
320,192,15956,1,2,0:0:0:0:
448,192,15956,1,8,0:0:0:0:
192,192,16124,1,0,0:0:0:0:
64,192,16293,1,0,0:0:0:0:
320,192,16461,1,2,0:0:0:0:
64,192,16630,1,8,0:0:0:0:
448,192,16630,1,2,0:0:0:0:
192,192,16799,1,0,0:0:0:0:
320,192,16967,128,2,17304:0:0:0:0:
64,192,17304,1,8,0:0:0:0:
192,192,17304,1,2,0:0:0:0:
448,192,17473,128,2,17810:0:0:0:0:
192,192,17810,1,2,0:0:0:0:
64,192,17978,1,8,0:0:0:0:
320,192,17978,1,2,0:0:0:0:
448,192,18147,128,0,18484:0:0:0:0:
64,192,18484,1,2,0:0:0:0:
192,192,18484,1,8,0:0:0:0:
320,192,18652,1,10,0:0:0:0:
192,192,18821,1,10,0:0:0:0:
64,192,18990,128,2,19327:0:0:0:0:
448,192,18990,1,8,0:0:0:0:
320,192,19327,128,0,19664:0:0:0:0:
64,192,19664,1,2,0:0:0:0:
320,192,20001,1,2,0:0:0:0:
448,192,20001,1,8,0:0:0:0:
64,192,20169,1,2,0:0:0:0:
64,192,20506,1,2,0:0:0:0:
320,192,20675,1,2,0:0:0:0:
448,192,20675,1,8,0:0:0:0:
192,192,20843,1,0,0:0:0:0:
64,192,21012,1,2,0:0:0:0:
320,192,21181,1,0,0:0:0:0:
64,192,21349,1,2,0:0:0:0:
448,192,21349,1,8,0:0:0:0:
192,192,21518,1,2,0:0:0:0:
192,192,21855,1,2,0:0:0:0:
64,192,22023,1,2,0:0:0:0:
448,192,22023,1,8,0:0:0:0:
64,192,22360,1,0,0:0:0:0:
320,192,22697,1,8,0:0:0:0:
448,192,22697,1,2,0:0:0:0:
64,192,22866,1,2,0:0:0:0:
448,192,23034,1,0,0:0:0:0:
192,192,23203,1,2,0:0:0:0:
320,192,23372,1,8,0:0:0:0:
448,192,23372,1,2,0:0:0:0:
64,192,23540,1,0,0:0:0:0:
320,192,23709,1,2,0:0:0:0:
192,192,23877,1,0,0:0:0:0:
64,192,24046,1,8,0:0:0:0:
448,192,24046,1,2,0:0:0:0:
320,192,24214,1,2,0:0:0:0:
192,192,24383,1,0,0:0:0:0:
320,192,24551,1,2,0:0:0:0:
64,192,24720,1,8,0:0:0:0:
448,192,24720,1,2,0:0:0:0:
192,192,25057,1,2,0:0:0:0:
320,192,25394,1,8,0:0:0:0:
448,192,25394,1,2,0:0:0:0:
64,192,25563,1,2,0:0:0:0:
192,192,25731,1,0,0:0:0:0:
320,192,25900,1,2,0:0:0:0:
64,192,26068,1,2,0:0:0:0:
448,192,26068,1,8,0:0:0:0:
192,192,26237,1,0,0:0:0:0:
320,192,26405,1,2,0:0:0:0:
64,192,26574,1,0,0:0:0:0:
320,192,26742,1,2,0:0:0:0:
448,192,26742,1,8,0:0:0:0:
192,192,26911,1,2,0:0:0:0:
192,192,27248,1,2,0:0:0:0:
320,192,27417,1,2,0:0:0:0:
448,192,27417,1,8,0:0:0:0:
64,192,27754,1,2,0:0:0:0:
192,192,27922,1,0,0:0:0:0:
320,192,28091,1,2,0:0:0:0:
448,192,28091,1,8,0:0:0:0:
192,192,28259,1,0,0:0:0:0:
64,192,28428,1,0,0:0:0:0:
320,192,28596,1,2,0:0:0:0:
64,192,28765,1,2,0:0:0:0:
448,192,28765,1,8,0:0:0:0:
192,192,28933,1,0,0:0:0:0:
320,192,29102,1,0,0:0:0:0:
448,192,29270,1,10,0:0:0:0:
192,192,29439,1,10,0:0:0:0:
320,192,29608,1,10,0:0:0:0:
64,192,29776,1,10,0:0:0:0:
320,192,30113,128,0,30450:0:0:0:0:
64,192,30450,1,2,0:0:0:0:
192,192,30787,1,2,0:0:0:0:
448,192,30787,1,8,0:0:0:0:
320,192,30956,1,2,0:0:0:0:
64,192,31124,1,0,0:0:0:0:
192,192,31293,1,2,0:0:0:0:
320,192,31461,1,8,0:0:0:0:
448,192,31461,1,2,0:0:0:0:
64,192,31630,1,0,0:0:0:0:
192,192,31799,1,2,0:0:0:0:
320,192,31967,1,0,0:0:0:0:
192,192,32136,1,2,0:0:0:0:
448,192,32136,1,8,0:0:0:0:
64,192,32304,1,2,0:0:0:0:
64,192,32641,1,2,0:0:0:0:
192,192,32810,1,2,0:0:0:0:
448,192,32810,1,8,0:0:0:0:
64,192,33147,1,2,0:0:0:0:
192,192,33315,1,0,0:0:0:0:
320,192,33484,1,2,0:0:0:0:
448,192,33484,1,8,0:0:0:0:
192,192,33652,1,2,0:0:0:0:
64,192,33821,1,0,0:0:0:0:
320,192,33990,1,2,0:0:0:0:
64,192,34158,1,2,0:0:0:0:
192,192,34158,1,8,0:0:0:0:
320,192,34327,1,0,0:0:0:0:
448,192,34495,1,2,0:0:0:0:
192,192,34664,1,0,0:0:0:0:
64,192,34832,1,8,0:0:0:0:
320,192,34832,1,2,0:0:0:0:
448,192,35001,1,2,0:0:0:0:
192,192,35169,1,0,0:0:0:0:
64,192,35338,1,0,0:0:0:0:
320,192,35506,1,8,0:0:0:0:
448,192,35506,1,2,0:0:0:0:
192,192,35843,1,2,0:0:0:0:
64,192,36181,1,2,0:0:0:0:
448,192,36181,1,8,0:0:0:0:
320,192,36349,1,2,0:0:0:0:
192,192,36686,1,2,0:0:0:0:
64,192,36855,1,8,0:0:0:0:
448,192,36855,1,2,0:0:0:0:
320,192,37023,1,0,0:0:0:0:
192,192,37192,1,2,0:0:0:0:
320,192,37360,1,0,0:0:0:0:
64,192,37529,1,2,0:0:0:0:
448,192,37529,1,8,0:0:0:0:
192,192,37697,1,2,0:0:0:0:
192,192,38034,1,2,0:0:0:0:
64,192,38203,1,2,0:0:0:0:
448,192,38203,1,8,0:0:0:0:
320,192,38372,1,0,0:0:0:0:
192,192,38540,1,2,0:0:0:0:
320,192,38877,1,2,0:0:0:0:
448,192,38877,1,8,0:0:0:0:
64,192,39046,1,2,0:0:0:0:
64,192,39383,1,2,0:0:0:0:
320,192,39551,1,2,0:0:0:0:
448,192,39551,1,8,0:0:0:0:
64,192,39888,128,2,40225:0:0:0:0:
192,192,39888,1,8,0:0:0:0:
320,192,40563,1,2,0:0:0:0:
448,192,40563,128,8,40900:0:0:0:0:
192,192,41237,128,8,42417:0:0:0:0:
320,192,41237,1,2,0:0:0:0:
320,192,42417,128,0,42585:0:0:0:0:
64,192,42585,1,4,0:0:0:0:
448,192,42754,1,4,0:0:0:0:
448,192,43933,1,4,0:0:0:0:
64,192,44102,1,4,0:0:0:0:
64,192,45282,1,4,0:0:0:0:
320,192,45450,1,4,0:0:0:0:
448,192,46630,1,4,0:0:0:0:
192,192,46799,1,4,0:0:0:0:
192,192,47978,1,4,0:0:0:0:
448,192,48147,1,4,0:0:0:0:
64,192,48652,1,8,0:2:0:0:
192,192,48652,1,4,0:0:0:0:
320,192,49327,1,4,0:0:0:0:
64,192,49495,1,4,0:0:0:0:
320,192,50001,1,8,0:2:0:0:
448,192,50001,1,4,0:0:0:0:
64,192,50675,1,10,0:0:0:0:
320,192,51012,1,8,0:0:0:0:
448,192,51012,1,2,0:0:0:0:
64,192,51181,1,2,0:0:0:0:
192,192,51349,1,0,0:0:0:0:
320,192,51518,1,2,0:0:0:0:
64,192,51686,1,2,0:0:0:0:
192,192,51686,1,8,0:0:0:0:
448,192,51855,1,0,0:0:0:0:
320,192,52023,1,2,0:0:0:0:
64,192,52360,1,8,0:0:0:0:
192,192,52360,1,2,0:0:0:0:
448,192,52529,1,2,0:0:0:0:
64,192,52697,1,0,0:0:0:0:
192,192,52866,1,2,0:0:0:0:
448,192,53034,1,8,0:0:0:0:
320,192,53034,1,2,0:0:0:0:
192,192,53372,1,8,0:0:0:0:
320,192,53372,1,2,0:0:0:0:
64,192,53372,1,0,0:0:0:0:
64,192,54046,1,8,0:0:0:0:
448,192,54046,1,2,0:0:0:0:
320,192,54046,1,0,0:0:0:0:
192,192,54720,128,2,55731:0:0:0:0:
320,192,54720,1,8,0:0:0:0:
448,192,54720,1,0,0:0:0:0:
320,192,55731,128,0,56068:0:0:0:0:
64,192,56068,1,2,0:0:0:0:
192,192,56237,1,0,0:0:0:0:
320,192,56405,1,2,0:0:0:0:
448,192,56405,1,8,0:0:0:0:
192,192,56574,1,2,0:0:0:0:
64,192,56742,1,0,0:0:0:0:
320,192,56911,1,2,0:0:0:0:
64,192,57079,1,2,0:0:0:0:
448,192,57079,1,8,0:0:0:0:
192,192,57248,1,0,0:0:0:0:
320,192,57417,1,2,0:0:0:0:
192,192,57585,1,0,0:0:0:0:
64,192,57754,1,2,0:0:0:0:
448,192,57754,1,8,0:0:0:0:
320,192,57922,1,2,0:0:0:0:
192,192,58091,1,0,0:0:0:0:
320,192,58259,1,0,0:0:0:0:
64,192,58428,1,2,0:0:0:0:
448,192,58428,1,8,0:0:0:0:
64,192,58765,1,2,0:0:0:0:
192,192,58933,1,0,0:0:0:0:
320,192,59102,1,2,0:0:0:0:
448,192,59102,1,8,0:0:0:0:
64,192,59270,1,2,0:0:0:0:
320,192,59439,1,0,0:0:0:0:
192,192,59608,1,2,0:0:0:0:
64,192,59776,1,2,0:0:0:0:
448,192,59776,1,8,0:0:0:0:
192,192,59945,1,0,0:0:0:0:
320,192,60113,1,2,0:0:0:0:
192,192,60282,1,0,0:0:0:0:
64,192,60450,1,2,0:0:0:0:
448,192,60450,1,8,0:0:0:0:
320,192,60619,1,0,0:0:0:0:
192,192,60787,1,0,0:0:0:0:
64,192,60956,1,2,0:0:0:0:
192,192,61124,1,2,0:0:0:0:
320,192,61124,1,8,0:0:0:0:
448,192,61461,1,2,0:0:0:0:
320,192,61630,1,0,0:0:0:0:
64,192,61799,1,8,0:0:0:0:
192,192,61799,1,2,0:0:0:0:
448,192,61967,1,2,0:0:0:0:
192,192,62136,1,0,0:0:0:0:
320,192,62304,1,2,0:0:0:0:
64,192,62473,1,8,0:0:0:0:
192,192,62473,1,2,0:0:0:0:
448,192,62641,1,0,0:0:0:0:
320,192,62810,1,2,0:0:0:0:
192,192,62978,1,0,0:0:0:0:
64,192,63147,1,2,0:0:0:0:
320,192,63147,1,8,0:0:0:0:
448,192,63315,1,2,0:0:0:0:
192,192,63484,1,0,0:0:0:0:
64,192,63652,1,2,0:0:0:0:
320,192,63821,1,2,0:0:0:0:
448,192,63821,1,8,0:0:0:0:
64,192,64158,1,2,0:0:0:0:
192,192,64158,1,8,0:0:0:0:
320,192,64327,1,2,0:0:0:0:
448,192,64327,1,8,0:0:0:0:
320,192,64832,1,8,0:0:0:0:
448,192,64832,1,2,0:0:0:0:
64,192,65001,1,8,0:0:0:0:
192,192,65001,1,2,0:0:0:0:
64,192,65506,1,2,0:0:0:0:
320,192,65506,1,8,0:0:0:0:
192,192,65675,1,2,0:0:0:0:
448,192,65675,1,8,0:0:0:0:
448,192,66181,128,0,66518:0:0:0:0:
64,192,66518,1,8,0:0:0:0:
192,192,66518,128,2,66855:0:0:0:0:
448,192,66855,1,2,0:0:0:0:
64,192,67192,1,2,0:0:0:0:
320,192,67192,1,8,0:0:0:0:
192,192,67360,1,2,0:0:0:0:
192,192,67697,1,2,0:0:0:0:
64,192,67866,1,2,0:0:0:0:
320,192,67866,1,8,0:0:0:0:
320,192,68203,1,8,0:0:0:0:
448,192,68203,1,2,0:0:0:0:
64,192,68372,1,8,0:0:0:0:
192,192,68372,1,2,0:0:0:0:
64,192,68877,1,2,0:0:0:0:
192,192,68877,1,8,0:0:0:0:
320,192,69046,1,2,0:0:0:0:
448,192,69046,1,8,0:0:0:0:
192,192,69551,1,8,0:0:0:0:
448,192,69551,1,2,0:0:0:0:
64,192,69720,1,2,0:0:0:0:
320,192,69720,1,8,0:0:0:0:
64,192,70225,1,8,0:0:0:0:
320,192,70225,1,2,0:0:0:0:
192,192,70394,1,2,0:0:0:0:
448,192,70394,1,8,0:0:0:0:
320,192,70900,1,2,0:0:0:0:
448,192,70900,1,8,0:0:0:0:
320,192,71068,1,8,0:0:0:0:
448,192,71068,1,2,0:0:0:0:
64,192,71574,1,8,0:0:0:0:
192,192,71574,1,2,0:0:0:0:
64,192,71742,1,2,0:0:0:0:
192,192,71742,1,8,0:0:0:0:
320,192,72248,1,8,0:0:0:0:
448,192,72248,1,2,0:0:0:0:
64,192,72417,1,2,0:0:0:0:
192,192,72417,1,8,0:0:0:0:
320,192,72585,1,2,0:0:0:0:
448,192,72585,1,8,0:0:0:0:
64,192,72754,128,2,73765:0:0:0:0:
192,192,72754,1,8,0:0:0:0:
192,192,73765,1,2,0:0:0:0:
448,192,73765,1,8,0:0:0:0:
320,192,73933,1,10,0:0:0:0:
192,192,74102,1,10,0:0:0:0:
448,192,74270,1,2,0:0:0:0:
64,192,74270,1,8,0:0:0:0:
320,192,74608,128,0,74945:0:0:0:0:
448,192,74945,1,2,0:0:0:0:
320,192,75113,1,0,0:0:0:0:
64,192,75282,1,2,0:0:0:0:
192,192,75282,1,8,0:0:0:0:
320,192,75450,1,2,0:0:0:0:
448,192,75619,1,0,0:0:0:0:
192,192,75787,1,2,0:0:0:0:
64,192,75956,1,8,0:0:0:0:
320,192,75956,1,2,0:0:0:0:
448,192,76124,1,0,0:0:0:0:
192,192,76293,1,2,0:0:0:0:
64,192,76461,1,0,0:0:0:0:
320,192,76630,1,8,0:0:0:0:
448,192,76630,1,2,0:0:0:0:
192,192,76799,1,2,0:0:0:0:
448,192,76967,1,0,0:0:0:0:
320,192,77136,1,2,0:0:0:0:
64,192,77304,1,8,0:0:0:0:
192,192,77304,1,2,0:0:0:0:
320,192,77473,1,0,0:0:0:0:
192,192,77641,1,2,0:0:0:0:
64,192,77810,1,0,0:0:0:0:
320,192,77978,1,2,0:0:0:0:
448,192,77978,1,8,0:0:0:0:
64,192,78147,1,2,0:0:0:0:
320,192,78315,1,0,0:0:0:0:
192,192,78484,1,2,0:0:0:0:
64,192,78652,1,8,0:0:0:0:
448,192,78652,1,2,0:0:0:0:
320,192,78821,1,0,0:0:0:0:
192,192,78990,1,2,0:0:0:0:
64,192,79158,1,0,0:0:0:0:
320,192,79327,1,2,0:0:0:0:
448,192,79327,1,8,0:0:0:0:
192,192,79495,1,2,0:0:0:0:
64,192,79664,1,0,0:0:0:0:
320,192,79832,1,2,0:0:0:0:
64,192,80001,1,2,0:0:0:0:
192,192,80001,1,8,0:0:0:0:
448,192,80169,1,0,0:0:0:0:
64,192,80338,1,8,0:0:0:0:
192,192,80338,1,2,0:0:0:0:
192,192,80675,1,2,0:0:0:0:
448,192,80675,1,8,0:0:0:0:
64,192,81012,1,2,0:0:0:0:
320,192,81012,1,8,0:0:0:0:
320,192,81349,1,2,0:0:0:0:
448,192,81349,1,8,0:0:0:0:
64,192,81686,1,2,0:0:0:0:
448,192,81686,1,8,0:0:0:0:
64,192,82023,1,2,0:0:0:0:
192,192,82023,1,8,0:0:0:0:
192,192,82360,1,2,0:0:0:0:
320,192,82360,1,8,0:0:0:0:
320,192,82697,1,2,0:0:0:0:
448,192,82697,1,8,0:0:0:0:
64,192,83034,1,2,0:0:0:0:
192,192,83034,1,8,0:0:0:0:
192,192,83372,1,2,0:0:0:0:
448,192,83372,1,8,0:0:0:0:
320,192,83709,1,2,0:0:0:0:
448,192,83709,1,8,0:0:0:0:
64,192,84046,1,8,0:0:0:0:
448,192,84046,1,2,0:0:0:0:
64,192,84383,1,2,0:0:0:0:
192,192,84383,1,8,0:0:0:0:
320,192,84551,1,2,0:0:0:0:
64,192,84720,1,8,0:0:0:0:
448,192,84720,1,2,0:0:0:0:
192,192,84888,1,2,0:0:0:0:
320,192,85057,1,8,0:0:0:0:
448,192,85057,1,2,0:0:0:0:
64,192,85225,1,2,0:0:0:0:
320,192,85394,1,2,0:0:0:0:
448,192,85394,1,8,0:0:0:0:
192,192,85563,1,2,0:0:0:0:
64,192,87754,128,2,91630:0:0:0:0:
192,192,87754,1,8,0:0:0:0:
