osu file format v14

[General]
AudioFilename: audio.mp3
AudioLeadIn: 0
PreviewTime: 55719
Countdown: 0
SampleSet: Soft
StackLeniency: 0.7
Mode: 3
LetterboxInBreaks: 0
SpecialStyle: 0
WidescreenStoryboard: 1

[Editor]
DistanceSpacing: 0.8
BeatDivisor: 4
GridSize: 8
TimelineZoom: 1

[Metadata]
Title:Chikatto Chika Chika
TitleUnicode:チカっとチカ千花っ♡
Artist:Nanahira
ArtistUnicode:ななひら
Creator:- Theya -
Version:Beginner
Source:かぐや様は告らせたい~天才たちの恋愛頭脳戦~
Tags:Kaguya-sama Love Is War Kaguya sama wa kokurasetai Tensai-tachi no Renai Zunousen wants to be confessed to japanese pop jpop j anime The Geniuses' War of Love and Brains utatte mita tv size
BeatmapID:2016262
BeatmapSetID:962991

[Difficulty]
HPDrainRate:8
CircleSize:4
OverallDifficulty:8
ApproachRate:5
SliderMultiplier:1.4
SliderTickRate:1

[Events]
//Background and Video events
0,0,"bg.jpg",0,0
//Break Periods
//Storyboard Layer 0 (Background)
//Storyboard Layer 1 (Fail)
//Storyboard Layer 2 (Pass)
//Storyboard Layer 3 (Foreground)
//Storyboard Sound Samples

[TimingPoints]
10226,337.078651685393,4,2,1,60,1,0
42585,-100,4,1,1,60,0,0
50675,-100,4,2,1,60,0,0
56068,-100,4,2,1,60,0,1
64158,-100,4,2,1,60,0,0
68203,-100,4,2,1,60,0,1
73596,-100,4,2,1,60,0,0
80338,-100,4,2,1,60,0,1
85563,-100,4,2,1,60,0,0

[HitObjects]
64,192,113,5,2,0:0:0:0:
320,192,787,1,2,0:0:0:0:
192,192,1461,1,2,0:0:0:0:
448,192,2136,128,2,4158:0:0:0:0:
192,192,4158,1,2,0:0:0:0:
64,192,4832,1,2,0:0:0:0:
320,192,5506,1,2,0:0:0:0:
448,192,6181,128,2,7529:0:0:0:0:
192,192,7529,128,2,8877:0:0:0:0:
448,192,8877,1,2,0:0:0:0:
64,192,9551,1,2,0:0:0:0:
320,192,10225,1,2,0:0:0:0:
448,192,10225,1,0,0:0:0:0:
192,192,10563,1,2,0:0:0:0:
64,192,10900,1,2,0:0:0:0:
448,192,10900,1,8,0:0:0:0:
192,192,11237,1,2,0:0:0:0:
320,192,11574,1,2,0:0:0:0:
448,192,11574,1,8,0:0:0:0:
64,192,13091,1,8,0:0:0:0:
320,192,13259,1,8,0:0:0:0:
192,192,13428,1,8,0:0:0:0:
448,192,13596,1,8,0:0:0:0:
64,192,13933,1,4,0:0:0:0:
320,192,14270,128,2,14608:0:0:0:0:
64,192,14608,1,2,0:0:0:0:
192,192,14608,1,8,0:0:0:0:
320,192,15282,1,2,0:0:0:0:
448,192,15282,1,8,0:0:0:0:
192,192,15619,1,2,0:0:0:0:
64,192,15956,1,2,0:0:0:0:
448,192,15956,1,8,0:0:0:0:
320,192,16293,1,2,0:0:0:0:
64,192,16630,1,8,0:0:0:0:
192,192,16630,1,2,0:0:0:0:
448,192,16967,128,2,17304:0:0:0:0:
64,192,17304,1,8,0:0:0:0:
192,192,17304,1,2,0:0:0:0:
320,192,17978,1,8,0:0:0:0:
448,192,17978,1,2,0:0:0:0:
64,192,18484,1,10,0:0:0:0:
192,192,18652,1,10,0:0:0:0:
448,192,18821,1,10,0:0:0:0:
320,192,18990,1,10,0:0:0:0:
64,192,19327,1,2,0:0:0:0:
448,192,19664,128,2,20001:0:0:0:0:
64,192,20001,1,2,0:0:0:0:
192,192,20001,1,8,0:0:0:0:
320,192,20675,1,2,0:0:0:0:
448,192,20675,1,8,0:0:0:0:
192,192,21012,1,2,0:0:0:0:
64,192,21349,1,2,0:0:0:0:
320,192,21349,1,8,0:0:0:0:
320,192,22023,1,2,0:0:0:0:
448,192,22023,1,8,0:0:0:0:
64,192,22360,128,0,22697:0:0:0:0:
192,192,22697,1,8,0:0:0:0:
448,192,22697,1,2,0:0:0:0:
320,192,23034,1,2,0:0:0:0:
64,192,23372,1,8,0:0:0:0:
448,192,23372,1,2,0:0:0:0:
192,192,23709,1,2,0:0:0:0:
320,192,24046,1,8,0:0:0:0:
448,192,24046,1,2,0:0:0:0:
192,192,24383,1,2,0:0:0:0:
64,192,24720,1,8,0:0:0:0:
448,192,24720,1,2,0:0:0:0:
320,192,25057,128,2,25394:0:0:0:0:
64,192,25394,1,8,0:0:0:0:
192,192,25394,1,2,0:0:0:0:
320,192,25731,1,2,0:0:0:0:
64,192,26068,1,2,0:0:0:0:
448,192,26068,1,8,0:0:0:0:
192,192,26405,1,2,0:0:0:0:
64,192,26742,1,2,0:0:0:0:
320,192,26742,1,8,0:0:0:0:
448,192,27079,1,2,0:0:0:0:
64,192,27417,1,2,0:0:0:0:
192,192,27417,1,8,0:0:0:0:
448,192,27754,1,2,0:0:0:0:
192,192,28091,1,10,0:0:0:0:
448,192,28428,1,0,0:0:0:0:
192,192,28765,1,10,0:0:0:0:
192,192,29102,1,0,0:0:0:0:
320,192,29270,1,10,0:0:0:0:
64,192,29439,1,10,0:0:0:0:
320,192,29608,1,10,0:0:0:0:
448,192,29776,1,10,0:0:0:0:
192,192,30113,1,0,0:0:0:0:
320,192,30450,128,2,30787:0:0:0:0:
64,192,30787,1,2,0:0:0:0:
192,192,30787,1,8,0:0:0:0:
320,192,31124,1,2,0:0:0:0:
64,192,31461,1,8,0:0:0:0:
448,192,31461,1,2,0:0:0:0:
320,192,31799,1,2,0:0:0:0:
64,192,32136,1,2,0:0:0:0:
192,192,32136,1,8,0:0:0:0:
64,192,32810,1,2,0:0:0:0:
192,192,32810,1,8,0:0:0:0:
320,192,33147,1,2,0:0:0:0:
448,192,33484,1,10,0:0:0:0:
192,192,33821,1,2,0:0:0:0:
64,192,34158,1,2,0:0:0:0:
448,192,34158,1,8,0:0:0:0:
320,192,34495,1,2,0:0:0:0:
64,192,34832,1,8,0:0:0:0:
192,192,34832,1,2,0:0:0:0:
320,192,35169,1,2,0:0:0:0:
192,192,35506,1,8,0:0:0:0:
448,192,35506,1,2,0:0:0:0:
64,192,35843,128,2,36181:0:0:0:0:
320,192,36181,1,2,0:0:0:0:
448,192,36181,1,8,0:0:0:0:
192,192,36518,1,2,0:0:0:0:
64,192,36855,1,8,0:0:0:0:
448,192,36855,1,2,0:0:0:0:
320,192,37192,1,2,0:0:0:0:
192,192,37529,1,2,0:0:0:0:
448,192,37529,1,8,0:0:0:0:
192,192,38203,1,2,0:0:0:0:
448,192,38203,1,8,0:0:0:0:
320,192,38540,1,2,0:0:0:0:
64,192,38877,1,2,0:0:0:0:
448,192,38877,1,8,0:0:0:0:
192,192,39214,1,2,0:0:0:0:
320,192,39551,1,2,0:0:0:0:
448,192,39551,1,8,0:0:0:0:
64,192,39888,128,2,40225:0:0:0:0:
192,192,39888,1,8,0:0:0:0:
320,192,40563,128,2,40900:0:0:0:0:
448,192,40563,1,8,0:0:0:0:
64,192,41237,1,8,0:0:0:0:
192,192,41237,128,2,42585:0:0:0:0:
448,192,42585,128,4,42922:0:0:0:0:
64,192,43259,128,0,43596:0:0:0:0:
320,192,43933,128,4,44270:0:0:0:0:
192,192,44608,128,0,44945:0:0:0:0:
448,192,45282,128,4,45619:0:0:0:0:
64,192,45956,128,0,46293:0:0:0:0:
320,192,46630,128,4,46967:0:0:0:0:
192,192,47304,128,0,47641:0:0:0:0:
64,192,47978,128,4,48315:0:0:0:0:
320,192,48652,1,8,0:2:0:0:
448,192,48652,128,4,48990:0:0:0:0:
192,192,49327,128,4,49664:0:0:0:0:
64,192,50001,128,8,50338:0:2:0:0:
320,192,50001,1,4,0:0:0:0:
320,192,50675,128,10,51012:0:0:0:0:
64,192,51012,1,8,0:0:0:0:
192,192,51012,1,2,0:0:0:0:
320,192,51349,1,2,0:0:0:0:
64,192,51686,1,2,0:0:0:0:
448,192,51686,1,8,0:0:0:0:
320,192,52023,1,2,0:0:0:0:
64,192,52360,1,8,0:0:0:0:
192,192,52360,1,2,0:0:0:0:
448,192,52697,1,2,0:0:0:0:
64,192,53034,1,8,0:0:0:0:
320,192,53034,1,2,0:0:0:0:
64,192,53372,1,8,0:0:0:0:
192,192,53372,128,2,53709:0:0:0:0:
320,192,54046,128,8,54383:0:0:0:0:
448,192,54046,1,0,0:0:0:0:
64,192,54720,1,2,0:0:0:0:
192,192,54720,128,8,55731:0:0:0:0:
320,192,55731,1,0,0:0:0:0:
64,192,56068,1,2,0:0:0:0:
192,192,56405,1,2,0:0:0:0:
448,192,56405,1,8,0:0:0:0:
320,192,56742,1,2,0:0:0:0:
64,192,57079,1,2,0:0:0:0:
448,192,57079,1,8,0:0:0:0:
192,192,57417,1,2,0:0:0:0:
320,192,57754,1,2,0:0:0:0:
448,192,57754,1,8,0:0:0:0:
192,192,58091,1,2,0:0:0:0:
64,192,58428,128,2,58765:0:0:0:0:
448,192,58428,1,8,0:0:0:0:
320,192,58765,1,2,0:0:0:0:
64,192,59102,1,2,0:0:0:0:
192,192,59102,1,8,0:0:0:0:
320,192,59439,1,2,0:0:0:0:
64,192,59776,1,2,0:0:0:0:
448,192,59776,1,8,0:0:0:0:
192,192,60113,1,2,0:0:0:0:
320,192,60450,1,2,0:0:0:0:
448,192,60450,1,8,0:0:0:0:
192,192,60787,1,2,0:0:0:0:
64,192,61124,1,2,0:0:0:0:
448,192,61124,1,8,0:0:0:0:
320,192,61461,1,2,0:0:0:0:
64,192,61799,1,8,0:0:0:0:
192,192,61799,1,2,0:0:0:0:
448,192,62136,1,2,0:0:0:0:
64,192,62473,1,8,0:0:0:0:
320,192,62473,1,2,0:0:0:0:
192,192,62810,1,2,0:0:0:0:
64,192,63147,1,2,0:0:0:0:
448,192,63147,1,8,0:0:0:0:
320,192,63484,1,2,0:0:0:0:
64,192,63821,1,2,0:0:0:0:
192,192,63821,1,8,0:0:0:0:
320,192,64158,128,10,64495:0:0:0:0:
192,192,64495,128,0,64832:0:0:0:0:
448,192,64832,128,10,65169:0:0:0:0:
64,192,65169,128,0,65506:0:0:0:0:
320,192,65506,128,10,65843:0:0:0:0:
192,192,65843,128,0,66181:0:0:0:0:
448,192,66181,128,0,66518:0:0:0:0:
64,192,66518,128,8,66855:0:0:0:0:
192,192,66518,1,2,0:0:0:0:
320,192,66855,128,2,67192:0:0:0:0:
64,192,67192,1,2,0:0:0:0:
192,192,67192,1,8,0:0:0:0:
64,192,67866,1,2,0:0:0:0:
192,192,67866,1,8,0:0:0:0:
320,192,68203,1,8,0:0:0:0:
448,192,68203,1,2,0:0:0:0:
64,192,68540,1,2,0:0:0:0:
320,192,68877,1,2,0:0:0:0:
448,192,68877,1,8,0:0:0:0:
64,192,69214,1,2,0:0:0:0:
320,192,69551,1,8,0:0:0:0:
448,192,69551,1,2,0:0:0:0:
64,192,69888,1,2,0:0:0:0:
320,192,70225,1,8,0:0:0:0:
448,192,70225,1,2,0:0:0:0:
64,192,70563,1,2,0:0:0:0:
320,192,70900,1,2,0:0:0:0:
448,192,70900,1,8,0:0:0:0:
64,192,71574,1,8,0:0:0:0:
192,192,71574,1,2,0:0:0:0:
320,192,72248,1,8,0:0:0:0:
448,192,72248,1,2,0:0:0:0:
192,192,72417,1,10,0:0:0:0:
64,192,72585,1,10,0:0:0:0:
448,192,72754,1,10,0:0:0:0:
64,192,73765,1,10,0:0:0:0:
192,192,73933,1,10,0:0:0:0:
320,192,74102,1,10,0:0:0:0:
448,192,74270,1,10,0:0:0:0:
320,192,74608,1,0,0:0:0:0:
64,192,74945,128,2,75282:0:0:0:0:
320,192,75282,1,2,0:0:0:0:
448,192,75282,1,8,0:0:0:0:
192,192,75619,1,2,0:0:0:0:
64,192,75956,1,8,0:0:0:0:
448,192,75956,1,2,0:0:0:0:
320,192,76293,1,2,0:0:0:0:
64,192,76630,1,8,0:0:0:0:
192,192,76630,1,2,0:0:0:0:
448,192,76967,1,2,0:0:0:0:
64,192,77304,1,8,0:0:0:0:
320,192,77304,1,2,0:0:0:0:
192,192,77641,1,2,0:0:0:0:
64,192,77978,1,2,0:0:0:0:
448,192,77978,1,8,0:0:0:0:
192,192,78315,1,2,0:0:0:0:
64,192,78652,1,8,0:0:0:0:
448,192,78652,1,2,0:0:0:0:
320,192,78990,1,2,0:0:0:0:
64,192,79327,1,2,0:0:0:0:
192,192,79327,1,8,0:0:0:0:
320,192,79664,1,2,0:0:0:0:
64,192,80001,1,2,0:0:0:0:
448,192,80001,1,8,0:0:0:0:
192,192,80338,1,10,0:0:0:0:
320,192,80675,1,10,0:0:0:0:
192,192,81012,1,10,0:0:0:0:
64,192,81349,1,10,0:0:0:0:
448,192,81686,1,10,0:0:0:0:
64,192,82023,1,10,0:0:0:0:
448,192,82360,1,10,0:0:0:0:
64,192,82697,1,10,0:0:0:0:
320,192,83034,1,2,0:0:0:0:
448,192,83034,1,8,0:0:0:0:
192,192,83372,1,10,0:0:0:0:
64,192,83709,1,10,0:0:0:0:
320,192,84046,1,10,0:0:0:0:
64,192,84383,1,2,0:0:0:0:
192,192,84383,1,8,0:0:0:0:
320,192,84720,1,8,0:0:0:0:
448,192,84720,1,2,0:0:0:0:
64,192,85057,1,8,0:0:0:0:
192,192,85057,1,2,0:0:0:0:
320,192,85394,1,8,0:0:0:0:
448,192,85394,1,2,0:0:0:0:
192,192,85563,1,2,0:0:0:0:
64,192,85563,1,8,0:0:0:0:
320,192,87754,128,2,91630:0:0:0:0:
448,192,87754,1,8,0:0:0:0:
