osu file format v14

[General]
AudioFilename: audio.mp3
AudioLeadIn: 0
PreviewTime: -1
Countdown: 1
SampleSet: Normal
StackLeniency: 0.7
Mode: 0
LetterboxInBreaks: 0
WidescreenStoryboard: 1

[Editor]
DistanceSpacing: 0.5
BeatDivisor: 4
GridSize: 32
TimelineZoom: 1

[Metadata]
Title:Chikatto Chika Chika
TitleUnicode:を歌ってみた*ななひら
Artist:Nanahira
ArtistUnicode:Nanahira
Creator:[Takaga]
Version:Extra
Source:
Tags:
BeatmapID:1957426
BeatmapSetID:936390

[Difficulty]
HPDrainRate:5
CircleSize:3.8
OverallDifficulty:10
ApproachRate:9
SliderMultiplier:1.4
SliderTickRate:1

[Events]
//Background and Video events
0,0,"qbcjuk1ec0k11.jpg",0,0
//Break Periods
//Storyboard Layer 0 (Background)
//Storyboard Layer 1 (Fail)
//Storyboard Layer 2 (Pass)
//Storyboard Layer 3 (Foreground)
//Storyboard Sound Samples

[TimingPoints]
10165,337.078651685393,4,1,0,100,1,0
10165,-100,4,1,0,100,0,0
27693,-76.9230769230769,4,1,0,100,0,0
30389,-100,4,1,0,100,0,0
41176,-250,4,1,0,100,0,0
42524,674.157303370787,4,1,0,100,1,0
42524,-100,4,1,0,100,0,0
50613,337.078651685393,4,1,0,100,1,0
54657,-142.857142857143,4,1,0,100,0,0
56006,-90.9090909090909,4,1,0,100,0,1
61062,-40,4,1,0,100,0,1
61399,-90.9090909090909,4,1,0,100,0,1
66792,-71.4285714285714,4,1,0,100,0,1
87523,-714.285714285714,4,1,0,100,0,0

[HitObjects]
86,114,10164,5,2,0:0:0:0:
86,114,10839,1,2,0:0:0:0:
86,114,11513,2,0,P|181:141|291:103,1,210,0|0,0:0|0:0,0:0:0:0:
342,17,12187,2,0,B|364:36|364:36|376:146,1,140,0|0,0:0|0:0,0:0:0:0:
401,180,13030,5,2,0:0:0:0:
265,345,13198,1,0,0:0:0:0:
158,61,13367,1,0,0:0:0:0:
69,263,13535,1,4,0:0:0:0:
91,296,13872,6,0,L|167:303,1,70,0|0,0:0|0:0,0:0:0:0:
233,244,14209,6,0,P|295:265|379:234,1,140,0|0,0:0|0:0,0:0:0:0:
431,325,14715,2,0,B|456:295|456:295|463:184,1,140,0|0,0:0|0:0,0:0:0:0:
370,35,15221,1,0,0:0:0:0:
293,175,15389,1,0,0:0:0:0:
444,107,15558,1,0,0:0:0:0:
444,107,15726,1,0,0:0:0:0:
228,23,15895,1,0,0:0:0:0:
125,201,16063,6,0,P|107:131|129:48,1,140,0|0,0:0|0:0,0:0:0:0:
32,174,16569,1,0,0:0:0:0:
4,267,16738,1,0,0:0:0:0:
21,360,16906,6,0,P|89:376|173:352,1,140,0|0,0:0|0:0,0:0:0:0:
121,157,17412,2,0,B|140:186|140:186|121:292,1,140,0|0,0:0|0:0,0:0:0:0:
227,67,17917,2,0,L|237:141,1,70,0|0,0:0|0:0,0:0:0:0:
339,41,18422,5,0,0:0:0:0:
228,318,18591,1,0,0:0:0:0:
471,275,18759,1,0,0:0:0:0:
471,275,18929,1,0,0:0:0:0:
41,79,19603,6,0,P|104:98|193:74,1,140
248,7,20108,2,0,B|270:29|270:29|280:153,1,140
208,204,20614,2,0,P|201:246|213:284,1,70
390,366,20951,6,0,B|409:335|409:335|395:214,1,140
350,139,21457,1,0,0:0:0:0:
339,93,21794,5,0,0:0:0:0:
99,119,21962,2,0,P|93:157|103:204,1,70
175,283,22299,2,0,B|202:247|202:247|191:122,1,140
264,59,22805,2,0,L|276:135,1,70
330,228,23142,1,0,0:0:0:0:
378,0,23311,2,0,L|390:76,1,70
468,164,23648,6,0,B|439:188|439:188|332:173,1,140
220,69,24153,1,0,0:0:0:0:
285,313,24322,1,0,0:0:0:0:
126,172,24490,2,0,P|118:222|128:268,2,70
194,62,24996,6,0,B|214:87|214:87|228:209,1,140
69,321,25502,2,0,P|134:342|212:311,1,140
343,152,26007,1,0,0:0:0:0:
343,152,26176,1,0,0:0:0:0:
343,152,26344,2,0,L|361:305,1,140
430,358,26850,2,0,P|458:291|426:220,1,140
459,73,27356,2,0,L|474:154,1,70
343,48,27693,5,2,0:0:0:0:
343,48,27861,1,0,0:0:0:0:
209,104,28030,5,2,0:0:0:0:
209,104,28198,1,0,0:0:0:0:
326,160,28367,5,2,0:0:0:0:
326,160,28535,1,0,0:0:0:0:
244,232,28704,5,2,0:0:0:0:
244,232,28872,1,0,0:0:0:0:
311,296,29041,5,2,0:0:0:0:
387,43,29209,1,0,0:0:0:0:
106,297,29378,1,2,0:0:0:0:
438,188,29547,1,0,0:0:0:0:
51,93,29715,1,4,0:0:0:0:
191,360,30389,6,0,B|212:320|212:320|202:209,1,140
109,147,30895,2,0,P|87:213|121:301,1,140
206,42,31400,2,0,L|219:129,1,70
343,325,31738,6,0,P|368:255|341:163,1,140
283,263,32243,2,0,B|265:231|265:231|276:122,1,140
352,35,32749,2,0,L|367:113,1,70
62,215,33086,5,0,0:0:0:0:
62,215,33254,1,0,0:0:0:0:
62,215,33423,1,0,0:0:0:0:
62,215,33591,2,0,P|129:239|209:211,1,140
120,69,34097,2,0,L|128:141,1,70
406,122,34434,6,0,B|378:88|378:88|276:69,1,140
354,351,35108,2,0,L|344:250,1,70
413,157,35445,2,0,L|423:258,1,70
155,341,35782,6,0,P|129:274|154:194,1,140
208,134,36288,1,0,0:0:0:0:
208,134,36457,2,0,P|140:116|60:139,1,140
266,296,36962,1,0,0:0:0:0:
266,296,37131,6,0,P|293:231|275:133,1,140
394,214,37636,2,0,P|376:146|394:48,1,140
284,17,38142,1,0,0:0:0:0:
222,96,38311,1,0,0:0:0:0:
160,17,38479,2,0,B|90:-2|19:23,1,140
111,126,38985,2,0,B|181:145|252:120,1,140
350,22,39490,2,0,L|362:96,1,70
446,232,39827,5,0,0:0:0:0:
67,119,40502,5,0,0:0:0:0:
151,279,41176,6,0,B|254:266|237:304|347:283,1,196
431,103,42524,5,0,0:0:0:0:
344,195,42692,2,0,P|337:158|347:115,1,70
239,56,43198,2,0,P|246:93|236:136,1,70
76,196,43872,5,0,0:0:0:0:
214,264,44040,2,0,L|130:255,1,70
248,344,44546,2,0,L|332:353,1,70
434,103,45220,5,0,0:0:0:0:
391,202,45389,2,0,L|402:280,1,70
304,134,45894,2,0,L|293:56,1,70
182,19,46568,5,0,0:0:0:0:
176,35,46737,1,0,0:0:0:0:
174,52,46906,1,0,0:0:0:0:
174,69,47074,1,0,0:0:0:0:
178,85,47243,1,0,0:0:0:0:
183,101,47411,1,0,0:0:0:0:
188,117,47580,2,0,L|184:173,1,35
82,247,47917,5,0,0:0:0:0:
398,206,48085,1,0,0:0:0:0:
58,274,48591,5,0,0:0:0:0:
416,187,49265,5,0,0:0:0:0:
100,228,49433,1,0,0:0:0:0:
439,157,49939,5,0,0:0:0:0:
100,77,50613,6,0,P|165:95|253:72,1,140
313,15,51118,1,0,0:0:0:0:
286,303,51287,2,0,P|268:233|286:149,1,140
398,107,51792,1,0,0:0:0:0:
398,107,51961,6,0,B|412:146|412:146|374:262,1,140
147,121,52466,1,0,0:0:0:0:
173,348,52635,1,0,0:0:0:0:
267,27,52804,2,0,P|287:101|261:163,1,140
68,268,53309,5,0,0:0:0:0:
434,139,53983,5,0,0:0:0:0:
251,330,54657,6,0,B|316:316|365:334|365:334|404:349|451:307|451:307|361:272,1,293.999991027832
89,97,56006,5,0,0:0:0:0:
203,16,56174,1,0,0:0:0:0:
212,281,56343,1,0,0:0:0:0:
345,133,56511,1,0,0:0:0:0:
95,224,56680,1,0,0:0:0:0:
244,86,56848,1,0,0:0:0:0:
301,257,57017,1,0,0:0:0:0:
259,50,57186,1,0,0:0:0:0:
279,289,57354,5,0,0:0:0:0:
161,117,57523,1,0,0:0:0:0:
335,14,57691,1,0,0:0:0:0:
440,203,57860,1,0,0:0:0:0:
403,348,58028,2,0,P|358:342|298:350,1,77.0000023498536
237,313,58365,2,0,P|198:314|160:308,1,77.0000023498536
55,215,58702,5,0,0:0:0:0:
193,32,58871,1,0,0:0:0:0:
256,160,59039,1,0,0:0:0:0:
46,99,59208,1,0,0:0:0:0:
351,69,59377,1,0,0:0:0:0:
235,307,59545,1,0,0:0:0:0:
438,197,59714,1,0,0:0:0:0:
141,153,59882,1,0,0:0:0:0:
380,334,60051,5,0,0:0:0:0:
272,24,60219,1,0,0:0:0:0:
199,234,60388,1,0,0:0:0:0:
472,124,60556,1,0,0:0:0:0:
199,101,60725,2,0,P|160:98|93:111,1,77.0000023498536
75,183,61062,6,0,P|159:209|266:172,1,175
331,55,61399,1,0,0:0:0:0:
413,342,61568,1,0,0:0:0:0:
178,286,61736,1,0,0:0:0:0:
455,176,61905,1,0,0:0:0:0:
212,104,62073,1,0,0:0:0:0:
432,365,62242,1,0,0:0:0:0:
150,297,62410,1,0,0:0:0:0:
483,165,62579,1,0,0:0:0:0:
191,79,62747,6,0,P|156:146|182:222,1,154.000004699707
297,145,63253,1,0,0:0:0:0:
297,145,63421,2,0,B|312:181|312:181|286:293,1,154.000004699707
186,371,64096,5,0,0:0:0:0:
106,27,64264,1,0,0:0:0:0:
186,371,64770,5,0,0:0:0:0:
186,371,64854,1,0,0:0:0:0:
186,371,64938,1,0,0:0:0:0:
274,152,65107,1,0,0:0:0:0:
378,303,65275,1,0,0:0:0:0:
83,214,65444,5,0,0:0:0:0:
399,194,65612,1,0,0:0:0:0:
59,177,65781,5,0,0:0:0:0:
436,229,65950,1,0,0:0:0:0:
21,143,66118,5,0,0:0:0:0:
474,263,66287,1,0,0:0:0:0:
223,59,66455,2,0,L|235:145,1,77.0000023498536
334,254,66792,6,0,P|246:290|138:237,1,195.999994018555
74,170,67298,2,0,L|195:154,1,97.9999970092774
380,85,67635,2,0,L|259:69,2,97.9999970092774
475,285,68141,5,0,0:0:0:0:
47,187,68309,1,0,0:0:0:0:
16,207,68815,5,0,0:0:0:0:
431,35,68983,1,0,0:0:0:0:
401,3,69489,5,0,0:0:0:0:
479,367,69657,1,0,0:0:0:0:
509,349,70163,5,0,0:0:0:0:
32,209,70332,1,0,0:0:0:0:
53,172,70837,5,0,0:0:0:0:
92,356,71006,1,0,0:0:0:0:
151,166,71511,5,0,0:0:0:0:
190,350,71680,1,0,0:0:0:0:
271,160,72017,5,0,0:0:0:0:
334,317,72186,1,0,0:0:0:0:
396,102,72354,1,0,0:0:0:0:
465,247,72523,1,0,0:0:0:0:
271,160,72691,1,4,0:0:0:0:
93,81,73703,5,0,0:0:0:0:
465,192,73871,1,0,0:0:0:0:
190,293,74040,1,0,0:0:0:0:
296,39,74208,2,0,L|308:152,1,97.9999970092774
328,180,74545,1,8,0:0:0:0:
98,153,74882,6,0,P|82:259|141:333,1,195.999994018555
190,212,75388,2,0,P|225:122|164:33,1,195.999994018555
91,144,75893,1,0,0:0:0:0:
246,300,76062,1,0,0:0:0:0:
347,84,76230,5,0,0:0:0:0:
405,263,76399,1,0,0:0:0:0:
213,178,76568,1,0,0:0:0:0:
472,172,76736,1,0,0:0:0:0:
319,353,76905,5,0,0:0:0:0:
319,353,77073,1,0,0:0:0:0:
227,296,77242,5,0,0:0:0:0:
227,296,77410,1,0,0:0:0:0:
211,79,77579,5,0,0:0:0:0:
310,228,77747,1,0,0:0:0:0:
343,22,77916,5,0,0:0:0:0:
382,274,78084,1,0,0:0:0:0:
486,3,78253,5,0,0:0:0:0:
427,340,78421,1,0,0:0:0:0:
121,19,78590,5,0,0:0:0:0:
180,356,78758,1,0,0:0:0:0:
249,119,78927,6,0,L|271:252,1,97.9999970092774
360,326,79264,2,0,L|338:193,1,97.9999970092774
282,140,79601,2,2,P|365:98|480:149,1,195.999994018555,0|0,0:0|0:0,0:0:0:0:
476,230,80107,5,0,0:0:0:0:
241,283,80275,1,0,0:0:0:0:
384,284,80444,5,0,0:0:0:0:
149,231,80612,1,0,0:0:0:0:
281,347,80781,5,0,2:0:0:0:
152,143,80949,1,0,2:0:0:0:
164,320,81118,5,0,2:0:0:0:
217,85,81286,1,0,2:0:0:0:
216,261,81455,5,0,2:0:0:0:
163,26,81623,1,0,2:0:0:0:
408,113,81792,5,0,0:0:0:0:
65,81,81961,1,0,0:0:0:0:
460,199,82129,5,0,0:0:0:0:
117,167,82298,1,0,0:0:0:0:
512,291,82466,5,0,0:0:0:0:
169,259,82635,1,0,0:0:0:0:
336,357,82804,1,0,0:0:0:0:
29,33,82972,5,0,0:0:0:0:
430,110,83141,1,0,0:0:0:0:
483,351,83309,5,0,0:0:0:0:
82,274,83478,1,0,0:0:0:0:
397,0,83646,5,0,0:0:0:0:
344,384,83815,1,0,0:0:0:0:
115,0,83983,5,0,0:0:0:0:
168,384,84152,1,0,0:0:0:0:
455,86,84320,5,0,0:0:0:0:
34,227,84489,1,0,0:0:0:0:
453,367,84657,1,0,0:0:0:0:
169,27,84826,1,0,0:0:0:0:
254,359,84995,1,0,0:0:0:0:
357,37,85163,1,0,0:0:0:0:
140,367,85332,1,0,0:0:0:0:
255,24,85500,1,0,0:0:0:0:
123,221,87523,5,0,0:0:0:0:
123,221,87607,1,0,0:0:0:0:
