osu file format v14

[General]
AudioFilename: audio.mp3
AudioLeadIn: 0
PreviewTime: 44222
Countdown: 0
SampleSet: Soft
StackLeniency: 0.7
Mode: 0
LetterboxInBreaks: 0
EpilepsyWarning: 1
WidescreenStoryboard: 1

[Editor]
Bookmarks: 88511
DistanceSpacing: 1.9
BeatDivisor: 4
GridSize: 4
TimelineZoom: 1.6

[Metadata]
Title:Bassdrop Freaks (Long Ver.)
TitleUnicode:ベィスドロップ・フリークス(Long Ver.)
Artist:Nanahira
ArtistUnicode:ななひら
Creator:yf_bmp
Version:BASSDROP!!
Source:beatmania IIDX 22 PENDUAL
Tags:A-STYLE DRUMSTEP かめりあ Camellia Meltical sugar wave EXIT TUNES
BeatmapID:992437
BeatmapSetID:463479

[Difficulty]
HPDrainRate:6
CircleSize:4.3
OverallDifficulty:8
ApproachRate:9.5
SliderMultiplier:1.6
SliderTickRate:1

[Events]
//Background and Video events
0,0,"BG.jpg",0,0
//Break Periods
//Storyboard Layer 0 (Background)
//Storyboard Layer 1 (Fail)
//Storyboard Layer 2 (Pass)
//Storyboard Layer 3 (Foreground)
//Storyboard Sound Samples

[TimingPoints]
1401,335.195530726257,4,2,1,80,1,0
3914,-83.3333333333333,4,2,1,80,0,0
4585,-100,4,2,1,80,0,0
5004,-100,4,2,1,5,0,0
5088,-55.5555555555556,4,2,1,80,0,0
5339,-55.5555555555556,4,2,1,5,0,0
5423,-100,4,2,1,80,0,0
6093,-76.9230769230769,4,2,1,80,0,0
6596,-100,4,2,1,80,0,0
8942,-66.6666666666667,4,2,1,80,0,0
9948,-100,4,2,1,80,0,0
10786,-111.111111111111,4,2,1,80,0,0
14138,-66.6666666666667,4,2,1,80,0,0
14808,-100,4,2,1,80,0,0
15646,-66.6666666666667,4,2,1,80,0,0
16149,-100,4,2,1,80,0,0
16401,-100,4,2,1,5,0,0
16484,-100,4,2,1,80,0,0
16819,-66.6666666666667,4,2,1,80,0,0
17490,-100,4,2,1,80,0,0
19669,-66.6666666666667,4,2,1,80,0,0
20171,-100,4,2,1,80,0,0
21177,-50,4,2,1,80,0,0
21512,-100,4,2,1,80,0,0
22769,-66.6666666666667,4,2,1,80,0,0
22937,-50,4,2,1,80,0,0
23188,-66.6666666666667,4,2,1,80,0,0
23523,-66.6666666666667,4,2,1,80,0,0
23859,-100,4,2,1,80,0,0
24194,-133.333333333333,4,2,1,70,0,0
26875,-200,4,2,1,70,0,0
29557,-133.333333333333,4,2,1,70,0,0
34417,-117.647058823529,4,2,1,70,0,0
34585,-100,4,2,1,70,0,0
34752,-76.9230769230769,4,2,1,70,0,0
34920,-100,4,2,1,70,0,0
39948,-66.6666666666667,4,2,1,70,0,0
40283,-100,4,2,1,70,0,0
43635,-50,4,2,1,50,0,0
44306,-66.6666666666667,4,2,1,80,0,0
45311,-100,4,2,1,80,0,0
45646,-50,4,2,1,80,0,1
45982,-58.8235294117647,4,2,1,80,0,1
46987,-100,4,2,1,80,0,1
47322,-55.5555555555556,4,2,1,80,0,1
47574,-66.6666666666667,4,2,1,80,0,1
48328,-58.8235294117647,4,2,1,80,0,1
48831,-100,4,2,1,80,0,1
48998,-58.8235294117647,4,2,1,80,0,1
50339,-50,4,2,1,80,0,1
51345,-58.8235294117647,4,2,1,80,0,1
52350,-100,4,2,1,80,0,1
53021,-58.8235294117647,4,2,1,80,0,1
53691,-76.9230769230769,4,2,1,80,0,1
54361,-58.8235294117647,4,2,1,80,0,1
54697,-76.9230769230769,4,2,1,80,0,1
55032,-58.8235294117647,4,2,1,80,0,1
56373,-100,4,2,1,80,0,1
56875,-58.8235294117647,4,2,1,80,0,1
57713,-100,4,2,1,80,0,1
58049,-55.5555555555556,4,2,1,80,0,1
59054,-58.8235294117647,4,2,1,80,0,1
59557,-100,4,2,1,80,0,1
59725,-58.8235294117647,4,2,1,80,0,1
61065,-50,4,2,1,80,0,1
62406,-66.6666666666667,4,2,1,80,0,1
62574,-58.8235294117647,4,2,1,80,0,1
63076,-100,4,2,1,80,0,1
63747,-58.8235294117647,4,2,1,80,0,1
64417,-76.9230769230769,4,2,1,80,0,1
65758,-58.8235294117647,4,2,1,80,0,1
66764,-66.6666666666667,4,2,1,80,0,1
67099,-100,4,2,1,80,0,0
67434,-58.8235294117647,4,2,1,80,0,0
68440,-100,4,2,1,80,0,0
69445,-71.4285714285714,4,2,1,80,0,0
69780,-100,4,2,1,80,0,0
70116,-58.8235294117647,4,2,1,80,0,0
70451,-50,4,2,1,80,0,0
70954,-58.8235294117647,4,2,1,80,0,0
71121,-100,4,2,1,80,0,0
72797,-58.8235294117647,4,2,1,80,0,0
73803,-66.6666666666667,4,2,1,80,0,0
74473,-100,4,2,1,80,0,0
75144,-76.9230769230769,4,2,1,80,0,0
76484,-58.8235294117647,4,2,1,80,0,0
77825,-66.6666666666667,4,2,1,80,0,0
79166,-55.5555555555556,4,2,1,80,0,0
79501,-66.6666666666667,4,2,1,80,0,0
79836,-55.5555555555556,4,2,1,80,0,0
80171,-83.3333333333333,4,2,1,80,0,0
80507,-66.6666666666667,4,2,1,80,0,0
81847,-100,4,2,1,80,0,0
82350,-66.6666666666667,4,2,1,80,0,0
83188,-100,4,2,1,80,0,0
83523,-66.6666666666667,4,2,1,80,0,0
83859,-100,4,2,1,80,0,0
84194,-66.6666666666667,4,2,1,80,0,0
84529,-100,4,2,1,80,0,0
84864,-66.6666666666667,4,2,1,80,0,0
85199,-100,4,2,1,80,0,0
86708,-83.3333333333333,4,2,1,80,0,0
86875,-66.6666666666667,4,2,1,80,0,0
87043,-58.8235294117647,4,2,1,80,0,0
87211,-50,4,2,1,80,0,0
88551,-133.333333333333,4,2,1,80,0,0
89222,-100,4,2,1,80,0,0
91233,-66.6666666666667,4,2,1,80,0,0
91903,-83.3333333333333,4,2,1,80,0,0
92574,-133.333333333333,4,2,1,80,0,0
93076,-100,4,2,1,80,0,0
93914,-133.333333333333,4,2,1,80,0,0
94585,-100,4,2,1,80,0,0
95926,-76.9230769230769,4,2,1,80,0,0
96261,-58.8235294117647,4,2,1,80,0,0
96596,-100,4,2,1,80,0,0
99948,-66.6666666666667,4,2,1,80,0,0
100451,-100,4,2,1,80,0,0
101624,-58.8235294117647,4,2,1,80,0,0
101959,-100,4,2,1,80,0,0
105311,-66.6666666666667,4,2,1,80,0,0
105982,-100,4,2,1,80,0,0
107909,-71.4285714285714,4,2,1,80,0,0
110004,-100,4,2,1,80,0,0
110842,-66.6666666666667,4,2,1,80,0,0
111345,-100,4,2,1,80,0,0
111680,-66.6666666666667,4,2,1,80,0,0
112015,-50,4,2,1,80,0,0
112350,-66.6666666666667,4,2,1,80,0,0
112685,-50,4,2,1,80,0,0
113021,-66.6666666666667,4,2,1,80,0,0
115367,-100,4,2,1,80,0,0
116624,-66.6666666666667,4,2,1,80,0,0
117713,-100,4,2,1,80,0,0
118049,-66.6666666666667,4,2,1,80,0,0
118719,-100,4,2,1,80,0,0
119222,-66.6666666666667,4,2,1,80,0,0
119892,-58.8235294117647,4,2,1,80,0,0
120395,-50,4,2,1,80,0,0
120730,-100,4,2,1,80,0,0
121401,-66.6666666666667,4,2,1,80,0,0
121736,-100,4,2,1,80,0,0
122741,-66.6666666666667,4,2,1,80,0,0
123076,-58.8235294117647,4,2,1,80,0,0
123412,-50,4,2,1,80,0,0
124585,-100,4,2,1,80,0,0
126931,-66.6666666666667,4,2,1,80,0,0
127434,-100,4,2,1,80,0,0
128104,-66.6666666666667,4,2,1,80,0,0
128775,-76.9230769230769,4,2,1,80,0,0
131121,-100,4,2,1,80,0,0
131456,-50,4,2,1,80,0,0
131792,-66.6666666666667,4,2,1,80,0,0
132797,-100,4,2,1,80,0,0
133049,-100,4,2,1,5,0,0
133132,-58.8235294117647,4,2,1,80,0,0
133468,-83.3333333333333,4,2,1,80,0,0
133803,-58.8235294117647,4,2,1,80,0,0
134138,-50,4,2,1,80,0,0
134473,-66.6666666666667,4,2,1,80,0,0
135479,-58.8235294117647,4,2,1,80,0,0
135814,-50,4,2,1,80,0,0
136484,-100,4,2,1,80,0,0
136819,-66.6666666666667,4,2,1,80,0,0
138160,-100,4,2,1,80,0,0
138495,-58.8235294117647,4,2,1,80,0,0
138831,-83.3333333333333,4,2,1,80,0,0
139166,-76.9230769230769,4,2,1,80,0,0
139501,-133.333333333333,4,2,1,80,0,0
139836,-66.6666666666667,4,2,1,80,0,0
140507,-90.9090909090909,4,2,1,80,0,0
140842,-133.333333333333,4,2,1,80,0,0
141177,-66.6666666666667,4,2,1,80,0,0
142183,-133.333333333333,4,2,1,80,0,0
142853,-66.6666666666667,4,2,1,80,0,0
143104,-66.6666666666667,4,2,1,5,0,0
143188,-55.5555555555556,4,2,1,80,0,0
143523,-100,4,2,1,80,0,0
143859,-58.8235294117647,4,2,1,80,0,0
146540,-50,4,2,1,80,0,0
147546,-100,4,2,1,80,0,0
147881,-66.6666666666667,4,2,1,80,0,0
148635,-83.3333333333333,4,2,1,80,0,0
148887,-100,4,2,1,80,0,0
149222,-58.8235294117647,4,2,1,80,0,0
149976,-76.9230769230769,4,2,1,80,0,0
150227,-66.6666666666667,4,2,1,80,0,0
150563,-50,4,2,1,80,0,0
152909,-133.333333333333,4,2,1,60,0,0
153160,-133.333333333333,4,2,1,5,0,0
153244,-133.333333333333,4,2,1,60,0,0
153495,-133.333333333333,4,2,1,5,0,0
153579,-133.333333333333,4,2,1,60,0,0
155507,-133.333333333333,4,2,1,5,0,0
155590,-133.333333333333,4,2,1,60,0,0
158272,-133.333333333333,4,2,1,60,0,0
158440,-133.333333333333,4,2,1,40,0,0
158607,-133.333333333333,4,2,1,30,0,0
158775,-133.333333333333,4,2,1,20,0,0
159110,-133.333333333333,4,2,1,60,0,0
163132,-133.333333333333,4,2,1,80,0,0
164306,-66.6666666666667,4,2,1,80,0,0
164808,-100,4,2,1,80,0,0
165479,-133.333333333333,4,2,1,80,0,0
165898,-133.333333333333,4,2,1,5,0,0
165982,-58.8235294117647,4,2,1,80,0,0
166317,-100,4,2,1,80,0,0
166987,-76.9230769230769,4,2,1,80,0,0
167490,-100,4,2,1,80,0,0
169669,-66.6666666666667,4,2,1,80,0,0
170171,-100,4,2,1,80,0,0
171680,-111.111111111111,4,2,1,80,0,0
184417,-83.3333333333333,4,2,1,80,0,0
184752,-111.111111111111,4,2,1,80,0,0
195144,-76.9230769230769,4,2,1,80,0,0
195814,-111.111111111111,4,2,1,80,0,0
208551,-66.6666666666667,4,2,1,80,0,0
209222,-66.6666666666667,4,2,1,80,0,0
210563,-100,4,2,1,80,0,0
214585,-66.6666666666667,4,2,1,50,0,0
215255,-50,4,2,1,50,0,0
215926,-66.6666666666667,4,2,1,80,0,0
216931,-100,4,2,1,80,0,0
217266,-58.8235294117647,4,2,1,80,0,1
217602,-66.6666666666667,4,2,1,80,0,1
218104,-83.3333333333333,4,2,1,80,0,1
218272,-58.8235294117647,4,2,1,80,0,1
218440,-50,4,2,1,80,0,1
218607,-50,4,2,1,80,0,1
218859,-50,4,2,1,5,0,1
218942,-66.6666666666667,4,2,1,80,0,1
219948,-58.8235294117647,4,2,1,80,0,1
220618,-76.9230769230769,4,2,1,80,0,1
220954,-66.6666666666667,4,2,1,80,0,1
221289,-58.8235294117647,4,2,1,80,0,1
221959,-50,4,2,1,80,0,1
222965,-58.8235294117647,4,2,1,80,0,1
223468,-66.6666666666667,4,2,1,80,0,1
223803,-58.8235294117647,4,2,1,80,0,1
223970,-100,4,2,1,80,0,1
224641,-58.8235294117647,4,2,1,80,0,1
225311,-76.9230769230769,4,2,1,80,0,1
225982,-58.8235294117647,4,2,1,80,0,1
226317,-100,4,2,1,80,0,1
226652,-58.8235294117647,4,2,1,80,0,1
227993,-100,4,2,1,80,0,1
228495,-66.6666666666667,4,2,1,80,0,1
228831,-76.9230769230769,4,2,1,80,0,1
228998,-58.8235294117647,4,2,1,80,0,1
229166,-50,4,2,1,80,0,1
230004,-100,4,2,1,80,0,1
230674,-58.8235294117647,4,2,1,80,0,1
231345,-76.9230769230769,4,2,1,80,0,1
231680,-66.6666666666667,4,2,1,80,0,1
232015,-58.8235294117647,4,2,1,80,0,1
232685,-50,4,2,1,80,0,1
233356,-66.6666666666667,4,2,1,80,0,1
233859,-58.8235294117647,4,2,1,80,0,1
234194,-66.6666666666667,4,2,1,80,0,1
234529,-58.8235294117647,4,2,1,80,0,1
234697,-100,4,2,1,80,0,1
235367,-58.8235294117647,4,2,1,80,0,1
236037,-100,4,2,1,80,0,1
237378,-66.6666666666667,4,2,1,80,0,1
238384,-50,4,2,1,80,0,0
238719,-100,4,2,1,80,0,0
241401,-66.6666666666667,4,2,1,80,0,0
242071,-83.3333333333333,4,2,1,80,0,0
242741,-133.333333333333,4,2,1,80,0,0
244752,-100,4,2,1,80,0,0
246093,-76.9230769230769,4,2,1,80,0,0
246428,-58.8235294117647,4,2,1,80,0,0
246764,-100,4,2,1,80,0,0
250116,-66.6666666666667,4,2,1,80,0,0
250618,-100,4,2,1,80,0,0
251792,-58.8235294117647,4,2,1,80,0,0
252127,-100,4,2,1,80,0,0
255479,-66.6666666666667,4,2,1,80,0,0
256149,-100,4,2,1,80,0,0
257490,-66.6666666666667,4,2,1,80,0,0
258076,-58.8235294117647,4,2,1,80,0,0
258747,-71.4285714285714,4,2,1,80,0,0
260171,-58.8235294117647,4,2,1,80,0,0
261009,-66.6666666666667,4,2,1,80,0,0
261512,-100,4,2,1,80,0,0
262183,-66.6666666666667,4,2,1,80,0,0
262518,-50,4,2,1,80,0,0
263523,-58.8235294117647,4,2,1,80,0,0
264026,-66.6666666666667,4,2,1,80,0,0
265535,-100,4,2,1,80,0,0
266792,-66.6666666666667,4,2,1,80,0,0
270898,-100,4,2,1,80,0,0
271568,-66.6666666666667,4,2,1,80,0,0
271903,-100,4,2,1,80,0,0
272909,-66.6666666666667,4,2,1,80,0,0
273579,-133.333333333333,4,2,1,80,0,0
274250,-50,4,2,1,80,0,0
274752,-100,4,2,1,80,0,0
276261,-133.333333333333,4,2,1,80,0,0
277099,-76.9230769230769,4,2,1,80,0,0
277518,-100,4,2,1,80,0,0
278942,-76.9230769230769,4,2,1,80,0,0
281289,-100,4,2,1,80,0,0
281624,-40,4,2,1,80,0,1
281959,-58.8235294117647,4,2,1,80,0,1
282462,-40,4,2,1,80,0,1
282797,-58.8235294117647,4,2,1,80,0,1
282965,-40,4,2,1,80,0,1
283300,-50,4,2,1,80,0,1
284306,-40,4,2,1,80,0,1
284808,-50,4,2,1,80,0,1
284976,-40,4,2,1,80,0,1
285311,-50,4,2,1,80,0,1
285646,-66.6666666666667,4,2,1,80,0,1
285982,-50,4,2,1,80,0,1
286317,-66.6666666666667,4,2,1,80,0,1
286987,-40,4,2,1,80,0,1
287322,-50,4,2,1,80,0,1
287657,-58.8235294117647,4,2,1,80,0,1
287825,-40,4,2,1,80,0,1
288160,-58.8235294117647,4,2,1,80,0,1
288328,-40,4,2,1,80,0,1
288663,-58.8235294117647,4,2,1,80,0,1
288998,-50,4,2,1,80,0,1
289669,-100,4,2,1,80,0,1
291009,-76.9230769230769,4,2,1,80,0,1
291512,-58.8235294117647,4,2,1,80,0,1
292350,-133.333333333333,4,2,1,80,0,1
292685,-58.8235294117647,4,2,1,80,0,1
293188,-40,4,2,1,80,0,1
293523,-58.8235294117647,4,2,1,80,0,1
293691,-40,4,2,1,80,0,1
294026,-50,4,2,1,80,0,1
295032,-40,4,2,1,80,0,1
295535,-50,4,2,1,80,0,1
295702,-66.6666666666667,4,2,1,80,0,1
296037,-50,4,2,1,80,0,1
296373,-66.6666666666667,4,2,1,80,0,1
296708,-50,4,2,1,80,0,1
297043,-66.6666666666667,4,2,1,80,0,1
297713,-40,4,2,1,80,0,1
298049,-50,4,2,1,80,0,1
298384,-58.8235294117647,4,2,1,80,0,1
298551,-40,4,2,1,80,0,1
298887,-58.8235294117647,4,2,1,80,0,1
299054,-40,4,2,1,80,0,1
299389,-58.8235294117647,4,2,1,80,0,1
299725,-50,4,2,1,80,0,1
300395,-66.6666666666667,4,2,1,80,0,1
300730,-76.9230769230769,4,2,1,80,0,1
301065,-58.8235294117647,4,2,1,80,0,1
301401,-100,4,2,1,80,0,1
301568,-76.9230769230769,4,2,1,80,0,1
303076,-76.9230769230769,4,2,1,60,0,0
305088,-76.9230769230769,4,2,1,60,0,0
305758,-200,4,2,1,80,0,0
307099,-200,4,2,1,20,0,0

[Colours]
Combo1 : 56,128,199
Combo2 : 235,230,20
Combo3 : 18,196,254
Combo4 : 72,255,11

[HitObjects]
24,244,2406,5,2,0:0:0:0:
217,192,2574,1,2,0:0:0:0:
34,158,2741,2,0,B|77:179|77:179|138:163|138:163|165:122,1,160,4|2,1:2|0:0,0:0:0:0:
86,88,3244,1,0,0:0:0:0:
128,280,3412,1,8,0:3:0:0:
128,280,3495,1,8,0:3:0:0:
128,280,3579,2,0,B|144:264|144:264|148:236,1,40,0|0,3:3|0:0,0:0:0:0:
34,158,3747,1,0,3:0:0:0:
217,192,3914,6,0,P|300:221|346:144,1,191.999994140625,4|2,1:0|0:0,0:0:0:0:
312,12,4417,1,8,3:3:0:0:
346,144,4585,6,0,P|259:174|212:95,1,200,4|0,1:2|0:0,0:0:0:0:
241,23,5088,6,0,B|288:-5|352:27|352:83|352:83|332:112|345:142,1,215.999993408203
416,124,5423,6,0,B|440:160|440:160|456:44,1,160,4|0,1:2|0:0,0:0:0:0:
380,216,5926,1,2,0:0:0:0:
388,320,6093,6,0,L|408:304,1,25.9999988098145,2|0,1:2|0:0,0:0:0:0:
372,332,6177,6,0,L|392:352,1,25.9999988098145,2|0,0:2|0:0,0:0:0:0:
360,316,6261,6,0,L|368:291,1,25.9999988098145
344,328,6345,6,0,L|352:352,1,25.9999988098145
328,316,6428,6,0,L|272:308,1,51.999997619629,2|0,0:0|0:0,0:0:0:0:
140,336,6596,6,0,B|116:372|116:372|100:256,1,160,4|8,3:2|1:0,0:0:0:0:
204,296,7099,1,0,1:0:0:0:
40,368,7266,2,0,L|32:316,1,40,0|0,3:0|0:0,0:0:0:0:
4,224,7434,5,2,0:0:0:0:
16,196,7518,1,2,0:0:0:0:
40,168,7601,1,2,0:0:0:0:
76,152,7685,1,0,0:0:0:0:
120,148,7769,1,2,0:0:0:0:
164,164,7853,1,2,0:0:0:0:
200,204,7937,1,2,0:0:0:0:
212,264,8020,1,2,0:0:0:0:
183,327,8104,6,0,P|166:211|278:246,1,280,4|0,3:2|0:0,0:0:0:0:
284,352,8775,5,0,1:0:0:0:
284,352,8859,1,2,0:2:0:0:
284,352,8942,2,0,B|304:364|304:364|360:344,1,60.0000022888184,2|0,0:2|0:0,0:0:0:0:
412,276,9110,2,0,B|433:266|433:266|450:209,1,60.0000022888184,2|2,0:2|0:2,0:0:0:0:
432,48,9278,6,0,B|371:36|317:94|338:153|338:153|370:176|368:212,1,240.000009155274,4|2,3:2|0:0,0:0:0:0:
240,140,9780,1,8,1:0:0:0:
431,48,9948,6,0,P|346:87|280:20,1,200,4|0,3:2|0:0,0:0:0:0:
208,64,10451,2,0,L|180:60,7,20
180,52,10786,5,4,1:2:0:0:
132,116,10954,1,0,1:0:0:0:
104,44,11121,5,0,1:0:0:0:
160,188,11289,1,0,1:0:0:0:
180,52,11456,5,0,1:0:0:0:
24,204,11624,1,0,1:0:0:0:
184,352,11792,5,2,0:0:0:0:
208,340,11875,1,2,0:0:0:0:
232,336,11959,1,2,0:0:0:0:
256,340,12043,1,2,0:0:0:0:
280,352,12127,5,0,3:3:0:0:
287,356,12211,1,0,0:0:0:0:
293,360,12294,1,0,0:0:0:0:
312,352,12378,5,0,3:3:0:0:
295,342,12462,1,0,0:0:0:0:
277,332,12546,1,0,0:0:0:0:
281,301,12630,5,0,3:3:0:0:
309,317,12713,1,0,2:0:0:0:
336,333,12797,1,0,2:0:0:0:
367,305,12881,5,0,3:3:0:0:
329,283,12965,1,0,0:0:0:0:
290,261,13049,1,0,0:0:0:0:
258,196,13132,6,0,P|242:187|224:186,3,35.9999989013672,2|2|2|2,2:3|2:3|2:3|2:3,0:0:0:0:
328,168,13468,6,0,P|423:116|348:37,1,251.999992309571,4|0,3:2|0:0,0:0:0:0:
304,88,14138,6,0,B|324:108|324:108|356:105,1,60.0000022888184,2|0,1:3|0:0,0:0:0:0:
188,64,14306,2,0,B|202:88|202:88|233:93,1,60.0000022888184,2|0,0:3|0:0,0:0:0:0:
80,16,14473,2,0,B|87:43|87:43|116:56,1,60.0000022888184,2|0,0:3|0:0,0:0:0:0:
188,160,14641,1,2,0:0:0:0:
40,192,14808,6,0,B|68:160|113:166|132:208|132:208|148:228|176:228,1,160,0|0,3:0|0:0,0:0:0:0:
280,204,15311,1,2,1:2:0:0:
280,204,15395,1,0,3:3:0:0:
280,204,15479,2,0,L|232:212,1,40,8|0,1:0|0:0,0:0:0:0:
40,192,15646,6,0,B|24:268|97:336|171:309|171:309|148:268|172:228,1,300.000011444092,2|0,2:2|0:0,0:0:0:0:
184,44,16149,6,0,B|200:80|200:80|187:163,1,120,0|0,3:3|0:0,0:0:0:0:
172,226,16484,1,2,0:0:0:0:
56,124,16652,1,0,0:0:0:0:
184,44,16819,6,0,P|287:69|171:144,1,300.000011444092,8|0,1:0|0:0,0:0:0:0:
225,100,17322,1,2,0:0:0:0:
364,68,17490,6,0,B|413:48|457:88|457:88|469:32|411:14,1,200,0|0,3:0|0:0,0:0:0:0:
284,20,17993,2,0,L|292:80,1,40,2|4,3:2|0:3,0:0:0:0:
392,144,18160,5,8,1:0:0:0:
388,168,18244,1,2,0:0:0:0:
392,196,18328,1,2,0:0:0:0:
408,224,18411,1,2,0:0:0:0:
436,252,18495,5,0,0:0:0:0:
452,296,18579,1,2,0:0:0:0:
440,352,18663,1,2,0:0:0:0:
384,384,18747,1,2,0:0:0:0:
316,364,18831,6,0,L|156:360,1,160,4|0,3:2|0:0,0:0:0:0:
84,228,19333,1,2,0:2:0:0:
260,252,19501,1,8,1:0:0:0:
156,360,19669,6,0,P|136:332|136:292,1,60.0000022888184,2|0,0:1|0:0,0:0:0:0:
172,224,19836,2,0,P|186:192|220:172,1,60.0000022888184,2|0,0:1|0:0,0:0:0:0:
260,252,20004,1,2,0:2:0:0:
84,228,20171,6,0,B|76:181|76:181|112:136|112:136|101:81,1,160,0|2,3:3|0:0,0:0:0:0:
0,372,20674,1,0,3:0:0:0:
8,368,20758,1,4,3:0:0:0:
16,364,20842,2,0,L|20:272,1,80,8|0,1:0|0:0,0:0:0:0:
20,64,21177,6,0,B|81:52|135:110|114:169|114:169|82:192|84:228,1,240,0|0,0:2|0:0,0:0:0:0:
160,232,21512,6,0,L|239:225,1,80,0|0,3:0|0:0,0:0:0:0:
300,272,21764,2,0,L|356:276,1,40
457,327,21931,1,8,1:0:0:0:
436,328,22015,2,0,L|380:332,1,40,0|0,3:2|0:0,0:0:0:0:
312,200,22183,2,0,L|300:116,1,80,8|0,1:0|0:0,0:0:0:0:
80,8,22518,5,4,0:3:0:0:
100,40,22601,1,2,1:2:0:0:
100,76,22685,1,2,1:2:0:0:
84,107,22769,6,0,P|79:136|87:164,1,60.0000022888184,2|0,1:0|0:2,0:0:0:0:
159,205,22937,6,0,B|228:163|240:239|311:199,1,160,4|0,1:2|0:2,0:0:0:0:
392,176,23188,6,0,P|396:205|388:233,1,60.0000022888184,2|0,1:0|0:2,0:0:0:0:
367,317,23356,2,0,P|340:330|310:331,1,60.0000022888184,2|0,1:0|0:2,0:0:0:0:
167,319,23523,6,0,P|197:308|240:316,3,60.0000022888184,2|2|2|2,1:3|0:3|0:3|0:3,0:0:0:0:
311,332,23859,6,0,P|350:354|348:380,2,40,2|2|2,0:3|0:3|0:3,0:0:0:0:
167,319,24194,6,0,P|153:293|151:264,1,60.0000022888184,4|0,3:2|0:0,0:0:0:0:
200,204,24529,1,0,0:0:0:0:
200,204,24697,2,0,P|214:177|216:148,1,60.0000022888184,2|0,0:2|0:0,0:0:0:0:
172,84,25032,2,0,P|142:77|113:83,1,60.0000022888184,2|0,0:2|0:0,0:0:0:0:
140,156,25367,1,2,0:0:0:0:
340,20,25702,5,2,0:0:0:0:
388,80,25870,2,0,P|415:94|443:96,1,60.0000022888184,0|2,0:2|0:0,0:0:0:0:
456,172,26205,1,0,0:0:0:0:
456,172,26373,2,0,P|429:186|400:188,1,60.0000022888184,2|2,0:2|0:0,0:0:0:0:
336,144,26708,1,2,0:0:0:0:
332,220,26875,6,0,L|330:262,1,40
252,248,27211,2,0,L|250:290,1,40
172,316,27546,2,0,L|170:274,1,40
92,288,27882,2,0,L|90:246,1,40
12,272,28216,5,0,0:0:0:0:
90,248,28384,1,0,0:0:0:0:
90,248,28468,1,0,0:0:0:0:
90,248,28551,1,0,0:0:0:0:
236,364,28719,2,0,L|284:368,1,40
328,172,29054,1,0,0:0:0:0:
312,156,29138,1,0,0:0:0:0:
304,132,29222,1,0,0:0:0:0:
304,108,29306,1,0,0:0:0:0:
312,88,29389,1,0,0:0:0:0:
328,72,29473,1,0,0:0:0:0:
345,65,29557,6,0,P|359:91|361:120,1,60.0000022888184,2|0,2:2|0:0,0:0:0:0:
312,180,29892,1,0,0:0:0:0:
312,180,30060,2,0,P|298:207|296:236,1,60.0000022888184,2|0,0:2|0:0,0:0:0:0:
340,300,30395,2,0,P|369:306|398:300,1,60.0000022888184,2|0,0:2|0:0,0:0:0:0:
372,228,30730,1,2,0:0:0:0:
172,364,31065,5,2,0:0:0:0:
124,304,31233,2,0,P|97:289|68:288,1,60.0000022888184,0|2,0:2|0:0,0:0:0:0:
56,212,31568,1,0,0:0:0:0:
56,212,31736,2,0,P|83:197|111:196,1,60.0000022888184,2|2,0:2|0:0,0:0:0:0:
176,240,32071,1,2,0:0:0:0:
180,164,32238,6,0,L|182:122,2,30.0000011444092
260,136,32574,2,0,L|262:94,2,30.0000011444092
340,68,32909,2,0,L|342:110,2,30.0000011444092
420,96,33245,2,0,L|422:138,2,30.0000011444092
500,112,33579,5,0,0:0:0:0:
421,125,33747,1,0,0:0:0:0:
421,125,33831,1,0,0:0:0:0:
421,125,33914,1,0,0:0:0:0:
272,28,34082,2,0,L|228:24,1,30.0000011444092
32,4,34250,6,0,L|64:4,1,30.0000011444092
164,44,34417,6,0,L|128:48,1,34.0000006484985
0,80,34585,6,0,L|40:96,1,40
172,124,34752,6,0,L|120:140,1,51.999997619629
48,176,34920,6,0,P|36:244|60:304,1,120,4|0,3:2|0:0,0:0:0:0:
40,304,35255,2,0,L|124:308,1,80,0|2,3:0|0:0,0:0:0:0:
192,344,35590,1,0,3:0:0:0:
152,200,35758,1,2,0:0:0:0:
148,216,35842,1,2,0:0:0:0:
144,232,35926,1,0,3:0:0:0:
256,300,36093,1,2,0:0:0:0:
368,232,36261,5,0,3:0:0:0:
392,307,36428,2,0,L|472:304,1,80,2|0,2:0|3:0,0:0:0:0:
320,344,36764,1,2,2:2:0:0:
256,192,36931,2,0,L|240:144,1,40,2|0,3:0|0:0,0:0:0:0:
156,96,37099,2,0,L|143:133,1,40,2|0,2:3|0:0,0:0:0:0:
64,232,37266,2,0,L|28:124,1,80,2|2,3:0|0:0,0:0:0:0:
64,56,37602,5,0,3:0:0:0:
264,36,37769,1,2,0:0:0:0:
256,44,37853,1,2,0:0:0:0:
248,52,37937,2,0,P|208:44|184:16,1,80,2|0,3:2|0:0,0:0:0:0:
400,40,38272,2,0,P|440:48|464:76,1,80,2|0,3:2|0:0,0:0:0:0:
480,68,38523,2,0,L|468:204,1,120,2|2,0:0|0:0,0:0:0:0:
392,292,38942,5,0,3:0:0:0:
268,264,39110,1,2,0:0:0:0:
345,215,39278,1,0,3:0:0:0:
469,187,39446,1,2,0:0:0:0:
292,144,39613,6,0,P|272:88|283:28,1,120,0|0,3:0|0:0,0:0:0:0:
180,60,39948,6,0,P|192:96|185:136,2,80.0000030517579,2|2|2,3:0|2:3|2:3,0:0:0:0:
108,104,40283,5,0,3:0:0:0:
120,184,40451,1,0,1:0:0:0:
100,260,40618,1,0,1:0:0:0:
40,316,40786,1,0,1:0:0:0:
36,304,40870,1,0,1:0:0:0:
32,292,40954,5,0,1:0:0:0:
112,280,41122,1,0,1:0:0:0:
188,300,41289,1,0,1:0:0:0:
244,360,41457,1,0,1:0:0:0:
232,368,41540,1,0,1:0:0:0:
220,376,41624,5,0,1:0:0:0:
208,296,41792,1,0,1:0:0:0:
232,220,41959,1,0,1:0:0:0:
292,164,42127,1,0,1:0:0:0:
372,152,42294,6,0,L|428:156,1,40,0|0,1:0|0:0,0:0:0:0:
400,72,42462,2,0,L|456:76,1,40,0|0,1:0|0:0,0:0:0:0:
316,80,42630,6,0,L|260:84,1,40,0|0,1:0|0:0,0:0:0:0:
288,0,42798,2,0,L|232:4,1,40,0|0,1:0|0:0,0:0:0:0:
192,68,42965,5,0,1:0:0:0:
156,108,43049,1,0,1:0:0:0:
104,112,43132,1,0,1:0:0:0:
64,76,43216,1,0,1:0:0:0:
60,24,43300,5,0,1:0:0:0:
100,60,43384,1,0,1:0:0:0:
104,112,43467,1,0,1:0:0:0:
68,152,43551,1,0,1:0:0:0:
16,156,43635,6,0,L|8:200,1,40,0|0,1:0|1:0,0:0:0:0:
28,180,43719,2,0,L|36:224,1,40,0|0,1:0|1:0,0:0:0:0:
48,196,43803,2,0,L|82:224,1,40,0|0,1:0|1:0,0:0:0:0:
74,197,43887,2,0,L|116:212,1,40,0|0,1:0|1:0,0:0:0:0:
100,184,43970,6,0,L|92:140,1,40,0|0,1:0|1:0,0:0:0:0:
112,160,44054,2,0,L|120:116,1,40,0|0,1:0|1:0,0:0:0:0:
132,144,44138,2,0,L|166:116,1,40,0|0,1:0|1:0,0:0:0:0:
158,143,44222,2,0,L|200:128,1,40,0|0,1:0|1:0,0:0:0:0:
188,156,44306,6,0,P|256:208|164:284,1,240.000009155274,4|0,0:3|0:0,0:0:0:0:
320,372,44808,1,0,0:0:0:0:
320,372,44892,1,0,0:0:0:0:
320,372,44976,2,0,P|305:346|307:316,1,60.0000022888184
340,228,45144,1,4,0:3:0:0:
428,332,45311,6,0,L|368:324,1,40,0|0,1:0|1:0,0:0:0:0:
420,212,45479,2,0,L|480:204,1,40,0|0,1:0|1:0,0:0:0:0:
424,96,45646,6,0,B|412:87|412:87|408:90|408:90|392:80|392:80|389:87|389:87|367:74|367:74|367:80|367:80|344:70|344:70|347:77|347:77|322:70|322:70|325:77|325:77|302:74|302:74|305:80|305:80|280:77|280:77|283:83|283:83|264:83|264:83|252:92,1,240,4|0,3:2|0:0,0:0:0:0:
180,68,45982,6,0,P|175:101|187:132,1,68.0000012969971,2|0,0:1|0:0,0:0:0:0:
124,320,46149,1,2,0:3:0:0:
124,320,46233,1,2,2:3:0:0:
124,320,46317,2,0,P|135:288|131:255,1,68.0000012969971,8|0,1:0|0:0,0:0:0:0:
12,184,46484,6,0,B|50:179|70:211|70:211|90:179|127:180,1,136.000002593994,2|2,0:3|0:1,0:0:0:0:
300,260,46819,1,2,0:3:0:0:
200,376,46987,6,0,B|224:344|224:344|216:256,1,120,0|0,3:0|0:0,0:0:0:0:
256,188,47322,6,0,P|318:151|264:96,1,143.999995605469,2|0,0:1|0:0,0:0:0:0:
213,71,47574,1,0,3:0:0:0:
213,71,47657,6,0,L|204:12,1,60.0000022888184,8|0,1:0|0:0,0:0:0:0:
136,96,47825,2,0,L|126:155,1,60.0000022888184,2|0,0:2|0:0,0:0:0:0:
72,24,47993,5,2,0:1:0:0:
76,44,48076,1,2,0:3:0:0:
28,104,48160,5,2,0:3:0:0:
24,124,48243,1,2,0:3:0:0:
56,192,48328,6,0,B|93:360|93:360|118:265,1,272.000005187988,0|2,3:0|0:1,0:0:0:0:
226,216,48831,2,0,L|188:228,1,40,2|2,0:3|0:3,0:0:0:0:
0,297,48998,6,0,B|-14:227|51:165|119:190|119:190|98:227|120:264,1,272.000005187988,8|2,1:0|0:1,0:0:0:0:
232,348,49501,5,2,2:0:0:0:
232,348,49585,1,0,3:0:0:0:
232,348,49669,2,0,P|253:322|257:289,1,68.0000012969971,0|0,3:0|0:0,0:0:0:0:
228,56,49836,2,0,P|206:81|202:114,1,68.0000012969971,0|0,3:0|0:0,0:0:0:0:
232,348,50004,5,10,1:0:0:0:
300,204,50171,1,4,2:3:0:0:
336,236,50255,1,4,2:3:0:0:
348,284,50339,6,0,L|431:277,2,53.3333333333333,8|0|0,1:0|0:0|0:0,0:0:0:0:
300,204,50507,2,0,L|321:155,2,53.3333333333333,8|2|2,1:0|0:0|0:0,0:0:0:0:
208,212,50674,2,0,L|158:157,4,53.3333333333333,8|2|2|2|0,1:0|0:0|0:0|0:0|0:0,0:0:0:0:
136,0,51009,6,0,B|75:-12|21:46|42:105|42:105|74:128|72:164,1,240.000009155274,4|0,3:2|0:0,0:0:0:0:
74,244,51345,2,0,P|50:265|17:265,1,68.0000012969971,2|0,2:1|0:0,0:0:0:0:
176,72,51512,1,2,2:3:0:0:
176,72,51596,1,2,2:3:0:0:
176,72,51680,2,0,P|209:71|234:93,1,68.0000012969971,8|0,1:1|0:0,0:0:0:0:
257,316,51847,6,0,L|266:180,1,136.000002593994,2|2,0:3|0:1,0:0:0:0:
277,5,52183,1,2,0:3:0:0:
266,180,52350,6,0,B|288:216|288:216|364:228,1,120,0|0,3:3|0:0,0:0:0:0:
432,188,52685,2,0,L|448:100,1,80,2|0,0:1|0:0,0:0:0:0:
376,40,52937,1,0,3:3:0:0:
364,60,53021,6,0,B|352:88|352:88|368:140,1,68.0000012969971,8|0,1:0|0:0,0:0:0:0:
512,196,53188,2,0,B|524:224|524:224|508:276,1,68.0000012969971,2|0,0:2|0:0,0:0:0:0:
424,368,53356,1,2,0:1:0:0:
388,336,53440,1,2,0:0:0:0:
340,328,53523,1,2,0:0:0:0:
296,344,53607,1,2,0:0:0:0:
264,376,53691,6,0,B|168:391|214:321|121:343,1,155.999992858887,4|0,3:2|0:0,0:0:0:0:
52,308,54026,6,0,L|36:232,1,51.999997619629,2|2,0:3|0:3,0:0:0:0:
88,136,54194,2,0,L|77:186,1,51.999997619629,2|2,0:3|0:3,0:0:0:0:
172,264,54361,6,0,L|156:188,1,68.0000012969971,8|2,1:0|0:3,0:0:0:0:
232,72,54529,2,0,L|216:148,1,68.0000012969971,2|2,0:3|0:3,0:0:0:0:
100,56,54697,6,0,L|151:59,1,51.999997619629,2|2,0:3|0:3,1:0:0:0:
319,207,54864,2,0,L|268:204,1,51.999997619629,2|2,2:0|3:0,1:0:0:0:
360,128,55032,6,0,B|464:112|464:112|396:164,1,136.000002593994,0|0,3:3|0:0,0:0:0:0:
399,209,55283,2,0,B|295:225|295:225|363:173,1,136.000002593994,0|8,3:3|1:0,0:0:0:0:
484,208,55535,2,0,L|504:284,1,68.0000012969971,0|0,3:3|3:3,0:0:0:0:
424,368,55702,6,0,P|364:383|326:326,1,136.000002593994,8|0,1:0|0:0,0:0:0:0:
326,328,55954,6,0,P|385:343|423:286,1,136.000002593994,8|0,1:0|0:0,0:0:0:0:
423,288,56205,6,0,P|393:295|374:267,1,68.0000012969971,8|0,1:0|0:0,0:0:0:0:
334,16,56373,6,0,B|282:124|378:96|319:206,1,200,0|0,3:0|0:0,0:0:0:0:
256,148,56876,5,2,2:3:0:0:
256,148,56960,1,2,2:3:0:0:
256,148,57044,2,0,P|224:137|191:141,1,68.0000012969971,4|0,1:2|0:0,0:0:0:0:
400,72,57211,2,0,P|460:96|504:36,1,136.000002593994,2|2,0:3|0:1,0:0:0:0:
334,16,57546,1,2,0:3:0:0:
190,141,57714,6,0,P|133:145|94:102,1,120,0|0,3:0|0:0,0:0:0:0:
59,24,58049,6,0,P|92:122|34:209,1,215.999993408203,2|0,0:1|3:0,0:0:0:0:
0,288,58384,5,8,1:0:0:0:
184,352,58495,2,0,B|204:331|204:331|220:295|196:262,1,95.9999970703126,2|2,0:3|0:3,0:0:0:0:
93,102,58719,5,2,0:1:0:0:
0,288,58831,2,0,B|20:308|20:308|56:324|89:300,1,95.9999970703126,2|2,0:3|0:3,0:0:0:0:
199,267,59055,6,0,B|367:230|367:230|272:205,1,272.000005187988,0|2,3:0|0:1,0:0:0:0:
224,98,59558,2,0,L|236:136,1,40,2|2,0:3|0:3,0:0:0:0:
305,324,59725,6,0,B|235:338|173:273|198:205|198:205|235:226|272:204,1,272.000005187988,8|2,1:0|0:1,0:0:0:0:
423,224,60228,5,4,2:3:0:0:
423,224,60312,1,0,3:3:0:0:
423,224,60396,2,0,P|397:203|364:199,1,68.0000012969971,0|0,3:0|0:0,0:0:0:0:
131,228,60563,2,0,P|156:250|189:254,1,68.0000012969971,0|0,3:0|0:0,0:0:0:0:
305,324,60731,5,10,1:0:0:0:
279,156,60898,1,4,2:3:0:0:
311,120,60982,1,4,2:3:0:0:
359,108,61066,6,0,L|352:17,2,53.3333333333333,8|0|0,1:0|0:0|0:0,0:0:0:0:
279,156,61234,2,0,L|199:120,2,53.3333333333333,8|2|0,1:0|0:0|0:0,0:0:0:0:
287,248,61401,2,0,L|219:308,4,53.3333333333333,8|2|2|2|0,1:0|0:0|0:0|0:0|0:0,0:0:0:0:
147,343,61736,6,0,B|86:355|32:297|53:238|53:238|85:215|83:179,1,240.000009155274,4|0,3:2|0:0,0:0:0:0:
99,47,62071,5,0,0:0:0:0:
63,111,62155,1,2,0:0:0:0:
83,179,62238,1,2,0:0:0:0:
148,208,62322,1,2,0:0:0:0:
212,176,62406,2,0,L|280:156,1,60.0000022888184,4|0,1:2|0:0,0:0:0:0:
376,72,62574,6,0,L|367:208,1,136.000002593994,2|2,0:3|0:1,0:0:0:0:
356,375,62910,1,2,0:3:0:0:
367,207,63077,6,0,B|346:169|346:169|266:158,1,120,0|0,3:2|0:0,0:0:0:0:
201,200,63412,2,0,L|185:288,1,80,2|0,0:1|0:0,0:0:0:0:
257,348,63664,1,0,3:2:0:0:
269,328,63748,6,0,B|281:300|281:300|265:248,1,68.0000012969971,8|0,1:0|0:0,0:0:0:0:
121,192,63915,2,0,B|109:164|109:164|125:112,1,68.0000012969971,2|0,0:2|0:0,0:0:0:0:
209,20,64083,1,2,0:1:0:0:
245,52,64167,1,2,0:0:0:0:
293,60,64250,1,2,0:0:0:0:
337,44,64334,1,2,0:0:0:0:
369,13,64418,6,0,B|465:-2|419:68|512:46,1,155.999992858887,4|0,3:2|0:0,0:0:0:0:
388,92,64753,6,0,L|404:168,1,51.999997619629,2|2,0:3|0:3,0:0:0:0:
352,264,64921,2,0,L|363:214,1,51.999997619629,2|2,0:3|0:3,0:0:0:0:
260,116,65088,6,0,L|281:218,1,103.999995239258,8|0,1:0|0:3,0:0:0:0:
184,352,65339,2,0,L|205:249,1,103.999995239258,8|0,1:0|0:3,0:0:0:0:
152,188,65590,2,0,L|92:176,1,51.999997619629,8|0,1:0|2:0,1:0:0:0:
40,120,65758,6,0,B|20:148|20:148|12:32,1,136.000002593994,0|4,3:0|0:3,0:0:0:0:
116,32,66009,1,0,3:0:0:0:
116,32,66093,2,0,L|124:132,1,68.0000012969971,4|4,1:2|2:3,0:0:0:0:
42,299,66261,2,0,L|34:199,1,68.0000012969971,4|4,1:2|2:3,0:0:0:0:
204,250,66428,5,0,3:0:0:0:
204,250,66512,1,4,2:3:0:0:
204,250,66596,1,4,1:2:0:0:
36,231,66764,6,0,B|94:223|94:223|146:259|146:259|202:249,1,180.000006866455,4|0,1:2|0:0,0:0:0:0:
280,228,67099,6,0,B|304:252|304:252|313:166,1,120,4|0,3:2|0:0,0:0:0:0:
340,96,67434,6,0,L|388:88,2,34.0000006484985,2|2|2,0:0|0:0|0:0,0:0:0:0:
364,6,67602,1,2,0:0:0:0:
364,6,67685,1,4,0:3:0:0:
364,6,67769,6,0,B|311:-4|265:43|284:94|284:94|311:79|339:95,1,204.000003890991,8|0,1:0|0:0,0:0:0:0:
312,166,68104,6,0,P|276:174|240:158,1,68.0000012969971,2|0,0:0|0:0,0:0:0:0:
432,40,68272,2,0,L|492:76,1,68.0000012969971,2|0,0:0|0:0,0:0:0:0:
496,232,68440,6,0,P|425:257|379:198,1,160,2|2,3:1|0:0,0:0:0:0:
379,198,68859,1,2,0:0:0:0:
379,198,68942,1,2,0:1:0:0:
379,198,69026,1,0,3:0:0:0:
378,198,69110,6,0,P|360:204|341:199,1,40,8|0,1:0|0:0,0:0:0:0:
284,92,69278,2,0,P|271:76|271:56,1,40,2|0,0:3|0:0,0:0:0:0:
378,198,69445,6,0,P|364:276|286:287,1,167.999994873047,2|0,0:1|0:0,0:0:0:0:
216,252,69780,6,0,B|130:261|130:261|154:285,1,120,0|0,3:3|0:0,0:0:0:0:
91,327,70116,6,0,L|123:355,2,34.0000006484985,2|2|2,0:0|0:0|0:0,0:0:0:0:
156,184,70283,2,0,L|84:192,1,68.0000012969971,2|4,0:0|0:3,0:0:0:0:
21,302,70451,6,0,B|12:345|51:383|93:367|93:367|81:345|94:322,1,160,8|0,1:0|0:0,0:0:0:0:
153,284,70702,2,0,B|161:240|122:202|80:218|80:218|92:240|79:263,1,160,0|0,3:2|0:0,0:0:0:0:
12,184,70954,2,0,L|4:104,1,68.0000012969971,2|0,3:2|3:0,0:0:0:0:
79,39,71121,6,0,P|150:14|196:73,1,160,2|8,3:1|1:0,0:0:0:0:
196,73,71623,1,2,0:1:0:0:
296,32,71792,5,0,3:0:0:0:
330,28,71875,1,2,0:0:0:0:
370,47,71959,1,2,0:0:0:0:
399,92,72043,1,2,0:0:0:0:
389,160,72127,1,10,1:1:0:0:
333,199,72211,1,2,0:0:0:0:
280,197,72294,1,2,0:0:0:0:
248,176,72378,1,0,0:0:0:0:
232,156,72462,6,0,B|208:132|208:132|199:218,1,120,4|0,3:2|0:0,0:0:0:0:
172,288,72797,6,0,L|124:296,2,34.0000006484985,2|2|2,0:0|0:0|0:0,0:0:0:0:
149,378,72965,1,2,0:0:0:0:
149,378,73048,1,4,0:3:0:0:
149,378,73132,6,0,B|202:388|248:341|229:290|229:290|202:305|174:289,1,204.000003890991,8|0,1:0|0:0,0:0:0:0:
200,218,73467,6,0,P|236:210|272:226,1,68.0000012969971,2|0,0:0|0:0,0:0:0:0:
80,344,73635,2,0,L|20:308,1,68.0000012969971,2|0,0:0|0:0,0:0:0:0:
52,140,73803,6,0,P|105:121|140:165,1,120,2|2,3:1|0:0,0:0:0:0:
268,32,74054,2,0,L|208:40,1,60.0000022888184
140,164,74222,1,2,0:0:0:0:
140,164,74305,1,2,0:1:0:0:
140,164,74389,1,0,3:0:0:0:
140,163,74473,6,0,P|158:156|177:161,1,40,8|0,1:0|0:0,0:0:0:0:
292,204,74641,2,0,P|304:219|304:239,1,40,2|0,0:3|0:0,0:0:0:0:
303,364,74808,1,2,0:1:0:0:
267,332,74892,1,2,0:0:0:0:
219,324,74975,1,2,0:0:0:0:
175,340,75059,1,2,0:0:0:0:
143,371,75144,6,0,B|47:386|93:316|0:338,1,155.999992858887,4|8,3:2|1:0,0:0:0:0:
124,292,75479,6,0,L|108:216,1,51.999997619629,2|2,0:3|0:3,0:0:0:0:
160,120,75646,2,0,L|149:170,1,51.999997619629,0|2,3:0|0:3,0:0:0:0:
208,220,75814,6,0,L|252:216,2,25.9999988098145,2|2|0,0:2|0:2|3:0,0:0:0:0:
80,128,75982,2,0,L|29:117,1,51.999997619629,2|0,2:2|2:0,1:0:0:0:
224,20,76149,2,0,B|228:48|228:48|216:88,1,51.999997619629,8|0,1:0|0:0,0:0:0:0:
48,40,76317,1,0,3:3:0:0:
48,40,76401,1,0,3:3:0:0:
47,39,76484,6,0,L|120:53,1,68.0000012969971,4|0,2:3|2:0,1:0:0:0:
208,220,76652,1,0,3:0:0:0:
233,217,76736,2,0,B|241:185|241:185|232:151,1,68.0000012969971,8|0,1:0|2:0,0:0:0:0:
124,292,76903,1,0,3:0:0:0:
99,295,76987,2,0,B|91:327|91:327|99:360,1,68.0000012969971,4|0,1:2|2:0,0:0:0:0:
224,344,77155,5,0,3:0:0:0:
248,344,77238,2,0,L|296:292,1,68.0000012969971,8|0,1:0|0:0,0:0:0:0:
116,196,77406,1,0,3:0:0:0:
92,196,77490,2,0,L|24:196,1,68.0000012969971,8|0,1:0|0:0,0:0:0:0:
113,52,77657,2,0,L|125:8,2,34.0000006484985,2|2|2,1:2|0:2|0:2,0:0:0:0:
156,120,77825,6,0,P|184:124|214:117,1,60.0000022888184,4|0,3:2|0:0,0:0:0:0:
424,72,77993,2,0,P|396:68|365:74,1,60.0000022888184,2|0,0:2|0:0,0:0:0:0:
332,212,78160,1,8,1:0:0:0:
307,192,78244,2,0,P|298:165|301:135,1,60.0000022888184,2|0,0:0|0:0,0:0:0:0:
208,0,78412,5,2,0:0:0:0:
232,36,78495,1,2,0:0:0:0:
236,76,78579,1,2,0:0:0:0:
214,116,78663,2,0,P|186:112|156:119,1,60.0000022888184,0|0,3:2|0:0,0:0:0:0:
365,73,78831,2,0,P|393:77|424:71,1,60.0000022888184,8|0,1:0|0:0,0:0:0:0:
192,204,78998,2,0,P|169:220|153:247,1,60.0000022888184,2|0,0:2|0:0,0:0:0:0:
318,381,79166,6,0,P|380:299|328:210,1,215.999993408203,2|0,3:1|0:0,0:0:0:0:
232,288,79501,2,0,L|291:293,1,60.0000022888184,8|0,1:0|0:0,0:0:0:0:
304,136,79669,2,0,L|244:141,1,60.0000022888184,2|0,0:1|0:0,0:0:0:0:
156,308,79836,6,2,L|232:300,1,71.9999978027344,0|0,0:0|0:0,0:1:0:0:
380,131,80004,2,0,L|304:123,1,71.9999978027344,0|0,3:0|0:0,0:1:0:0:
80,304,80171,6,0,B|224:312,1,143.999995605469,10|0,1:0|0:1,0:0:0:0:
227,300,80507,6,0,P|231:272|224:242,1,60.0000022888184,4|0,3:2|0:0,0:0:0:0:
164,32,80675,2,0,P|160:60|166:91,1,60.0000022888184,2|0,0:2|0:0,0:0:0:0:
308,123,80842,1,8,1:0:0:0:
287,147,80926,2,0,P|261:156|231:153,1,60.0000022888184,2|0,0:0|0:0,0:0:0:0:
107,248,81094,5,2,0:0:0:0:
143,224,81177,1,2,0:0:0:0:
183,220,81261,1,2,0:0:0:0:
223,242,81345,2,0,P|219:270|226:300,1,60.0000022888184,0|0,3:2|0:0,0:0:0:0:
165,90,81513,2,0,P|169:62|163:31,1,60.0000022888184,8|0,1:0|0:0,0:0:0:0:
356,90,81680,2,0,P|330:99|308:121,1,60.0000022888184,2|0,0:2|0:0,0:0:0:0:
316,276,81848,6,0,P|262:257|226:300,1,120,2|0,3:1|0:0,0:0:0:0:
296,380,82183,1,8,1:0:0:0:
226,300,82350,6,0,P|275:234|207:181,1,180.000006866455,2|0,0:1|0:0,0:0:0:0:
92,192,82685,5,0,3:3:0:0:
63,237,82769,1,2,0:0:0:0:
73,304,82853,1,10,1:1:0:0:
128,343,82937,1,2,0:0:0:0:
182,342,83020,1,2,0:0:0:0:
213,320,83104,1,0,0:0:0:0:
226,299,83188,6,0,B|296:276|272:328|341:306,1,120,4|0,3:2|0:0,0:0:0:0:
432,324,83523,6,0,B|452:266|452:266|340:306,1,180.000006866455,2|0,1:0|0:0,0:0:0:0:
320,220,83859,6,0,B|296:150|348:174|327:105,1,120,4|0,0:3|0:0,0:0:0:0:
344,14,84194,6,0,B|286:-6|286:-6|326:105,1,180.000006866455,2|0,1:0|0:0,0:0:0:0:
408,196,84529,6,0,L|496:188,1,80,4|2,0:3|0:0,0:0:0:0:
240,128,84864,6,0,B|116:104|116:104|167:88,1,180.000006866455,2|2,1:1|0:3,0:0:0:0:
280,8,85199,6,0,L|260:60,1,40,6|0,2:3|0:0,0:0:0:0:
326,105,85367,2,0,L|346:157,1,40,2|0,2:3|0:0,0:0:0:0:
256,240,85535,1,2,1:0:0:0:
216,220,85618,1,2,0:2:0:0:
172,220,85702,1,0,0:0:0:0:
136,244,85786,1,2,0:2:0:0:
116,284,85870,5,0,1:0:0:0:
172,220,86037,1,0,1:0:0:0:
168,132,86205,1,2,1:0:0:0:
104,72,86373,1,0,1:0:0:0:
6,106,86540,6,0,L|16:68,1,40,0|0,1:0|1:0,0:0:0:0:
135,243,86708,6,0,L|104:207,1,47.9999985351563,0|0,1:0|1:0,0:0:0:0:
331,211,86875,6,0,L|272:216,1,60.0000022888184,2|0,1:0|1:0,0:0:0:0:
456,76,87043,6,0,L|436:144,1,68.0000012969971,0|0,1:0|1:0,0:0:0:0:
491,300,87211,6,0,B|500:343|461:381|419:365|419:365|431:343|418:320,1,160,0|0,3:2|0:0,0:0:0:0:
359,284,87462,2,0,B|351:240|390:202|432:218|432:218|420:240|433:263,1,160,0|0,3:2|0:0,0:0:0:0:
320,360,87713,6,0,B|280:320|280:320|285:216,1,160,0|0,3:0|0:0,0:0:0:0:
304,16,87965,2,0,B|344:56|344:56|338:159,1,160,0|0,3:0|0:0,0:0:0:0:
359,284,88216,6,0,L|363:212,1,40,8|0,1:0|0:0,0:0:0:0:
361,243,88551,6,0,B|285:217|285:217|187:237,1,180.000006866455,4|0,3:2|0:0,0:0:0:0:
148,56,89222,6,0,B|140:100|140:100|156:128|156:128|148:172,1,120,8|0,1:0|0:0,0:0:0:0:
76,144,89557,1,2,0:0:0:0:
224,84,89725,6,0,P|263:89|298:73,1,80,0|0,0:0|3:0,0:0:0:0:
76,144,90060,2,0,P|36:138|1:154,1,80,0|2,0:0|0:3,0:0:0:0:
60,340,90395,1,2,2:3:0:0:
60,340,90479,1,0,3:0:0:0:
60,340,90563,2,0,L|48:216,1,120,8|0,1:0|0:0,0:0:0:0:
76,144,90898,5,2,2:3:0:0:
84,124,90982,1,2,2:3:0:0:
28,68,91065,5,2,2:3:0:0:
20,48,91149,1,2,2:3:0:0:
91,12,91233,6,0,B|137:12|161:58|133:96|133:96|99:92|77:134,1,180.000006866455,4|0,3:0|0:0,0:0:0:0:
184,260,91568,2,0,B|137:259|113:213|141:175|141:175|175:179|197:137,1,180.000006866455,2|0,0:2|0:0,0:0:0:0:
232,80,91903,6,0,P|210:69|186:68,1,47.9999985351563,8|0,1:0|0:0,0:0:0:0:
83,123,92071,2,0,P|72:144|71:168,1,47.9999985351563,2|0,2:3|0:0,0:0:0:0:
138,248,92239,2,0,P|159:258|183:259,1,47.9999985351563,2|0,2:3|0:0,0:0:0:0:
280,216,92406,1,0,0:0:0:0:
280,216,92574,6,0,B|370:188|330:256|422:229,1,150.000005722046,0|0,3:0|0:0,0:0:0:0:
400,116,93076,2,0,P|392:134|393:154,1,40,0|0,0:0|3:0,0:0:0:0:
416,344,93244,5,8,1:0:0:0:
400,328,93328,1,0,0:0:0:0:
372,316,93412,1,2,0:0:0:0:
332,308,93495,1,2,0:0:0:0:
284,312,93579,1,2,0:0:0:0:
236,336,93663,1,0,0:0:0:0:
184,372,93747,1,2,0:0:0:0:
112,384,93831,1,2,0:0:0:0:
36,360,93914,6,0,B|42:317|42:317|32:284|32:284|39:242,1,120.000004577637,0|0,3:0|0:0,0:0:0:0:
132,100,94417,1,0,0:0:0:0:
140,192,94585,6,0,B|65:200|96:156|27:168,1,120,8|0,1:0|0:0,0:0:0:0:
39,242,94920,1,0,0:0:0:0:
216,136,95088,6,0,L|295:131,1,80,2|0,0:0|3:0,0:0:0:0:
126,22,95423,2,0,B|120:68|120:68|132:100,1,80,2|0,2:0|0:0,0:0:0:0:
126,276,95758,1,2,3:0:0:0:
126,276,95842,1,0,3:0:0:0:
125,276,95926,6,0,P|80:224|139:191,1,155.999992858887,8|0,1:0|0:0,0:0:0:0:
151,204,96261,6,0,P|114:237|48:184,1,136.000002593994
152,356,96596,6,0,L|240:348,1,80,0|0,3:0|0:0,0:0:0:0:
316,320,96931,1,8,1:0:0:0:
244,136,97099,1,2,0:2:0:0:
244,136,97183,1,2,0:2:0:0:
243,136,97266,2,0,P|226:171|237:209,1,80,0|0,3:0|0:0,0:0:0:0:
396,372,97602,5,8,1:0:0:0:
408,356,97685,1,2,0:0:0:0:
416,336,97769,1,2,0:0:0:0:
416,316,97853,1,2,0:0:0:0:
408,296,97937,6,0,P|396:248|408:216,1,80,0|0,3:0|0:0,0:0:0:0:
496,256,98272,1,8,1:0:0:0:
316,320,98440,2,0,L|276:315,1,40,2|0,0:0|3:0,0:0:0:0:
208,280,98607,1,0,3:3:0:0:
196,300,98691,2,0,L|204:352,1,40,8|0,1:0|2:0,0:0:0:0:
479,334,98942,2,0,L|499:238,1,80,8|0,1:0|0:0,0:0:0:0:
468,184,99194,1,8,1:0:0:0:
468,184,99278,6,0,P|416:144|456:68,1,160,4|8,3:2|1:0,0:0:0:0:
320,24,99780,1,2,0:2:0:0:
320,24,99864,1,2,0:2:0:0:
320,23,99948,6,0,P|291:31|266:17,1,60.0000022888184,2|0,0:0|0:0,0:0:0:0:
200,72,100116,2,0,P|175:87|146:80,1,60.0000022888184,0|0,3:0|0:0,0:0:0:0:
96,152,100283,2,0,P|76:173|46:174,1,60.0000022888184,8|0,1:0|0:0,0:0:0:0:
40,83,100451,6,0,P|38:64|30:45,1,40,2|0,0:0|0:0,0:0:0:0:
180,168,100618,2,0,B|268:152|244:216|330:201,1,160,0|8,3:0|1:0,0:0:0:0:
324,84,101121,1,2,0:0:0:0:
324,84,101205,1,2,0:0:0:0:
324,84,101289,6,0,P|312:112|316:132,1,40,2|0,0:0|0:0,0:0:0:0:
212,288,101456,2,0,P|210:268|201:250,1,40,0|0,3:0|0:0,0:0:0:0:
146,80,101624,6,0,P|156:48|148:12,3,68.0000012969971,8|2|2|2,1:0|0:3|0:3|0:3,0:0:0:0:
80,44,101959,6,0,L|0:40,1,80,0|0,3:0|2:0,0:0:0:0:
208,128,102294,1,8,1:0:0:0:
56,220,102462,1,2,0:0:0:0:
56,220,102546,1,2,0:0:0:0:
56,220,102630,2,0,P|87:243|126:242,1,80,0|0,0:0|3:0,0:0:0:0:
208,128,102965,1,8,1:0:0:0:
216,284,103132,1,2,0:0:0:0:
300,164,103300,6,0,P|356:148|412:184,1,120,0|0,3:0|0:0,0:0:0:0:
420,164,103635,2,0,L|423:248,1,80,8|0,1:0|0:0,0:0:0:0:
320,352,103887,1,2,0:0:0:0:
308,344,103970,5,2,0:2:0:0:
292,328,104054,1,0,0:0:0:0:
280,300,104138,1,0,3:3:0:0:
272,260,104221,1,2,0:0:0:0:
276,212,104305,1,8,1:0:0:0:
300,164,104389,1,0,0:0:0:0:
336,112,104473,1,2,0:0:0:0:
348,40,104557,1,2,0:0:0:0:
268,4,104641,6,0,P|214:55|149:20,1,160,0|8,3:3|1:0,0:0:0:0:
112,240,105144,1,2,0:2:0:0:
112,240,105228,1,2,0:2:0:0:
112,241,105312,6,0,P|141:233|166:247,1,60.0000022888184,2|0,0:2|0:0,0:0:0:0:
232,192,105480,2,0,P|257:177|286:184,1,60.0000022888184,0|0,3:0|0:0,0:0:0:0:
336,112,105647,2,0,P|356:91|386:90,1,60.0000022888184,8|0,1:0|0:0,0:0:0:0:
392,180,105815,5,2,2:2:0:0:
252,96,105982,2,0,L|82:110,1,160,0|8,3:0|1:0,0:0:0:0:
40,212,106484,1,2,0:0:0:0:
40,212,106568,1,2,0:0:0:0:
40,212,106652,6,0,P|52:184|48:164,1,40,2|0,0:0|0:0,0:0:0:0:
24,16,106819,2,0,P|26:36|35:54,1,40,0|0,3:3|0:0,0:0:0:0:
208,192,106987,2,0,L|287:183,1,80,8|2,1:0|0:2,0:0:0:0:
392,220,107322,6,0,P|401:182|390:144,1,80,0|0,3:0|0:0,0:0:0:0:
390,145,107574,1,0,0:0:0:0:
390,145,107657,1,8,1:0:0:0:
280,28,107825,1,0,0:0:0:0:
280,28,107909,6,0,B|252:64|280:100|280:100|296:96|312:104,1,111.999996582031,0|0,3:0|0:0,0:0:0:0:
288,256,108160,2,0,B|316:220|288:184|288:184|272:188|256:180,1,111.999996582031,0|8,3:0|1:0,0:0:0:0:
172,68,108412,1,0,1:0:0:0:
172,68,108495,1,0,1:0:0:0:
172,68,108579,6,0,L|176:124,1,55.9999982910157,2|0,1:0|2:0,0:0:0:0:
132,240,108747,6,0,L|128:296,2,55.9999982910157,2|0|0,1:0|1:0|1:0,0:0:0:0:
88,76,108998,6,0,L|92:132,1,55.9999982910157,2|0,1:0|2:0,0:0:0:0:
44,288,109166,6,0,L|48:232,1,55.9999982910157,2|0,1:0|2:0,0:0:0:0:
268,264,109333,6,0,P|241:267|216:256,3,55.9999982910157,2|2|2|2,2:3|2:3|2:3|2:3,0:0:0:0:
404,202,109669,6,0,P|391:236|360:256,2,74.6666643880209,2|2|2,2:3|2:3|2:3,0:0:0:0:
468,8,110004,6,0,P|501:74|476:164,1,160,4|2,3:2|0:0,0:0:0:0:
404,202,110507,1,0,0:0:0:0:
292,120,110674,1,8,1:0:0:0:
156,168,110842,6,0,B|92:192|40:152|40:152|68:152|92:128,1,180.000006866455,2|0,0:0|0:0,0:0:0:0:
78,9,111177,1,0,0:0:0:0:
78,9,111261,1,2,0:0:0:0:
78,9,111345,6,0,L|90:133,1,120,0|0,3:0|0:0,0:0:0:0:
156,168,111680,6,0,P|183:175|204:156,1,60.0000022888184,2|0,0:0|0:0,0:0:0:0:
260,100,111847,2,0,P|287:107|308:88,1,60.0000022888184,2|0,0:0|0:0,0:0:0:0:
388,91,112015,6,0,P|482:92|416:160,1,240,8|0,1:0|0:0,0:0:0:0:
340,188,112350,6,0,L|280:180,1,60.0000022888184,2|2,2:3|2:3,0:0:0:0:
188,68,112518,2,0,L|128:60,1,60.0000022888184,2|2,2:3|2:3,0:0:0:0:
119,196,112685,6,0,P|24:195|90:127,1,240,2|0,2:2|0:0,0:0:0:0:
200,208,113021,5,0,3:0:0:0:
184,252,113104,1,2,0:0:0:0:
204,296,113188,1,2,0:0:0:0:
248,312,113272,1,2,0:0:0:0:
291,288,113356,6,0,P|306:265|281:258,1,60.0000022888184,8|0,1:0|2:3,0:0:0:0:
200,132,113523,2,0,P|185:109|210:102,1,60.0000022888184,2|0,2:3|2:3,0:0:0:0:
340,188,113691,1,2,0:0:0:0:
191,363,113859,6,0,P|115:343|203:295,1,240.000009155274,0|0,3:0|3:0,0:0:0:0:
76,356,114361,5,8,1:0:0:0:
36,340,114445,1,2,0:0:0:0:
16,304,114529,1,2,0:0:0:0:
20,260,114613,1,2,0:0:0:0:
48,228,114697,5,8,1:0:0:0:
60,200,114780,1,2,0:0:0:0:
60,168,114864,1,2,0:0:0:0:
80,136,114948,5,8,1:0:0:0:
97,175,115031,1,2,0:0:0:0:
97,219,115115,1,2,0:0:0:0:
124,268,115199,6,0,P|144:248|152:216,1,60.0000022888184,8|0,1:0|2:0,0:0:0:0:
82,27,115367,6,0,P|63:103|96:174,1,160,4|2,3:2|0:0,0:0:0:0:
268,200,115870,1,0,0:0:0:0:
380,56,116037,1,8,1:0:0:0:
444,228,116205,1,2,0:2:0:0:
340,128,116373,5,4,3:2:0:0:
459,50,116540,1,0,0:0:0:0:
459,50,116624,2,0,B|499:70|503:126|467:154|467:154|437:143|413:157,1,180.000006866455,2|2,0:0|0:3,0:0:0:0:
444,228,116959,1,0,2:0:0:0:
464,304,117043,6,0,P|465:333|451:359,1,60.0000022888184,2|2,2:3|2:0,0:0:0:0:
332,372,117211,2,0,P|303:364|282:342,1,60.0000022888184,0|2,3:3|0:2,0:0:0:0:
291,227,117378,6,0,P|318:158|366:216,1,180.000006866455,8|0,1:0|0:0,0:0:0:0:
376,292,117713,6,0,P|357:336|352:288,1,120,2|0,2:0|0:0,0:0:0:0:
366,215,118049,6,0,P|395:214|421:229,1,60.0000022888184,0|0,3:3|0:0,0:0:0:0:
492,116,118216,5,0,0:0:0:0:
448,132,118300,1,2,0:0:0:0:
372,136,118384,1,2,0:0:0:0:
288,112,118468,1,2,0:0:0:0:
231,70,118551,1,2,0:0:0:0:
206,38,118635,1,0,0:0:0:0:
199,19,118719,6,0,P|166:0|127:6,1,80,8|0,1:0|0:0,0:0:0:0:
80,68,118970,2,0,P|79:107|105:137,1,80,2|0,2:3|0:0,0:0:0:0:
192,148,119222,6,0,P|217:133|227:106,1,60.0000022888184,2|0,2:3|0:0,0:0:0:0:
154,81,119389,6,0,B|112:172|184:168|149:254,1,180.000006866455,4|2,3:2|0:0,0:0:0:0:
20,220,119725,2,0,L|79:211,1,60.0000022888184,8|2,1:0|0:0,0:0:0:0:
154,81,119892,6,0,B|204:168|204:168|140:268,1,204.000003890991,4|0,3:2|0:0,0:0:0:0:
11,204,120227,2,0,L|80:193,1,68.0000012969971,0|2,3:3|0:0,0:0:0:0:
154,81,120395,6,0,B|212:120|212:120|208:220|208:220|148:256,1,240,4|0,1:2|0:0,0:0:0:0:
3,187,120730,6,0,P|27:96|81:174,1,240,4|0,0:3|0:0,0:0:0:0:
140,384,121401,6,0,B|160:348|160:348|145:251|145:251|167:217,1,180.000006866455,8|0,1:0|0:0,0:0:0:0:
228,268,121736,6,0,L|324:276,1,80,2|2,0:0|0:0,0:0:0:0:
320,256,121987,2,0,L|353:202,1,40,2|0,0:0|3:3,0:0:0:0:
167,217,122239,1,2,0:0:0:0:
92,52,122406,1,2,0:0:0:0:
70,50,122490,2,0,L|18:46,1,40,2|0,0:0|0:0,0:0:0:0:
48,136,122657,1,0,3:0:0:0:
56,156,122741,6,0,B|64:176|64:176|44:220,1,60.0000022888184,8|0,1:0|0:0,0:0:0:0:
188,72,122909,2,0,B|180:52|180:52|200:8,1,60.0000022888184,2|0,2:0|0:0,0:0:0:0:
352,20,123076,6,0,B|372:36|372:36|416:32,3,68.0000012969971,2|2|2|2,2:3|2:3|2:3|2:3,0:0:0:0:
452,108,123412,6,0,B|362:119|362:119|352:200|352:200|428:192,1,240,2|0,2:0|0:0,0:0:0:0:
488,240,123747,5,0,3:3:0:0:
492,288,123831,1,2,0:0:0:0:
468,328,123914,1,2,0:0:0:0:
424,344,123998,1,2,0:0:0:0:
376,332,124082,6,0,B|300:288|300:288|384:280,1,160,8|0,1:0|0:0,0:0:0:0:
419,192,124333,2,0,P|396:120|347:155,1,160,0|0,3:0|0:0,0:0:0:0:
260,200,124585,6,0,L|132:196,1,120,4|0,3:2|2:0,0:0:0:0:
76,292,124920,5,8,1:0:0:0:
48,248,125004,1,2,0:0:0:0:
92,220,125088,1,2,0:0:0:0:
140,196,125171,5,2,0:0:0:0:
100,164,125255,1,0,3:0:0:0:
56,136,125339,1,0,3:0:0:0:
84,92,125423,5,8,1:0:0:0:
100,108,125507,1,0,0:0:0:0:
128,120,125591,1,0,3:3:0:0:
168,128,125674,1,2,0:0:0:0:
216,124,125758,1,8,1:0:0:0:
264,100,125842,1,0,0:0:0:0:
316,64,125926,1,2,0:0:0:0:
388,52,126010,1,2,0:0:0:0:
460,84,126093,6,0,B|484:148|440:136|465:200,1,120,4|0,3:2|0:0,0:0:0:0:
512,264,126428,1,2,0:0:0:0:
376,176,126596,1,2,0:0:0:0:
508,24,126764,1,8,1:0:0:0:
376,176,126931,6,0,P|360:200|364:240,1,60.0000022888184,2|0,2:3|0:0,0:0:0:0:
424,320,127099,2,0,P|434:347|468:367,1,60.0000022888184,2|0,2:3|0:0,0:0:0:0:
512,264,127266,2,0,L|476:216,1,60.0000022888184,2|2,0:3|0:2,0:0:0:0:
324,332,127434,6,0,L|224:340,1,80,0|2,3:0|0:0,0:0:0:0:
192,68,127769,1,2,0:0:0:0:
200,92,127853,1,2,0:0:0:0:
200,116,127937,1,2,0:0:0:0:
192,140,128021,1,0,3:2:0:0:
173,160,128104,6,0,B|119:199|147:263|147:263|179:251|207:272,1,180.000006866455,8|0,1:0|0:0,0:0:0:0:
164,348,128440,5,2,2:3:0:0:
128,340,128523,1,2,2:3:0:0:
84,316,128607,5,2,2:3:0:0:
48,324,128690,1,2,2:3:0:0:
12,300,128775,6,0,L|17:248,1,51.999997619629,6|0,1:2|0:0,0:0:0:0:
60,172,128942,2,0,L|54:120,1,51.999997619629,0|0,1:2|0:0,0:0:0:0:
8,0,129110,6,0,L|2:51,1,51.999997619629,2|2,1:2|0:0,0:0:0:0:
64,176,129277,2,0,L|115:170,1,51.999997619629,2|0,1:2|0:0,0:0:0:0:
172,52,129445,5,2,1:2:0:0:
208,60,129528,1,2,1:2:0:0:
256,80,129612,5,2,1:2:0:0:
288,76,129697,1,0,1:3:0:0:
326,39,129780,5,2,1:2:0:0:
352,44,129863,1,0,1:3:0:0:
412,64,129947,5,2,1:2:0:0:
432,60,130032,1,0,1:3:0:0:
460,20,130116,5,0,3:3:0:0:
472,60,130200,1,2,2:0:0:0:
512,64,130284,1,2,2:0:0:0:
484,136,130367,5,0,3:3:0:0:
476,168,130451,1,2,0:0:0:0:
444,176,130535,1,2,0:0:0:0:
480,248,130618,5,0,3:3:0:0:
484,268,130702,1,2,2:0:0:0:
488,288,130786,1,8,1:0:0:0:
84,332,131121,6,0,L|144:324,1,40,0|0,1:0|1:0,0:0:0:0:
92,212,131289,2,0,L|32:204,1,40,0|0,1:0|1:0,0:0:0:0:
88,96,131456,6,0,B|112:100|112:100|128:116|128:116|152:108|152:108|176:116|176:116|188:92|188:92|212:84|212:84|204:60|204:60|216:36|216:36|204:24|204:24|195:2,1,240,4|0,3:2|0:0,0:0:0:0:
119,19,131792,2,0,P|90:13|61:19,1,60.0000022888184,2|2,0:1|0:0,0:0:0:0:
292,68,131959,1,2,0:0:0:0:
292,68,132043,1,2,0:0:0:0:
292,68,132127,2,0,P|321:74|350:68,1,60.0000022888184,8|2,1:1|0:0,0:0:0:0:
304,272,132294,5,2,0:0:0:0:
342,245,132378,1,2,0:0:0:0:
350,197,132462,1,2,0:1:0:0:
323,159,132546,1,0,0:0:0:0:
276,152,132630,6,0,P|268:184|272:216,1,60.0000022888184,2|0,0:0|0:0,0:0:0:0:
364,320,132797,6,0,B|400:336|400:336|488:312,1,120,0|0,3:0|0:0,0:0:0:0:
476,168,133132,6,0,B|464:184|464:184|464:232,1,68.0000012969971,2|0,2:1|0:0,0:0:0:0:
364,320,133300,2,0,B|376:304|376:304|376:256,1,68.0000012969971,2|0,2:3|3:0,0:0:0:0:
400,88,133468,2,0,B|366:66|366:66|379:169,1,143.999995605469,8|0,1:0|0:0,0:0:0:0:
280,299,133803,6,0,P|248:308|227:283,1,68.0000012969971,2|0,0:1|0:0,0:0:0:0:
152,244,133970,2,0,P|124:260|97:241,1,68.0000012969971,2|0,0:3|0:0,0:0:0:0:
20,272,134138,6,0,B|16:248|16:248|0:232|0:232|8:208|8:208|0:184|0:184|24:172|24:172|32:148|32:148|56:156|56:156|80:144|80:144|92:156|92:156|114:165,1,240,4|0,3:2|0:0,0:0:0:0:
97,241,134474,2,0,P|103:270|97:299,1,60.0000022888184,2|2,0:1|0:0,0:0:0:0:
52,68,134641,1,2,0:0:0:0:
52,68,134725,1,2,0:0:0:0:
52,68,134809,2,0,P|46:39|52:10,1,60.0000022888184,8|2,1:1|0:0,0:0:0:0:
248,68,134976,5,2,0:0:0:0:
221,106,135060,1,2,0:0:0:0:
173,114,135144,1,2,0:1:0:0:
135,87,135228,1,0,0:0:0:0:
128,40,135312,2,0,P|160:32|192:36,1,60.0000022888184,2|0,0:0|0:0,0:0:0:0:
264,259,135479,6,0,P|230:260|197:250,1,68.0000012969971,0|0,3:0|0:0,0:0:0:0:
20,160,135646,2,0,P|52:150|86:151,1,68.0000012969971,0|0,3:0|0:0,0:0:0:0:
198,251,135814,5,10,1:1:0:0:
55,306,135981,1,4,2:3:0:0:
55,306,136065,1,4,2:3:0:0:
55,306,136149,6,0,L|90:408,1,80,8|0,1:0|0:0,0:0:0:0:
120,239,136317,2,0,L|206:253,1,80,8|0,1:0|0:0,0:0:0:0:
88,152,136485,6,0,L|152:51,1,120,10|0,1:0|0:0,0:0:0:0:
240,36,136819,6,0,B|274:1|330:25|330:25|356:64|402:60,1,180.000006866455,4|0,3:2|0:0,0:0:0:0:
480,28,137155,2,0,P|486:57|480:86,1,60.0000022888184,2|2,0:1|0:0,0:0:0:0:
288,160,137322,1,2,0:0:0:0:
288,160,137406,1,2,0:0:0:0:
288,160,137490,2,0,P|282:131|288:102,1,60.0000022888184,8|2,1:1|0:0,0:0:0:0:
412,144,137657,5,2,0:0:0:0:
450,171,137741,1,2,0:0:0:0:
458,219,137825,1,2,0:1:0:0:
431,257,137909,1,0,0:0:0:0:
384,264,137993,2,0,L|320:252,1,60.0000022888184,2|0,0:2|0:0,0:0:0:0:
252,316,138160,6,0,B|224:328|224:328|238:239,1,120,0|0,3:0|0:0,0:0:0:0:
180,96,138495,6,0,B|192:112|192:112|192:160,1,68.0000012969971,2|0,2:1|0:0,0:0:0:0:
136,284,138663,2,0,B|124:268|124:268|124:220,1,68.0000012969971,2|0,2:3|3:0,0:0:0:0:
68,56,138831,6,0,B|101:34|101:34|88:137,1,143.999995605469,8|0,1:0|0:0,0:0:0:0:
0,224,139166,6,0,P|20:208|48:212,1,51.999997619629,2|0,0:1|0:0,0:0:0:0:
136,284,139333,2,0,P|152:304|148:332,1,51.999997619629,2|0,0:3|0:0,0:0:0:0:
0,376,139501,6,0,B|30:371|30:371|54:383|54:383|86:379,1,90.0000034332277,0|0,3:0|0:0,0:0:0:0:
149,329,139836,6,0,B|177:242|177:242|115:271,1,120.000004577637,2|0,0:2|0:0,0:1:0:0:
11,266,140060,2,0,B|71:334|71:334|77:266,1,120.000004577637,2|0,0:2|0:0,0:1:0:0:
131,176,140283,2,2,B|41:194|41:194|97:233,1,120.000004577637,2|0,0:2|0:0,0:1:0:0:
149,329,140507,6,2,B|168:324|168:324|188:332|188:332|208:324|208:324|232:328|232:328|252:320|252:320|276:328,1,132.00000402832,2|0,0:2|3:0,0:1:0:0:
274,327,140842,6,0,B|302:330|302:330|323:319|323:319|350:323,1,80.0000030517579,0|0,3:0|3:0,0:0:0:0:
439,192,141177,6,0,B|455:216|455:216|446:271,1,80.0000030517579,2|0,0:2|3:0,0:0:0:0:
503,136,141401,2,0,B|487:112|487:112|495:56,1,80.0000030517579,2|8,0:2|1:0,0:0:0:0:
367,244,141624,2,2,L|350:322,1,80.0000030517579,2|0,1:2|3:0,0:1:0:0:
288,108,141848,2,2,B|316:108|316:108|336:132|336:132|364:116|364:116|404:116|404:116|385:94,1,160.000006103516,2|0,0:2|0:0,0:1:0:0:
284,20,142183,6,0,B|180:-16|220:72|113:37,1,180.000006866455,4|0,3:2|0:0,0:0:0:0:
39,76,142853,6,0,P|41:152|111:121,1,180.000006866455,8|0,1:0|0:0,0:0:0:0:
115,37,143188,6,0,B|160:152|76:132|121:247,1,215.999993408203,2|0,0:1|0:0,0:0:0:0:
156,328,143523,6,0,B|188:304|188:304|266:317,1,120,0|0,3:0|0:0,0:0:0:0:
320,176,143859,6,0,B|322:198|322:198|294:233,1,68.0000012969971,2|0,2:1|0:0,0:0:0:0:
388,352,144026,2,0,B|366:343|366:343|351:300,1,68.0000012969971,2|0,2:2|3:0,0:0:0:0:
303,51,144194,6,0,B|331:83|331:83|319:183,1,136.000002593994,8|0,1:0|0:0,0:0:0:0:
388,352,144445,2,0,B|365:315|365:315|395:219,1,136.000002593994,8|0,1:0|0:0,0:0:0:0:
240,112,144697,2,0,L|228:212,1,68.0000012969971,8|0,1:0|0:0,0:0:0:0:
470,211,144864,6,0,B|433:43|433:43|408:138,1,272.000005187988,0|0,3:0|0:1,0:1:0:0:
408,140,145534,6,0,B|478:154|540:89|515:21|515:21|478:42|441:20,1,272.000005187988,8|2,1:0|0:1,0:0:0:0:
336,96,146037,5,4,2:3:0:0:
336,96,146121,1,0,3:3:0:0:
336,96,146205,2,0,P|322:126|327:159,1,68.0000012969971,0|0,3:0|0:0,0:0:0:0:
464,284,146372,2,0,P|478:254|474:221,1,68.0000012969971,0|0,3:0|0:0,0:0:0:0:
441,20,146540,5,10,1:0:0:0:
235,167,146707,1,4,2:3:0:0:
199,135,146791,1,4,2:3:0:0:
187,87,146875,6,0,L|79:95,1,80,8|0,1:0|0:0,0:0:0:0:
235,167,147043,2,0,L|199:247,1,80,8|2,1:0|0:0,0:0:0:0:
327,159,147210,2,0,L|400:240,3,80,10|2|2|2,1:0|0:2|0:0|0:2,0:0:0:0:
356,296,147546,6,0,B|324:320|324:320|244:309,1,120,4|0,3:2|2:0,0:0:0:0:
64,233,147881,6,0,B|96:209|96:209|175:219,1,120,10|0,1:0|0:0,0:0:0:0:
244,309,148132,2,0,B|207:293|207:293|176:219,1,120,10|0,1:0|0:0,0:0:0:0:
220,116,148384,2,0,B|224:155|224:155|175:218,1,120,10|0,1:0|3:0,0:0:0:0:
52,116,148635,6,2,B|89:112|89:112|105:128|105:128|140:125,1,95.9999970703126,10|0,1:0|0:0,0:1:0:0:
233,4,148887,6,0,B|209:36|209:36|219:115,1,120,0|0,3:0|0:0,0:0:0:0:
285,309,149222,6,0,B|323:268|323:268|335:224|307:192,1,136.000002593994,10|0,1:0|0:0,0:0:0:0:
219,115,149473,2,0,B|235:168|235:168|267:200|308:193,1,136.000002593994,10|0,1:0|0:0,0:0:0:0:
420,155,149725,2,0,B|365:142|365:142|321:154|307:193,1,136.000002593994,10|0,1:0|0:0,0:0:0:0:
285,309,149976,6,2,B|243:312|243:312|226:295|226:295|189:298,1,103.999995239258,10|0,1:0|0:0,0:1:0:0:
24,236,150227,6,0,B|31:199|71:183|107:199|107:199|132:232|174:216,1,180.000006866455,0|0,3:0|0:0,0:0:0:0:
178,70,150563,6,0,B|203:31|203:31|219:165,1,160,10|0,1:0|3:0,0:0:0:0:
173,216,150814,2,0,B|126:212|126:212|234:132,1,160,10|0,1:0|2:0,2:0:0:0:
301,148,151065,2,0,B|321:189|321:189|197:136,1,160,10|0,1:0|3:0,2:0:0:0:
95,67,151317,2,0,B|74:25|74:25|198:78,1,160,10|0,1:0|2:0,2:0:0:0:
357,94,151568,6,0,B|377:134|377:134|397:20,1,160,0|0,3:0|3:0,0:0:0:0:
320,188,151819,2,0,B|300:148|300:148|279:261,1,160,10|0,1:0|3:0,0:0:0:0:
460,300,152071,2,0,L|452:216,1,80,10|0,1:0|0:0,0:0:0:0:
478,22,152238,5,0,1:0:0:0:
433,83,152350,1,8,0:3:0:0:
357,94,152462,1,8,0:3:0:0:
301,43,152574,5,4,0:3:0:0:
227,53,152686,1,4,0:3:0:0:
182,116,152798,1,4,0:3:0:0:
196,192,152909,6,0,P|208:234|196:277,1,90.0000034332277,4|0,3:1|0:0,0:0:0:0:
180,288,153244,2,0,P|137:277|106:245,1,90.0000034332277,0|0,2:2|0:0,0:0:0:0:
100,228,153579,1,0,0:0:0:0:
128,156,153747,2,0,P|144:132|176:120,1,60.0000022888184
52,168,154082,5,0,0:0:0:0:
80,96,154417,1,0,0:0:0:0:
32,40,154752,1,0,0:0:0:0:
4,108,155088,2,0,B|93:136|61:76|148:103,1,150.000005722046
167,111,155590,6,0,P|246:108|235:29,2,180.000006866455,2|0|0,0:0|0:0|0:0,0:0:0:0:
116,172,156764,1,0,0:0:0:0:
184,208,156931,2,0,L|324:200,1,120.000004577637,2|0,0:0|0:0,0:0:0:0:
372,160,157434,1,0,0:0:0:0:
400,168,157518,1,0,0:0:0:0:
440,164,157602,5,2,0:0:0:0:
464,148,157685,1,0,0:0:0:0:
480,124,157769,1,0,0:0:0:0:
484,96,157853,1,2,0:0:0:0:
476,68,157937,1,2,0:0:0:0:
456,44,158021,1,2,0:0:0:0:
428,32,158105,1,0,0:0:0:0:
400,28,158188,1,0,0:0:0:0:
364,39,158272,6,0,P|355:52|350:66,3,30.0000011444092
280,96,158607,2,0,L|236:92,3,30.0000011444092
184,56,158942,1,0,0:0:0:0:
180,132,159110,6,0,L|176:256,1,120.000004577637
152,324,159780,1,0,0:0:0:0:
104,268,160115,1,0,0:0:0:0:
76,336,160451,2,0,B|182:369|144:297|248:330,1,180.000006866455,0|2,0:0|0:0,0:0:0:0:
256,192,161121,12,0,162965,0:0:0:0:
480,92,163132,5,0,3:0:0:0:
476,72,163216,1,0,3:0:0:0:
472,52,163300,1,8,1:0:0:0:
372,160,163468,1,2,0:0:0:0:
496,208,163635,2,0,B|455:185|427:217|427:217|412:236|387:237,1,120.000004577637,4|2,1:2|0:0,0:0:0:0:
316,216,164138,1,0,0:0:0:0:
476,280,164306,6,0,P|488:304|480:340,3,60.0000022888184,8|8|0|0,3:3|0:3|3:0|2:0,0:0:0:0:
336,292,164641,1,4,0:3:0:0:
372,159,164808,6,0,P|391:84|353:15,1,160,4|2,1:0|0:0,0:0:0:0:
208,8,165311,1,8,3:3:0:0:
352,28,165479,6,0,P|415:69|483:45,1,150.000005722046,4|0,1:2|0:0,0:0:0:0:
464,48,165982,6,0,P|369:19|285:72,1,204.000003890991
210,97,166317,6,0,B|173:119|173:119|207:7,1,160,4|0,1:2|0:0,0:0:0:0:
268,152,166820,1,2,0:0:0:0:
136,200,166987,6,0,L|120:180,1,25.9999988098145,2|0,1:2|0:0,0:0:0:0:
148,216,167071,6,0,L|168:196,1,25.9999988098145,2|0,0:2|0:0,0:0:0:0:
132,228,167155,6,0,L|107:220,1,25.9999988098145
144,244,167239,6,0,L|168:236,1,25.9999988098145
132,260,167322,6,0,L|124:316,1,51.999997619629,2|0,0:0|0:0,0:0:0:0:
200,340,167490,6,0,B|223:376|223:376|241:260,1,160,4|8,3:2|1:0,0:0:0:0:
119,179,167993,1,0,1:0:0:0:
12,288,168160,2,0,L|51:283,1,40,0|0,3:0|0:0,0:0:0:0:
241,261,168328,5,2,0:0:0:0:
244,289,168412,1,2,0:0:0:0:
258,322,168495,1,2,0:0:0:0:
289,349,168579,1,0,0:0:0:0:
330,364,168663,1,2,0:0:0:0:
377,361,168747,1,2,0:0:0:0:
423,333,168831,1,2,0:0:0:0:
451,279,168914,1,2,0:0:0:0:
440,210,168998,6,0,P|383:299|480:342,1,240,4|2,3:2|0:0,0:0:0:0:
500,96,169669,5,8,1:0:0:0:
500,96,169753,1,2,0:2:0:0:
500,96,169836,2,0,P|504:125|492:152,1,60.0000022888184,2|0,0:2|0:0,0:0:0:0:
392,316,170004,2,0,P|379:289|384:259,1,60.0000022888184,2|0,0:2|0:0,0:0:0:0:
425,111,170171,6,0,B|328:68|336:164|235:123,1,200,4|0,3:2|0:0,0:0:0:0:
184,72,170674,1,8,1:0:0:0:
384,176,170842,2,0,P|472:176|496:80,1,200,4|0,3:2|0:0,0:0:0:0:
432,32,171345,2,0,L|404:28,7,20
404,20,171680,5,4,1:2:0:0:
360,88,171847,1,0,1:0:0:0:
324,16,172015,5,0,1:0:0:0:
496,81,172183,1,0,1:0:0:0:
392,288,172350,5,0,1:0:0:0:
280,84,172518,1,0,1:0:0:0:
204,352,172686,5,2,0:0:0:0:
180,340,172769,1,2,0:0:0:0:
156,336,172853,1,2,0:0:0:0:
132,340,172937,1,2,0:0:0:0:
108,352,173021,5,0,3:3:0:0:
101,356,173105,1,0,0:0:0:0:
95,360,173188,1,0,0:0:0:0:
76,352,173272,5,0,3:3:0:0:
93,342,173356,1,0,0:0:0:0:
111,332,173440,1,0,0:0:0:0:
107,301,173524,5,0,3:3:0:0:
79,317,173607,1,0,2:0:0:0:
52,333,173691,1,0,2:0:0:0:
21,305,173775,5,0,3:3:0:0:
59,283,173859,1,0,0:0:0:0:
98,261,173943,1,0,0:0:0:0:
130,196,174026,6,0,P|146:187|164:186,3,35.9999989013672,2|2|2|2,2:3|2:3|2:3|2:3,0:0:0:0:
116,96,174361,6,0,B|148:112|148:112|244:100,1,107.999996704102,4|0,3:2|0:0,0:0:0:0:
232,116,174696,2,0,L|328:104,1,71.9999978027344,0|2,3:0|0:0,0:0:0:0:
444,144,175031,1,0,3:0:0:0:
308,188,175199,1,2,0:0:0:0:
291,190,175283,1,2,0:0:0:0:
275,193,175367,1,0,3:0:0:0:
130,196,175534,1,2,0:0:0:0:
64,164,175702,5,0,3:0:0:0:
152,52,175870,1,2,0:0:0:0:
204,184,176037,1,0,3:0:0:0:
64,164,176205,1,2,0:0:0:0:
200,112,176372,2,0,L|248:104,1,35.9999989013672,0|0,3:0|0:0,0:0:0:0:
312,92,176540,2,0,L|360:84,1,35.9999989013672,2|0,0:3|0:0,0:0:0:0:
424,72,176708,1,0,3:0:0:0:
428,88,177043,5,0,3:0:0:0:
428,88,177378,1,0,3:0:0:0:
400,228,177713,5,0,3:0:0:0:
400,228,178048,1,0,3:0:0:0:
428,88,178383,5,0,3:0:0:0:
472,232,178551,1,2,0:0:0:0:
400,228,178719,5,0,3:0:0:0:
500,92,178887,1,2,0:0:0:0:
356,84,179054,6,0,B|240:76,1,107.999996704102,0|0,3:0|0:0,0:0:0:0:
200,132,179389,2,0,L|196:168,1,35.9999989013672,0|0,3:0|0:0,0:0:0:0:
284,324,179557,2,0,L|280:360,1,35.9999989013672,2|0,0:3|0:0,0:0:0:0:
400,228,179725,6,0,B|368:244|368:244|272:232,1,107.999996704102,4|0,3:2|0:0,0:0:0:0:
284,248,180060,2,0,L|188:236,1,71.9999978027344,0|2,3:0|0:0,0:0:0:0:
72,276,180395,1,0,3:0:0:0:
208,320,180563,1,2,0:0:0:0:
225,322,180647,1,2,0:0:0:0:
241,325,180731,1,0,3:0:0:0:
386,328,180898,1,2,0:0:0:0:
452,296,181066,5,0,3:0:0:0:
364,184,181234,1,2,0:0:0:0:
312,316,181401,1,0,3:0:0:0:
452,296,181569,1,2,0:0:0:0:
316,244,181736,2,0,L|268:236,1,35.9999989013672,0|0,3:0|0:0,0:0:0:0:
204,224,181904,2,0,L|156:216,1,35.9999989013672,2|0,0:3|0:0,0:0:0:0:
92,204,182072,1,0,3:0:0:0:
88,220,182407,5,0,3:0:0:0:
88,220,182742,1,0,3:0:0:0:
88,220,182909,1,2,0:1:0:0:
116,360,183077,5,0,3:0:0:0:
116,360,183244,1,2,0:1:0:0:
116,360,183412,1,0,3:0:0:0:
116,360,183579,1,2,0:1:0:0:
88,220,183747,5,0,3:0:0:0:
44,364,183914,1,2,0:1:0:0:
116,360,184083,5,0,3:0:0:0:
16,224,184251,1,2,0:1:0:0:
160,216,184418,6,0,B|268:208,1,95.9999970703126,0|2,3:0|0:0,0:0:0:0:
272,216,184669,1,2,0:0:0:0:
272,216,184752,2,0,L|280:144,1,71.9999978027344,0|2,3:0|0:0,0:0:0:0:
92,55,185088,6,0,B|108:87|108:87|96:183,1,107.999996704102,4|0,3:2|0:0,0:0:0:0:
112,171,185423,2,0,L|100:267,1,71.9999978027344,0|2,3:0|0:0,0:0:0:0:
140,383,185758,1,0,3:0:0:0:
184,247,185926,1,2,0:0:0:0:
186,230,186010,1,2,0:0:0:0:
189,214,186094,1,0,3:0:0:0:
192,69,186261,1,2,0:0:0:0:
160,3,186429,5,0,3:0:0:0:
48,91,186597,1,2,0:0:0:0:
180,143,186764,1,0,3:0:0:0:
160,3,186932,1,2,0:0:0:0:
108,139,187099,2,0,L|100:187,1,35.9999989013672,0|0,3:0|0:0,0:0:0:0:
88,251,187267,2,0,L|80:299,1,35.9999989013672,2|0,0:3|0:0,0:0:0:0:
68,363,187435,1,0,3:0:0:0:
84,367,187770,5,0,3:0:0:0:
84,367,188105,1,0,3:0:0:0:
224,339,188440,5,0,3:0:0:0:
224,339,188775,1,0,3:0:0:0:
84,296,189110,5,0,3:0:0:0:
224,339,189278,1,2,0:0:0:0:
224,268,189446,5,0,3:0:0:0:
84,367,189614,1,2,0:0:0:0:
288,304,189781,6,0,B|404:312,1,107.999996704102,0|0,3:0|0:0,0:0:0:0:
468,336,190116,2,0,L|472:300,1,35.9999989013672,0|0,3:0|0:0,0:0:0:0:
320,208,190284,2,0,L|324:172,1,35.9999989013672,2|0,0:3|0:0,0:0:0:0:
420,55,190451,6,0,B|404:87|404:87|416:183,1,107.999996704102,4|0,3:2|0:0,0:0:0:0:
400,171,190786,2,0,L|412:267,1,71.9999978027344,0|2,3:0|0:0,0:0:0:0:
372,383,191121,1,0,3:0:0:0:
328,247,191289,1,2,0:0:0:0:
326,230,191373,1,2,0:0:0:0:
323,214,191457,1,0,3:0:0:0:
320,69,191624,1,2,0:0:0:0:
352,3,191792,5,0,3:0:0:0:
464,91,191960,1,2,0:0:0:0:
332,143,192127,1,0,3:0:0:0:
352,3,192295,1,2,0:0:0:0:
404,139,192462,2,0,L|412:187,1,35.9999989013672,0|0,3:0|0:0,0:0:0:0:
424,251,192630,2,0,L|432:299,1,35.9999989013672,2|0,0:3|0:0,0:0:0:0:
444,363,192798,1,0,3:0:0:0:
428,367,193133,5,0,3:0:0:0:
428,367,193468,1,0,3:0:0:0:
428,367,193635,1,2,0:1:0:0:
288,339,193803,5,0,3:0:0:0:
288,339,193970,1,2,0:1:0:0:
288,339,194138,1,0,3:0:0:0:
288,339,194306,1,2,0:1:0:0:
428,296,194473,5,0,3:0:0:0:
288,339,194641,1,2,0:1:0:0:
288,268,194809,5,0,3:0:0:0:
428,367,194977,1,2,0:0:0:0:
224,304,195144,6,0,B|148:268|152:336|74:305,1,155.999992858887,0|0,3:0|0:0,0:0:0:0:
112,184,195479,2,0,P|104:208|108:234,1,51.999997619629,0|0,3:0|0:0,0:0:0:0:
300,324,195646,2,0,P|304:298|297:273,1,51.999997619629,2|0,2:3|0:0,0:0:0:0:
184,152,195814,6,0,B|198:44,1,107.999996704102,4|0,3:2|0:0,0:0:0:0:
212,32,196149,2,0,B|236:44|236:44|281:32,1,71.9999978027344,0|2,3:0|0:2,0:0:0:0:
304,40,196401,1,2,0:0:0:0:
328,48,196484,1,0,3:0:0:0:
232,136,196652,1,2,0:0:0:0:
208,144,196736,1,2,0:0:0:0:
184,152,196820,1,0,3:0:0:0:
68,100,196987,1,2,0:0:0:0:
96,28,197155,5,0,3:0:0:0:
112,160,197323,1,2,0:0:0:0:
0,228,197490,1,0,3:0:0:0:
140,92,197658,1,2,0:0:0:0:
320,160,197825,2,0,L|372:167,1,35.9999989013672,0|0,3:0|0:0,0:0:0:0:
428,176,197993,2,0,L|480:183,1,35.9999989013672,2|0,0:3|0:0,0:0:0:0:
384,236,198161,1,0,3:0:0:0:
388,256,198496,5,0,3:0:0:0:
388,256,198831,1,0,3:0:0:0:
400,108,199166,5,0,3:0:0:0:
400,108,199501,1,0,3:0:0:0:
388,256,199836,5,0,3:0:0:0:
336,68,200004,1,2,0:0:0:0:
404,32,200171,5,0,3:0:0:0:
456,220,200339,1,2,0:0:0:0:
388,256,200507,6,0,B|384:368,1,107.999996704102,0|0,3:0|0:0,0:0:0:0:
272,340,200842,2,0,L|332:336,1,35.9999989013672,0|0,3:0|0:0,0:0:0:0:
460,296,201009,2,0,L|520:292,1,35.9999989013672,2|0,0:3|0:0,0:0:0:0:
312,260,201177,6,0,B|298:152,1,107.999996704102,4|0,3:2|0:0,0:0:0:0:
284,140,201512,2,0,B|260:152|260:152|215:140,1,71.9999978027344,0|2,3:0|0:2,0:0:0:0:
192,148,201764,1,2,0:0:0:0:
168,156,201847,1,0,3:0:0:0:
264,244,202015,1,2,0:0:0:0:
288,252,202099,1,2,0:0:0:0:
312,260,202183,1,0,3:0:0:0:
428,208,202350,1,2,0:0:0:0:
400,136,202518,5,0,3:0:0:0:
384,268,202686,1,2,0:0:0:0:
496,336,202853,1,0,3:0:0:0:
356,200,203021,1,2,0:0:0:0:
176,268,203188,2,0,L|124:275,1,35.9999989013672,0|0,3:0|0:0,0:0:0:0:
68,284,203356,2,0,L|16:291,1,35.9999989013672,2|0,0:3|0:0,0:0:0:0:
112,344,203524,1,0,3:0:0:0:
116,360,203859,5,0,3:0:0:0:
116,360,204194,1,0,3:0:0:0:
116,360,204361,1,2,0:1:0:0:
104,212,204529,5,0,3:0:0:0:
104,212,204697,1,2,0:1:0:0:
104,212,204864,1,0,3:0:0:0:
104,212,205032,1,2,0:1:0:0:
116,360,205199,5,0,3:0:0:0:
168,172,205367,1,2,0:1:0:0:
100,136,205534,5,0,3:0:0:0:
48,324,205702,1,2,0:0:0:0:
116,360,205870,6,0,B|232:352,1,107.999996704102,0|0,3:0|0:0,0:0:0:0:
296,328,206205,2,0,L|348:332,1,35.9999989013672,0|0,3:0|0:0,0:0:0:0:
404,356,206373,2,0,L|456:352,1,35.9999989013672,2|0,2:3|0:0,0:0:0:0:
392,280,206540,5,4,3:2:0:0:
304,220,206708,1,2,1:0:0:0:
296,328,206875,1,0,1:0:0:0:
132,328,207043,1,2,1:0:0:0:
124,344,207127,1,0,1:0:0:0:
116,360,207211,5,0,1:2:0:0:
20,236,207379,1,2,1:2:0:0:
176,212,207546,1,2,1:0:0:0:
256,36,207713,1,2,1:2:0:0:
256,20,207797,1,0,1:0:0:0:
256,0,207881,5,0,1:0:0:0:
336,212,208049,1,0,1:0:0:0:
88,140,208216,5,0,1:0:0:0:
332,292,208384,1,2,1:0:0:0:
256,80,208551,5,0,1:0:0:0:
256,276,208719,1,2,1:2:0:0:
424,140,208887,5,0,1:0:0:0:
180,292,209054,1,2,1:0:0:0:
394,355,209222,6,0,P|400:326|386:300,1,60.0000022888184,0|0,1:0|0:0,0:0:0:0:
117,252,209389,1,2,1:2:0:0:
121,268,209473,1,2,0:0:0:0:
125,284,209557,6,0,P|150:298|179:292,1,60.0000022888184,0|0,1:0|0:0,0:0:0:0:
387,301,209725,2,0,P|358:306|332:292,1,60.0000022888184,0|0,1:0|0:0,0:0:0:0:
140,184,209892,6,0,P|169:178|195:192,1,60.0000022888184,2|0,1:0|0:0,0:0:0:0:
380,216,210060,1,2,1:2:0:0:
376,200,210144,1,2,0:0:0:0:
372,184,210227,6,0,P|343:190|317:176,1,60.0000022888184,0|0,1:0|0:0,0:0:0:0:
248,60,210395,2,0,P|262:33|265:4,1,60.0000022888184,2|0,1:0|0:0,0:0:0:0:
88,140,210562,5,0,1:0:0:0:
116,120,210646,1,0,1:0:0:0:
148,116,210730,1,0,1:0:0:0:
180,128,210814,1,0,1:0:0:0:
200,152,210898,1,0,1:0:0:0:
208,184,210982,1,0,1:0:0:0:
200,216,211066,1,2,1:2:0:0:
180,240,211149,1,0,1:0:0:0:
152,252,211233,6,0,B|96:244,1,40,0|0,1:0|1:0,0:0:0:0:
44,204,211401,2,0,B|-12:196,1,40,0|0,1:0|1:0,0:0:0:0:
40,68,211568,6,0,B|96:76,1,40,0|0,1:0|1:0,0:0:0:0:
148,116,211736,2,0,B|204:124,1,40,0|0,1:0|1:0,0:0:0:0:
352,168,211903,5,4,3:2:0:0:
350,164,211987,1,0,1:0:0:0:
349,160,212071,1,0,1:0:0:0:
351,152,212155,1,0,1:0:0:0:
354,144,212238,5,0,3:0:0:0:
362,135,212322,1,0,1:0:0:0:
372,128,212406,1,0,1:0:0:0:
387,125,212490,1,0,1:0:0:0:
402,128,212574,5,0,3:0:0:0:
417,139,212657,1,0,1:0:0:0:
428,155,212741,1,0,1:0:0:0:
433,178,212825,1,0,1:0:0:0:
428,201,212909,5,0,3:0:0:0:
412,224,212993,1,0,1:0:0:0:
388,239,213076,1,0,1:0:0:0:
356,246,213160,1,0,1:0:0:0:
321,236,213244,5,0,3:0:0:0:
293,213,213328,1,0,1:0:0:0:
276,176,213412,1,0,1:0:0:0:
276,136,213495,1,0,1:0:0:0:
294,95,213579,5,0,3:0:0:0:
327,65,213663,1,0,1:0:0:0:
372,50,213747,1,0,1:0:0:0:
419,54,213831,1,0,1:0:0:0:
464,77,213914,5,0,3:0:0:0:
496,117,213998,1,0,1:0:0:0:
509,171,214082,1,0,1:0:0:0:
500,226,214166,1,0,1:0:0:0:
467,276,214250,5,0,3:0:0:0:
416,307,214333,1,0,1:0:0:0:
352,318,214417,1,0,1:0:0:0:
289,302,214501,1,0,1:0:0:0:
232,260,214585,6,0,L|179:269,7,30.0000011444092,0|0|0|0|0|0|0|0,3:0|1:0|1:0|1:0|1:0|1:0|1:0|1:0,0:0:0:0:
179,245,214920,2,0,L|126:236,7,30.0000011444092,0|0|0|0|0|0|0|0,3:0|1:0|1:0|1:0|1:0|1:0|1:0|1:0,0:0:0:0:
128,216,215255,6,0,L|84:224,1,40,0|0,3:0|1:0,0:0:0:0:
104,204,215339,2,0,L|60:196,1,40,0|0,1:0|1:0,0:0:0:0:
88,184,215423,2,0,L|60:150,1,40,0|0,1:0|1:0,0:0:0:0:
87,158,215507,2,0,L|72:116,1,40,0|0,1:0|1:0,0:0:0:0:
100,132,215590,6,0,L|144:140,1,40,0|0,3:0|1:0,0:0:0:0:
124,120,215674,2,0,L|168:112,1,40,0|0,1:0|1:0,0:0:0:0:
140,100,215758,2,0,L|168:66,1,40,0|0,1:0|1:0,0:0:0:0:
141,74,215842,2,0,L|156:32,1,40,0|0,1:0|1:0,0:0:0:0:
128,43,215926,6,0,P|25:23|28:127,1,240.000009155274,4|0,0:3|0:0,0:0:0:0:
248,96,216428,1,0,0:0:0:0:
248,96,216512,1,0,0:0:0:0:
248,96,216596,2,0,P|277:97|303:82,1,60.0000022888184
224,180,216764,1,4,0:3:0:0:
128,44,216931,6,0,L|188:52,1,40,0|0,1:0|1:0,0:0:0:0:
0,67,217099,2,0,L|60:59,1,40,0|0,1:0|1:0,0:0:0:0:
36,156,217266,6,0,B|64:160|60:192|60:192|92:200|76:232|76:232|92:264|60:272|60:272|64:304|36:308,1,204.000003890991,4|0,3:2|0:0,0:0:0:0:
156,348,217602,6,0,P|151:319|162:291,1,60.0000022888184,2|0,0:1|0:0,0:0:0:0:
172,104,217769,1,2,0:3:0:0:
172,104,217853,1,2,2:3:0:0:
172,104,217937,2,0,P|183:131|178:160,1,60.0000022888184,8|0,1:0|0:0,0:0:0:0:
189,325,218104,6,0,P|166:310|166:282,1,47.9999985351563,2|0,0:3|0:0,0:0:0:0:
129,123,218272,6,0,P|160:133|179:165,1,68.0000012969971,2|0,0:1|0:0,0:0:0:0:
237,300,218440,6,0,P|193:308|161:288,1,80,2|0,0:3|0:0,0:0:0:0:
14,79,218607,6,0,B|94:31|94:31|158:71|158:71|120:108|120:108|130:127,1,240,0|0,3:0|0:0,0:0:0:0:
116,200,218942,6,0,P|59:232|0:155,1,180.000006866455,2|0,0:1|0:0,0:0:0:0:
14,79,219277,6,0,L|23:20,1,60.0000022888184,8|0,1:0|0:0,0:0:0:0:
116,200,219445,2,0,L|126:259,1,60.0000022888184,2|0,0:2|0:0,0:0:0:0:
240,92,219613,5,2,0:1:0:0:
244,72,219696,1,2,0:3:0:0:
324,84,219780,5,2,0:3:0:0:
328,64,219863,1,2,0:3:0:0:
408,76,219948,6,0,B|475:98|496:186|441:232|441:232|419:195|376:196,1,272.000005187988,0|2,3:0|0:1,0:0:0:0:
366,313,220451,2,0,L|372:280,2,34.0000006484985,2|2|2,2:3|2:3|2:3,0:0:0:0:
240,292,220618,6,0,P|262:280|288:281,1,51.999997619629,8|0,1:0|0:0,0:0:0:0:
504,352,220786,2,0,P|478:352|455:341,1,51.999997619629,2|0,0:3|0:0,0:0:0:0:
228,256,220954,6,0,P|256:252|284:263,1,60.0000022888184,2|0,0:1|0:0,0:0:0:0:
508,316,221121,2,0,P|480:327|451:323,1,60.0000022888184,2|0,0:3|0:0,0:0:0:0:
323,110,221289,6,0,P|304:137|303:170,1,68.0000012969971,0|0,3:0|0:0,0:0:0:0:
345,374,221456,2,0,P|364:347|365:313,1,68.0000012969971,0|0,3:0|0:0,0:0:0:0:
311,79,221624,5,10,1:1:0:0:
296,124,221708,1,0,0:0:0:0:
303,171,221791,1,4,2:3:0:0:
335,207,221875,1,4,2:3:0:0:
383,219,221959,6,0,B|397:221|397:221|431:205,2,53.3333333333333,8|0|0,1:0|0:0|0:0,0:0:0:0:
303,171,222127,2,0,B|287:167|287:167|251:184,2,53.3333333333333,8|2|0,1:0|0:0|0:0,0:0:0:0:
311,79,222294,2,0,L|328:8,4,53.3333333333333,10|2|2|2|0,1:0|0:0|0:0|0:0|0:0,0:0:0:0:
232,28,222629,6,0,B|181:-7|108:23|103:85|103:85|123:119|106:151,1,240.000009155274,4|0,3:2|0:0,0:0:0:0:
64,224,222965,2,0,P|33:233|1:223,1,68.0000012969971,2|0,2:1|0:0,0:0:0:0:
188,100,223132,5,2,2:3:0:0:
188,100,223216,1,2,2:3:0:0:
188,100,223300,2,0,P|206:134|198:174,1,68.0000012969971,8|0,1:1|0:0,0:0:0:0:
32,152,223468,2,0,P|12:129|10:100,1,60.0000022888184,2|0,0:3|0:0,0:0:0:0:
184,244,223635,6,0,P|163:263|133:266,1,60.0000022888184,2|0,2:1|0:0,0:0:0:0:
88,100,223803,2,0,L|100:32,1,68.0000012969971,2|0,0:3|0:0,0:0:0:0:
88,336,223970,6,0,B|54:310|54:310|48:234,1,120,0|0,3:3|0:0,0:0:0:0:
133,266,224305,2,0,L|222:257,1,80,2|0,0:1|0:0,0:0:0:0:
288,296,224557,1,0,3:3:0:0:
308,286,224641,6,0,B|340:272|340:272|372:278,1,68.0000012969971,8|0,1:0|0:0,0:0:0:0:
384,160,224808,2,0,B|416:174|416:174|448:167,1,68.0000012969971,2|0,0:0|0:0,0:0:0:0:
424,16,224976,1,2,0:1:0:0:
388,48,225060,1,2,0:0:0:0:
340,56,225143,1,2,0:0:0:0:
296,40,225227,1,2,0:0:0:0:
264,8,225311,6,0,B|212:4|212:4|168:36|168:36|116:32,1,155.999992858887,4|0,3:2|0:0,0:0:0:0:
20,112,225646,6,0,L|96:96,1,51.999997619629,2|2,0:3|0:3,0:0:0:0:
192,148,225814,2,0,L|142:137,1,51.999997619629,2|2,0:3|0:3,0:0:0:0:
64,232,225982,6,0,L|140:216,1,68.0000012969971,8|2,1:0|0:3,0:0:0:0:
256,292,226149,2,0,L|180:276,1,68.0000012969971,2|2,0:3|0:3,0:0:0:0:
88,336,226317,6,0,L|140:336,1,40,2|2,2:0|2:0,1:0:0:0:
240,372,226484,2,0,L|188:372,1,40,2|0,2:0|3:0,1:0:0:0:
189,277,226652,6,0,B|293:261|293:261|225:313,1,136.000002593994,0|0,3:3|0:0,0:0:0:0:
128,336,226903,2,0,B|24:352|24:352|92:300,1,136.000002593994,0|8,3:3|1:0,0:0:0:0:
64,232,227155,2,0,L|136:216,1,68.0000012969971,0|0,3:3|3:3,0:0:0:0:
220,128,227322,6,0,P|160:143|122:86,1,136.000002593994,8|0,1:0|0:0,0:0:0:0:
122,88,227574,6,0,P|181:103|219:46,1,136.000002593994,8|0,1:0|0:0,0:0:0:0:
219,48,227825,6,0,P|189:55|170:27,1,68.0000012969971,8|0,1:0|0:0,0:0:0:0:
304,36,227993,6,0,B|397:18|356:86|453:63,1,160,0|0,3:0|3:0,0:0:0:0:
280,332,228495,6,0,P|285:303|274:275,1,60.0000022888184,2|0,0:3|0:0,0:0:0:0:
324,116,228663,2,0,P|313:143|318:172,1,60.0000022888184,8|0,1:0|0:0,0:0:0:0:
249,312,228831,6,0,P|272:297|272:269,1,51.999997619629,2|0,0:3|0:0,0:0:0:0:
367,135,228998,6,0,P|336:145|317:177,1,68.0000012969971,2|0,0:1|0:0,0:0:0:0:
199,283,229166,6,0,P|243:291|275:271,1,80,2|0,0:3|0:0,0:0:0:0:
467,137,229333,6,0,B|467:74|467:74|419:45|419:45|367:73|367:73|367:137,1,240,4|0,3:0|0:0,0:0:0:0:
380,212,229669,6,0,B|380:288|380:288|416:312|416:312|452:288|452:288|452:208,1,240,2|0,0:1|3:0,0:0:0:0:
296,184,230004,6,0,B|284:144|284:144|264:176|264:176|248:152|248:152|224:172|224:172|200:152|200:152|176:164|176:164|152:156|152:156|134:158,1,240,8|0,1:0|0:0,0:0:0:0:
103,37,230674,6,0,B|36:59|15:147|70:193|70:193|92:156|135:157,1,272.000005187988,0|2,3:0|0:1,0:0:0:0:
148,272,231177,2,0,L|142:239,2,34.0000006484985,2|2|2,2:3|2:3|2:3,0:0:0:0:
274,251,231345,6,0,P|252:239|226:240,1,51.999997619629,8|0,1:0|0:0,0:0:0:0:
10,311,231512,2,0,P|36:311|59:300,1,51.999997619629,2|0,0:3|0:0,0:0:0:0:
286,215,231680,6,0,P|258:211|230:222,1,60.0000022888184,2|0,0:1|0:0,0:0:0:0:
6,275,231847,2,0,P|34:286|63:282,1,60.0000022888184,2|0,0:3|0:0,0:0:0:0:
189,69,232015,6,0,P|208:96|209:129,1,68.0000012969971,0|0,3:0|0:0,0:0:0:0:
167,333,232182,2,0,P|148:306|147:272,1,68.0000012969971,0|0,3:0|0:0,0:0:0:0:
201,38,232350,5,10,1:1:0:0:
216,83,232434,1,0,0:0:0:0:
209,130,232517,1,4,2:3:0:0:
177,166,232601,1,4,2:3:0:0:
129,178,232685,6,0,B|114:180|114:180|79:164,2,53.3333333333333,8|0|0,1:0|0:0|0:0,0:0:0:0:
209,130,232853,2,0,B|223:127|223:127|257:143,2,53.3333333333333,8|2|0,1:0|0:0|0:0,0:0:0:0:
201,38,233020,2,0,L|124:4,4,53.3333333333333,8|2|2|2|0,1:0|0:0|0:0|0:0|0:0,0:0:0:0:
258,143,233356,6,0,B|253:81|315:33|371:59|371:59|391:94|427:95,1,240.000009155274,4|0,3:2|0:0,0:0:0:0:
339,203,233859,2,0,P|349:171|340:138,1,68.0000012969971,2|0,0:3|0:0,0:0:0:0:
215,327,234026,6,0,P|249:345|289:337,1,68.0000012969971,8|0,1:1|0:0,0:0:0:0:
267,171,234194,2,0,P|244:151|215:149,1,60.0000022888184,2|0,0:3|0:0,0:0:0:0:
359,323,234361,6,0,P|378:302|381:272,1,60.0000022888184,2|0,2:1|0:0,0:0:0:0:
215,227,234529,2,0,L|147:239,1,68.0000012969971,2|0,0:3|0:0,0:0:0:0:
451,227,234697,6,0,B|425:193|425:193|349:187,1,120,0|0,3:3|0:0,0:0:0:0:
267,171,235031,2,0,B|251:149|251:149|254:96,1,80,2|0,0:1|0:0,0:0:0:0:
323,47,235283,1,0,3:3:0:0:
323,47,235367,6,0,B|336:65|336:65|333:129,1,68.0000012969971,8|0,1:1|0:0,0:0:0:0:
278,234,235535,2,0,B|264:215|264:215|267:151,1,68.0000012969971,2|0,2:2|0:0,0:0:0:0:
420,360,235702,5,2,0:1:0:0:
384,328,235786,1,2,0:0:0:0:
336,320,235869,1,2,0:0:0:0:
292,336,235953,1,2,0:0:0:0:
260,372,236038,6,0,B|161:387|208:315|113:338,1,160,4|2,3:2|0:3,0:0:0:0:
40,296,236456,1,2,0:3:0:0:
40,296,236540,1,2,0:3:0:0:
40,296,236624,1,2,0:3:0:0:
40,296,236708,6,0,L|19:194,1,80,8|0,1:0|0:3,0:0:0:0:
116,96,236959,2,0,L|95:198,1,80,8|0,1:0|0:3,0:0:0:0:
172,224,237210,2,0,L|232:236,1,40,8|0,1:0|2:0,1:0:0:0:
288,92,237378,6,0,L|292:44,1,30.0000011444092,0|0,1:0|0:0,0:0:0:0:
272,316,237630,6,0,L|276:268,1,30.0000011444092,0|0,1:0|0:0,0:0:0:0:
408,112,237881,6,0,L|412:64,1,30.0000011444092,0|0,1:0|0:0,0:0:0:0:
392,336,238133,6,0,L|396:288,1,30.0000011444092,0|0,1:0|0:0,0:0:0:0:
172,176,238384,6,0,L|129:174,1,40,8|0,1:0|0:0,0:0:0:0:
132,174,238719,6,0,B|175:165|208:202|208:202|247:213|280:193,1,160,4|0,3:2|0:0,0:0:0:0:
240,116,239222,1,0,0:0:0:0:
140,260,239389,2,0,L|60:268,1,80,8|2,1:0|0:0,0:0:0:0:
60,267,239724,1,0,0:0:0:0:
32,72,239892,6,0,P|48:107|43:146,1,80,2|0,0:0|3:0,0:0:0:0:
129,335,240227,2,0,P|123:295|139:260,1,80,0|2,0:0|0:3,0:0:0:0:
184,108,240562,1,2,2:3:0:0:
184,108,240646,1,0,3:0:0:0:
184,108,240730,6,0,L|308:96,1,120,8|0,1:0|0:0,0:0:0:0:
380,124,241065,5,2,2:3:0:0:
400,132,241149,1,2,2:3:0:0:
456,76,241232,5,2,2:3:0:0:
476,68,241316,1,2,2:3:0:0:
511,139,241401,6,0,P|418:164|455:75,1,240.000009155274,4|2,3:0|0:0,0:0:0:0:
400,260,241903,1,0,0:0:0:0:
400,260,242071,6,0,P|422:271|446:272,1,47.9999985351563,8|0,1:0|0:0,0:0:0:0:
296,316,242238,2,0,P|307:295|308:271,1,47.9999985351563,2|0,2:3|0:0,0:0:0:0:
412,384,242406,2,0,P|391:374|367:373,1,47.9999985351563,2|0,2:3|0:0,0:0:0:0:
224,368,242573,1,0,0:0:0:0:
224,368,242741,6,0,B|134:340|174:408|82:381,1,150.000005722046,0|0,3:0|0:0,0:0:0:0:
112,300,243244,2,0,P|120:282|119:262,1,30.0000011444092,0|0,0:0|3:0,0:0:0:0:
4,156,243411,5,8,1:0:0:0:
20,172,243495,1,0,0:0:0:0:
48,184,243579,1,2,0:0:0:0:
88,192,243662,1,2,0:0:0:0:
136,188,243746,1,2,0:0:0:0:
184,164,243830,1,0,0:0:0:0:
236,128,243914,1,2,0:0:0:0:
308,116,243998,1,2,0:0:0:0:
384,140,244081,6,0,B|503:143,1,120.000004577637,0|0,3:0|0:0,0:0:0:0:
503,143,244584,1,0,0:0:0:0:
308,116,244752,6,0,B|233:108|264:152|195:140,1,120,8|0,1:0|0:0,0:0:0:0:
207,66,245087,1,0,0:0:0:0:
304,208,245255,6,0,L|384:232,1,80,2|0,0:0|3:0,0:0:0:0:
302,38,245590,2,0,B|296:84|296:84|308:116,1,80,2|0,2:0|0:0,0:0:0:0:
380,230,245925,1,2,3:0:0:0:
380,230,246009,1,0,3:0:0:0:
381,230,246093,6,0,P|426:282|367:315,1,155.999992858887,8|0,1:0|0:0,0:0:0:0:
292,292,246428,6,0,B|258:290|258:290|236:316|236:316|224:256|224:256|204:284|204:284|162:286,1,204.000003890991
8,228,246764,6,0,L|96:236,1,80,0|0,3:0|0:0,0:0:0:0:
164,286,247098,1,8,1:0:0:0:
264,160,247266,1,2,0:2:0:0:
264,160,247350,1,2,0:2:0:0:
264,159,247434,2,0,P|229:142|191:153,1,80,0|0,3:0|0:0,0:0:0:0:
116,364,247769,5,8,1:0:0:0:
132,376,247852,1,2,0:0:0:0:
152,384,247936,1,2,0:0:0:0:
172,384,248020,1,2,0:0:0:0:
192,376,248104,6,0,P|240:364|272:376,1,80,0|0,3:0|0:0,0:0:0:0:
348,328,248439,1,8,1:0:0:0:
120,268,248607,2,0,L|80:273,1,40,2|0,0:0|3:0,0:0:0:0:
12,308,248774,1,0,3:3:0:0:
0,288,248858,2,0,L|8:236,1,40,8|0,1:0|2:0,0:0:0:0:
80,12,249110,2,0,L|100:108,1,80,8|0,1:0|0:0,0:0:0:0:
137,153,249361,1,8,1:0:0:0:
137,153,249445,6,0,P|85:193|125:269,1,160,4|8,3:2|1:0,0:0:0:0:
248,348,249947,1,2,0:2:0:0:
248,348,250031,1,2,0:2:0:0:
248,348,250116,6,0,P|272:330|300:335,1,60.0000022888184,2|0,0:0|0:0,0:0:0:0:
342,261,250283,2,0,P|360:238|390:235,1,60.0000022888184,0|0,3:0|0:0,0:0:0:0:
412,150,250451,2,0,P|423:123|451:112,1,60.0000022888184,8|0,1:0|0:0,0:0:0:0:
488,195,250618,6,0,P|494:212|508:227,1,40,2|0,0:0|0:0,0:0:0:0:
327,175,250786,2,0,B|239:191|263:127|177:142,1,160,0|8,3:0|1:0,0:0:0:0:
184,260,251288,1,2,0:0:0:0:
184,260,251372,1,2,0:0:0:0:
184,260,251456,6,0,P|196:232|192:212,1,40,2|0,0:0|0:0,0:0:0:0:
296,56,251624,2,0,P|298:76|307:94,1,40,0|0,3:0|0:0,0:0:0:0:
362,264,251792,6,0,P|352:296|360:332,3,68.0000012969971,8|2|2|2,1:0|0:3|0:3|0:3,0:0:0:0:
428,300,252127,6,0,L|508:304,1,80,0|0,3:0|2:0,0:0:0:0:
300,216,252461,1,8,1:0:0:0:
452,124,252629,1,2,0:0:0:0:
452,124,252713,1,2,0:0:0:0:
452,124,252797,2,0,P|421:101|382:102,1,80,0|0,0:0|3:0,0:0:0:0:
300,216,253132,1,8,1:0:0:0:
292,60,253299,1,2,0:0:0:0:
208,180,253467,6,0,P|152:196|96:160,1,120,0|0,3:0|0:0,0:0:0:0:
88,180,253802,2,0,L|85:96,1,80,8|0,1:0|0:0,0:0:0:0:
192,32,254054,1,2,0:0:0:0:
204,40,254137,5,2,0:2:0:0:
220,56,254221,1,0,0:0:0:0:
232,84,254305,1,0,3:3:0:0:
240,124,254388,1,2,0:0:0:0:
236,172,254472,1,8,1:0:0:0:
212,220,254556,1,0,0:0:0:0:
176,272,254640,1,2,0:0:0:0:
164,344,254724,1,2,0:0:0:0:
244,380,254808,6,0,P|298:329|363:364,1,160,0|8,3:3|1:0,0:0:0:0:
400,144,255311,1,2,0:2:0:0:
400,144,255395,1,2,0:2:0:0:
400,144,255479,6,0,P|371:152|346:138,1,60.0000022888184,2|0,0:2|0:0,0:0:0:0:
280,192,255647,2,0,P|255:207|226:200,1,60.0000022888184,0|0,3:0|0:0,0:0:0:0:
176,272,255814,2,0,P|156:293|126:294,1,60.0000022888184,8|0,1:0|0:0,0:0:0:0:
120,204,255982,5,2,2:2:0:0:
260,288,256149,2,0,L|430:274,1,160,0|8,3:0|1:0,0:0:0:0:
472,172,256651,1,2,0:0:0:0:
472,172,256735,1,2,0:0:0:0:
472,172,256819,6,0,P|460:200|464:220,1,40,2|0,0:0|0:0,0:0:0:0:
488,368,256987,2,0,P|486:348|477:330,1,40,0|0,3:3|0:0,0:0:0:0:
304,192,257154,2,0,L|225:201,1,80,8|2,1:0|0:2,0:0:0:0:
132,200,257406,1,2,0:0:0:0:
132,200,257490,6,0,P|58:215|105:273,1,180.000006866455,0|0,3:0|0:0,0:0:0:0:
105,273,257824,1,8,1:0:0:0:
236,372,257992,1,0,0:0:0:0:
236,372,258076,6,0,B|270:327|236:283|236:283|216:288|196:278,1,136.000002593994,0|0,3:0|0:0,0:0:0:0:
224,112,258328,2,0,B|189:156|224:200|224:200|243:195|263:205,1,136.000002593994,0|8,3:0|1:0,0:0:0:0:
340,316,258579,1,0,1:0:0:0:
340,316,258662,1,0,1:0:0:0:
340,316,258747,6,0,L|336:260,1,55.9999982910157,2|0,1:0|2:0,0:0:0:0:
380,144,258914,6,0,L|384:88,2,55.9999982910157,2|0|0,1:0|1:0|1:0,0:0:0:0:
424,308,259166,6,0,L|420:252,1,55.9999982910157,2|0,1:0|2:0,0:0:0:0:
468,96,259333,6,0,L|464:152,1,55.9999982910157,2|0,1:0|2:0,0:0:0:0:
244,120,259501,6,0,P|271:117|296:128,3,55.9999982910157,2|2|2|2,2:3|2:3|2:3|2:3,0:0:0:0:
160,224,259836,1,0,1:0:0:0:
145,215,259920,1,0,1:0:0:0:
135,203,260004,1,0,1:0:0:0:
131,188,260088,1,0,1:0:0:0:
132,172,260171,6,0,P|140:150|160:137,3,45.3333341979981,2|2|2|2,2:2|2:2|2:2|0:0,0:0:0:0:
64,232,260423,6,0,P|47:296|76:356,1,136.000002593994,0|0,3:2|3:0,0:0:0:0:
164,348,260674,2,0,P|175:329|174:306,2,45.3333341979981,2|2|2,2:2|2:2|2:2,0:0:0:0:
164,288,260842,5,4,1:2:0:0:
356,216,261009,2,0,B|420:192|472:232|472:232|444:232|420:256,1,180.000006866455,2|0,0:0|0:0,0:0:0:0:
428,334,261344,1,0,0:0:0:0:
428,334,261428,1,2,0:0:0:0:
428,334,261512,6,0,L|418:231,1,80,0|2,3:0|0:0,0:0:0:0:
252,180,261847,1,2,0:0:0:0:
230,182,261931,2,0,L|178:186,1,40,2|0,0:0|3:0,0:0:0:0:
208,96,262098,1,2,0:0:0:0:
216,76,262183,6,0,B|224:56|224:56|204:12,1,60.0000022888184,8|0,1:0|0:0,0:0:0:0:
348,160,262350,2,0,B|340:180|340:180|360:224,1,60.0000022888184,0|0,3:2|0:0,0:0:0:0:
428,0,262518,6,0,B|448:16|448:16|508:12,1,80,4|0,1:2|0:2,0:0:0:0:
296,16,262685,1,0,3:0:0:0:
502,12,262853,5,2,0:0:0:0:
296,16,263021,1,2,0:0:0:0:
404,96,263188,5,0,3:0:0:0:
348,104,263271,1,2,0:0:0:0:
304,72,263355,1,2,0:0:0:0:
292,36,263439,1,2,0:0:0:0:
296,16,263523,6,0,B|192:4|192:4|210:29,1,136.000002593994,8|0,1:0|2:3,0:0:0:0:
212,168,263775,2,0,P|245:123|190:122,1,136.000002593994,2|0,0:0|0:0,0:0:0:0:
124,248,264026,6,0,P|48:228|136:180,1,240.000009155274,4|0,3:2|3:0,0:0:0:0:
336,316,264529,5,8,1:0:0:0:
316,352,264612,1,2,0:0:0:0:
280,372,264696,1,2,3:2:0:0:
236,368,264780,1,2,3:2:0:0:
204,340,264864,5,8,1:0:0:0:
176,328,264947,1,2,0:0:0:0:
134,333,265031,1,2,0:0:0:0:
76,352,265115,1,2,0:0:0:0:
8,328,265199,6,0,B|4:264|4:264|28:220|28:220|22:154,1,180.000006866455,8|0,1:0|0:0,0:0:0:0:
0,76,265535,6,0,B|85:52|57:132|149:104,1,160,4|2,3:2|0:0,0:0:0:0:
256,16,266037,1,0,0:0:0:0:
147,105,266204,1,8,1:0:0:0:
232,216,266373,1,2,0:0:0:0:
232,216,266456,1,2,0:0:0:0:
232,216,266540,1,4,3:2:0:0:
130,339,266707,1,0,0:0:0:0:
130,339,266792,6,0,B|150:379|206:383|234:347|234:347|223:317|237:293,1,180.000006866455,2|2,0:0|3:2,0:0:0:0:
308,324,267126,1,2,2:0:0:0:
384,344,267210,6,0,P|413:345|439:331,1,60.0000022888184,2|2,2:3|2:0,0:0:0:0:
452,212,267378,2,0,P|444:183|422:162,1,60.0000022888184,0|2,3:3|0:2,0:0:0:0:
307,171,267545,6,0,P|238:198|296:246,1,180.000006866455,8|0,1:0|3:0,0:0:0:0:
372,256,267881,6,0,P|416:237|368:232,1,120,2|8,2:0|1:0,0:0:0:0:
130,339,268216,6,0,L|124:280,1,60.0000022888184,2|0,3:1|0:0,0:0:0:0:
123,279,268551,6,0,L|64:272,1,60.0000022888184,4|0,1:2|0:0,0:0:0:0:
216,184,268719,1,2,2:3:0:0:
244,180,268803,2,0,L|303:173,1,60.0000022888184,2|0,2:3|3:0,0:0:0:0:
176,64,268970,1,2,2:3:0:0:
148,60,269054,2,0,L|89:53,1,60.0000022888184,4|0,1:2|2:0,0:0:0:0:
192,324,269222,6,0,P|204:300|204:268,1,60.0000022888184,2|2,2:2|0:3,0:0:0:0:
148,140,269389,2,0,P|136:164|136:196,1,60.0000022888184,2|2,2:3|0:3,0:0:0:0:
292,264,269557,6,0,L|352:256,2,60.0000022888184,0|0|0,3:1|0:0|3:0,0:0:0:0:
292,264,269892,6,0,L|285:323,1,60.0000022888184,4|0,1:2|0:0,0:0:0:0:
228,136,270060,1,2,2:3:0:0:
224,108,270144,2,0,L|217:49,1,60.0000022888184,2|0,2:3|3:0,0:0:0:0:
116,276,270311,1,2,2:3:0:0:
112,304,270395,2,0,L|105:363,1,60.0000022888184,4|0,1:2|2:0,0:0:0:0:
284,323,270563,5,2,0:0:0:0:
357,322,270647,1,2,0:0:0:0:
406,270,270730,1,2,0:0:0:0:
398,200,270814,1,2,0:0:0:0:
339,160,270898,6,0,P|314:69|400:109,1,240,4|0,3:2|0:0,0:0:0:0:
406,270,271568,6,0,B|370:250|370:250|273:265|273:265|239:243,1,180.000006866455,8|0,1:0|0:0,0:0:0:0:
290,182,271903,6,0,L|298:86,1,80,2|4,0:0|3:2,0:0:0:0:
296,102,272406,1,2,0:0:0:0:
128,200,272573,1,2,0:0:0:0:
126,222,272657,2,0,L|122:274,1,40,2|0,0:0|3:0,0:0:0:0:
216,248,272824,1,2,0:0:0:0:
238,242,272909,6,0,B|279:232|279:232|350:265,1,120.000004577637,8|0,1:0|0:0,0:0:0:0:
385,372,273132,2,0,B|355:340|355:340|349:262,1,120.000004577637,0|0,3:0|0:0,0:0:0:0:
425,180,273356,2,0,B|412:221|412:221|348:265,1,120.000004577637,0|0,3:0|0:0,0:0:0:0:
340,176,273579,6,0,B|308:80|374:98|348:0,1,180.000006866455,2|0,3:2|0:0,0:0:0:0:
340,176,274250,6,0,B|264:132|264:132|348:124,1,160,8|0,1:0|0:0,0:0:0:0:
420,84,274501,2,0,P|421:15|355:35,1,160,0|0,3:0|0:0,0:0:0:0:
268,36,274752,6,0,L|140:40,1,120,4|0,3:2|2:0,0:0:0:0:
76,92,275087,5,8,1:0:0:0:
48,136,275171,1,2,0:0:0:0:
92,164,275255,1,2,0:0:0:0:
140,188,275338,5,2,0:0:0:0:
100,220,275422,1,0,3:0:0:0:
56,248,275506,1,0,3:0:0:0:
84,292,275590,5,8,1:0:0:0:
100,276,275674,1,0,0:0:0:0:
128,264,275758,1,0,3:3:0:0:
168,256,275841,1,2,0:0:0:0:
216,260,275925,1,8,1:0:0:0:
264,284,276009,1,0,0:0:0:0:
316,320,276093,1,2,0:0:0:0:
388,332,276177,1,2,0:0:0:0:
460,300,276261,6,0,B|484:236|440:248|465:184,1,120,4|0,3:2|0:0,0:0:0:0:
376,208,276763,1,2,0:0:0:0:
508,360,276931,1,8,1:0:0:0:
376,208,277099,6,0,P|360:184|360:154,1,51.999997619629,2|0,2:3|0:0,0:0:0:0:
424,63,277266,2,0,P|434:36|458:19,1,51.999997619629,2|0,2:3|0:0,0:0:0:0:
320,52,277434,1,2,0:0:0:0:
320,52,277518,6,0,P|264:52|240:0,1,120,4|2,3:2|3:2,0:0:0:0:
185,167,277936,1,2,0:0:0:0:
207,154,278020,1,2,3:2:0:0:
230,149,278104,1,2,3:2:0:0:
255,154,278188,1,2,0:2:0:0:
278,169,278272,6,0,L|357:161,1,80,8|0,1:0|3:0,0:0:0:0:
164,36,278607,5,2,2:3:0:0:
128,44,278690,1,2,2:3:0:0:
84,68,278775,5,2,2:3:0:0:
48,60,278859,1,2,2:3:0:0:
12,84,278942,6,0,L|17:135,1,51.999997619629,6|0,1:2|0:0,0:0:0:0:
60,212,279110,2,0,L|54:263,1,51.999997619629,0|0,1:2|0:0,0:0:0:0:
8,384,279277,6,0,L|2:332,1,51.999997619629,2|2,1:2|0:0,0:0:0:0:
64,208,279445,2,0,L|115:213,1,51.999997619629,2|0,1:2|0:0,0:0:0:0:
172,332,279612,5,2,1:2:0:0:
192,328,279697,1,2,1:2:0:0:
252,300,279779,5,2,1:2:0:0:
276,304,279864,1,0,1:3:0:0:
316,348,279947,5,2,1:2:0:0:
348,340,280032,1,0,1:3:0:0:
396,316,280116,5,2,1:2:0:0:
432,324,280199,1,0,1:3:0:0:
460,364,280283,5,0,3:3:0:0:
472,336,280367,1,2,1:2:0:0:
504,332,280451,1,2,1:2:0:0:
484,256,280534,5,0,1:2:0:0:
476,216,280618,1,2,1:2:0:0:
436,208,280702,1,2,0:0:0:0:
472,136,280785,5,0,1:3:0:0:
480,88,280869,1,2,1:2:0:0:
488,40,280953,1,8,1:0:0:0:
0,148,281289,6,0,L|40:156,1,40,0|0,1:0|1:0,0:0:0:0:
100,248,281456,2,0,L|92:288,1,40,0|0,1:0|1:0,0:0:0:0:
200,308,281624,6,0,B|225:273|225:273|269:281|269:281|256:219|256:219|298:172|298:172|256:157|256:157|251:114,1,300,4|0,3:2|0:0,0:0:0:0:
340,92,281959,2,0,L|424:84,1,68.0000012969971,10|0,1:0|2:0,0:0:0:0:
372,340,282127,1,2,2:3:0:0:
368,312,282211,1,2,2:3:0:0:
364,284,282295,6,0,P|385:264|359:251,1,68.0000012969971,2|0,2:3|0:0,0:0:0:0:
251,115,282462,6,0,P|278:35|340:92,1,200,0|10,3:0|1:0,0:0:0:0:
358,251,282797,6,0,P|337:271|363:284,1,68.0000012969971,2|0,2:3|0:0,0:0:0:0:
452,200,282965,6,0,B|368:160|368:160|264:208|264:208|179:169,1,300,4|0,3:0|0:0,0:0:0:0:
56,104,283300,6,0,L|156:100,1,80,10|0,1:0|0:0,0:0:0:0:
144,248,283468,2,0,L|44:244,1,80,2|0,2:3|0:0,0:0:0:0:
200,352,283636,6,2,P|238:357|271:335,1,80,2|0,2:2|0:0,0:1:0:0:
359,251,283803,2,0,P|397:245|430:266,1,80,2|0,3:2|0:0,0:1:0:0:
468,364,283971,5,10,1:0:0:0:
460,384,284055,1,2,0:3:0:0:
388,344,284138,5,2,2:3:0:0:
380,324,284222,1,2,2:3:0:0:
359,251,284306,6,0,B|368:224|368:224|358:199|358:199|386:159|386:159|306:159|306:159|290:179|290:179|242:179|242:179|214:135|214:135|242:91|242:91|281:91,1,400,4|10,3:0|1:0,0:0:0:0:
428,52,284809,6,0,P|453:25|424:16,1,80,2|2,0:3|2:3,0:0:0:0:
236,8,284976,6,0,B|152:8|152:8|116:60|116:60|168:60,1,200,0|0,0:0|3:0,0:0:0:0:
424,15,285311,6,0,P|399:42|428:51,1,80,10|2,1:0|2:3,0:0:0:0:
277,162,285479,1,2,0:3:0:0:
277,162,285563,1,0,3:3:0:0:
277,162,285647,6,0,P|341:142|281:90,1,180.000006866455,4|0,3:0|0:0,0:0:0:0:
164,196,285982,6,0,L|156:275,1,80,10|0,1:0|0:0,0:0:0:0:
48,172,286149,2,0,L|40:92,1,80,2|2,0:0|0:0,0:0:0:0:
155,275,286317,6,0,L|80:260,1,60.0000022888184,2|0,0:0|0:0,0:0:0:0:
224,344,286485,5,4,3:0:0:0:
248,348,286540,1,2,0:0:0:0:
272,344,286596,1,2,0:0:0:0:
292,332,286652,1,8,1:0:0:0:
312,320,286708,1,2,0:0:0:0:
336,316,286764,1,2,0:0:0:0:
360,324,286819,2,0,P|373:338|380:357,2,40.000001525879,2|0|0,0:0|0:0|0:0,0:0:0:0:
456,312,286987,6,0,B|512:312|512:224|456:224|456:224|400:224|400:144|456:144|456:144|456:100,1,300,4|0,3:2|0:0,0:0:0:0:
396,8,287322,6,0,B|376:32|376:32|376:80,1,80,10|0,1:0|0:0,0:0:0:0:
224,188,287490,1,2,2:3:0:0:
196,184,287574,1,2,2:3:0:0:
168,180,287658,6,0,P|148:201|135:175,1,68.0000012969971,2|0,2:3|0:0,0:0:0:0:
296,120,287825,6,0,P|330:208|262:274,1,200,0|10,3:0|1:0,0:0:0:0:
135,174,288160,6,0,P|155:153|168:179,1,68.0000012969971,2|0,2:3|0:0,0:0:0:0:
192,324,288328,6,0,B|134:327|134:327|100:284|100:284|88:364|88:364|54:319|54:319|0:320,1,300,0|0,3:0|0:0,0:0:0:0:
32,232,288663,6,0,B|48:208|48:208|45:168,1,68.0000012969971,10|0,1:0|0:0,0:0:0:0:
40,8,288831,1,2,2:3:0:0:
40,8,288914,1,2,2:3:0:0:
40,8,288998,6,2,B|21:35|21:35|24:82,1,80,2|0,2:2|0:0,0:1:0:0:
167,179,289166,2,0,B|148:151|148:151|151:104,1,80,2|0,3:2|0:0,0:1:0:0:
268,44,289333,5,10,1:0:0:0:
340,32,289417,1,2,0:0:0:0:
404,64,289501,1,2,0:0:0:0:
440,128,289585,1,2,0:0:0:0:
432,200,289669,6,0,L|425:319,1,120,4|0,3:2|0:0,0:0:0:0:
472,380,290004,1,8,1:0:0:0:
288,324,290171,1,2,0:0:0:0:
288,324,290255,2,0,B|312:348|312:348|357:354,1,80,0|0,3:0|0:0,0:0:0:0:
425,319,290507,1,2,3:2:0:0:
264,252,290674,1,8,1:0:0:0:
104,332,290842,1,2,0:0:0:0:
104,332,290926,1,2,0:0:0:0:
104,332,291009,6,0,B|80:300|80:300|88:228,1,103.999995239258,0|0,3:0|0:0,0:0:0:0:
136,172,291261,2,0,L|244:176,1,103.999995239258,8|0,1:0|0:0,0:0:0:0:
289,112,291512,6,0,L|368:104,1,68.0000012969971,0|0,3:0|0:0,0:0:0:0:
56,164,291680,1,8,1:0:0:0:
180,272,291847,5,0,3:0:0:0:
180,272,291931,1,0,3:0:0:0:
180,272,292015,1,8,1:0:0:0:
212,80,292183,1,8,1:0:0:0:
261,268,292350,6,0,P|219:253|180:272,1,90.0000034332277,0|0,3:0|0:0,0:0:0:0:
172,292,292685,6,0,L|88:300,1,68.0000012969971,6|0,1:1|2:0,0:0:0:0:
140,44,292853,1,2,2:3:0:0:
144,72,292937,1,2,2:3:0:0:
148,100,293021,6,0,P|127:120|153:133,1,68.0000012969971,2|0,2:3|0:0,0:0:0:0:
261,268,293188,6,0,B|280:311|280:311|172:335|172:335|172:291,1,200,0|10,3:0|1:0,0:0:0:0:
153,132,293523,6,0,P|174:112|148:99,1,68.0000012969971,2|0,2:3|0:0,0:0:0:0:
40,148,293691,6,0,B|-8:168|-8:168|8:196|-8:228|-8:228|40:248|40:248|12:288|12:288|24:312|24:312|12:328|12:328|20:344|20:344|12:352|12:352|14:359,1,300,4|0,3:0|0:0,0:0:0:0:
162,372,294026,6,0,L|174:268,1,80,10|0,1:0|0:0,0:0:0:0:
296,224,294194,2,0,L|308:328,1,80,2|0,2:3|0:0,0:0:0:0:
432,344,294361,6,2,P|453:311|447:272,1,80,2|0,0:2|0:0,0:1:0:0:
376,160,294529,2,0,P|354:127|360:88,1,80,2|0,3:2|0:0,0:1:0:0:
476,20,294697,5,10,1:0:0:0:
496,28,294781,1,2,0:3:0:0:
456,100,294864,5,2,2:3:0:0:
436,108,294948,1,2,2:3:0:0:
360,88,295032,6,0,B|316:36|316:36|224:48|224:48|188:112|188:112|85:97|85:97|69:38,1,400,0|10,3:0|1:0,0:0:0:0:
280,120,295535,6,0,L|236:200,1,80,2|2,0:3|2:3,0:0:0:0:
68,216,295702,6,0,L|172:228,1,60.0000022888184,2|2,0:2|0:0,0:0:0:0:
216,350,295870,2,0,L|112:362,1,60.0000022888184,0|2,3:0|0:0,0:0:0:0:
4,304,296037,6,0,L|84:308,1,80,10|0,1:0|2:0,0:0:0:0:
308,328,296205,1,2,0:2:0:0:
308,328,296289,1,2,2:2:0:0:
308,328,296373,6,0,B|408:312|408:312|340:264,1,180.000006866455,4|0,3:0|0:0,0:0:0:0:
288,40,296708,6,0,L|296:120,1,80,10|0,1:0|0:0,0:0:0:0:
288,199,296875,2,0,L|296:119,1,80,2|2,2:0|0:0,0:0:0:0:
400,144,297043,6,0,L|475:159,1,60.0000022888184,2|0,0:0|0:0,0:0:0:0:
288,40,297211,5,4,3:0:0:0:
264,36,297266,1,2,0:0:0:0:
240,40,297322,1,2,0:0:0:0:
220,52,297378,1,8,1:0:0:0:
200,64,297434,1,2,0:0:0:0:
176,68,297490,1,2,0:0:0:0:
152,60,297545,2,0,P|139:46|132:27,2,40.000001525879,2|0|0,0:0|0:0|0:0,0:0:0:0:
56,72,297713,6,0,B|16:88|16:88|16:144|16:144|92:176|92:176|92:224|92:224|56:240|56:240|60:256|60:256|56:269,1,300,4|0,3:2|0:0,0:0:0:0:
136,300,298049,6,0,B|236:304,1,80,10|0,1:0|0:0,0:0:0:0:
312,168,298216,1,2,2:3:0:0:
308,196,298300,1,2,2:3:0:0:
304,224,298384,6,0,P|325:244|299:257,1,68.0000012969971,2|0,2:3|0:0,0:0:0:0:
244,96,298551,6,0,P|332:62|398:130,1,200,0|10,3:0|1:0,0:0:0:0:
298,257,298886,6,0,P|277:237|303:224,1,68.0000012969971,2|0,2:3|0:0,0:0:0:0:
396,380,299054,6,0,B|355:364|355:364|352:320|352:320|295:348|295:348|239:320|239:320|235:364|235:364|195:380,1,300,0|0,3:2|0:0,0:0:0:0:
156,308,299389,2,0,B|140:284|140:284|143:244,1,68.0000012969971,10|0,1:0|0:0,0:0:0:0:
148,84,299557,1,2,2:3:0:0:
148,84,299640,1,2,2:3:0:0:
148,84,299725,6,2,B|167:111|167:111|164:158,1,80,2|0,2:2|0:0,0:1:0:0:
21,255,299892,2,0,B|40:227|40:227|37:180,1,80,2|0,3:2|0:0,0:1:0:0:
106,26,300059,5,10,1:0:0:0:
148,84,300143,1,2,2:0:0:0:
215,107,300227,1,2,2:0:0:0:
286,87,300311,1,2,2:0:0:0:
335,29,300395,6,0,B|432:12|400:88|504:72,1,180.000006866455,4|0,3:2|0:0,0:0:0:0:
430,151,300730,6,0,L|441:201,1,51.999997619629,8|2,1:0|0:2,0:0:0:0:
466,323,300898,2,0,L|476:272,1,51.999997619629,2|2,0:2|0:2,0:0:0:0:
286,87,301066,6,0,L|300:153,1,68.0000012969971,2|0,0:0|0:0,0:0:0:0:
346,279,301233,2,0,L|360:212,1,68.0000012969971,0|2,3:0|0:2,0:0:0:0:
212,32,301401,6,0,L|212:72,1,40,8|0,1:0|0:0,1:0:0:0:
144,220,301568,1,0,3:0:0:0:
144,220,301652,1,0,3:0:0:0:
144,220,301736,6,0,L|150:116,1,103.999995239258,4|0,1:2|0:0,0:0:0:0:
100,48,302071,1,8,1:0:0:0:
34,220,302238,2,0,L|42:368,1,103.999995239258,4|2,1:2|0:0,0:0:0:0:
64,332,302490,5,2,0:0:0:0:
100,340,302574,1,8,1:0:0:0:
148,340,302657,1,2,0:0:0:0:
204,324,302741,1,2,0:0:0:0:
256,280,302825,1,2,0:0:0:0:
284,208,302909,1,2,0:0:0:0:
280,120,302993,1,2,0:0:0:0:
220,40,303077,5,4,1:2:0:0:
219,43,303244,1,0,1:0:0:0:
219,47,303412,1,0,1:0:0:0:
218,51,303579,1,0,1:0:0:0:
218,55,303747,1,0,1:0:0:0:
218,59,303914,1,0,1:0:0:0:
217,63,304082,1,0,1:0:0:0:
217,67,304250,1,0,1:0:0:0:
120,192,304417,5,0,1:2:0:0:
120,195,304501,1,0,1:0:0:0:
120,199,304584,1,0,1:0:0:0:
121,203,304668,1,0,1:0:0:0:
121,207,304752,1,0,1:0:0:0:
121,211,304836,1,0,1:0:0:0:
122,215,304920,1,0,1:0:0:0:
122,219,305003,1,0,1:0:0:0:
144,248,305088,6,0,L|141:286,6,25.9999988098145,0|0|0|0|0|0|0,1:0|1:0|1:0|1:0|1:0|1:0|1:0,0:0:0:0:
208,312,305423,2,0,L|268:316,1,51.999997619629,0|0,1:0|1:0,0:0:0:0:
68,296,305590,2,0,L|8:292,1,51.999997619629,0|0,1:0|1:0,0:0:0:0:
121,130,305758,6,0,P|144:248|193:137,1,320,0|0,3:0|0:0,0:0:0:0:
