osu file format v14

[General]
AudioFilename: bassdrop.mp3
AudioLeadIn: 0
PreviewTime: 44260
Countdown: 0
SampleSet: Soft
StackLeniency: 0.7
Mode: 2
LetterboxInBreaks: 0
WidescreenStoryboard: 1

[Editor]
DistanceSpacing: 1
BeatDivisor: 6
GridSize: 4
TimelineZoom: 3.399998

[Metadata]
Title:Bassdrop Freaks (Long Ver.)
TitleUnicode:ベィスドロップ・フリークス(Long Ver.)
Artist:Nanahira
ArtistUnicode:ななひら
Creator:Yumeno Himiko
Version:Rain
Source:beatmania IIDX 22 PENDUAL
Tags:a-style drumstep かめりあ camellia meltical sugar wave exit tunes 大箭将也 Masaya Oya KamelCamellia Cametek DanceDanceRevolution A DDR examination exam
BeatmapID:1767939
BeatmapSetID:834415

[Difficulty]
HPDrainRate:6
CircleSize:3.6
OverallDifficulty:9.2
ApproachRate:9.2
SliderMultiplier:2.1
SliderTickRate:2

[Events]
//Background and Video events
0,0,"1943873042753895747.jpg",0,0
//Break Periods
//Storyboard Layer 0 (Background)
//Storyboard Layer 1 (Fail)
//Storyboard Layer 2 (Pass)
//Storyboard Layer 3 (Foreground)
//Storyboard Sound Samples

[TimingPoints]
1355,335.195530726257,4,2,1,80,1,0
2360,-100,4,2,1,40,0,0
2695,-100,4,2,1,80,0,0
24232,-100,4,2,1,60,0,0
34874,-100,4,2,2,80,0,0
36215,-100,4,2,3,80,0,0
36299,-100,4,2,2,80,0,0
36885,-100,4,2,3,80,0,0
36969,-100,4,2,2,80,0,0
37723,-100,4,2,0,50,0,0
37891,-100,4,2,2,80,0,0
39567,-100,4,2,1,80,0,0
40237,-100,4,2,2,85,0,0
40908,-100,4,2,2,70,0,0
41578,-100,4,2,2,75,0,0
42248,-100,4,2,2,80,0,0
44260,-100,4,2,1,80,0,0
45600,-83.3333333333333,4,2,1,80,0,1
67053,-83.3333333333333,4,2,1,80,0,0
88505,-100,4,2,1,80,0,0
109958,-83.3333333333333,4,2,1,80,0,0
118896,-83.3333333333333,4,2,1,60,0,0
119343,-83.3333333333333,4,2,1,80,0,0
152863,-133.333333333333,4,2,1,60,0,0
163589,-100,4,2,1,80,0,0
171718,-100,4,2,2,80,0,0
175656,-100,4,2,3,80,0,0
175740,-100,4,2,2,80,0,0
176327,-100,4,2,3,80,0,0
176410,-100,4,2,2,80,0,0
176997,-100,4,2,2,60,0,0
179679,-100,4,2,2,80,0,0
181019,-100,4,2,3,80,0,0
181103,-100,4,2,2,80,0,0
181690,-100,4,2,3,80,0,0
181773,-100,4,2,2,80,0,0
182360,-100,4,2,2,60,0,0
185042,-100,4,2,2,80,0,0
190405,-100,4,2,1,80,0,0
195768,-83.3333333333333,4,2,1,80,0,1
208506,-83.3333333333333,4,2,1,70,0,1
208590,-83.3333333333333,4,2,1,60,0,1
208673,-83.3333333333333,4,2,1,50,0,1
209176,-83.3333333333333,4,2,1,80,0,1
217220,-100,4,2,1,80,0,0
238673,-83.3333333333333,4,2,1,80,0,0
260125,-83.3333333333333,4,2,1,80,0,1
281578,-100,4,2,2,50,0,0
285601,-100,4,2,2,30,0,0

[Colours]
Combo1 : 225,255,254
Combo2 : 128,165,242
Combo3 : 253,174,174

[HitObjects]
184,268,2360,6,0,L|96:184,1,105,0|0,0:0|0:0,0:0:0:0:
360,268,2695,6,0,P|424:224|336:140,1,210,4|0,0:0|0:0,0:0:0:0:
236,128,3198,1,0,0:0:0:0:
384,40,3366,2,0,L|252:52,2,105,8|0|0,0:0|0:0|0:0,0:0:0:0:
148,260,3868,6,0,P|96:228|184:136,1,210,4|0,0:0|0:0,0:0:0:0:
288,136,4371,1,8,0:0:0:0:
129,305,4539,2,0,L|345:293,1,210,4|0,0:0|0:0,0:0:0:0:
200,232,5042,2,0,P|148:180|224:128,1,157.5,0|0,3:0|3:0,0:0:0:0:
400,244,5377,6,0,P|460:208|392:116,1,210,4|0,0:0|0:0,0:0:0:0:
272,112,5880,1,0,0:0:0:0:
32,104,6047,5,10,0:0:0:0:
15,134,6102,1,2,0:0:0:0:
14,169,6158,1,2,0:0:0:0:
28,200,6214,1,2,0:0:0:0:
55,222,6270,1,2,0:0:0:0:
89,230,6326,1,2,0:0:0:0:
132,232,6382,1,2,0:0:0:0:
196,228,6466,1,2,0:0:0:0:
408,224,6550,6,0,P|436:160|308:100,1,210,4|8,0:0|0:0,0:0:0:0:
468,76,7053,1,8,0:0:0:0:
216,292,7220,1,2,0:0:0:0:
152,284,7303,1,2,0:0:0:0:
128,224,7388,1,2,0:0:0:0:
168,176,7471,1,2,0:0:0:0:
232,172,7555,1,2,0:0:0:0:
296,164,7639,1,2,0:0:0:0:
336,116,7723,1,2,0:0:0:0:
328,52,7807,1,2,0:0:0:0:
272,24,7891,1,2,0:0:0:0:
208,32,7975,1,0,0:0:0:0:
40,272,8058,6,0,P|56:184|172:152,1,210,4|0,0:0|0:0,0:0:0:0:
288,164,8561,1,0,0:0:0:0:
152,80,8729,2,0,L|268:68,2,105,8|0|0,0:0|0:0|0:0,0:0:0:0:
400,64,9232,6,0,P|448:100|360:192,1,210,4|0,0:0|0:0,0:0:0:0:
252,216,9734,1,8,0:0:0:0:
484,296,9902,2,0,L|508:176,1,105,4|0,0:0|0:0,0:0:0:0:
340,176,10237,2,0,P|232:172|176:60,1,210,0|0,0:0|0:0,0:0:0:0:
452,312,10740,6,0,L|332:328,1,105,4|0,0:0|3:0,0:0:0:0:
184,340,11075,2,0,L|168:228,1,105,0|0,3:0|3:0,0:0:0:0:
336,208,11410,2,0,L|344:88,1,105,0|0,3:0|3:0,0:0:0:0:
152,68,11746,1,2,3:0:0:0:
96,92,11829,1,2,3:0:0:0:
96,156,11913,1,2,3:0:0:0:
156,180,11997,1,2,3:0:0:0:
344,292,12081,6,0,P|380:192|328:164,1,157.5,2|2,1:0|1:0,0:0:0:0:
32,104,12584,1,2,1:0:0:0:
352,80,12835,1,2,1:0:0:0:
208,204,13086,1,0,3:0:0:0:
148,192,13169,1,0,3:0:0:0:
132,132,13253,1,0,3:0:0:0:
180,88,13337,1,0,3:0:0:0:
352,296,13422,6,0,P|444:276|408:168,1,210,4|0,0:0|0:0,0:0:0:0:
308,160,13924,1,0,0:0:0:0:
144,120,14092,2,0,L|260:100,2,105,10|2|0,0:0|0:0|0:0,0:0:0:0:
384,264,14595,6,0,P|408:200|292:152,1,210,2|2,0:0|0:0,0:0:0:0:
180,168,15098,1,0,0:0:0:0:
338,113,15265,1,2,0:0:0:0:
36,288,15433,2,0,L|40:168,1,105,8|2,0:0|0:0,0:0:0:0:
196,146,15768,2,0,L|308:126,1,105,0|0,3:0|3:0,0:0:0:0:
64,72,16103,6,0,P|20:120|128:180,1,210,4|0,0:0|0:0,0:0:0:0:
236,188,16606,1,0,0:0:0:0:
80,312,16773,2,0,L|72:196,1,105,8|0,0:0|0:0,0:0:0:0:
192,168,17109,1,2,0:0:0:0:
432,92,17276,6,0,L|312:80,1,105,2|0,0:0|0:0,0:0:0:0:
176,176,17611,2,0,L|308:192,1,105,2|0,0:0|0:0,0:0:0:0:
424,312,17947,1,2,0:0:0:0:
184,296,18114,1,8,0:0:0:0:
132,260,18198,1,2,0:0:0:0:
132,196,18282,1,2,0:0:0:0:
188,164,18366,1,2,0:0:0:0:
252,164,18449,1,2,0:0:0:0:
304,128,18533,1,2,0:0:0:0:
316,64,18617,1,2,0:0:0:0:
264,28,18701,1,2,0:0:0:0:
96,36,18785,6,0,P|48:68|136:164,1,210,4|0,0:0|0:0,0:0:0:0:
236,184,19287,1,2,0:0:0:0:
464,208,19455,2,0,L|352:228,1,105,8|0,0:0|0:0,0:0:0:0:
204,256,19790,2,0,L|76:280,1,105,2|2,0:0|0:0,0:0:0:0:
360,308,20125,6,0,P|392:232|284:184,1,210,2|0,0:0|0:0,0:0:0:0:
424,168,20628,1,2,0:0:0:0:
188,188,20796,2,0,L|192:68,1,105,8|0,0:0|0:0,0:0:0:0:
364,320,21131,1,2,0:0:0:0:
405,291,21214,1,2,0:0:0:0:
405,240,21298,1,2,0:0:0:0:
364,212,21382,1,2,0:0:0:0:
172,212,21466,6,0,L|48:208,1,105,4|0,0:0|0:0,0:0:0:0:
308,188,21801,1,8,0:0:0:0:
360,152,21885,2,0,P|348:80|284:68,1,105,0|0,0:0|3:0,0:0:0:0:
172,68,22137,2,0,L|284:56,1,105,8|0,0:0|0:0,0:0:0:0:
432,40,22472,1,2,0:0:0:0:
484,76,22555,1,2,0:0:0:0:
432,108,22639,1,2,1:0:0:0:
288,268,22723,6,0,L|280:172,1,52.5,0|0,0:0|0:0,0:0:0:0:
384,200,22891,2,0,L|388:72,1,105,2|0,1:0|0:0,0:0:0:0:
196,176,23142,2,0,L|72:184,1,105,2|2,1:0|1:0,0:0:0:0:
328,176,23477,2,0,L|324:48,1,105,2|2,1:0|1:0,0:0:0:0:
88,64,23813,2,0,P|28:84|92:160,1,157.5,2|0,1:0|3:0,0:0:0:0:
252,308,24148,6,0,L|484:272,1,210,6|2,0:0|0:0,0:0:0:0:
338,241,24651,1,2,0:0:0:0:
182,189,24818,2,0,L|61:149,2,105,0|2|2,0:0|0:0|0:0,0:0:0:0:
342,169,25321,6,0,P|390:134|286:52,1,210,2|2,0:0|0:0,0:0:0:0:
194,40,25824,1,2,0:0:0:0:
47,42,25991,2,0,P|4:91|106:154,1,210,2|2,0:0|0:0,0:0:0:0:
247,150,26494,2,0,L|376:130,1,105,0|2,0:0|0:0,0:0:0:0:
184,314,26829,6,0,L|135:216,1,105,0|0,0:0|0:0,0:0:0:0:
304,193,27165,2,0,L|312:68,1,105,0|0,0:0|0:0,0:0:0:0:
149,81,27500,2,0,L|136:205,1,105
296,226,27835,2,0,L|312:357,1,105
157,336,28170,6,0,L|25:328,1,105
215,158,28505,2,0,L|245:267,1,105,0|0,0:0|0:0,0:0:0:0:
117,192,28841,1,0,0:0:0:0:
72,148,28924,1,0,0:0:0:0:
84,86,29008,1,0,0:0:0:0:
144,66,29092,1,0,0:0:0:0:
239,128,29176,2,0,L|270:16,1,105,0|0,0:0|0:0,0:0:0:0:
27,32,29511,6,0,P|20:88|145:148,1,210,2|2,0:0|0:0,0:0:0:0:
262,132,30014,1,2,0:0:0:0:
427,111,30181,2,0,L|453:4,1,105,0|2,0:0|0:0,0:0:0:0:
331,22,30517,1,2,0:0:0:0:
146,257,30684,6,0,L|372:279,1,210,2|2,0:0|0:0,0:0:0:0:
278,176,31187,1,2,0:0:0:0:
107,169,31355,2,0,P|43:195|128:261,1,210,2|2,0:0|0:0,0:0:0:0:
268,260,31857,2,0,L|408:242,1,105,0|2,0:0|0:0,0:0:0:0:
200,197,32192,6,0,L|184:68,1,105,0|0,0:0|0:0,0:0:0:0:
250,83,32444,1,0,0:0:0:0:
312,72,32528,1,0,0:0:0:0:
187,92,32695,1,0,0:0:0:0:
342,201,32863,2,0,L|351:81,1,105,0|0,0:0|0:0,0:0:0:0:
169,301,33198,2,0,L|159:182,1,105,0|0,0:0|0:0,0:0:0:0:
339,302,33533,6,0,L|464:298,1,105,0|0,3:0|0:0,0:0:0:0:
271,139,33868,2,0,L|141:144,1,105,0|0,3:0|0:0,0:0:0:0:
342,131,34204,1,0,0:0:0:0:
399,154,34287,1,0,0:0:0:0:
386,215,34371,1,0,0:0:0:0:
325,232,34455,1,0,0:0:0:0:
262,243,34539,1,0,0:0:0:0:
213,283,34623,1,0,0:0:0:0:
221,344,34706,1,0,0:0:0:0:
280,365,34790,1,0,0:0:0:0:
439,300,34874,6,0,P|489:228|395:183,1,210,4|10,0:0|0:0,0:0:0:0:
292,184,35377,1,8,0:0:0:0:
28,231,35544,2,0,L|145:202,1,105,2|8,0:0|0:0,0:0:0:0:
252,170,35880,1,8,0:0:0:0:
94,159,36047,2,0,P|29:122|93:21,1,210,8|8,0:0|0:0,0:0:0:0:
199,12,36550,1,10,0:0:0:0:
362,249,36718,6,0,P|384:200|273:130,1,210,8|8,0:0|0:0,0:0:0:0:
161,138,37220,2,0,L|36:143,1,105,2|8,0:0|0:0,0:0:0:0:
216,136,37556,6,0,L|346:149,1,105,2|2,0:0|0:0,0:0:0:0:
372,151,37807,1,0,0:0:0:0:
425,152,37891,2,0,L|406:285,1,105,10|0,0:0|0:0,0:0:0:0:
240,315,38226,2,0,L|114:297,1,105,10|0,0:0|0:0,0:0:0:0:
299,224,38561,2,0,L|315:73,1,105,2|8,0:0|0:0,0:0:0:0:
135,93,38896,6,0,L|18:73,1,105,2|8,0:0|0:0,0:0:0:0:
197,207,39232,2,0,L|331:198,1,105,10|0,0:0|0:0,0:0:0:0:
45,202,39567,2,0,L|32:336,1,105,8|0,0:0|0:0,0:0:0:0:
328,284,39902,2,0,L|345:155,1,105,8|0,0:0|0:0,0:0:0:0:
114,108,40237,6,0,L|-4:98,3,105,14|2|10|10,0:0|0:0|0:0|0:0,0:0:0:0:
243,275,40908,2,0,L|253:126,1,105,2|10,0:0|0:0,0:0:0:0:
97,165,41243,2,0,L|91:33,1,105,10|10,0:0|0:0,0:0:0:0:
321,54,41578,6,0,L|456:45,3,105,2|10|10|10,0:0|0:0|0:0|0:0,0:0:0:0:
191,264,42248,2,0,L|183:140,1,105,2|10,0:0|0:0,0:0:0:0:
358,162,42584,2,0,L|371:44,1,105,10|10,0:0|0:0,0:0:0:0:
132,85,42919,5,2,0:0:0:0:
69,91,43002,1,0,0:0:0:0:
40,147,43086,1,10,0:0:0:0:
73,200,43170,1,8,0:0:0:0:
256,84,43254,1,10,0:0:0:0:
319,90,43337,1,0,0:0:0:0:
348,146,43421,1,2,0:0:0:0:
315,199,43505,1,0,0:1:0:0:
126,303,43589,5,2,3:0:0:0:
96,291,43630,1,0,3:0:0:0:
70,274,43672,1,0,3:0:0:0:
50,250,43714,1,0,3:0:0:0:
35,222,43756,1,0,3:0:0:0:
29,191,43798,1,0,0:0:0:0:
29,160,43840,1,2,0:0:0:0:
38,130,43882,1,0,0:0:0:0:
54,102,43924,5,0,0:0:0:0:
75,80,43966,1,0,0:0:0:0:
102,63,44007,1,0,0:0:0:0:
132,54,44049,1,0,0:0:0:0:
163,52,44091,1,2,0:0:0:0:
194,58,44133,1,0,0:0:0:0:
223,71,44175,1,0,0:0:0:0:
401,80,44260,6,0,P|452:124|382:221,1,210,2|0,0:0|0:0,0:0:0:0:
212,249,44762,2,0,L|200:107,1,105,2|2,0:0|0:0,0:0:0:0:
329,128,45098,1,8,3:0:0:0:
78,135,45265,2,0,P|37:193|117:244,1,157.5,8|0,0:0|0:0,0:0:0:0:
291,262,45600,6,0,L|300:131,1,125.999996154785,4|0,0:0|0:0,0:0:0:0:
60,342,45936,2,0,P|31:257|144:195,1,188.999994232178,2|0,1:0|0:0,0:0:0:0:
188,187,46271,2,0,L|323:170,1,125.999996154785,10|2,0:0|0:0,0:0:0:0:
71,172,46606,2,0,L|59:31,1,125.999996154785,2|0,1:0|0:0,0:0:0:0:
309,40,46941,6,0,P|371:68|296:165,1,188.999994232178,0|0,1:0|0:0,0:0:0:0:
140,277,47276,2,0,P|102:215|153:162,1,125.999996154785,2|0,1:0|0:0,0:0:0:0:
203,146,47528,1,0,0:0:0:0:
417,141,47611,2,0,L|436:0,1,125.999996154785,10|2,0:0|0:0,0:0:0:0:
268,16,47947,1,2,1:0:0:0:
205,43,48030,1,2,0:0:0:0:
208,107,48114,1,2,0:0:0:0:
276,128,48198,1,2,0:0:0:0:
481,155,48282,6,0,P|474:243|342:269,1,188.999994232178,4|0,0:0|0:0,0:0:0:0:
158,292,48617,2,0,P|121:211|170:172,1,125.999996154785,2|0,1:0|0:0,0:0:0:0:
229,172,48868,1,0,0:0:0:0:
416,163,48952,2,0,P|416:88|268:49,1,251.999992309571,0|2,1:0|1:0,0:0:0:0:
115,57,49455,2,0,L|195:78,1,62.9999980773926,0|0,0:0|0:0,0:0:0:0:
324,293,49623,6,0,L|342:143,1,125.999996154785,8|8,3:0|3:0,0:0:0:0:
48,190,49958,2,0,L|26:32,1,125.999996154785,2|0,1:0|3:0,0:0:0:0:
105,56,50209,1,0,3:0:0:0:
271,46,50293,2,0,L|432:29,1,125.999996154785,8|8,0:0|0:0,0:0:0:0:
124,334,50628,1,2,0:0:0:0:
65,311,50711,1,2,0:0:0:0:
45,250,50795,1,2,0:0:0:0:
67,191,50879,1,2,0:0:0:0:
245,161,50963,6,0,L|389:144,1,125.999996154785,4|0,0:0|0:0,0:0:0:0:
120,106,51299,2,0,P|76:153|168:214,1,188.999994232178,2|0,1:0|0:0,0:0:0:0:
245,226,51634,2,0,L|84:246,1,125.999996154785,8|0,0:0|0:0,0:0:0:0:
373,297,51969,2,0,L|375:147,1,125.999996154785,2|0,1:0|0:0,0:0:0:0:
105,159,52304,6,0,P|43:113|135:51,1,188.999994232178,0|0,1:0|0:0,0:0:0:0:
278,37,52639,2,0,L|417:30,1,125.999996154785,2|0,1:0|0:0,0:0:0:0:
333,62,52891,1,0,0:0:0:0:
117,266,52975,2,0,L|136:122,1,125.999996154785,8|2,0:0|3:0,0:0:0:0:
392,136,53310,1,2,1:0:0:0:
450,172,53393,1,2,0:0:0:0:
433,232,53477,1,2,0:0:0:0:
371,242,53561,1,2,0:0:0:0:
171,252,53645,6,0,P|86:212|183:132,1,251.999992309571,4|2,0:0|0:0,0:0:0:0:
326,119,54148,1,2,0:0:0:0:
61,322,54315,2,0,L|52:175,1,125.999996154785,8|2,0:0|0:0,0:0:0:0:
194,169,54651,1,2,0:0:0:0:
381,148,54818,2,0,L|391:73,1,62.9999980773926,0|0,3:0|3:0,0:0:0:0:
209,67,54986,6,0,P|92:70|17:146,1,188.999994232178,2|2,3:0|3:0,0:0:0:0:
117,152,55405,2,0,L|193:146,1,62.9999980773926,0|2,0:0|3:0,0:0:0:0:
447,282,55656,2,0,P|346:275|305:193,2,188.999994232178,8|8|8,3:0|3:0|3:0,0:0:0:0:
162,256,56327,6,0,L|155:112,1,125.999996154785,0|0,3:0|3:0,0:0:0:0:
418,183,56662,2,0,P|453:124|422:68,1,125.999996154785,0|0,3:0|3:0,0:0:0:0:
357,65,56913,1,0,3:0:0:0:
148,50,56997,2,0,L|120:184,1,125.999996154785,12|0,0:0|0:0,0:0:0:0:
395,320,57332,6,0,L|426:181,1,125.999996154785,2|0,1:0|0:0,0:0:0:0:
163,305,57667,2,0,P|93:277|135:187,1,188.999994232178,0|0,1:0|0:0,0:0:0:0:
310,184,58003,2,0,P|357:121|337:68,1,125.999996154785,2|0,1:0|0:0,0:0:0:0:
279,45,58254,1,0,0:0:0:0:
95,52,58338,6,0,L|6:75,2,83.9999974365235,8|2|2,0:0|3:0|3:0,0:0:0:0:
284,249,58673,2,0,L|389:222,2,83.9999974365235,2|2|2,3:0|3:0|3:0,0:0:0:0:
92,266,59008,6,0,P|41:213|144:150,1,188.999994232178,4|0,0:0|0:0,0:0:0:0:
272,131,59343,2,0,L|400:128,1,125.999996154785,2|0,1:0|0:0,0:0:0:0:
325,103,59595,1,0,0:0:0:0:
137,65,59679,2,0,P|67:90|159:177,1,251.999992309571,8|2,0:0|1:0,0:0:0:0:
301,190,60181,2,0,L|308:111,1,62.9999980773926,0|0,0:0|0:0,0:0:0:0:
118,323,60349,6,0,L|105:188,1,125.999996154785,8|8,3:0|3:0,0:0:0:0:
357,318,60684,2,0,L|496:303,1,125.999996154785,2|2,1:0|3:0,0:0:0:0:
408,283,60936,1,0,3:0:0:0:
202,201,61019,2,0,L|346:181,1,125.999996154785,2|2,3:0|3:0,0:0:0:0:
67,160,61355,1,2,0:0:0:0:
40,105,61438,1,2,0:0:0:0:
67,50,61522,1,2,0:0:0:0:
127,38,61606,1,2,0:0:0:0:
327,35,61690,6,0,P|412:55|322:142,1,251.999992309571,6|0,1:0|0:0,0:0:0:0:
190,159,62192,2,0,L|266:167,1,62.9999980773926,0|0,0:0|0:0,0:0:0:0:
429,307,62360,2,0,L|442:176,1,125.999996154785,8|0,0:0|0:0,0:0:0:0:
210,312,62695,6,0,P|120:258|188:203,1,188.999994232178,2|0,1:0|0:0,0:0:0:0:
244,194,63030,2,0,L|258:60,1,125.999996154785,0|0,1:0|0:0,0:0:0:0:
17,62,63366,2,0,P|36:141|149:170,1,188.999994232178,2|0,1:0|0:0,0:0:0:0:
329,187,63701,2,0,L|344:60,1,125.999996154785,2|2,3:0|3:0,0:0:0:0:
192,60,64036,1,2,1:0:0:0:
144,96,64119,1,2,0:0:0:0:
154,155,64203,1,2,0:0:0:0:
211,174,64287,1,2,0:0:0:0:
410,294,64371,6,0,P|418:200|269:154,1,251.999992309571,4|2,0:0|0:0,0:0:0:0:
138,151,64874,1,2,0:0:0:0:
398,240,65042,2,0,P|334:251|257:348,2,188.999994232178,2|2|2,3:0|3:0|3:0,0:0:0:0:
131,273,65712,6,0,P|36:216|127:132,1,251.999992309571,2|2,3:0|3:0,0:0:0:0:
365,172,66215,2,0,P|436:119|316:58,1,251.999992309571,2|2,3:0|3:0,0:0:0:0:
59,47,66718,2,0,L|199:53,1,125.999996154785,10|0,3:0|3:0,0:0:0:0:
427,58,67053,6,0,P|501:161|390:246,1,251.999992309571,4|0,0:0|3:0,0:0:0:0:
308,244,67556,1,0,0:0:0:0:
37,179,67723,2,0,L|45:37,1,125.999996154785,8|0,0:0|0:0,0:0:0:0:
199,29,68058,1,2,3:0:0:0:
48,50,68226,1,2,3:0:0:0:
329,37,68394,6,0,P|398:72|322:189,1,251.999992309571,2|0,1:0|0:0,0:0:0:0:
88,308,68896,2,0,P|37:240|160:168,1,251.999992309571,2|0,1:0|0:0,0:0:0:0:
403,325,69399,2,0,L|420:183,1,125.999996154785,2|0,1:0|0:0,0:0:0:0:
184,238,69734,6,0,P|64:200|84:83,1,251.999992309571,4|0,0:0|3:0,0:0:0:0:
186,60,70237,1,0,0:0:0:0:
432,290,70405,2,0,P|456:201|382:144,1,188.999994232178,8|2,0:0|3:0,0:0:0:0:
163,163,70908,2,0,L|286:148,1,62.9999980773926,2|0,3:0|3:0,0:0:0:0:
406,265,71075,6,0,P|431:161|294:114,1,251.999992309571,2|8,1:0|3:0,0:0:0:0:
69,114,71578,2,0,P|32:204|154:247,1,251.999992309571,2|2,1:0|0:0,0:0:0:0:
405,224,72081,1,2,1:0:0:0:
424,166,72164,1,2,0:0:0:0:
392,113,72248,1,2,0:0:0:0:
332,104,72332,1,2,0:0:0:0:
127,104,72416,6,0,P|51:153|94:295,1,251.999992309571,6|0,0:0|3:0,0:0:0:0:
203,287,72919,1,0,0:0:0:0:
451,52,73086,2,0,L|448:178,1,125.999996154785,8|0,0:0|0:0,0:0:0:0:
320,165,73422,1,2,3:0:0:0:
451,158,73589,1,2,3:0:0:0:
177,243,73757,6,0,P|102:203|186:103,1,251.999992309571,2|0,1:0|0:0,0:0:0:0:
416,312,74260,2,0,P|461:226|329:170,1,251.999992309571,2|0,1:0|0:0,0:0:0:0:
106,197,74762,1,2,1:0:0:0:
60,157,74845,1,2,0:0:0:0:
73,98,74929,1,2,0:0:0:0:
130,81,75013,1,2,0:0:0:0:
309,311,75098,6,0,P|354:229|291:159,1,188.999994232178,4|2,0:0|3:0,0:0:0:0:
203,153,75433,2,0,L|46:143,1,125.999996154785,2|2,0:0|0:0,0:0:0:0:
360,39,75768,2,0,P|393:100|337:147,1,125.999996154785,0|0,0:0|0:0,0:0:0:0:
212,146,76103,1,10,0:0:0:0:
363,140,76271,2,0,L|442:164,1,62.9999980773926,0|0,3:0|3:0,0:0:0:0:
208,259,76438,6,0,P|122:311|42:237,2,188.999994232178,2|0|2,3:0|0:0|0:0,0:0:0:0:
360,247,77109,1,2,0:0:0:0:
432,227,77192,2,0,L|433:86,1,125.999996154785,2|2,3:0|0:0,0:0:0:0:
201,153,77444,2,0,L|197:7,1,125.999996154785,8|0,0:0|0:0,0:0:0:0:
469,29,77779,6,0,L|451:165,1,125.999996154785,4|0,0:0|0:0,0:0:0:0:
305,190,78114,2,0,L|148:180,1,125.999996154785,8|0,0:0|0:0,0:0:0:0:
411,324,78449,2,0,P|299:336|222:286,2,188.999994232178,2|2|2,0:0|0:0|0:0,0:0:0:0:
175,304,79120,6,0,P|69:258|146:160,1,251.999992309571,2|8,1:0|0:0,0:0:0:0:
355,76,79623,2,0,P|426:134|319:219,1,251.999992309571,2|0,1:0|3:0,0:0:0:0:
72,130,80125,2,0,L|200:124,1,125.999996154785,2|0,1:0|0:0,0:0:0:0:
442,102,80461,5,4,0:0:0:0:
291,107,80628,2,0,L|291:256,1,125.999996154785,0|8,0:0|0:0,0:0:0:0:
442,234,80963,1,0,0:0:0:0:
206,267,81131,2,0,P|117:289|7:246,2,188.999994232178,2|2|2,0:0|0:0|0:0,0:0:0:0:
457,226,81801,6,0,P|464:142|305:84,1,251.999992309571,2|8,1:0|0:0,0:0:0:0:
69,87,82304,2,0,P|49:170|189:235,1,251.999992309571,2|0,1:0|3:0,0:0:0:0:
433,257,82807,1,10,0:0:0:0:
457,200,82890,1,2,0:0:0:0:
431,145,82974,1,2,0:0:0:0:
372,129,83058,1,2,0:0:0:0:
143,295,83142,6,0,L|123:143,1,125.999996154785,4|0,0:0|0:0,0:0:0:0:
377,222,83477,2,0,L|386:70,1,125.999996154785,2|0,1:0|0:0,0:0:0:0:
232,110,83813,2,0,L|220:280,1,125.999996154785,0|0,1:0|0:0,0:0:0:0:
492,292,84148,2,0,L|367:305,1,125.999996154785,2|0,1:0|0:0,0:0:0:0:
215,315,84483,6,0,L|192:184,1,125.999996154785,0|0,1:0|0:0,0:0:0:0:
439,175,84818,2,0,L|452:32,1,125.999996154785,2|0,1:0|0:0,0:0:0:0:
299,38,85153,2,0,L|431:49,1,125.999996154785,0|0,1:0|0:0,0:0:0:0:
158,41,85489,1,2,1:0:0:0:
98,46,85572,1,2,0:0:0:0:
77,102,85656,1,2,0:0:0:0:
117,146,85740,1,2,0:0:0:0:
319,281,85824,6,0,P|395:244|287:156,1,251.999992309571,4|2,0:0|1:0,0:0:0:0:
165,149,86327,1,2,0:0:0:0:
332,295,86494,1,2,0:0:0:0:
393,250,86578,1,0,0:0:0:0:
377,175,86662,1,0,0:0:0:0:
304,153,86746,1,0,0:0:0:0:
230,136,86829,1,2,1:0:0:0:
182,77,86913,1,2,0:0:0:0:
210,6,86997,1,2,0:0:0:0:
285,2,87081,1,2,0:0:0:0:
449,279,87165,6,0,L|470:81,1,188.999994232178,2|2,3:0|3:0,0:0:0:0:
196,277,87667,2,0,L|178:72,1,188.999994232178,2|2,3:0|3:0,0:0:0:0:
452,133,88170,2,0,L|343:51,1,125.999996154785,8|0,0:0|0:0,0:0:0:0:
118,81,88505,6,0,P|54:128|154:196,1,210,4|2,0:0|0:0,0:0:0:0:
248,214,89008,1,0,0:0:0:0:
413,269,89176,2,0,L|289:289,2,105,8|2|0,0:0|0:0|0:0,0:0:0:0:
258,293,89679,6,0,P|190:246|291:166,1,210,0|2,1:0|0:0,0:0:0:0:
411,156,90181,1,0,0:0:0:0:
497,139,90349,2,0,L|401:137,1,52.5,2|0,0:0|0:0,0:0:0:0:
234,246,90517,2,0,L|219:118,1,105,8|2,0:0|0:0,0:0:0:0:
359,140,90852,2,0,L|370:13,1,105,0|0,0:0|0:0,0:0:0:0:
133,48,91187,6,0,P|80:107|178:171,1,210,4|0,0:0|0:0,0:0:0:0:
287,171,91690,1,2,0:0:0:0:
111,290,91857,2,0,L|96:163,1,105,8|0,0:0|0:0,0:0:0:0:
220,152,92192,1,2,0:0:0:0:
423,66,92360,6,0,P|464:143|362:209,1,210,2|2,0:0|0:0,0:0:0:0:
214,194,92863,2,0,L|69:174,1,105,0|0,0:0|0:0,0:0:0:0:
339,315,93198,1,8,0:0:0:0:
398,294,93282,1,2,0:0:0:0:
420,234,93366,1,2,0:0:0:0:
384,182,93449,1,2,0:0:0:0:
321,176,93533,1,2,0:0:0:0:
266,143,93617,1,2,0:0:0:0:
262,79,93701,1,2,0:0:0:0:
320,54,93785,1,2,0:0:0:0:
470,51,93868,6,0,P|500:112|385:191,1,210,6|0,0:0|0:0,0:0:0:0:
283,201,94371,1,0,0:0:0:0:
49,213,94539,2,0,L|36:99,1,105,8|2,0:0|0:0,0:0:0:0:
162,96,94874,1,0,0:0:0:0:
316,77,95042,6,0,P|339:133|216:217,1,210,2|0,0:0|0:0,0:0:0:0:
120,232,95544,2,0,L|245:246,1,105,0|2,0:0|0:0,0:0:0:0:
458,275,95880,2,0,L|469:146,1,105,8|2,0:0|0:0,0:0:0:0:
299,143,96215,2,0,L|159:119,1,105,2|0,3:0|0:0,0:0:0:0:
452,45,96550,6,0,L|449:165,1,105,4|0,0:0|0:0,0:0:0:0:
209,313,96885,2,0,L|199:194,1,105,8|0,0:0|0:0,0:0:0:0:
350,192,97220,2,0,L|472:174,1,105,0|0,1:0|0:0,0:0:0:0:
174,142,97556,1,8,0:0:0:0:
126,126,97639,1,2,0:0:0:0:
116,77,97723,1,2,0:0:0:0:
154,44,97807,1,2,0:0:0:0:
319,309,97891,6,0,P|399:256|372:181,1,157.5,2|2,1:0|1:0,0:0:0:0:
333,184,98226,1,0,0:0:0:0:
61,177,98394,2,0,P|32:115|114:67,1,157.5,2|2,1:0|1:0,0:0:0:0:
153,65,98729,1,0,0:0:0:0:
384,83,98896,2,0,P|425:124|413:172,1,105,8|8,0:0|3:0,0:0:0:0:
364,201,99148,1,0,3:0:0:0:
144,300,99232,6,0,P|56:245|140:188,1,210,4|8,0:0|0:0,0:0:0:0:
232,172,99734,1,0,0:0:0:0:
399,109,99902,2,0,L|261:100,2,105,2|2|8,0:0|0:0|0:0,0:0:0:0:
157,268,100405,6,0,P|89:232|165:149,1,210,2|2,0:0|0:0,0:0:0:0:
275,128,100908,1,8,0:0:0:0:
446,91,101075,2,0,L|196:63,1,210,2|2,0:0|0:0,0:0:0:0:
398,283,101578,2,0,L|413:168,1,105,8|2,0:0|0:0,0:0:0:0:
179,254,101913,6,0,P|97:214|175:154,1,210,4|8,0:0|0:0,0:0:0:0:
284,143,102416,1,2,0:0:0:0:
129,73,102584,2,0,L|262:56,2,105,0|0|8,0:0|0:0|0:0,0:0:0:0:
359,303,103086,6,0,L|375:184,1,105,2|0,0:0|0:0,0:0:0:0:
137,206,103422,2,0,L|127:79,1,105,2|8,0:0|0:0,0:0:0:0:
373,63,103757,2,0,L|436:55,1,52.5,2|0,0:0|0:0,0:0:0:0:
242,285,103924,1,2,0:0:0:0:
182,262,104008,1,2,0:0:0:0:
152,206,104092,1,2,0:0:0:0:
181,150,104176,1,2,0:0:0:0:
242,137,104260,1,10,0:0:0:0:
292,100,104343,1,2,0:0:0:0:
284,37,104427,1,2,0:0:0:0:
222,21,104511,1,2,0:0:0:0:
58,33,104595,6,0,P|31:103|102:158,1,157.5,4|0,0:0|0:0,0:0:0:0:
271,262,104930,2,0,L|283:152,1,105,8|0,0:0|0:0,0:0:0:0:
125,98,105265,2,0,L|262:115,2,105,0|0|8,0:0|0:0|0:0,0:0:0:0:
248,72,105768,1,0,0:0:0:0:
479,72,105936,6,0,P|501:128|374:209,1,210,4|8,0:0|0:0,0:0:0:0:
173,293,106438,2,0,P|107:255|197:176,1,210,0|0,0:0|0:0,0:0:0:0:
321,161,106941,1,8,0:0:0:0:
358,127,107024,1,0,0:0:0:0:
348,78,107108,1,0,0:0:0:0:
300,62,107192,1,0,0:0:0:0:
140,60,107276,6,0,L|23:57,1,105,4|0,0:0|0:0,0:0:0:0:
285,305,107611,2,0,L|298:179,1,105,8|0,0:0|3:0,0:0:0:0:
56,215,107947,2,0,L|48:104,1,105,0|0,3:0|0:0,0:0:0:0:
279,88,108282,1,0,3:0:0:0:
341,82,108366,1,0,3:0:0:0:
279,88,108449,1,0,3:0:0:0:
112,299,108533,2,0,L|100:229,1,52.5,2|0,1:0|0:0,0:0:0:0:
197,237,108701,6,0,L|347:217,1,105,2|0,1:0|0:0,0:0:0:0:
76,192,108952,2,0,L|64:74,1,105,2|2,1:0|1:0,0:0:0:0:
322,84,109287,2,0,L|337:210,1,105,2|2,1:0|1:0,0:0:0:0:
77,193,109623,2,0,P|35:227|103:289,1,157.5,2|2,1:0|0:0,0:0:0:0:
298,303,109958,6,0,P|352:244|216:184,1,251.999992309571,4|2,0:0|3:0,0:0:0:0:
94,179,110461,1,2,3:0:0:0:
422,264,110628,2,0,L|437:112,1,125.999996154785,8|0,0:0|0:0,0:0:0:0:
283,122,110963,1,2,0:0:0:0:
47,79,111131,6,0,P|178:95|241:187,1,251.999992309571,2|2,0:0|0:0,0:0:0:0:
91,250,111634,1,2,0:0:0:0:
85,187,111717,1,2,0:0:0:0:
79,124,111801,1,2,0:0:0:0:
311,268,111969,2,0,L|447:260,1,125.999996154785,8|0,0:0|0:0,0:0:0:0:
285,252,112304,2,0,L|211:144,1,125.999996154785,2|0,0:0|0:0,0:0:0:0:
475,53,112639,6,0,P|493:134|380:183,1,188.999994232178,2|0,0:0|0:0,0:0:0:0:
167,272,112975,1,2,0:0:0:0:
112,246,113058,1,2,0:0:0:0:
104,186,113142,1,2,0:0:0:0:
150,147,113226,1,2,0:0:0:0:
303,144,113310,2,0,P|396:132|445:56,1,188.999994232178,12|2,0:0|0:0,0:0:0:0:
130,57,113813,6,0,P|49:113|148:190,1,251.999992309571,2|2,0:0|0:0,0:0:0:0:
187,198,114204,1,2,0:0:0:0:
227,228,114260,1,2,0:0:0:0:
184,254,114315,1,10,0:0:0:0:
108,257,114399,1,2,0:0:0:0:
48,210,114483,1,2,0:0:0:0:
114,173,114567,1,2,0:0:0:0:
296,111,114651,6,0,P|373:106|469:175,2,188.999994232178,10|10|10,0:0|0:0|0:0,0:0:0:0:
64,306,115321,6,0,P|13:240|111:118,1,251.999992309571,4|2,0:0|3:0,0:0:0:0:
217,120,115824,1,2,3:0:0:0:
455,231,115991,2,0,L|469:86,1,125.999996154785,8|2,0:0|0:0,0:0:0:0:
340,89,116327,1,2,0:0:0:0:
106,81,116494,6,0,P|86:149|237:218,1,251.999992309571,2|2,0:0|0:0,0:0:0:0:
369,226,116997,1,2,0:0:0:0:
374,163,117080,1,2,0:0:0:0:
380,100,117164,1,2,0:0:0:0:
125,97,117332,2,0,L|116:247,1,125.999996154785,8|0,0:0|0:0,0:0:0:0:
266,248,117667,1,2,0:0:0:0:
115,267,117835,1,0,0:0:0:0:
401,279,118003,6,0,P|418:204|337:152,1,125.999996154785,2|0,0:0|0:0,0:0:0:0:
342,161,118226,1,0,0:0:0:0:
301,131,118282,1,0,0:0:0:0:
343,103,118338,1,2,0:0:0:0:
415,82,118422,1,2,0:0:0:0:
485,56,118505,1,2,0:0:0:0:
412,35,118589,1,0,0:0:0:0:
156,260,118673,6,0,P|50:245|11:170,2,167.999994873047,8|2|2,0:0|3:0|3:0,0:0:0:0:
441,216,119343,6,0,L|217:192,1,188.999994232178,4|0,0:0|0:0,0:0:0:0:
180,170,119679,1,8,0:0:0:0:
157,140,119720,1,0,3:0:0:0:
177,108,119762,1,0,3:0:0:0:
340,62,119846,6,0,P|420:102|387:194,1,188.999994232178,4|0,0:0|0:0,0:0:0:0:
326,202,120181,1,8,0:0:0:0:
289,213,120223,1,0,3:0:0:0:
252,221,120265,1,0,3:0:0:0:
71,249,120349,6,0,P|24:205|101:135,1,188.999994232178,4|0,0:0|0:0,0:0:0:0:
259,143,120684,5,2,1:0:0:0:
385,136,120852,2,0,P|410:196|373:254,1,125.999996154785
257,245,121187,1,0,0:0:0:0:
501,296,121355,2,0,L|492:166,1,125.999996154785,8|2,0:0|0:0,0:0:0:0:
341,155,121690,1,0,0:0:0:0:
111,132,121857,5,0,0:0:0:0:
46,172,121941,2,0,P|30:250|130:297,1,188.999994232178,2|2,0:0|0:0,0:0:0:0:
299,295,122360,1,2,0:0:0:0:
335,244,122443,1,2,0:0:0:0:
372,193,122527,1,2,0:0:0:0:
127,181,122695,2,0,L|98:46,1,125.999996154785,8|0,0:0|0:0,0:0:0:0:
251,40,123030,2,0,L|101:72,1,125.999996154785,2|0,0:0|0:0,0:0:0:0:
373,83,123366,6,0,P|430:132|356:204,1,188.999994232178,4|0,0:0|0:0,0:0:0:0:
294,211,123701,1,2,0:0:0:0:
234,216,123784,1,2,0:0:0:0:
213,272,123868,1,2,0:0:0:0:
253,315,123952,1,2,0:0:0:0:
404,323,124036,2,0,L|405:232,1,62.9999980773926,8|0,0:0|0:0,0:0:0:0:
177,211,124204,2,0,P|112:172|207:99,1,188.999994232178,2|0,0:0|0:0,0:0:0:0:
329,71,124539,6,0,P|388:104|284:207,1,251.999992309571,2|10,0:0|0:0,0:0:0:0:
256,229,124930,1,2,0:0:0:0:
212,254,124986,1,2,0:0:0:0:
256,277,125042,1,2,0:0:0:0:
325,304,125125,1,2,0:0:0:0:
394,335,125209,1,2,0:0:0:0:
325,367,125293,1,2,0:0:0:0:
149,363,125377,6,0,P|106:317|154:234,1,125.999996154785,10|0,0:0|0:0,0:0:0:0:
181,220,125628,1,10,0:0:0:0:
355,183,125712,2,0,L|362:55,1,125.999996154785,0|10,0:0|0:0,0:0:0:0:
116,62,126047,6,0,P|39:101|138:176,1,251.999992309571,4|2,0:0|0:0,0:0:0:0:
280,160,126550,1,0,0:0:0:0:
32,311,126718,2,0,L|16:181,1,125.999996154785,8|0,0:0|0:0,0:0:0:0:
164,141,127053,1,2,0:0:0:0:
416,74,127220,5,2,0:0:0:0:
483,108,127304,2,0,P|491:180|451:227,1,125.999996154785,0|0,0:0|0:0,0:0:0:0:
384,223,127556,1,2,0:0:0:0:
230,227,127723,1,2,0:0:0:0:
210,166,127806,1,2,0:0:0:0:
191,106,127890,1,2,0:0:0:0:
432,131,128058,2,0,L|437:2,1,125.999996154785,8|0,0:0|0:0,0:0:0:0:
285,141,128394,2,0,L|420:150,1,125.999996154785,2|0,0:0|0:0,0:0:0:0:
131,288,128729,6,0,L|110:152,1,125.999996154785,4|0,1:0|0:0,0:0:0:0:
263,155,129064,2,0,L|280:6,1,125.999996154785,0|0,1:0|0:0,0:0:0:0:
115,39,129399,1,0,3:0:0:0:
63,94,129483,1,0,3:0:0:0:
92,164,129567,1,0,3:0:0:0:
166,179,129651,1,0,3:0:0:0:
239,191,129734,1,0,3:0:0:0:
298,237,129818,1,0,3:0:0:0:
283,311,129902,1,0,3:0:0:0:
215,345,129986,1,0,3:0:0:0:
62,352,130070,6,0,P|30:275|87:236,1,125.999996154785,4|0,0:0|0:0,0:0:0:0:
156,226,130321,2,0,L|356:197,1,188.999994232178,2|2,3:0|3:0,0:0:0:0:
98,160,130740,2,0,L|77:25,1,125.999996154785,8|0,0:0|0:0,0:0:0:0:
230,33,131075,1,0,3:0:0:0:
288,45,131158,1,0,3:0:0:0:
299,104,131242,1,0,3:0:0:0:
249,137,131326,1,0,3:0:0:0:
77,136,131410,6,0,P|32:197|108:259,1,188.999994232178,4|0,0:0|0:0,0:0:0:0:
293,262,131746,2,0,L|436:247,1,125.999996154785,2|0,1:0|0:0,0:0:0:0:
349,217,131997,1,0,0:0:0:0:
184,194,132081,2,0,L|173:49,1,125.999996154785,8|0,0:0|0:0,0:0:0:0:
325,53,132416,2,0,P|382:90|316:160,1,188.999994232178,2|0,1:0|0:0,0:0:0:0:
120,166,132751,6,0,L|87:259,1,62.9999980773926,2|0,3:0|0:0,0:0:0:0:
326,232,133086,2,0,P|401:195|396:95,1,188.999994232178,2|0,1:0|0:0,0:0:0:0:
184,76,133422,2,0,P|127:115|215:178,1,188.999994232178,8|0,0:0|0:0,0:0:0:0:
367,233,133757,2,0,L|216:220,1,125.999996154785,2|2,1:0|3:0,0:0:0:0:
476,71,134092,6,0,P|494:152|408:208,1,188.999994232178,4|0,0:0|0:0,0:0:0:0:
241,222,134427,2,0,P|172:186|171:135,1,125.999996154785,2|0,1:0|0:0,0:0:0:0:
217,86,134679,1,0,0:0:0:0:
412,82,134762,2,0,P|470:135|381:213,1,188.999994232178,8|0,0:0|0:0,0:0:0:0:
175,303,135098,2,0,L|279:228,1,125.999996154785,2|0,1:0|0:0,0:0:0:0:
341,188,135349,1,0,0:0:0:0:
124,177,135433,6,0,L|104:29,1,125.999996154785,2|2,3:0|3:0,0:0:0:0:
392,49,135768,2,0,P|417:95|366:138,1,125.999996154785,2|0,1:0|0:0,0:0:0:0:
293,137,136019,1,0,0:0:0:0:
56,188,136103,2,0,L|191:200,1,125.999996154785,2|2,3:0|3:0,0:0:0:0:
450,222,136438,2,0,P|471:145|366:97,1,188.999994232178,2|0,1:0|0:0,0:0:0:0:
205,93,136773,6,0,L|53:92,1,125.999996154785,4|0,0:0|0:0,0:0:0:0:
340,282,137109,2,0,P|383:220|302:143,1,188.999994232178,2|0,1:0|0:0,0:0:0:0:
211,136,137444,2,0,P|179:74|228:34,1,125.999996154785,8|0,0:0|0:0,0:0:0:0:
443,27,137779,2,0,P|497:81|415:151,1,188.999994232178,2|0,1:0|0:0,0:0:0:0:
224,162,138114,6,0,L|138:168,1,62.9999980773926,2|0,3:0|0:0,0:0:0:0:
316,294,138449,2,0,P|395:268|405:153,1,188.999994232178,2|0,1:0|0:0,0:0:0:0:
245,160,138785,2,0,P|178:113|270:50,1,188.999994232178,8|0,0:0|0:0,0:0:0:0:
394,30,139120,2,0,L|460:162,1,125.999996154785,2|2,1:0|3:0,0:0:0:0:
171,297,139455,6,0,P|79:222|130:170,1,188.999994232178,4|0,0:0|0:0,0:0:0:0:
292,54,139790,2,0,P|378:106|346:177,1,167.999994873047,2|2,1:0|1:0,0:0:0:0:
149,71,140125,2,0,L|39:88,2,83.9999974365235,8|2|0,0:0|1:0|0:0,0:0:0:0:
266,52,140461,2,0,P|332:53|388:146,1,167.999994873047,2|0,1:0|3:0,0:0:0:0:
207,256,140796,6,0,P|152:231|198:142,1,167.999994873047,2|0,3:0|0:0,0:0:0:0:
279,123,141131,2,0,L|381:114,2,83.9999974365235,2|0|2,1:0|0:0|1:0,0:0:0:0:
157,67,141466,2,0,L|54:62,2,83.9999974365235,8|2|0,0:0|1:0|0:0,0:0:0:0:
329,78,141801,2,0,P|385:119|323:188,1,167.999994873047,2|0,1:0|0:0,0:0:0:0:
85,63,142137,6,0,P|92:144|369:238,1,377.999988464356,4|0,0:0|0:0,0:0:0:0:
88,315,142807,6,0,L|100:178,1,125.999996154785,8|0,0:0|0:0,0:0:0:0:
358,175,143142,2,0,P|400:121|308:58,1,188.999994232178,2|0,1:0|0:0,0:0:0:0:
146,54,143477,6,0,L|134:144,1,62.9999980773926,2|0,3:0|0:0,0:0:0:0:
310,265,143813,2,0,P|340:200|297:142,1,125.999996154785,2|0,1:0|0:0,0:0:0:0:
242,149,144064,1,0,0:0:0:0:
58,126,144148,2,0,P|156:153|178:245,2,188.999994232178,8|2|2,0:0|3:0|3:0,0:0:0:0:
315,67,144818,6,0,L|323:125,6,31.4999990386963,4|0|0|0|0|0|0,0:0|3:0|3:0|3:0|3:0|3:0|3:0,0:0:0:0:
136,303,145489,6,0,L|123:165,1,125.999996154785,8|0,0:0|0:0,0:0:0:0:
399,181,145824,2,0,P|418:112|363:50,1,125.999996154785,2|0,1:0|0:0,0:0:0:0:
317,67,146075,1,0,0:0:0:0:
114,60,146159,6,0,L|248:77,1,125.999996154785,2|2,3:0|3:0,0:0:0:0:
483,98,146494,2,0,L|469:228,1,125.999996154785,2|0,1:0|0:0,0:0:0:0:
393,233,146746,1,0,3:0:0:0:
190,256,146829,2,0,L|32:266,1,125.999996154785,2|2,3:0|3:0,0:0:0:0:
323,252,147165,1,2,1:0:0:0:
365,208,147248,1,0,3:0:0:0:
359,147,147332,1,0,3:0:0:0:
308,113,147416,1,0,3:0:0:0:
143,160,147500,6,0,P|68:116|152:58,1,188.999994232178,4|0,0:0|3:0,0:0:0:0:
367,246,147835,2,0,P|482:219|508:154,2,188.999994232178,2|2|2,1:0|1:0|1:0,0:0:0:0:
139,251,148589,2,0,P|46:212|47:149,1,125.999996154785,2|0,1:0|0:0,0:0:0:0:
300,50,148841,6,0,P|391:85|371:192,1,188.999994232178,4|0,0:0|3:0,0:0:0:0:
187,185,149176,2,0,P|61:224|54:275,2,188.999994232178,2|2|2,1:0|1:0|1:0,0:0:0:0:
414,187,149930,2,0,P|483:144|489:70,1,125.999996154785,2|0,1:0|0:0,0:0:0:0:
230,83,150181,6,0,P|143:102|157:199,1,188.999994232178,4|0,0:0|3:0,0:0:0:0:
346,215,150517,2,0,P|452:223|501:331,2,188.999994232178,2|2|2,1:0|1:0|1:0,0:0:0:0:
119,192,151271,2,0,P|94:106|122:86,1,125.999996154785,2|0,1:0|0:0,0:0:0:0:
343,87,151522,6,0,P|378:150|319:199,1,125.999996154785,4|0,0:0|3:0,0:0:0:0:
194,292,151773,2,0,P|124:229|196:164,1,188.999994232178,2|2,1:0|1:0,0:0:0:0:
400,210,152192,2,0,L|523:201,2,83.9999974365235,2|2|2,3:0|3:0|3:0,0:0:0:0:
281,155,152528,2,0,L|158:146,2,83.9999974365235,2|2|2,3:0|3:0|3:0,0:0:0:0:
458,160,152863,6,0,P|493:218|420:281,1,157.500006008148,4|2,0:0|0:0,0:0:0:0:
253,281,153533,2,0,L|345:277,1,78.7500030040742,2|2,0:0|0:0,0:0:0:0:
144,161,154036,5,2,0:0:0:0:
328,202,154371,1,2,0:0:0:0:
145,249,154706,1,2,0:0:0:0:
329,290,155042,1,2,0:0:0:0:
136,306,155544,6,0,P|49:232|146:173,1,236.250009012223,2|2,0:0|0:0,0:0:0:0:
430,144,156550,1,2,0:0:0:0:
335,147,156718,6,0,L|152:152,2,157.500006008148,2|2|2,0:0|0:0|0:0,0:0:0:0:
288,155,157472,1,2,0:0:0:0:
254,188,157556,1,2,0:0:0:0:
266,233,157639,1,2,0:0:0:0:
304,260,157723,1,2,0:0:0:0:
351,265,157807,1,2,0:0:0:0:
387,295,157891,1,2,0:0:0:0:
379,341,157975,1,2,0:0:0:0:
336,361,158058,1,2,0:0:0:0:
288,362,158142,1,2,0:0:0:0:
241,354,158226,6,0,P|194:337|245:245,1,157.500006008148,2|2,0:0|0:0,0:0:0:0:
400,235,158896,2,0,L|404:133,1,78.7500030040742,2|2,0:0|0:0,0:0:0:0:
213,150,159399,2,0,L|19:130,1,157.500006008148,2|2,0:0|0:0,0:0:0:0:
206,277,160070,2,0,L|219:114,1,157.500006008148,2|2,0:0|0:0,0:0:0:0:
409,267,160908,6,0,L|238:256,1,157.500006008148,2|2,0:0|0:0,0:0:0:0:
140,243,161410,2,0,P|112:163|173:127,1,157.500006008148,2|2,0:0|0:0,0:0:0:0:
278,70,161913,1,2,0:0:0:0:
321,88,161996,1,2,0:0:0:0:
333,133,162080,1,2,0:0:0:0:
308,172,162164,1,2,0:0:0:0:
186,249,162248,6,0,L|181:114,1,118.125004506111,2|2,0:0|0:0,0:0:0:0:
394,101,162751,1,2,0:0:0:0:
176,68,163003,1,2,0:0:0:0:
170,106,163086,1,0,3:0:0:0:
164,145,163170,1,0,3:0:0:0:
317,266,163254,2,0,L|417:258,1,78.7500030040742,8|0,0:0|0:0,0:0:0:0:
145,272,163589,6,0,P|66:198|133:149,1,210,4|0,0:0|0:0,0:0:0:0:
448,83,164260,2,0,L|325:68,2,105,8|0|0,0:0|0:0|0:0,0:0:0:0:
209,242,164762,6,0,P|112:249|15:152,1,210,4|0,0:0|0:0,0:0:0:0:
143,131,165265,1,8,0:0:0:0:
409,86,165433,2,0,P|466:130|379:216,1,210,4|0,0:0|0:0,0:0:0:0:
236,243,165936,2,0,L|62:256,1,157.5,0|0,3:0|3:0,0:0:0:0:
310,186,166271,6,0,P|404:161|334:84,1,210,4|0,0:0|0:0,0:0:0:0:
239,89,166773,1,0,0:0:0:0:
407,50,166941,1,8,0:0:0:0:
434,71,166996,1,2,0:0:0:0:
448,103,167052,1,2,0:0:0:0:
445,137,167108,1,2,0:0:0:0:
427,167,167164,1,2,0:0:0:0:
398,185,167220,1,2,0:0:0:0:
363,187,167276,1,2,0:0:0:0:
106,249,167444,6,0,L|123:131,1,105,4|0,0:0|0:0,0:0:0:0:
357,137,167779,2,0,L|378:11,1,105,8|2,0:0|3:0,0:0:0:0:
133,43,168114,2,0,P|67:98|155:177,1,210,4|2,0:0|0:0,0:0:0:0:
362,254,168617,2,0,L|245:271,1,105,2|2,0:0|0:0,0:0:0:0:
27,293,168952,6,0,P|28:212|151:164,1,210,4|0,0:0|0:0,0:0:0:0:
258,148,169455,1,0,0:0:0:0:
92,162,169623,2,0,L|83:35,1,105,8|0,0:0|0:0,0:0:0:0:
252,39,169958,2,0,L|113:54,1,105,2|0,0:0|3:0,0:0:0:0:
386,90,170293,6,0,P|434:138|346:232,1,210,4|8,0:0|0:0,0:0:0:0:
123,284,170796,2,0,P|222:275|300:189,1,210,4|0,0:0|0:0,0:0:0:0:
144,181,171299,2,0,P|93:142|174:75,1,157.5,0|0,3:0|3:0,0:0:0:0:
297,58,171634,6,0,L|424:46,1,105,4|0,0:0|0:0,0:0:0:0:
236,67,171969,2,0,L|248:187,1,105,2|0,0:0|0:0,0:0:0:0:
414,170,172304,2,0,L|407:296,1,105,2|0,0:0|0:0,0:0:0:0:
242,309,172639,1,2,0:0:0:0:
187,278,172722,1,0,0:0:0:0:
242,246,172806,1,0,0:0:0:0:
404,232,172891,6,0,L|409:144,1,52.5,2|0,1:0|0:0,0:0:0:0:
318,165,173058,2,0,L|179:148,1,105,2|0,1:0|0:0,0:0:0:0:
392,145,173310,2,0,L|414:15,1,105,2|2,1:0|1:0,0:0:0:0:
238,35,173645,2,0,L|98:18,1,105,2|2,1:0|1:0,0:0:0:0:
384,115,173980,2,0,P|448:177|380:227,1,157.5,2|0,1:0|0:0,0:0:0:0:
235,319,174315,6,0,P|136:280|189:199,1,210,4|10,0:0|0:0,0:0:0:0:
291,183,174818,1,8,0:0:0:0:
446,154,174986,2,0,L|463:30,1,105,2|8,0:0|0:0,0:0:0:0:
334,53,175321,1,10,0:0:0:0:
172,58,175489,6,0,P|102:101|184:169,1,210,8|8,0:0|0:0,0:0:0:0:
296,179,175991,1,10,0:0:0:0:
467,298,176159,2,0,P|478:236|366:149,1,210,8|8,0:0|0:0,0:0:0:0:
250,146,176662,2,0,L|234:27,1,105,2|8,0:0|0:0,0:0:0:0:
397,36,176997,5,2,0:0:0:0:
187,176,177332,1,2,0:0:0:0:
416,279,177667,1,2,0:0:0:0:
165,310,178003,1,2,0:0:0:0:
416,309,178338,6,0,L|429:195,1,105,2|0,0:0|0:0,0:0:0:0:
264,178,178673,2,0,L|111:158,1,105,2|0,0:0|0:0,0:0:0:0:
322,140,179008,1,2,0:0:0:0:
351,98,179091,1,0,0:0:0:0:
335,50,179175,1,0,0:0:0:0:
287,34,179259,1,0,0:0:0:0:
207,36,179343,2,0,L|79:41,1,105,2|0,0:0|0:0,0:0:0:0:
266,121,179679,6,0,P|323:149|249:229,1,210,10|10,0:0|0:0,0:0:0:0:
125,236,180181,1,8,0:0:0:0:
288,290,180349,2,0,L|354:183,1,105,2|8,0:0|0:0,0:0:0:0:
219,174,180684,1,10,0:0:0:0:
59,227,180852,6,0,P|14:174|130:106,1,210,8|8,0:0|0:0,0:0:0:0:
220,68,181355,1,10,0:0:0:0:
387,46,181522,2,0,P|441:90|358:184,1,210,8|8,0:0|0:0,0:0:0:0:
248,190,182025,2,0,L|245:69,1,105,2|8,0:0|0:0,0:0:0:0:
411,63,182360,5,2,0:0:0:0:
205,126,182695,1,2,0:0:0:0:
409,272,183030,1,2,0:0:0:0:
158,307,183366,1,2,0:0:0:0:
385,199,183701,6,0,L|268:190,1,105,10|0,0:0|0:0,0:0:0:0:
113,158,184036,2,0,L|251:152,1,105,10|0,0:0|0:0,0:0:0:0:
383,104,184371,1,10,0:0:0:0:
217,83,184539,1,8,0:0:0:0:
390,49,184706,1,2,0:0:0:0:
431,78,184789,1,0,0:0:0:0:
435,129,184873,1,0,0:0:0:0:
400,165,184957,1,0,0:0:0:0:
219,266,185042,6,0,L|214:154,1,105,14|2,0:0|0:0,0:0:0:0:
366,160,185377,2,0,L|377:31,1,105,10|10,0:0|0:0,0:0:0:0:
189,42,185712,2,0,L|43:30,3,105,2|10|10|10,0:0|0:0|0:0|0:0,0:0:0:0:
323,266,186382,6,0,L|450:253,1,105,2|10,0:0|0:0,0:0:0:0:
265,275,186718,2,0,L|244:150,1,105,10|10,0:0|0:0,0:0:0:0:
417,100,187053,2,0,L|277:128,1,105,2|10,0:0|0:0,0:0:0:0:
141,146,187388,2,0,L|259:164,1,105,10|10,0:0|0:0,0:0:0:0:
476,191,187723,6,0,P|498:257|453:301,1,105,2|10,0:0|0:0,0:0:0:0:
420,299,187975,1,8,0:0:0:0:
358,308,188058,2,0,L|223:321,1,105,10|2,0:0|0:0,0:0:0:0:
417,213,188394,2,0,L|420:91,1,105,10|2,0:0|0:0,0:0:0:0:
254,122,188729,2,0,L|243:11,1,105,2|10,0:0|0:0,0:0:0:0:
489,21,189064,6,0,L|372:38,1,105,2|10,0:0|0:0,0:0:0:0:
213,50,189399,2,0,L|178:167,1,105,10|2,0:0|0:0,0:0:0:0:
419,155,189734,2,0,P|447:218|369:278,1,157.5,2|0,3:0|0:0,0:0:0:0:
222,158,190070,2,0,L|19:198,1,157.5,2|0,3:0|0:0,0:0:0:0:
300,284,190405,6,0,L|302:157,1,105,8|0,0:0|3:0,0:0:0:0:
178,152,190740,1,8,0:0:0:0:
303,139,190908,1,2,3:0:0:0:
63,260,191075,2,0,L|191:275,1,105,8|2,0:0|3:0,0:0:0:0:
33,189,191410,1,0,0:0:0:0:
192,190,191578,1,2,3:0:0:0:
430,211,191746,6,0,L|300:228,1,105,8|2,0:0|3:0,0:0:0:0:
466,156,192081,1,8,0:0:0:0:
307,159,192248,1,2,3:0:0:0:
58,184,192416,2,0,L|45:64,1,105,8|2,0:0|3:0,0:0:0:0:
306,119,192751,2,0,L|317:9,1,105,8|2,0:0|3:0,0:0:0:0:
81,283,193086,5,8,0:0:0:0:
33,242,193169,1,0,3:0:0:0:
58,184,193253,1,0,3:0:0:0:
121,179,193337,1,0,3:0:0:0:
286,185,193422,1,8,0:0:0:0:
341,157,193505,1,0,3:0:0:0:
349,94,193589,1,0,3:0:0:0:
296,59,193673,1,0,3:0:0:0:
100,75,193757,5,8,0:0:0:0:
69,130,193841,1,0,3:0:0:0:
95,186,193924,1,0,3:0:0:0:
156,199,194008,1,0,3:0:0:0:
385,197,194092,1,8,0:0:0:0:
419,249,194176,1,0,3:0:0:0:
397,308,194260,1,0,3:0:0:0:
335,319,194343,1,0,3:0:0:0:
134,320,194427,6,0,P|78:257|164:186,1,210,2|0,0:0|0:0,0:0:0:0:
313,189,194930,2,0,L|326:69,1,105,2|2,0:0|0:0,0:0:0:0:
198,89,195265,1,8,3:0:0:0:
462,88,195433,2,0,P|491:143|407:216,1,157.5,8|0,0:0|0:0,0:0:0:0:
254,250,195768,6,0,L|96:255,1,125.999996154785,4|0,0:0|0:0,0:0:0:0:
363,290,196103,2,0,P|385:232|273:165,1,188.999994232178,2|0,1:0|0:0,0:0:0:0:
199,163,196438,2,0,L|198:31,1,125.999996154785,8|2,0:0|3:0,0:0:0:0:
356,49,196773,2,0,L|493:69,1,125.999996154785,2|0,1:0|0:0,0:0:0:0:
217,291,197109,6,0,P|129:235|185:164,1,188.999994232178,0|0,1:0|0:0,0:0:0:0:
321,176,197444,2,0,P|366:136|340:67,1,125.999996154785,2|0,1:0|0:0,0:0:0:0:
281,50,197695,1,0,0:0:0:0:
109,50,197779,2,0,L|94:183,1,125.999996154785,2|0,3:0|0:0,0:0:0:0:
246,180,198114,1,2,1:0:0:0:
302,197,198197,1,0,3:0:0:0:
308,256,198281,1,0,3:0:0:0:
256,285,198365,1,0,3:0:0:0:
103,304,198449,6,0,P|58:237|152:179,1,188.999994232178,4|0,0:0|0:0,0:0:0:0:
328,160,198785,2,0,L|464:148,1,125.999996154785,2|0,1:0|0:0,0:0:0:0:
379,131,199036,1,0,0:0:0:0:
208,79,199120,2,0,L|221:221,1,125.999996154785,8|2,0:0|3:0,0:0:0:0:
394,217,199455,2,0,L|377:351,1,125.999996154785,2|0,1:0|3:0,0:0:0:0:
130,326,199790,6,0,L|35:230,2,125.999996154785,2|2|2,3:0|3:0|1:0,0:0:0:0:
280,345,200293,2,0,L|356:353,1,62.9999980773926,0|0,0:0|3:0,0:0:0:0:
181,216,200461,6,0,L|170:82,1,125.999996154785,2|2,3:0|3:0,0:0:0:0:
422,56,200796,1,2,1:0:0:0:
468,93,200879,1,0,3:0:0:0:
459,153,200963,1,0,3:0:0:0:
403,175,201047,1,0,3:0:0:0:
229,218,201131,6,0,P|200:147|300:85,1,188.999994232178,4|0,0:0|0:0,0:0:0:0:
452,76,201466,2,0,L|448:223,1,125.999996154785,2|0,1:0|0:0,0:0:0:0:
372,214,201718,1,0,0:0:0:0:
186,241,201801,2,0,L|175:98,1,125.999996154785,8|2,0:0|3:0,0:0:0:0:
327,99,202137,2,0,L|177:112,1,125.999996154785,2|0,1:0|0:0,0:0:0:0:
432,301,202472,6,0,P|499:252|414:190,1,188.999994232178,0|0,1:0|0:0,0:0:0:0:
264,163,202807,2,0,P|209:100|264:68,1,125.999996154785,2|0,1:0|0:0,0:0:0:0:
293,52,203058,1,0,3:0:0:0:
438,21,203142,2,0,L|419:170,1,125.999996154785,2|2,3:0|3:0,0:0:0:0:
174,285,203477,1,2,1:0:0:0:
123,251,203560,1,2,0:0:0:0:
127,191,203644,1,2,0:0:0:0:
180,163,203728,1,2,0:0:0:0:
367,246,203813,6,0,P|433:209|329:117,1,251.999992309571,4|2,0:0|0:0,0:0:0:0:
195,120,204315,1,2,0:0:0:0:
443,320,204483,2,0,L|449:156,1,125.999996154785,8|2,0:0|0:0,0:0:0:0:
297,176,204818,2,0,L|161:158,1,125.999996154785,2|0,0:0|3:0,0:0:0:0:
247,144,205070,1,0,3:0:0:0:
410,77,205153,6,0,P|442:155|333:203,1,188.999994232178,2|2,3:0|3:0,0:0:0:0:
189,269,205489,2,0,L|172:135,1,125.999996154785,0|2,0:0|3:0,0:0:0:0:
410,77,205824,2,0,P|323:84|269:166,2,188.999994232178,8|8|8,0:0|0:0|0:0,0:0:0:0:
162,294,206494,6,0,P|66:247|150:159,1,251.999992309571,2|0,1:0|3:0,0:0:0:0:
286,162,206997,2,0,L|294:78,1,62.9999980773926,0|0,0:0|0:0,0:0:0:0:
142,242,207165,2,0,L|131:78,1,125.999996154785,4|2,0:0|3:0,0:0:0:0:
320,301,207500,2,0,P|379:269|298:192,1,188.999994232178,2|0,1:0|0:0,0:0:0:0:
219,175,207835,6,0,L|76:163,1,125.999996154785,0|0,1:0|0:0,0:0:0:0:
322,73,208170,2,0,P|382:112|298:190,1,188.999994232178,2|0,1:0|3:0,0:0:0:0:
129,295,208505,5,8,0:0:0:0:
63,256,208589,1,2,3:0:0:0:
70,180,208673,1,2,3:0:0:0:
105,156,208729,1,2,3:0:0:0:
146,149,208785,1,2,3:0:0:0:
214,147,208841,1,2,3:0:0:0:
253,104,208924,1,2,3:0:0:0:
214,53,209008,1,2,3:0:0:0:
253,3,209092,1,2,3:0:0:0:
59,61,209176,6,0,P|14:119|111:193,1,188.999994232178,4|0,0:0|0:0,0:0:0:0:
259,195,209511,2,0,P|285:271|264:329,1,125.999996154785,2|0,1:0|0:0,0:0:0:0:
204,344,209762,1,0,0:0:0:0:
40,349,209846,2,0,L|52:216,1,125.999996154785,8|2,0:0|3:0,0:0:0:0:
297,165,210181,2,0,L|426:150,1,125.999996154785,2|0,1:0|0:0,0:0:0:0:
106,212,210517,6,0,L|85:61,1,125.999996154785,2|2,3:0|3:0,0:0:0:0:
332,61,210852,2,0,L|196:81,1,125.999996154785,2|0,1:0|0:0,0:0:0:0:
149,89,211103,1,0,0:0:0:0:
336,279,211187,2,0,L|340:146,1,125.999996154785,8|8,0:0|0:0,0:0:0:0:
106,212,211522,1,2,1:0:0:0:
58,176,211605,1,2,0:0:0:0:
68,117,211689,1,2,0:0:0:0:
125,99,211773,1,2,0:0:0:0:
290,102,211857,6,0,P|427:146|283:217,1,377.999988464356,4|0,0:0|0:0,0:0:0:0:
61,237,212528,2,0,L|47:106,1,125.999996154785,8|0,0:0|0:0,0:0:0:0:
300,91,212863,2,0,L|435:69,1,125.999996154785,2|0,1:0|0:0,0:0:0:0:
173,81,213198,6,0,P|129:157|170:189,1,125.999996154785,0|0,1:0|0:0,0:0:0:0:
382,170,213533,2,0,P|433:229|412:289,1,125.999996154785,2|0,1:0|0:0,0:0:0:0:
356,305,213785,1,0,0:0:0:0:
144,296,213868,2,0,L|-2:309,1,125.999996154785,2|2,3:0|3:0,0:0:0:0:
170,172,214204,1,2,1:0:0:0:
232,177,214287,1,0,0:0:0:0:
295,182,214371,1,0,0:0:0:0:
358,187,214455,1,0,0:0:0:0:
143,227,214539,6,0,P|69:186|177:94,1,251.999992309571,6|2,0:0|0:0,0:0:0:0:
300,76,215042,1,2,0:0:0:0:
56,160,215209,2,0,P|154:169|198:259,2,188.999994232178,10|2|2,0:0|0:0|0:0,0:0:0:0:
397,63,215880,6,0,P|448:120|372:205,1,188.999994232178,2|2,3:0|3:0,0:0:0:0:
53,330,216382,2,0,P|12:257|93:174,1,188.999994232178,2|2,3:0|3:0,0:0:0:0:
242,272,216885,2,0,P|168:239|157:181,1,125.999996154785,8|0,0:0|0:0,0:0:0:0:
411,277,217220,6,0,P|468:216|382:141,1,210,4|2,0:0|0:0,0:0:0:0:
268,144,217723,1,0,0:0:0:0:
423,72,217891,2,0,L|312:80,2,105,8|2|0,0:0|0:0|0:0,0:0:0:0:
186,272,218394,6,0,P|124:228|200:135,1,210,2|2,0:0|0:0,0:0:0:0:
309,128,218896,1,0,0:0:0:0:
183,116,219064,2,0,L|83:104,1,52.5,2|0,0:0|0:0,0:0:0:0:
299,289,219232,2,0,L|308:163,1,105,8|2,0:0|0:0,0:0:0:0:
154,167,219567,2,0,L|17:148,1,105,0|0,0:0|0:0,0:0:0:0:
281,100,219902,6,0,P|341:141|256:231,1,210,4|2,0:0|0:0,0:0:0:0:
152,223,220405,1,0,0:0:0:0:
322,310,220572,2,0,L|335:186,1,105,8|0,0:0|0:0,0:0:0:0:
208,178,220908,1,2,0:0:0:0:
451,155,221075,6,0,P|449:89|299:46,1,210,2|2,0:0|0:0,0:0:0:0:
177,38,221578,2,0,L|37:46,1,105,0|2,0:0|0:0,0:0:0:0:
310,307,221913,1,8,0:0:0:0:
365,277,221997,1,2,0:0:0:0:
381,216,222081,1,2,0:0:0:0:
332,176,222165,1,2,0:0:0:0:
270,165,222248,1,2,0:0:0:0:
219,126,222332,1,2,0:0:0:0:
231,64,222416,1,2,0:0:0:0:
291,46,222500,1,2,0:0:0:0:
446,39,222584,6,0,P|473:106|364:181,1,210,4|2,0:0|0:0,0:0:0:0:
244,197,223086,1,0,0:0:0:0:
71,212,223254,2,0,L|211:224,2,105,10|2|0,0:0|0:0|0:0,0:0:0:0:
318,241,223757,6,0,P|321:175|195:102,1,210,2|2,0:0|0:0,0:0:0:0:
337,80,224260,1,0,0:0:0:0:
199,99,224427,2,0,L|99:117,1,52.5,2|0,0:0|0:0,0:0:0:0:
367,214,224595,2,0,L|392:86,1,105,8|2,0:0|0:0,0:0:0:0:
224,212,224930,2,0,L|74:189,1,105,0|0,0:0|0:0,0:0:0:0:
358,323,225265,6,0,L|361:201,1,105,4|0,0:0|0:0,0:0:0:0:
124,221,225600,2,0,L|112:97,1,105,8|0,0:0|0:0,0:0:0:0:
270,97,225936,2,0,L|394:81,1,105,0|0,3:0|0:0,0:0:0:0:
131,61,226271,1,8,0:0:0:0:
84,81,226354,1,0,3:0:0:0:
74,130,226438,1,0,3:0:0:0:
108,167,226522,1,0,3:0:0:0:
303,274,226606,6,0,P|362:229|312:137,1,157.5,2|2,1:0|1:0,0:0:0:0:
286,134,226941,1,0,0:0:0:0:
46,118,227109,2,0,P|24:169|68:234,1,105,2|0,1:0|0:0,0:0:0:0:
100,229,227360,1,2,1:0:0:0:
161,241,227444,1,0,0:0:0:0:
394,273,227611,2,0,L|402:142,1,105,8|0,0:0|0:0,0:0:0:0:
154,167,227947,6,0,P|91:126|180:67,1,210,4|8,0:0|0:0,0:0:0:0:
292,85,228449,1,0,0:0:0:0:
130,259,228617,2,0,L|246:250,2,105,2|2|8,0:0|0:0|0:0,0:0:0:0:
368,268,229120,6,0,P|411:212|298:138,1,210,2|2,0:0|0:0,0:0:0:0:
203,134,229623,1,8,0:0:0:0:
446,63,229790,2,0,P|410:149|262:171,1,210,2|2,0:0|0:0,0:0:0:0:
145,322,230293,2,0,L|42:275,1,105,8|0,0:0|3:0,0:0:0:0:
316,91,230628,6,0,P|371:140|265:184,1,210,4|8,0:0|0:0,0:0:0:0:
159,199,231131,1,2,0:0:0:0:
326,277,231299,2,0,L|192:288,2,105,0|0|10,0:0|0:0|0:0,0:0:0:0:
83,286,231801,6,0,L|73:160,1,105,2|0,0:0|3:0,0:0:0:0:
316,175,232137,2,0,L|336:46,1,105,2|8,0:0|0:0,0:0:0:0:
206,60,232472,1,0,0:0:0:0:
440,62,232639,1,2,0:0:0:0:
473,115,232723,1,2,0:0:0:0:
434,165,232807,1,2,0:0:0:0:
372,179,232891,1,2,0:0:0:0:
314,205,232975,1,10,0:0:0:0:
276,254,233058,1,2,0:0:0:0:
285,316,233142,1,2,0:0:0:0:
340,347,233226,1,2,0:0:0:0:
489,352,233310,6,0,L|503:237,1,105,4|0,0:0|0:0,0:0:0:0:
334,229,233645,2,0,L|323:107,1,105,8|0,0:0|0:0,0:0:0:0:
448,101,233980,2,0,L|340:119,1,105,0|0,0:0|0:0,0:0:0:0:
104,305,234315,2,0,L|96:182,1,105,10|2,0:0|0:0,0:0:0:0:
349,257,234651,6,0,P|412:211|316:134,1,210,2|8,0:0|0:0,0:0:0:0:
112,83,235153,2,0,P|50:129|134:198,1,210,2|0,0:0|3:0,0:0:0:0:
363,193,235656,1,8,0:0:0:0:
416,161,235739,1,0,3:0:0:0:
417,97,235823,1,0,3:0:0:0:
358,73,235907,1,0,3:0:0:0:
150,313,235991,6,0,L|148:195,1,105,4|0,0:0|0:0,0:0:0:0:
331,211,236327,2,0,L|338:84,1,105,8|0,0:0|0:0,0:0:0:0:
106,63,236662,2,0,L|237:58,1,105,2|0,0:0|0:0,0:0:0:0:
454,48,236997,1,2,0:0:0:0:
504,85,237081,1,2,0:0:0:0:
451,120,237165,1,2,0:0:0:0:
229,227,237248,6,0,L|219:159,1,52.5,2|0,1:0|0:0,0:0:0:0:
314,160,237416,2,0,L|326:46,1,105,2|0,1:0|0:0,0:0:0:0:
161,43,237667,2,0,L|40:30,1,105,2|2,1:0|1:0,0:0:0:0:
333,278,238003,2,0,L|347:160,1,105,8|2,0:0|1:0,0:0:0:0:
97,314,238338,1,2,1:0:0:0:
44,280,238421,1,2,3:0:0:0:
57,218,238505,1,2,3:0:0:0:
119,210,238589,1,2,3:0:0:0:
310,181,238673,5,2,0:0:0:0:
374,152,238729,1,2,0:0:0:0:
370,80,238785,1,2,0:0:0:0:
301,62,238841,1,2,0:0:0:0:
145,180,238924,1,2,0:0:0:0:
89,113,239008,1,2,0:0:0:0:
154,61,239092,1,2,0:0:0:0:
310,181,239176,1,2,0:0:0:0:
366,116,239260,1,2,0:0:0:0:
150,282,239343,6,0,L|5:245,2,125.999996154785,8|2|2,0:0|3:0|0:0,0:0:0:0:
380,284,239846,1,0,0:0:0:0:
455,274,239930,2,0,P|459:181|375:142,1,188.999994232178,0|2,0:0|0:0,0:0:0:0:
211,176,240349,1,2,0:0:0:0:
146,125,240432,1,2,0:0:0:0:
210,73,240516,1,2,0:0:0:0:
446,57,240684,5,8,0:0:0:0:
480,124,240768,2,0,P|476:176|414:214,1,125.999996154785,0|0,0:0|0:0,0:0:0:0:
242,293,241019,2,0,L|104:283,1,125.999996154785,8|0,0:0|0:0,0:0:0:0:
268,293,241355,6,0,L|277:160,1,125.999996154785,6|2,0:0|0:0,0:0:0:0:
37,178,241690,1,2,0:0:0:0:
9,108,241773,1,2,0:0:0:0:
41,39,241857,1,2,0:0:0:0:
116,29,241941,1,2,0:0:0:0:
302,27,242025,2,0,P|371:61|335:162,1,188.999994232178,8|2,0:0|3:0,0:0:0:0:
15,261,242528,6,0,L|287:274,1,251.999992309571,8|2,3:0|0:0,0:0:0:0:
106,201,243030,2,0,L|96:58,1,125.999996154785,8|2,0:0|3:0,0:0:0:0:
173,66,243282,1,0,0:0:0:0:
343,51,243366,2,0,P|424:109|342:192,1,188.999994232178,8|0,3:0|0:0,0:0:0:0:
203,187,243701,2,0,P|140:224|218:295,1,188.999994232178,8|0,0:0|0:0,0:0:0:0:
401,307,244036,6,0,P|415:221|276:171,1,251.999992309571,4|2,0:0|0:0,0:0:0:0:
429,126,244539,1,2,0:0:0:0:
148,196,244706,2,0,L|136:60,1,125.999996154785,8|2,0:0|0:0,0:0:0:0:
289,60,245042,1,0,3:0:0:0:
62,321,245209,5,0,0:0:0:0:
10,265,245293,2,0,P|29:189|128:147,1,188.999994232178,2|2,0:0|0:0,0:0:0:0:
275,137,245712,1,2,0:0:0:0:
350,132,245796,1,2,0:0:0:0:
275,137,245880,1,2,0:0:0:0:
111,225,246047,2,0,L|124:91,1,125.999996154785,8|0,0:0|0:0,0:0:0:0:
298,82,246382,2,0,L|432:64,1,125.999996154785,2|2,0:0|0:0,0:0:0:0:
148,70,246718,6,0,P|69:119|163:211,1,251.999992309571,2|8,1:0|0:0,0:0:0:0:
226,212,247137,1,0,0:0:0:0:
300,203,247220,1,0,3:0:0:0:
151,281,247388,1,0,3:0:0:0:
302,283,247556,1,8,0:0:0:0:
323,211,247639,1,0,0:0:0:0:
344,138,247723,1,0,3:0:0:0:
192,145,247891,1,0,3:0:0:0:
426,148,248058,6,0,L|443:6,1,125.999996154785,8|8,3:0|3:0,0:0:0:0:
282,148,248394,1,8,0:0:0:0:
354,128,248477,1,0,0:0:0:0:
426,107,248561,1,0,3:0:0:0:
276,83,248729,1,0,3:0:0:0:
435,188,248896,1,8,0:0:0:0:
258,275,249064,1,2,0:0:0:0:
204,249,249147,1,2,0:0:0:0:
203,189,249231,1,2,0:0:0:0:
257,163,249315,1,2,0:0:0:0:
426,117,249399,6,0,P|483:154|378:260,1,251.999992309571,4|2,0:0|0:0,0:0:0:0:
269,248,249902,1,0,0:0:0:0:
17,214,250070,2,0,L|11:83,1,125.999996154785,8|2,0:0|0:0,0:0:0:0:
138,85,250405,1,2,0:0:0:0:
392,201,250572,6,0,P|313:194|242:43,1,251.999992309571,8|2,0:0|0:0,0:0:0:0:
391,52,251075,1,2,0:0:0:0:
427,117,251158,1,0,0:0:0:0:
458,186,251242,1,0,0:0:0:0:
214,236,251410,2,0,P|130:234|41:185,2,167.999994873047,2|2|2,3:0|3:0|3:0,0:0:0:0:
416,231,252081,6,0,L|423:86,1,125.999996154785,2|2,0:0|0:0,0:0:0:0:
270,95,252416,1,2,0:0:0:0:
421,101,252584,1,2,0:0:0:0:
137,263,252751,2,0,P|84:174|102:112,1,125.999996154785,8|2,0:0|0:0,0:0:0:0:
226,100,253086,1,0,0:0:0:0:
463,101,253254,6,0,P|466:172|301:248,1,251.999992309571,2|2,0:0|0:0,0:0:0:0:
276,260,253645,1,2,0:0:0:0:
232,286,253701,1,0,0:0:0:0:
276,310,253757,1,2,0:0:0:0:
347,336,253841,1,2,0:0:0:0:
417,361,253924,1,2,0:0:0:0:
347,336,254008,1,2,0:0:0:0:
190,343,254092,6,0,P|126:343|56:229,2,188.999994232178,2|2|2,3:0|3:0|3:0,0:0:0:0:
430,216,254762,6,0,P|435:147|286:81,1,251.999992309571,4|2,0:0|0:0,0:0:0:0:
139,80,255265,1,0,0:0:0:0:
369,314,255433,2,0,P|413:253|408:186,1,125.999996154785,8|2,0:0|0:0,0:0:0:0:
323,145,255768,1,2,0:0:0:0:
83,125,255936,5,0,0:0:0:0:
37,184,256019,2,0,P|32:260|131:314,1,188.999994232178,2|2,0:0|0:0,0:0:0:0:
270,305,256438,1,2,0:0:0:0:
332,299,256521,1,0,0:0:0:0:
395,294,256605,1,0,0:0:0:0:
163,208,256773,2,0,L|152:69,1,125.999996154785,8|0,0:0|0:0,0:0:0:0:
305,81,257109,1,2,0:0:0:0:
154,85,257276,1,2,0:0:0:0:
434,248,257444,6,0,L|448:106,1,125.999996154785,4|0,0:0|0:0,0:0:0:0:
282,107,257779,2,0,L|144:94,1,125.999996154785,2|0,3:0|0:0,0:0:0:0:
334,295,258114,1,2,3:0:0:0:
389,244,258197,1,0,0:0:0:0:
355,175,258281,1,0,0:0:0:0:
279,176,258365,1,0,0:0:0:0:
208,148,258449,1,0,3:0:0:0:
184,75,258533,1,0,3:0:0:0:
239,23,258617,1,0,3:0:0:0:
314,22,258701,1,0,3:0:0:0:
481,26,258785,6,0,P|486:104|377:146,1,188.999994232178,2|2,3:0|3:0,0:0:0:0:
174,191,259287,1,2,3:0:0:0:
426,308,259455,2,0,L|440:155,1,125.999996154785,8|0,0:0|0:0,0:0:0:0:
286,168,259790,1,0,3:0:0:0:
236,134,259873,1,0,3:0:0:0:
241,74,259957,1,0,3:0:0:0:
296,49,260041,1,0,3:0:0:0:
440,45,260125,6,0,P|461:111|346:172,1,188.999994232178,4|0,0:0|0:0,0:0:0:0:
154,274,260461,2,0,P|109:216|146:161,1,125.999996154785,2|0,1:0|0:0,0:0:0:0:
200,155,260712,1,0,0:0:0:0:
358,255,260796,2,0,L|368:125,1,125.999996154785,2|2,3:0|3:0,0:0:0:0:
218,105,261131,2,0,L|66:86,1,125.999996154785,2|0,1:0|0:0,0:0:0:0:
323,54,261466,6,0,P|399:85|337:187,1,188.999994232178,0|0,1:0|0:0,0:0:0:0:
200,177,261801,2,0,P|173:247|227:280,1,125.999996154785,2|0,1:0|0:0,0:0:0:0:
278,291,262053,1,0,0:0:0:0:
458,297,262137,2,0,L|302:302,1,125.999996154785,2|2,3:0|3:0,0:0:0:0:
94,305,262472,1,2,1:0:0:0:
57,256,262555,1,0,0:0:0:0:
68,195,262639,1,0,0:0:0:0:
119,163,262723,1,0,0:0:0:0:
278,165,262807,6,0,P|359:162|399:55,1,188.999994232178,4|0,0:0|0:0,0:0:0:0:
215,77,263142,2,0,P|184:136|220:183,1,125.999996154785,2|0,1:0|0:0,0:0:0:0:
288,198,263394,1,0,0:0:0:0:
433,200,263477,2,0,P|451:279|338:321,1,188.999994232178,2|0,3:0|0:0,0:0:0:0:
180,336,263813,2,0,P|150:274|175:211,1,125.999996154785,2|0,1:0|0:0,0:0:0:0:
238,200,264064,1,0,0:0:0:0:
411,175,264148,5,0,1:0:0:0:
434,154,264189,1,0,0:0:0:0:
447,125,264231,1,0,0:0:0:0:
446,94,264273,1,0,0:0:0:0:
432,66,264315,1,0,0:0:0:0:
408,47,264357,1,0,0:0:0:0:
377,40,264399,1,0,0:0:0:0:
211,41,264483,6,0,L|64:40,1,125.999996154785,2|0,1:0|0:0,0:0:0:0:
152,75,264734,1,0,0:0:0:0:
353,111,264818,2,0,L|201:114,1,125.999996154785,2|2,0:0|0:0,0:0:0:0:
374,146,265153,1,10,0:0:0:0:
429,168,265236,1,0,0:0:0:0:
435,228,265320,1,0,0:0:0:0:
385,261,265404,1,0,0:0:0:0:
195,282,265489,6,0,P|117:246|185:155,1,188.999994232178,4|0,0:0|0:0,0:0:0:0:
325,160,265824,2,0,L|338:25,1,125.999996154785,2|0,1:0|0:0,0:0:0:0:
261,41,266075,1,0,0:0:0:0:
91,55,266159,2,0,L|77:195,1,125.999996154785,2|2,3:0|3:0,0:0:0:0:
227,206,266494,2,0,L|75:184,1,125.999996154785,2|0,1:0|0:0,0:0:0:0:
330,129,266829,6,0,P|393:174|314:262,1,188.999994232178,0|0,1:0|0:0,0:0:0:0:
182,297,267165,2,0,L|320:309,1,125.999996154785,2|0,1:0|0:0,0:0:0:0:
246,263,267416,1,0,0:0:0:0:
70,247,267500,2,0,L|53:113,1,125.999996154785,2|2,3:0|3:0,0:0:0:0:
314,154,267835,1,2,1:0:0:0:
361,117,267918,1,0,3:0:0:0:
347,59,268002,1,0,3:0:0:0:
289,45,268086,1,0,3:0:0:0:
132,56,268170,6,0,P|61:92|145:181,1,188.999994232178,4|0,0:0|0:0,0:0:0:0:
269,224,268505,2,0,L|402:252,1,125.999996154785,10|2,0:0|0:0,0:0:0:0:
224,314,268841,2,0,L|213:174,1,125.999996154785,0|2,0:0|0:0,0:0:0:0:
458,183,269176,2,0,L|468:44,1,125.999996154785,10|0,0:0|0:0,0:0:0:0:
391,58,269427,1,0,0:0:0:0:
218,61,269511,6,0,P|116:57|39:114,2,188.999994232178,4|8|2,0:0|0:0|3:0,0:0:0:0:
453,273,270181,2,0,P|462:180|418:146,1,125.999996154785,8|0,0:0|0:0,0:0:0:0:
368,154,270433,1,0,3:0:0:0:
151,162,270517,2,0,L|144:21,1,125.999996154785,8|8,0:0|0:0,0:0:0:0:
374,33,270852,6,0,P|386:98|258:167,1,188.999994232178,0|0,1:0|0:0,0:0:0:0:
111,281,271187,2,0,L|125:150,1,125.999996154785,2|0,1:0|0:0,0:0:0:0:
274,134,271522,2,0,L|415:118,1,125.999996154785,2|2,3:0|3:0,0:0:0:0:
170,65,271857,2,0,L|38:45,1,125.999996154785,2|0,1:0|0:0,0:0:0:0:
212,26,272192,6,0,P|277:47|201:141,1,188.999994232178,0|0,1:0|0:0,0:0:0:0:
74,229,272528,2,0,P|75:165|131:124,1,125.999996154785,2|0,1:0|0:0,0:0:0:0:
200,127,272779,1,0,0:0:0:0:
431,170,272863,2,0,L|421:297,1,125.999996154785,2|2,3:0|3:0,0:0:0:0:
269,301,273198,1,2,1:0:0:0:
209,305,273281,1,0,3:0:0:0:
180,253,273365,1,0,3:0:0:0:
214,204,273449,1,0,3:0:0:0:
386,166,273533,6,0,P|438:121|343:41,1,188.999994232178,4|0,0:0|0:0,0:0:0:0:
182,37,273868,2,0,L|40:37,1,125.999996154785,2|0,1:0|0:0,0:0:0:0:
123,73,274120,1,0,3:0:0:0:
300,136,274204,2,0,L|328:259,1,125.999996154785,0|0,3:0|3:0,0:0:0:0:
183,303,274539,2,0,L|345:275,1,125.999996154785,2|0,1:0|0:0,0:0:0:0:
75,251,274874,5,0,3:0:0:0:
51,230,274915,1,0,0:0:0:0:
38,202,274957,1,0,0:0:0:0:
37,170,274999,1,0,0:0:0:0:
50,142,275041,1,0,0:0:0:0:
73,120,275083,1,0,0:0:0:0:
102,110,275125,1,0,0:0:0:0:
249,93,275209,6,0,L|389:83,1,125.999996154785,2|0,1:0|0:0,0:0:0:0:
319,137,275461,1,0,0:0:0:0:
156,292,275544,2,0,L|140:149,1,125.999996154785,2|2,3:0|3:0,0:0:0:0:
380,203,275880,1,10,0:0:0:0:
422,159,275963,1,2,0:0:0:0:
413,99,276047,1,2,0:0:0:0:
359,71,276131,1,2,0:0:0:0:
173,68,276215,6,0,P|91:107|172:183,1,188.999994232178,4|0,0:0|0:0,0:0:0:0:
301,252,276550,2,0,L|448:296,1,125.999996154785,2|0,1:0|0:0,0:0:0:0:
348,308,276801,1,0,0:0:0:0:
178,305,276885,2,0,L|166:171,1,125.999996154785,2|2,3:0|3:0,0:0:0:0:
344,169,277220,2,0,L|356:25,1,125.999996154785,2|0,1:0|0:0,0:0:0:0:
106,54,277556,6,0,P|47:108|139:174,1,188.999994232178,0|0,1:0|0:0,0:0:0:0:
296,175,277891,2,0,L|150:192,1,125.999996154785,2|0,1:0|0:0,0:0:0:0:
240,218,278142,1,0,0:0:0:0:
422,320,278226,2,0,L|430:183,1,125.999996154785,2|2,3:0|3:0,0:0:0:0:
278,177,278561,1,2,1:0:0:0:
237,132,278644,1,0,3:0:0:0:
256,75,278728,1,0,3:0:0:0:
315,64,278812,1,0,3:0:0:0:
474,66,278896,6,0,P|492:140|372:211,1,188.999994232178,4|0,0:0|0:0,0:0:0:0:
234,281,279232,2,0,L|216:128,1,125.999996154785,10|2,0:0|0:0,0:0:0:0:
366,120,279567,2,0,L|237:141,2,125.999996154785,0|2|10,0:0|0:0|0:0,0:0:0:0:
214,107,280070,2,0,L|203:35,1,62.9999980773926,0|0,0:0|3:0,0:0:0:0:
362,280,280237,6,0,L|501:296,2,125.999996154785,2|0|8,3:0|0:0|0:0,0:0:0:0:
128,260,280740,2,0,P|57:201|148:101,1,251.999992309571,2|8,3:0|0:0,0:0:0:0:
397,93,281243,2,0,L|257:81,1,125.999996154785,0|0,1:0|0:0,0:0:0:0:
21,61,281578,6,0,L|37:205,1,105,2|2,0:0|0:0,0:0:0:0:
187,174,281913,2,0,L|203:306,1,105,2|2,0:0|0:0,0:0:0:0:
365,313,282248,2,0,L|342:186,1,105,2|2,0:0|0:0,0:0:0:0:
186,172,282584,2,0,L|166:43,1,105,2|2,0:0|0:0,0:0:0:0:
335,52,282919,5,2,0:0:0:0:
168,69,283086,1,2,0:0:0:0:
335,52,283254,1,2,0:0:0:0:
168,69,283422,1,2,0:0:0:0:
335,109,283589,5,2,0:0:0:0:
391,137,283673,1,0,0:0:0:0:
372,197,283757,1,0,0:0:0:0:
310,211,283841,1,0,0:0:0:0:
251,232,283924,1,2,0:0:0:0:
213,283,284008,1,0,0:0:0:0:
233,342,284092,1,0,0:0:0:0:
293,360,284176,1,0,0:0:0:0:
484,359,284260,5,4,0:0:0:0:
256,192,284427,12,0,285600,0:0:0:0:
