osu file format v14

[General]
AudioFilename: bassdrop.mp3
AudioLeadIn: 0
PreviewTime: 44260
Countdown: 0
SampleSet: Soft
StackLeniency: 0.7
Mode: 2
LetterboxInBreaks: 0
WidescreenStoryboard: 1

[Editor]
DistanceSpacing: 1.2
BeatDivisor: 6
GridSize: 4
TimelineZoom: 3.399998

[Metadata]
Title:Bassdrop Freaks (Long Ver.)
TitleUnicode:ベィスドロップ・フリークス(Long Ver.)
Artist:Nanahira
ArtistUnicode:ななひら
Creator:Yumeno Himiko
Version:Blizzard
Source:beatmania IIDX 22 PENDUAL
Tags:a-style drumstep かめりあ camellia meltical sugar wave exit tunes 大箭将也 Masaya Oya KamelCamellia Cametek DanceDanceRevolution A DDR examination exam
BeatmapID:1747965
BeatmapSetID:834415

[Difficulty]
HPDrainRate:6
CircleSize:5
OverallDifficulty:9.5
ApproachRate:9.5
SliderMultiplier:2.1
SliderTickRate:2

[Events]
//Background and Video events
0,0,"1943873042753895747.jpg",0,0
//Break Periods
//Storyboard Layer 0 (Background)
//Storyboard Layer 1 (Fail)
//Storyboard Layer 2 (Pass)
//Storyboard Layer 3 (Foreground)
//Storyboard Sound Samples

[TimingPoints]
1355,335.195530726257,4,2,1,80,1,0
2360,-100,4,2,1,40,0,0
2695,-100,4,2,1,80,0,0
12081,-66.6666666666667,4,2,1,80,0,0
13086,-100,4,2,1,80,0,0
24232,-100,4,2,1,60,0,0
34874,-100,4,2,2,80,0,0
36215,-100,4,2,3,80,0,0
36299,-100,4,2,2,80,0,0
36885,-100,4,2,3,80,0,0
36969,-100,4,2,2,80,0,0
37723,-100,4,2,0,50,0,0
37891,-100,4,2,2,80,0,0
39567,-100,4,2,1,80,0,0
40237,-100,4,2,2,85,0,0
40908,-100,4,2,2,70,0,0
41578,-100,4,2,2,75,0,0
42248,-100,4,2,2,80,0,0
44260,-100,4,2,1,80,0,0
45600,-83.3333333333333,4,2,1,80,0,1
67053,-83.3333333333333,4,2,1,80,0,0
88505,-100,4,2,1,80,0,0
109958,-83.3333333333333,4,2,1,80,0,0
118896,-83.3333333333333,4,2,1,60,0,0
119343,-83.3333333333333,4,2,1,80,0,0
152863,-133.333333333333,4,2,1,60,0,0
163589,-100,4,2,1,80,0,0
171718,-100,4,2,2,80,0,0
175656,-100,4,2,3,80,0,0
175740,-100,4,2,2,80,0,0
176327,-100,4,2,3,80,0,0
176410,-100,4,2,2,80,0,0
176997,-100,4,2,2,60,0,0
179679,-100,4,2,2,80,0,0
181019,-100,4,2,3,80,0,0
181103,-100,4,2,2,80,0,0
181690,-100,4,2,3,80,0,0
181773,-100,4,2,2,80,0,0
182360,-100,4,2,2,60,0,0
185042,-100,4,2,2,80,0,0
190405,-100,4,2,1,80,0,0
195768,-83.3333333333333,4,2,1,80,0,1
208506,-83.3333333333333,4,2,1,70,0,1
208590,-83.3333333333333,4,2,1,60,0,1
208673,-83.3333333333333,4,2,1,50,0,1
209176,-83.3333333333333,4,2,1,80,0,1
217220,-100,4,2,1,80,0,0
238673,-83.3333333333333,4,2,1,80,0,0
260125,-83.3333333333333,4,2,1,80,0,1
281578,-100,4,2,2,50,0,0
285601,-100,4,2,2,30,0,0

[Colours]
Combo1 : 225,255,254
Combo2 : 128,165,242
Combo3 : 253,174,174

[HitObjects]
126,343,2360,6,0,L|115:212,1,105
405,277,2695,6,0,P|461:225|386:175,1,157.5,4|0,0:0|0:0,0:0:0:0:
357,161,3030,2,0,P|331:107|450:64,1,210,0|8,0:0|0:0,0:0:0:0:
157,46,3533,2,0,L|41:39,1,105
293,310,3868,6,0,P|340:266|241:201,1,210,4|0,0:0|0:0,0:0:0:0:
128,210,4371,1,8,0:0:0:0:
384,267,4539,2,0,P|423:215|327:142,1,210,4|0,0:0|0:0,0:0:0:0:
190,135,5042,2,0,L|164:77,3,52.5,0|0|0|0,3:0|3:0|3:0|3:0,3:0:0:0:
361,35,5377,6,0,P|418:60|359:169,1,210,4|0,0:0|0:0,0:0:0:0:
246,187,5880,1,0,0:0:0:0:
477,294,6047,2,2,L|504:264,5,35,10|2|2|2|2|2,0:0|0:0|0:0|0:0|0:0|0:0,0:0:0:0:
422,269,6382,1,2,0:0:0:0:
367,299,6465,1,2,0:0:0:0:
213,309,6550,6,0,P|156:273|227:186,1,210,4|8,0:0|0:0,0:0:0:0:
455,149,7053,1,8,0:0:0:0:
209,55,7220,1,2,0:0:0:0:
160,64,7303,1,2,0:0:0:0:
147,112,7387,1,2,0:0:0:0:
185,144,7471,1,2,0:0:0:0:
235,153,7556,2,2,L|303:150,4,52.5
17,158,8058,6,0,P|28:234|131:265,1,157.5,4|0,0:0|0:0,0:0:0:0:
170,261,8394,2,0,P|208:200|99:147,1,210,0|8,0:0|0:0,0:0:0:0:
375,63,8896,2,0,L|357:170,1,105
83,325,9232,6,0,L|298:303,1,210,4|0,0:0|0:0,0:0:0:0:
176,253,9734,1,8,0:0:0:0:
423,228,9902,2,0,L|441:101,1,105,4|0,0:0|0:0,0:0:0:0:
206,170,10237,2,0,P|134:133|214:71,1,210
426,66,10740,5,4,0:0:0:0:
371,97,10824,1,0,3:0:0:0:
315,127,10908,1,0,3:0:0:0:
260,157,10991,1,0,3:0:0:0:
313,190,11075,1,0,3:0:0:0:
367,221,11159,1,0,3:0:0:0:
312,252,11243,1,0,3:0:0:0:
366,283,11327,1,0,3:0:0:0:
315,127,11410,5,0,3:0:0:0:
260,157,11494,1,0,3:0:0:0:
313,190,11578,1,0,3:0:0:0:
370,162,11662,1,0,3:0:0:0:
313,190,11746,1,2,3:0:0:0:
259,221,11829,1,2,3:0:0:0:
204,252,11913,1,2,3:0:0:0:
260,281,11997,1,2,3:0:0:0:
423,252,12081,6,0,P|477:276|402:313,1,157.5,2|0,1:0|0:0,0:0:0:0:
160,337,12332,2,0,P|66:325|47:260,1,157.500006008148,2|0,1:0|0:0,0:0:0:0:
243,147,12584,2,0,L|406:139,1,157.500006008148,2|0,1:0|0:0,0:0:0:0:
226,80,12835,2,0,P|172:131|224:148,1,157.500006008148,2|0,1:0|0:0,0:0:0:0:
377,167,13086,5,0,3:0:0:0:
429,202,13170,1,0,3:0:0:0:
423,264,13254,1,0,3:0:0:0:
363,284,13338,1,0,3:0:0:0:
206,279,13422,6,0,P|137:240|188:204,1,157.5,4|0,0:0|0:0,0:0:0:0:
268,193,13757,2,0,L|286:64,1,105
51,56,14092,2,0,L|173:56,2,105,10|2|0,0:0|0:0|0:0,0:0:0:0:
294,57,14595,6,0,P|362:108|279:154,1,210,2|2,0:0|0:0,0:0:0:0:
157,142,15098,1,0,0:0:0:0:
310,305,15265,2,0,L|317:234,1,52.5,2|0,0:0|0:0,0:0:0:0:
120,275,15433,6,0,L|102:147,1,105,8|2,0:0|0:0,0:0:0:0:
332,136,15768,1,0,3:0:0:0:
379,140,15851,1,0,3:0:0:0:
391,94,15935,1,0,3:0:0:0:
347,76,16019,1,0,3:0:0:0:
139,67,16103,6,0,L|16:68,1,105,4|0,0:0|0:0,0:0:0:0:
3,123,16355,1,0,0:0:0:0:
26,180,16438,1,0,0:0:0:0:
86,196,16522,1,0,0:0:0:0:
149,196,16606,1,0,0:0:0:0:
427,191,16773,6,0,P|474:234|401:286,1,157.5,8|0,0:0|0:0,0:0:0:0:
268,291,17109,2,0,L|195:269,1,52.5,2|0,0:0|0:0,0:0:0:0:
405,232,17276,6,0,L|428:98,1,105,2|0,0:0|0:0,0:0:0:0:
190,105,17611,2,0,L|54:91,1,105,2|0,0:0|0:0,0:0:0:0:
253,51,17947,2,0,L|318:40,1,52.5,2|0,0:0|0:0,0:0:0:0:
107,59,18114,5,8,0:0:0:0:
60,77,18197,1,2,0:0:0:0:
54,126,18281,1,2,0:0:0:0:
94,156,18365,1,2,0:0:0:0:
143,164,18449,2,2,L|218:158,3,52.5
355,143,18785,6,0,P|411:201|345:238,1,157.5,4|0,0:0|0:0,0:0:0:0:
291,252,19120,2,0,L|212:177,1,105,0|2,0:0|0:0,0:0:0:0:
485,34,19455,2,0,L|263:50,1,210,8|2,0:0|0:0,0:0:0:0:
399,112,19958,1,2,0:0:0:0:
165,256,20125,5,2,0:0:0:0:
106,233,20209,1,0,0:0:0:0:
77,176,20293,1,0,0:0:0:0:
107,120,20377,1,0,0:0:0:0:
165,256,20461,2,0,L|294:247,1,105,0|2,0:0|0:0,0:0:0:0:
210,226,20712,1,0,0:0:0:0:
66,198,20796,6,0,P|27:155|99:109,1,157.5,8|0,0:0|0:0,0:0:0:0:
316,85,21131,1,2,0:0:0:0:
365,90,21214,1,2,0:0:0:0:
377,138,21298,1,2,0:0:0:0:
336,166,21382,1,2,0:0:0:0:
122,297,21466,6,0,L|60:260,3,52.5,4|0|0|0,0:0|0:0|0:0|0:0,0:0:0:0:
227,263,21801,2,0,L|344:250,1,105,8|2,0:0|3:0,0:0:0:0:
289,202,22053,1,0,3:0:0:0:
135,192,22137,2,0,L|8:175,1,105,8|0,0:0|0:0,0:0:0:0:
195,63,22472,1,2,0:0:0:0:
257,58,22556,1,2,0:0:0:0:
92,271,22639,6,0,L|80:154,1,105,2|0,1:0|0:0,0:0:0:0:
288,148,22891,2,0,L|442:134,1,105,2|0,1:0|0:0,0:0:0:0:
232,103,23142,2,0,L|225:23,1,52.5,2|0,1:0|0:0,0:0:0:0:
387,286,23310,2,0,L|395:207,1,52.5,2|0,1:0|0:0,0:0:0:0:
151,333,23477,6,0,L|81:323,1,52.5,2|0,1:0|0:0,0:0:0:0:
260,249,23645,2,0,L|321:257,1,52.5,2|0,1:0|0:0,0:0:0:0:
155,235,23813,1,2,1:0:0:0:
108,218,23896,1,0,3:0:0:0:
110,169,23980,1,0,3:0:0:0:
157,156,24064,1,0,3:0:0:0:
363,155,24148,6,0,P|418:135|352:46,1,210,6|2,0:0|0:0,0:0:0:0:
228,55,24651,1,2,0:0:0:0:
102,59,24818,2,0,L|120:181,1,105,0|2,0:0|0:0,0:0:0:0:
243,164,25153,1,2,0:0:0:0:
86,161,25321,6,0,P|1:191|76:236,1,210,2|2,0:0|0:0,0:0:0:0:
191,244,25824,1,2,0:0:0:0:
354,246,25991,2,0,P|431:248|485:130,1,210,2|2,0:0|0:0,0:0:0:0:
362,131,26494,2,0,L|248:119,1,105,0|2,0:0|0:0,0:0:0:0:
418,46,26829,5,0,0:0:0:0:
464,137,26997,1,0,0:0:0:0:
447,232,27165,1,0,0:0:0:0:
353,261,27332,1,0,0:0:0:0:
231,255,27500,2,0,L|222:139,1,105
361,153,27835,2,0,L|371:39,1,105
196,49,28170,5,0,0:0:0:0:
102,107,28338,1,0,0:0:0:0:
116,216,28505,1,0,0:0:0:0:
220,255,28673,1,0,0:0:0:0:
346,252,28841,2,0,L|235:255,1,105
106,261,29176,2,0,L|55:161,1,105
223,75,29511,6,0,P|281:104|195:189,1,210,2|2,0:0|0:0,0:0:0:0:
92,193,30014,1,2,0:0:0:0:
217,199,30181,2,0,L|349:207,1,105,0|2,0:0|0:0,0:0:0:0:
194,199,30517,1,2,0:0:0:0:
361,208,30684,6,0,P|367:145|238:73,1,210,2|2,0:0|0:0,0:0:0:0:
383,51,31187,1,2,0:0:0:0:
216,56,31355,2,0,P|152:85|242:152,1,210,2|2,0:0|0:0,0:0:0:0:
345,173,31857,2,0,L|328:285,1,105,0|2,0:0|0:0,0:0:0:0:
162,301,32192,5,0,0:0:0:0:
36,311,32360,1,0,0:0:0:0:
162,302,32528,1,0,0:0:0:0:
36,311,32695,1,0,0:0:0:0:
199,301,32863,6,0,L|314:291,1,105
245,266,33114,1,0,0:0:0:0:
183,252,33198,1,0,0:0:0:0:
127,221,33282,1,0,0:0:0:0:
118,158,33366,1,0,0:0:0:0:
166,119,33449,1,0,0:0:0:0:
253,98,33533,6,0,L|367:91,1,105,0|0,3:0|0:0,0:0:0:0:
235,198,33868,2,0,L|216:75,1,105,0|0,3:0|0:0,0:0:0:0:
281,79,34120,1,0,0:0:0:0:
343,85,34204,5,0,0:0:0:0:
396,117,34287,1,0,0:0:0:0:
391,179,34371,1,0,0:0:0:0:
329,192,34455,1,0,0:0:0:0:
390,207,34539,1,0,0:0:0:0:
420,262,34623,1,0,0:0:0:0:
379,309,34706,1,0,0:0:0:0:
315,308,34790,1,0,0:0:0:0:
160,323,34874,6,0,P|95:285|185:209,1,210,4|10,0:0|0:0,0:0:0:0:
317,189,35377,1,8,0:0:0:0:
199,144,35544,2,0,L|88:98,1,105,2|8,0:0|0:0,0:0:0:0:
347,47,35880,1,8,0:0:0:0:
221,35,36047,6,0,P|161:90|249:154,1,210,8|8,0:0|0:0,0:0:0:0:
365,155,36550,1,10,0:0:0:0:
87,261,36718,2,0,P|51:166|148:135,1,210,8|8,0:0|0:0,0:0:0:0:
255,148,37220,2,0,L|376:175,1,105,2|8,0:0|0:0,0:0:0:0:
38,48,37556,5,2,0:0:0:0:
195,50,37723,2,2,L|247:46,1,52.5,2|0,0:0|0:0,0:0:0:0:
100,96,37891,2,0,L|85:203,1,105,10|0,0:0|0:0,0:0:0:0:
348,326,38226,2,0,L|358:199,1,105,10|0,0:0|0:0,0:0:0:0:
190,209,38561,2,0,L|55:197,1,105,2|8,0:0|0:0,0:0:0:0:
356,112,38896,6,0,L|472:107,1,105,2|8,0:0|0:0,0:0:0:0:
296,73,39232,2,0,L|359:158,1,105,10|0,0:0|0:0,0:0:0:0:
67,326,39567,2,0,L|209:313,1,105,8|0,0:0|0:0,0:0:0:0:
439,229,39902,2,0,L|309:211,1,105,8|0,0:0|0:0,0:0:0:0:
41,140,40237,5,14,0:0:0:0:
198,138,40405,1,2,0:0:0:0:
41,140,40572,1,10,0:0:0:0:
198,138,40740,2,0,L|264:137,1,52.5,10|0,0:0|0:0,0:0:0:0:
65,217,40908,5,2,0:0:0:0:
195,216,41076,1,10,0:0:0:0:
65,217,41243,1,10,0:0:0:0:
222,215,41410,2,0,L|277:214,1,52.5,10|0,0:0|0:0,0:0:0:0:
100,295,41578,5,2,0:0:0:0:
247,295,41746,1,10,0:0:0:0:
393,299,41913,1,10,0:0:0:0:
247,295,42081,2,0,L|194:295,1,52.5,10|0,0:0|0:0,0:0:0:0:
415,185,42248,5,2,0:0:0:0:
267,185,42416,1,10,0:0:0:0:
120,182,42583,1,10,0:0:0:0:
267,185,42751,2,0,L|326:186,1,52.5,10|0,0:0|0:0,0:0:0:0:
167,336,42919,6,0,L|100:347,1,52.5,2|0,0:0|0:0,0:0:0:0:
267,272,43086,2,0,L|326:263,1,52.5,10|8,0:0|0:0,0:0:0:0:
112,195,43254,2,0,L|37:180,1,52.5,10|0,0:0|0:0,0:0:0:0:
123,196,43422,2,0,L|65:186,1,52.5,2|0,0:0|0:1,0:1:0:0:
260,200,43589,5,2,3:0:0:0:
300,192,43631,1,0,3:0:0:0:
332,164,43673,1,0,3:0:0:0:
332,120,43715,1,0,3:0:0:0:
300,92,43757,1,0,3:0:0:0:
260,84,43799,1,0,0:0:0:0:
216,84,43841,1,2,0:0:0:0:
176,84,43882,1,0,0:0:0:0:
136,92,43924,5,0,0:0:0:0:
100,112,43966,1,0,0:0:0:0:
80,148,44008,1,0,0:0:0:0:
76,188,44050,1,0,0:0:0:0:
104,220,44092,1,2,0:0:0:0:
144,236,44134,1,0,0:0:0:0:
188,236,44176,1,0,0:0:0:0:
377,193,44260,6,0,P|433:223|354:308,1,210,2|0,0:0|0:0,0:0:0:0:
207,315,44762,2,0,L|189:189,1,105,2|2,0:0|0:0,0:0:0:0:
342,159,45098,1,8,3:0:0:0:
34,76,45265,6,0,L|49:187,1,105,8|0,0:0|0:0,0:0:0:0:
123,205,45517,1,0,0:0:0:0:
371,299,45600,6,0,P|259:290|231:219,1,188.999994232178,4|0,0:0|0:0,0:0:0:0:
481,234,45936,2,0,L|494:92,1,125.999996154785,2|0,1:0|0:0,0:0:0:0:
398,97,46187,1,0,0:0:0:0:
205,80,46271,6,0,L|104:69,1,62.9999980773926,10|0,0:0|0:0,0:0:0:0:
324,246,46438,2,0,L|331:157,1,62.9999980773926,2|0,0:0|0:0,0:0:0:0:
125,326,46606,2,0,L|108:178,1,125.999996154785,2|0,1:0|0:0,0:0:0:0:
337,75,46941,6,0,P|263:99|332:147,1,188.999994232178,0|0,1:0|0:0,0:0:0:0:
464,140,47276,2,0,P|482:212|440:257,1,125.999996154785,2|0,1:0|0:0,0:0:0:0:
361,276,47528,1,0,0:0:0:0:
141,217,47611,6,0,L|235:228,1,62.9999980773926,10|0,0:0|0:0,0:0:0:0:
384,118,47779,2,0,L|305:105,1,62.9999980773926,2|0,0:0|0:0,0:0:0:0:
99,78,47947,1,2,1:0:0:0:
43,98,48030,1,2,0:0:0:0:
40,157,48114,1,2,0:0:0:0:
94,182,48198,1,2,0:0:0:0:
245,178,48282,6,0,P|311:204|224:255,1,188.999994232178,4|0,0:0|0:0,0:0:0:0:
100,324,48617,2,0,L|84:195,1,125.999996154785,2|0,1:0|0:0,0:0:0:0:
175,172,48868,1,0,0:0:0:0:
351,125,48952,6,0,L|116:106,1,188.999994232178,0|0,1:0|0:0,0:0:0:0:
325,34,49287,2,0,P|379:70|330:134,1,125.999996154785,2|0,1:0|0:0,0:0:0:0:
295,186,49539,1,0,0:0:0:0:
85,319,49623,6,0,L|69:218,1,62.9999980773926,8|0,3:0|0:0,0:0:0:0:
247,237,49790,2,0,L|257:141,1,62.9999980773926,8|0,3:0|0:0,0:0:0:0:
56,120,49958,1,2,1:0:0:0:
5,90,50041,1,0,0:0:0:0:
19,33,50125,1,0,3:0:0:0:
77,31,50209,1,0,3:0:0:0:
422,18,50293,6,0,L|413:111,1,62.9999980773926,8|0,0:0|0:0,0:0:0:0:
253,237,50461,2,0,L|172:225,1,62.9999980773926,8|0,0:0|0:0,0:0:0:0:
397,310,50628,2,2,L|490:297,3,62.9999980773926,2|2|2|2,0:0|0:0|0:0|0:0,0:0:0:0:
271,319,50963,6,0,P|219:275|309:219,1,188.999994232178,4|0,0:0|0:0,0:0:0:0:
452,150,51299,2,0,L|315:135,1,125.999996154785,2|0,1:0|0:0,0:0:0:0:
262,126,51550,1,0,0:0:0:0:
443,28,51634,6,0,L|424:165,1,125.999996154785,8|0,0:0|0:0,0:0:0:0:
129,309,51969,2,0,P|86:277|114:214,1,125.999996154785,2|0,1:0|0:0,0:0:0:0:
199,193,52220,1,0,0:0:0:0:
404,175,52304,6,0,L|203:151,1,188.999994232178,0|0,1:0|0:0,0:0:0:0:
388,65,52639,2,0,P|448:89|412:152,1,125.999996154785,2|0,1:0|0:0,0:0:0:0:
370,207,52891,1,0,0:0:0:0:
152,314,52975,6,0,L|127:218,1,62.9999980773926,8|0,0:0|0:0,0:0:0:0:
292,199,53142,2,0,L|305:109,1,62.9999980773926,2|0,3:0|0:0,0:0:0:0:
97,66,53310,1,2,1:0:0:0:
39,81,53393,1,2,0:0:0:0:
32,140,53477,1,2,0:0:0:0:
83,170,53561,1,2,0:0:0:0:
274,158,53645,6,0,P|333:180|259:254,1,188.999994232178,4|0,0:0|0:0,0:0:0:0:
103,288,53980,2,0,L|184:270,1,62.9999980773926,2|0,0:0|0:0,0:0:0:0:
374,227,54148,2,0,L|462:209,1,62.9999980773926,2|0,0:0|0:0,0:0:0:0:
189,189,54315,6,0,L|179:113,1,62.9999980773926,8|0,0:0|0:0,0:0:0:0:
367,310,54483,2,0,L|386:163,1,125.999996154785,2|2,0:0|0:0,0:0:0:0:
246,175,54818,2,0,L|175:182,1,62.9999980773926,0|0,3:0|3:0,3:0:0:0:
336,270,54986,6,0,L|481:282,1,125.999996154785,2|0,3:0|0:0,0:0:0:0:
282,326,55237,2,0,P|224:278|282:226,1,125.999996154785,2|0,3:0|0:0,0:0:0:0:
439,115,55489,2,2,L|357:112,1,62.9999980773926,2|2,3:0|3:0,3:0:0:0:
104,98,55656,6,0,P|51:162|85:190,1,125.999996154785,8|0,3:0|0:0,0:0:0:0:
252,222,55908,2,0,L|391:205,1,125.999996154785,8|0,3:0|0:0,0:0:0:0:
168,329,56159,2,0,L|158:238,1,62.9999980773926,8|0,3:0|0:0,0:0:0:0:
346,69,56327,5,0,3:0:0:0:
403,77,56410,1,0,3:0:0:0:
407,135,56494,1,0,3:0:0:0:
350,150,56578,1,0,3:0:0:0:
197,148,56662,2,0,P|147:189|189:219,1,125.999996154785,0|0,3:0|3:0,3:0:0:0:
272,234,56913,1,0,3:0:0:0:
460,252,56997,6,0,L|324:263,1,125.999996154785,12|0,0:0|0:0,0:0:0:0:
76,281,57332,2,0,P|7:233|24:194,1,125.999996154785,2|0,1:0|0:0,0:0:0:0:
87,144,57584,1,0,0:0:0:0:
307,73,57667,6,0,P|367:101|294:160,1,188.999994232178,0|0,1:0|0:0,0:0:0:0:
150,125,58003,2,0,L|162:277,1,125.999996154785,2|0,1:0|0:0,0:0:0:0:
253,265,58254,1,0,0:0:0:0:
423,122,58338,6,0,L|515:111,2,83.9999974365235,8|2|2,0:0|3:0|3:0,0:0:0:0:
209,240,58673,2,2,L|111:226,2,83.9999974365235,2|2|2,3:0|3:0|3:0,3:0:0:0:
451,269,59008,6,0,P|474:198|377:152,1,188.999994232178,4|0,0:0|0:0,0:0:0:0:
209,154,59343,2,0,L|60:154,1,125.999996154785,2|0,1:0|0:0,0:0:0:0:
161,99,59595,1,0,0:0:0:0:
370,60,59679,6,0,P|428:96|354:151,1,188.999994232178,8|0,0:0|0:0,0:0:0:0:
102,325,60014,2,0,L|98:188,1,125.999996154785,2|0,1:0|0:0,0:0:0:0:
192,185,60265,1,0,0:0:0:0:
374,168,60349,6,0,L|369:77,1,62.9999980773926,8|0,3:0|0:0,0:0:0:0:
158,66,60517,2,0,L|54:57,1,62.9999980773926,8|0,3:0|0:0,0:0:0:0:
262,330,60684,2,0,L|412:318,1,125.999996154785,2|2,1:0|3:0,0:0:0:0:
303,274,60936,1,0,3:0:0:0:
91,249,61019,6,0,L|20:245,3,62.9999980773926,2|0|2|0,3:0|0:0|3:0|0:0,0:0:0:0:
237,69,61355,1,2,0:0:0:0:
292,90,61438,1,2,0:0:0:0:
292,149,61522,1,2,0:0:0:0:
237,171,61606,1,2,0:0:0:0:
59,166,61690,6,0,B|228:208|228:208|-4:236,1,377.999988464356,6|0,1:0|0:0,0:0:0:0:
112,252,62276,1,0,0:0:0:0:
325,277,62360,6,0,L|307:125,1,125.999996154785,8|0,0:0|0:0,0:0:0:0:
48,164,62695,2,0,P|14:98|57:77,1,125.999996154785,2|0,1:0|0:0,0:0:0:0:
139,67,62947,1,0,0:0:0:0:
346,213,63030,6,0,L|145:187,1,188.999994232178,0|0,1:0|0:0,0:0:0:0:
365,53,63366,2,0,L|499:46,1,125.999996154785,2|0,1:0|0:0,0:0:0:0:
408,93,63617,1,0,0:0:0:0:
212,117,63701,6,0,L|191:240,1,62.9999980773926,2|0,3:0|0:0,0:0:0:0:
379,210,63868,2,0,L|390:300,1,62.9999980773926,2|0,3:0|0:0,0:0:0:0:
155,328,64036,1,2,1:0:0:0:
104,297,64119,1,2,0:0:0:0:
116,240,64203,1,2,0:0:0:0:
175,234,64287,1,2,0:0:0:0:
447,233,64371,6,0,P|431:140|333:124,1,188.999994232178,4|0,0:0|0:0,0:0:0:0:
186,117,64706,2,0,L|109:116,1,62.9999980773926,2|0,0:0|0:0,0:0:0:0:
299,268,64874,2,0,L|369:268,1,62.9999980773926,2|0,0:0|0:0,0:0:0:0:
126,330,65042,6,0,L|115:180,1,125.999996154785,2|0,3:0|0:0,0:0:0:0:
299,184,65293,2,0,L|453:170,1,125.999996154785,2|0,3:0|0:0,0:0:0:0:
229,136,65544,2,0,L|142:120,1,62.9999980773926,2|0,3:0|0:0,0:0:0:0:
394,64,65712,6,0,P|460:94|415:155,1,125.999996154785,2|0,3:0|0:0,0:0:0:0:
372,186,65963,1,0,0:0:0:0:
172,289,66047,2,0,L|160:202,1,62.9999980773926,2|0,3:0|0:0,0:0:0:0:
322,321,66215,2,0,L|492:306,1,125.999996154785,2|0,3:0|0:0,0:0:0:0:
365,263,66466,5,0,0:0:0:0:
155,159,66550,2,0,L|231:147,1,62.9999980773926,2|0,3:0|0:0,0:0:0:0:
408,84,66718,1,10,3:0:0:0:
460,110,66801,1,0,3:0:0:0:
452,169,66885,1,0,3:0:0:0:
395,181,66969,1,0,3:0:0:0:
131,308,67053,6,0,P|57:254|140:218,1,188.999994232178,4|0,0:0|0:0,0:0:0:0:
287,198,67388,2,0,L|308:68,1,125.999996154785,0|0,3:0|0:0,0:0:0:0:
38,52,67723,6,0,P|28:122|144:153,1,188.999994232178,8|0,0:0|0:0,0:0:0:0:
311,169,68058,2,0,L|229:189,1,62.9999980773926,2|0,3:0|0:0,0:0:0:0:
55,261,68226,2,0,L|150:274,1,62.9999980773926,2|0,3:0|0:0,0:0:0:0:
333,275,68394,6,0,P|397:235|399:165,1,125.999996154785,2|0,1:0|0:0,0:0:0:0:
384,97,68645,1,0,0:0:0:0:
292,74,68729,1,0,0:0:0:0:
65,70,68896,2,0,L|139:86,1,62.9999980773926,2|0,1:0|0:0,0:0:0:0:
293,150,69064,6,0,P|320:204|278:263,1,125.999996154785,8|0,0:0|0:0,0:0:0:0:
56,326,69399,2,0,P|18:260|66:223,1,125.999996154785,2|0,1:0|0:0,0:0:0:0:
138,223,69651,1,0,0:0:0:0:
352,212,69734,6,0,P|351:136|249:104,1,188.999994232178,4|0,0:0|0:0,0:0:0:0:
436,73,70070,2,0,P|483:152|418:204,1,188.999994232178,0|0,3:0|0:0,0:0:0:0:
232,283,70405,6,0,L|90:259,1,125.999996154785,8|0,0:0|0:0,0:0:0:0:
286,242,70656,2,0,P|304:173|249:149,1,125.999996154785,2|0,3:0|0:0,0:0:0:0:
92,152,70908,2,0,L|83:53,1,62.9999980773926,2|0,3:0|3:0,0:0:0:0:
269,46,71075,6,0,P|322:103|286:151,1,125.999996154785,2|0,1:0|0:0,0:0:0:0:
239,160,71327,1,0,3:0:0:0:
304,189,71410,1,8,3:0:0:0:
153,281,71578,2,0,L|221:290,1,62.9999980773926,2|0,1:0|0:0,0:0:0:0:
405,325,71746,5,2,0:0:0:0:
435,321,71787,1,2,0:0:0:0:
459,301,71829,1,2,0:0:0:0:
467,271,71871,1,2,0:0:0:0:
458,242,71913,1,2,0:0:0:0:
433,223,71955,1,2,0:0:0:0:
402,221,71997,1,2,0:0:0:0:
162,115,72081,6,2,L|108:109,6,31.4999990386963,2|2|2|2|2|2|2,1:0|0:0|0:0|0:0|0:0|0:0|0:0,0:0:0:0:
337,78,72416,5,6,0:0:0:0:
353,104,72457,1,2,0:0:0:0:
356,135,72499,1,2,0:0:0:0:
346,165,72541,1,2,0:0:0:0:
324,187,72583,1,2,0:0:0:0:
295,198,72625,1,2,0:0:0:0:
264,195,72667,1,2,0:0:0:0:
87,195,72751,6,0,P|37:155|123:107,1,188.999994232178,0|0,3:0|0:0,0:0:0:0:
294,100,73086,2,0,L|422:95,1,125.999996154785,8|0,0:0|0:0,0:0:0:0:
133,326,73422,2,0,L|131:239,1,62.9999980773926,2|0,3:0|0:0,0:0:0:0:
319,252,73589,2,0,L|333:164,1,62.9999980773926,2|0,3:0|0:0,0:0:0:0:
82,85,73757,6,0,P|53:161|119:182,1,125.999996154785,2|0,1:0|0:0,0:0:0:0:
144,205,74008,1,0,0:0:0:0:
216,210,74092,1,0,0:0:0:0:
488,186,74260,2,0,L|401:180,1,62.9999980773926,2|0,1:0|0:0,0:0:0:0:
218,164,74427,6,0,L|209:33,1,125.999996154785,8|0,0:0|0:0,0:0:0:0:
445,54,74762,1,2,1:0:0:0:
473,106,74845,1,2,0:0:0:0:
444,159,74929,1,2,0:0:0:0:
383,161,75013,1,2,0:0:0:0:
155,297,75098,6,0,P|90:216|143:148,1,188.999994232178,4|2,0:0|3:0,0:0:0:0:
302,137,75433,2,0,L|416:121,1,62.9999980773926,2|0,0:0|0:0,0:0:0:0:
130,81,75600,2,0,L|57:69,1,62.9999980773926,2|0,0:0|0:0,0:0:0:0:
352,327,75768,6,0,L|442:321,2,62.9999980773926,0|2|0,0:0|0:0|0:0,0:0:0:0:
92,255,76103,2,0,L|75:124,1,125.999996154785,10|0,0:0|3:0,0:0:0:0:
168,105,76355,1,0,3:0:0:0:
367,72,76438,5,2,3:0:0:0:
430,113,76522,2,0,P|410:175|348:186,1,125.999996154785,2|0,0:0|0:0,0:0:0:0:
139,280,76773,2,0,L|131:152,1,125.999996154785,2|2,0:0|0:0,0:0:0:0:
409,290,77109,5,2,0:0:0:0:
488,239,77192,2,0,P|481:171|419:143,1,125.999996154785,2|2,3:0|0:0,0:0:0:0:
162,215,77444,2,0,P|93:180|111:137,1,125.999996154785,8|0,0:0|0:0,0:0:0:0:
178,91,77695,1,0,0:0:0:0:
355,305,77779,6,0,L|365:210,1,62.9999980773926,4|0,0:0|0:0,0:0:0:0:
192,300,77947,2,0,L|98:286,1,62.9999980773926
361,178,78114,1,8,0:0:0:0:
384,121,78197,1,0,0:0:0:0:
351,70,78281,1,0,0:0:0:0:
291,66,78365,1,0,0:0:0:0:
74,83,78449,6,0,L|216:84,1,125.999996154785,2|0,0:0|0:0,0:0:0:0:
397,86,78701,2,0,P|448:126|389:172,1,125.999996154785,2|0,0:0|0:0,0:0:0:0:
220,285,78952,2,0,L|201:199,1,62.9999980773926,2|0,0:0|0:0,0:0:0:0:
420,292,79120,6,0,P|460:238|357:181,1,188.999994232178,2|0,1:0|0:0,0:0:0:0:
170,137,79455,2,0,L|250:120,1,62.9999980773926,8|0,0:0|0:0,0:0:0:0:
421,62,79623,2,0,P|460:123|360:155,1,188.999994232178,2|0,1:0|0:0,0:0:0:0:
167,281,79958,2,0,L|150:200,1,62.9999980773926,0|0,3:0|0:0,0:0:0:0:
412,316,80125,2,0,P|436:254|363:198,1,125.999996154785,2|0,1:0|0:0,0:0:0:0:
313,183,80377,1,0,0:0:0:0:
117,108,80461,6,0,L|218:94,1,62.9999980773926,4|0,0:0|0:0,0:0:0:0:
378,74,80628,2,0,L|373:156,1,62.9999980773926
169,188,80796,1,8,0:0:0:0:
113,205,80879,1,0,0:0:0:0:
118,263,80963,1,0,0:0:0:0:
175,271,81047,1,0,0:0:0:0:
411,304,81131,6,0,P|429:236|365:209,1,125.999996154785,2|0,0:0|0:0,0:0:0:0:
202,172,81382,2,0,L|65:150,1,125.999996154785,2|0,0:0|0:0,0:0:0:0:
275,95,81634,2,0,L|382:81,1,62.9999980773926,2|0,0:0|0:0,0:0:0:0:
90,67,81801,6,0,P|25:106|97:183,1,188.999994232178,2|0,1:0|0:0,0:0:0:0:
292,175,82137,2,0,L|280:256,1,62.9999980773926,8|0,0:0|0:0,0:0:0:0:
103,180,82304,2,0,P|56:235|141:291,1,188.999994232178,2|0,1:0|0:0,0:0:0:0:
357,290,82639,2,0,L|279:301,1,62.9999980773926,0|0,3:0|0:0,0:0:0:0:
80,305,82807,1,10,0:0:0:0:
35,263,82890,1,2,0:0:0:0:
44,204,82974,1,2,0:0:0:0:
99,178,83058,1,2,0:0:0:0:
306,166,83142,6,0,P|372:159|448:52,1,188.999994232178,4|0,0:0|0:0,0:0:0:0:
224,40,83477,2,0,L|67:37,1,125.999996154785,2|0,1:0|0:0,0:0:0:0:
397,39,83813,6,0,L|388:184,1,125.999996154785,0|0,1:0|0:0,0:0:0:0:
126,342,84148,2,0,L|117:206,1,125.999996154785,2|0,1:0|0:0,0:0:0:0:
389,355,84483,6,0,L|522:348,1,125.999996154785,0|0,1:0|0:0,0:0:0:0:
194,208,84818,2,0,L|52:186,1,125.999996154785,2|0,1:0|0:0,0:0:0:0:
408,82,85153,6,0,L|253:63,1,125.999996154785,0|0,1:0|0:0,0:0:0:0:
56,84,85489,1,2,1:0:0:0:
18,138,85572,1,2,0:0:0:0:
34,198,85656,1,2,0:0:0:0:
96,217,85740,1,2,0:0:0:0:
349,324,85824,6,0,L|356:162,1,125.999996154785,4|0,0:0|0:0,0:0:0:0:
81,150,86159,2,0,L|67:-15,1,125.999996154785,2|2,1:0|0:0,0:0:0:0:
360,28,86494,5,2,0:0:0:0:
376,86,86577,1,0,0:0:0:0:
343,137,86661,1,0,0:0:0:0:
283,146,86745,1,0,0:0:0:0:
218,142,86829,2,0,L|165:97,3,62.9999980773926,2|2|2|2,1:0|0:0|0:0|0:0,0:0:0:0:
361,186,87165,6,0,P|404:269|351:287,1,125.999996154785,2|0,3:0|0:0,0:0:0:0:
226,346,87416,2,0,L|209:215,1,125.999996154785,2|0,3:0|0:0,0:0:0:0:
422,203,87667,2,0,L|437:60,1,125.999996154785,2|0,3:0|0:0,0:0:0:0:
243,44,87919,2,0,P|197:84|243:116,1,125.999996154785,2|0,3:0|0:0,0:0:0:0:
493,204,88170,2,0,L|366:215,1,125.999996154785,8|0,0:0|0:0,0:0:0:0:
75,304,88505,6,0,P|37:213|79:191,1,157.5,4|0,0:0|0:0,0:0:0:0:
219,187,88841,2,0,P|225:91|110:65,1,210,2|8,0:0|0:0,0:0:0:0:
355,44,89343,2,0,L|477:35,1,105,2|0,0:0|0:0,0:0:0:0:
218,266,89679,6,0,P|143:221|230:171,1,210,0|2,1:0|0:0,0:0:0:0:
339,155,90181,1,0,0:0:0:0:
212,161,90349,2,0,L|128:170,1,52.5,2|0,0:0|0:0,0:0:0:0:
357,328,90517,2,0,L|370:214,1,105,8|2,0:0|0:0,0:0:0:0:
149,313,90852,2,0,L|27:298,1,105
99,268,91103,1,0,0:0:0:0:
291,231,91187,6,0,P|309:155|221:131,1,157.5,4|0,0:0|0:0,0:0:0:0:
161,115,91522,2,0,L|283:105,1,105,0|2,0:0|0:0,0:0:0:0:
490,103,91857,2,0,P|501:142|449:198,1,105,8|0,0:0|0:0,0:0:0:0:
361,239,92192,1,2,0:0:0:0:
74,301,92360,6,0,L|69:170,1,105,2|0,0:0|3:0,0:0:0:0:
232,161,92695,2,0,L|356:133,1,105,2|0,0:0|0:0,0:0:0:0:
186,83,93030,2,0,L|110:75,1,52.5
294,46,93198,5,8,0:0:0:0:
336,91,93281,1,2,0:0:0:0:
313,149,93365,1,2,0:0:0:0:
249,152,93449,1,2,0:0:0:0:
320,167,93533,1,2,0:0:0:0:
368,206,93617,1,2,0:0:0:0:
335,265,93701,1,2,0:0:0:0:
260,269,93785,1,2,0:0:0:0:
94,269,93868,6,0,P|49:214|133:180,1,157.5,6|0,0:0|0:0,0:0:0:0:
296,160,94204,2,0,L|96:64,1,210,0|8,0:0|0:0,0:0:0:0:
376,32,94706,2,0,L|372:140,1,105,2|0,0:0|0:0,0:0:0:0:
128,305,95042,6,0,P|57:262|145:213,1,210,2|0,0:0|0:0,0:0:0:0:
269,202,95544,1,0,0:0:0:0:
147,165,95712,2,0,L|71:144,1,52.5,2|0,0:0|0:0,0:0:0:0:
279,100,95880,2,0,L|400:85,1,105,8|2,0:0|0:0,0:0:0:0:
131,64,96215,2,0,P|61:93|112:146,1,157.5,2|0,3:0|0:0,0:0:0:0:
304,320,96550,6,0,L|321:201,1,105,4|0,0:0|0:0,0:0:0:0:
192,221,96885,2,8,L|181:89,1,105,8|0,0:0|0:0,0:0:0:0:
329,96,97220,2,0,L|444:79,1,105,0|0,1:0|0:0,0:0:0:0:
144,96,97556,1,8,0:0:0:0:
95,107,97639,1,2,0:0:0:0:
88,155,97723,1,2,0:0:0:0:
131,179,97807,1,2,0:0:0:0:
312,328,97891,6,0,L|429:319,1,105,2|0,1:0|0:0,0:0:0:0:
219,313,98142,2,0,P|184:255|229:226,1,105,2|0,1:0|0:0,0:0:0:0:
343,203,98394,2,0,P|353:134|305:109,1,105,2|0,1:0|0:0,0:0:0:0:
144,107,98645,6,0,L|21:102,1,105,2|0,1:0|0:0,0:0:0:0:
254,74,98896,1,8,0:0:0:0:
288,126,98979,1,0,3:0:0:0:
272,187,99063,1,8,3:0:0:0:
209,193,99147,1,0,3:0:0:0:
376,291,99232,6,0,P|425:227|361:194,1,157.5,4|0,0:0|0:0,0:0:0:0:
224,186,99567,2,0,P|173:126|266:70,1,210,8|2,0:0|0:0,0:0:0:0:
482,143,100070,2,0,L|349:149,1,105,2|8,0:0|0:0,0:0:0:0:
145,151,100405,6,0,P|77:185|159:251,1,210,2|2,0:0|0:0,0:0:0:0:
274,248,100908,1,8,0:0:0:0:
44,323,101075,2,0,P|40:224|149:204,1,210,2|2,0:0|0:0,0:0:0:0:
378,56,101578,1,8,0:0:0:0:
415,89,101661,1,2,0:0:0:0:
413,140,101745,1,2,0:0:0:0:
373,171,101829,1,2,0:0:0:0:
212,273,101913,6,0,P|145:221|219:188,1,157.5,4|0,0:0|0:0,0:0:0:0:
316,178,102248,1,8,0:0:0:0:
359,154,102331,1,2,0:0:0:0:
356,104,102415,1,2,0:0:0:0:
310,86,102499,1,2,0:0:0:0:
106,267,102584,6,0,P|90:204|135:168,1,105
174,166,102835,1,0,0:0:0:0:
329,167,102919,2,0,L|338:85,1,52.5,8|0,0:0|0:0,0:0:0:0:
112,326,103086,6,0,L|97:189,1,105,2|0,0:0|0:0,0:0:0:0:
332,197,103422,2,0,L|460:167,1,105,2|8,0:0|0:0,0:0:0:0:
183,120,103757,2,0,L|101:111,1,52.5,2|0,0:0|0:0,0:0:0:0:
307,66,103924,5,2,0:0:0:0:
349,92,104007,1,2,0:0:0:0:
346,142,104091,1,2,0:0:0:0:
301,163,104175,1,2,0:0:0:0:
101,303,104260,2,2,L|44:278,3,52.5,10|2|2|2,0:0|0:0|0:0|0:0,0:0:0:0:
220,249,104595,6,0,P|281:214|205:160,1,157.5,4|0,0:0|0:0,0:0:0:0:
91,165,104930,2,0,L|77:31,1,105,8|0,0:0|0:0,0:0:0:0:
241,46,105265,2,0,L|366:29,1,105
85,301,105600,2,0,L|200:286,1,105,8|0,0:0|0:0,0:0:0:0:
413,269,105936,6,0,P|436:198|369:163,1,157.5,4|0,0:0|0:0,0:0:0:0:
229,135,106271,2,0,L|346:120,1,105,8|0,0:0|0:0,0:0:0:0:
486,99,106606,2,0,L|344:84,1,105
144,80,106941,5,8,0:0:0:0:
119,87,106982,1,0,0:0:0:0:
101,106,107024,1,0,0:0:0:0:
94,131,107066,1,0,0:0:0:0:
101,156,107108,1,0,0:0:0:0:
119,175,107150,1,0,0:0:0:0:
144,182,107192,1,0,0:0:0:0:
353,295,107276,6,0,L|362:173,1,105,4|0,0:0|0:0,0:0:0:0:
120,294,107611,2,0,L|3:280,1,105,8|0,0:0|3:0,0:0:0:0:
72,251,107863,1,0,3:0:0:0:
231,199,107947,2,0,L|368:173,1,105,0|0,3:0|0:0,0:0:0:0:
99,118,108282,2,0,L|6:100,2,52.5,0|0|0,3:0|3:0|3:0,3:0:0:0:
289,295,108533,6,0,L|299:234,1,52.5,2|0,1:0|0:0,0:0:0:0:
131,225,108701,2,0,P|95:170|137:127,1,105,2|0,1:0|0:0,0:0:0:0:
293,153,108952,2,0,L|308:79,1,52.5,2|0,1:0|0:0,0:0:0:0:
98,311,109120,2,0,L|83:232,1,52.5,2|0,1:0|0:0,0:0:0:0:
338,295,109287,6,0,L|411:288,1,52.5,2|0,1:0|0:0,0:0:0:0:
174,163,109455,2,0,L|89:145,1,52.5,2|0,1:0|0:0,0:0:0:0:
402,90,109623,1,2,1:0:0:0:
447,108,109706,1,2,0:0:0:0:
450,158,109790,1,2,0:0:0:0:
407,182,109874,1,2,0:0:0:0:
148,277,109958,6,0,P|103:230|166:117,1,188.999994232178,4|0,0:0|0:0,0:0:0:0:
304,102,110293,2,0,L|394:92,1,62.9999980773926,2|0,3:0|0:0,0:0:0:0:
107,323,110461,2,0,L|98:203,1,62.9999980773926,2|0,3:0|0:0,0:0:0:0:
292,280,110628,6,0,L|298:146,1,125.999996154785,8|0,0:0|0:0,0:0:0:0:
142,125,110963,1,2,0:0:0:0:
373,139,111131,2,0,P|446:101|340:35,1,251.999992309571,2|2,0:0|0:0,0:0:0:0:
200,43,111634,2,2,L|266:53,2,62.9999980773926
449,290,111969,6,0,P|476:220|448:177,1,125.999996154785,8|0,0:0|0:0,0:0:0:0:
199,158,112304,2,0,L|65:142,1,125.999996154785,2|0,0:0|0:0,0:0:0:0:
315,48,112639,6,0,P|386:81|327:169,1,188.999994232178,2|0,0:0|0:0,0:0:0:0:
167,155,112975,1,2,0:0:0:0:
110,180,113058,1,2,0:0:0:0:
103,242,113142,1,2,0:0:0:0:
156,275,113226,1,2,0:0:0:0:
376,226,113310,6,0,L|251:235,1,125.999996154785,12|0,0:0|0:0,0:0:0:0:
62,111,113561,2,0,L|199:103,1,125.999996154785,2|0,0:0|0:0,0:0:0:0:
414,88,113813,6,0,L|218:102,1,188.999994232178,2|2,0:0|0:0,0:0:0:0:
293,134,114148,1,2,0:0:0:0:
350,148,114204,1,2,0:0:0:0:
352,180,114260,1,2,0:0:0:0:
296,192,114315,1,10,0:0:0:0:
217,218,114399,1,2,0:0:0:0:
296,248,114483,1,2,0:0:0:0:
220,276,114567,1,2,0:0:0:0:
371,314,114651,6,0,P|436:281|448:230,1,125.999996154785,10|0,0:0|0:0,0:0:0:0:
217,218,114902,2,0,L|77:201,1,125.999996154785,10|0,0:0|0:0,0:0:0:0:
291,71,115153,2,0,L|373:59,1,62.9999980773926,10|0,0:0|0:0,0:0:0:0:
152,57,115321,6,0,P|89:92|166:152,1,188.999994232178,4|0,0:0|0:0,0:0:0:0:
350,272,115656,2,0,L|360:181,1,62.9999980773926,2|0,3:0|0:0,0:0:0:0:
152,339,115824,2,0,L|139:245,1,62.9999980773926,2|0,3:0|0:0,0:0:0:0:
323,126,115991,6,0,L|465:111,1,125.999996154785,8|2,0:0|0:0,0:0:0:0:
192,289,116327,2,0,L|103:280,1,62.9999980773926,2|0,0:0|0:0,0:0:0:0:
289,262,116494,6,0,P|305:185|154:119,1,251.999992309571,2|2,0:0|0:0,0:0:0:0:
322,82,116997,2,2,L|235:80,2,62.9999980773926
35,83,117332,6,0,P|-1:153|82:190,1,188.999994232178,8|0,0:0|0:0,0:0:0:0:
279,205,117667,2,0,L|146:209,1,125.999996154785,2|0,0:0|0:0,0:0:0:0:
391,290,118003,6,0,P|434:235|385:172,1,125.999996154785,2|0,0:0|0:0,0:0:0:0:
353,180,118254,1,2,0:0:0:0:
312,131,118338,1,2,0:0:0:0:
349,80,118422,1,2,0:0:0:0:
411,73,118505,1,2,0:0:0:0:
134,108,118673,6,0,P|107:197|143:213,1,125.999996154785,8|0,0:0|0:0,0:0:0:0:
276,206,118896,2,0,P|307:272|262:285,1,125.999996154785,2|0,3:0|0:0,0:0:0:0:
134,108,119120,2,0,P|116:129|172:198,1,125.999996154785,2|0,3:0|0:0,0:0:0:0:
373,285,119343,6,0,P|410:217|323:172,1,188.999994232178,4|0,0:0|0:0,0:0:0:0:
165,115,119679,1,8,0:0:0:0:
134,108,119720,1,0,3:0:0:0:
103,101,119762,1,0,3:0:0:0:
320,65,119846,6,0,P|378:95|298:169,1,188.999994232178,4|0,0:0|0:0,0:0:0:0:
134,259,120181,1,8,0:0:0:0:
165,255,120222,1,0,3:0:0:0:
196,251,120264,1,0,3:0:0:0:
422,250,120349,6,0,P|437:183|321:126,1,188.999994232178,4|0,0:0|0:0,0:0:0:0:
154,335,120684,6,0,P|28:273|188:164,1,377.999988464356,2|0,1:0|0:0,0:0:0:0:
420,317,121355,6,0,L|434:212,1,62.9999980773926,8|2,0:0|0:0,0:0:0:0:
216,316,121522,2,0,L|86:298,1,125.999996154785,2|0,0:0|0:0,0:0:0:0:
344,210,121857,5,0,0:0:0:0:
415,182,121941,2,0,P|444:129|400:85,1,125.999996154785,2|0,0:0|0:0,0:0:0:0:
339,64,122192,1,2,0:0:0:0:
120,90,122360,2,2,L|197:94,2,62.9999980773926
369,317,122695,6,0,P|408:250|344:216,1,125.999996154785,8|0,0:0|0:0,0:0:0:0:
91,223,123030,2,0,P|53:165|105:148,1,125.999996154785,2|0,0:0|0:0,0:0:0:0:
338,68,123366,6,0,P|374:140|272:182,1,188.999994232178,4|0,0:0|0:0,0:0:0:0:
83,288,123701,1,2,0:0:0:0:
33,230,123785,1,2,0:0:0:0:
53,158,123868,1,2,0:0:0:0:
126,139,123952,1,2,0:0:0:0:
318,109,124036,6,0,L|396:94,1,62.9999980773926,8|0,0:0|0:0,0:0:0:0:
197,117,124204,2,0,P|186:182|305:223,1,188.999994232178,2|0,0:0|0:0,0:0:0:0:
92,327,124539,6,0,P|41:257|146:199,1,188.999994232178,2|2,0:0|0:0,0:0:0:0:
174,180,124874,1,10,0:0:0:0:
231,167,124930,1,2,0:0:0:0:
232,128,124986,1,2,0:0:0:0:
176,136,125042,1,2,0:0:0:0:
104,108,125125,1,2,0:0:0:0:
176,92,125209,1,2,0:0:0:0:
104,64,125293,1,2,0:0:0:0:
304,49,125377,6,0,P|367:81|315:128,1,125.999996154785,10|0,0:0|0:0,0:0:0:0:
174,287,125628,2,0,P|132:227|183:208,1,125.999996154785,10|0,0:0|0:0,0:0:0:0:
354,288,125880,2,0,L|445:284,1,62.9999980773926,10|0,0:0|0:0,0:0:0:0:
127,81,126047,6,0,P|51:121|115:175,1,188.999994232178,4|0,0:0|0:0,0:0:0:0:
287,258,126382,2,0,L|304:118,1,125.999996154785,2|0,0:0|0:0,0:0:0:0:
54,334,126718,6,0,L|37:205,1,125.999996154785,8|0,0:0|0:0,0:0:0:0:
179,154,127053,2,0,L|85:142,1,62.9999980773926,2|0,0:0|0:0,0:0:0:0:
303,78,127220,6,0,P|388:108|292:174,1,251.999992309571,2|2,0:0|0:0,0:0:0:0:
153,215,127723,2,2,L|60:226,2,62.9999980773926
420,215,128058,6,0,P|435:142|374:121,1,125.999996154785,8|0,0:0|0:0,0:0:0:0:
126,148,128394,2,0,L|121:22,1,125.999996154785,2|0,0:0|0:0,0:0:0:0:
355,320,128729,6,0,L|497:302,1,125.999996154785,4|0,1:0|0:0,0:0:0:0:
203,220,129064,2,0,L|55:203,1,125.999996154785,0|0,1:0|0:0,0:0:0:0:
367,50,129399,5,0,3:0:0:0:
423,66,129482,1,0,3:0:0:0:
423,125,129566,1,0,3:0:0:0:
366,141,129650,1,0,3:0:0:0:
143,129,129734,2,0,L|59:119,3,62.9999980773926,0|0|0|0,3:0|3:0|3:0|3:0,3:0:0:0:
261,140,130070,6,0,L|407:127,1,125.999996154785,4|0,0:0|0:0,0:0:0:0:
190,108,130321,2,0,L|54:85,1,125.999996154785,2|0,3:0|0:0,0:0:0:0:
274,288,130572,2,0,L|359:279,1,62.9999980773926,2|0,3:0|0:0,0:0:0:0:
127,308,130740,6,0,P|67:258|154:197,1,188.999994232178,8|0,0:0|0:0,0:0:0:0:
448,63,131075,1,0,3:0:0:0:
466,121,131158,1,0,3:0:0:0:
434,173,131242,1,0,3:0:0:0:
374,183,131326,1,0,3:0:0:0:
182,269,131410,6,0,P|105:212|184:178,1,188.999994232178,4|0,0:0|0:0,0:0:0:0:
356,278,131746,2,0,P|453:261|480:226,1,125.999996154785,2|0,1:0|0:0,0:0:0:0:
451,170,131997,1,0,0:0:0:0:
233,47,132081,5,8,0:0:0:0:
183,78,132164,1,0,0:0:0:0:
199,134,132248,1,0,0:0:0:0:
257,147,132332,1,0,0:0:0:0:
448,90,132416,2,0,P|489:134|473:192,1,125.999996154785,2|0,1:0|0:0,0:0:0:0:
398,207,132667,1,0,0:0:0:0:
220,212,132751,6,0,L|144:208,1,62.9999980773926,2|0,3:0|0:0,0:0:0:0:
304,328,133086,2,0,P|348:264|332:212,1,125.999996154785,2|0,1:0|0:0,0:0:0:0:
280,172,133338,1,0,0:0:0:0:
104,212,133422,6,0,P|120:132|232:100,1,188.999994232178,8|0,0:0|0:0,0:0:0:0:
437,82,133757,2,0,L|419:161,1,62.9999980773926,2|0,1:0|0:0,0:0:0:0:
228,203,133924,2,0,L|123:219,1,62.9999980773926,2|0,3:0|0:0,0:0:0:0:
393,180,134092,6,0,P|463:201|380:256,1,188.999994232178,4|0,0:0|0:0,0:0:0:0:
218,336,134427,2,0,L|227:204,1,125.999996154785,2|0,1:0|0:0,0:0:0:0:
304,204,134679,1,0,0:0:0:0:
95,184,134762,5,8,0:0:0:0:
47,148,134845,1,0,0:0:0:0:
65,91,134929,1,0,0:0:0:0:
124,89,135013,1,0,0:0:0:0:
345,94,135098,2,0,L|483:96,1,125.999996154785,2|0,1:0|0:0,0:0:0:0:
416,148,135349,1,0,0:0:0:0:
180,295,135433,6,0,L|171:216,1,62.9999980773926,2|0,3:0|0:0,0:0:0:0:
357,226,135600,2,0,L|366:151,1,62.9999980773926,2|0,3:0|0:0,0:0:0:0:
171,76,135768,2,0,P|139:132|183:170,1,125.999996154785,2|0,1:0|0:0,0:0:0:0:
251,174,136019,1,0,0:0:0:0:
443,172,136103,6,0,L|349:187,1,62.9999980773926,2|0,3:0|0:0,0:0:0:0:
183,233,136271,2,0,L|76:250,1,62.9999980773926,2|0,3:0|0:0,0:0:0:0:
361,301,136438,1,2,1:0:0:0:
405,260,136521,1,0,0:0:0:0:
387,203,136605,1,0,0:0:0:0:
328,193,136689,1,0,0:0:0:0:
103,204,136773,6,0,P|27:183|79:112,1,188.999994232178,4|0,0:0|0:0,0:0:0:0:
265,49,137109,2,0,P|317:104|285:155,1,125.999996154785,2|0,1:0|0:0,0:0:0:0:
242,174,137360,1,0,0:0:0:0:
412,312,137444,5,8,0:0:0:0:
465,284,137527,1,0,0:0:0:0:
468,224,137611,1,0,0:0:0:0:
416,193,137695,1,0,0:0:0:0:
206,280,137779,2,0,P|121:230|192:192,1,188.999994232178,2|0,1:0|0:0,0:0:0:0:
350,159,138114,6,0,L|377:100,1,62.9999980773926,2|0,3:0|0:0,0:0:0:0:
146,69,138449,1,2,1:0:0:0:
88,74,138532,1,0,0:0:0:0:
88,131,138616,1,0,0:0:0:0:
145,137,138700,1,0,0:0:0:0:
357,117,138785,6,0,P|407:161|316:206,1,188.999994232178,8|0,0:0|0:0,0:0:0:0:
117,239,139120,2,0,L|202:247,1,62.9999980773926,2|0,1:0|0:0,0:0:0:0:
377,278,139287,2,0,L|456:292,1,62.9999980773926,2|0,3:0|0:0,0:0:0:0:
172,329,139455,6,0,P|97:290|170:235,1,188.999994232178,4|0,0:0|0:0,0:0:0:0:
377,212,139790,2,0,P|418:116|389:81,1,125.999996154785,2|0,1:0|0:0,0:0:0:0:
163,83,140014,2,0,P|136:115|188:204,1,125.999996154785,2|0,1:0|0:0,0:0:0:0:
366,252,140237,2,0,P|423:201|389:158,1,125.999996154785,2|0,1:0|0:0,0:0:0:0:
193,167,140461,2,0,P|137:118|210:76,1,167.999994873047,2|0,1:0|3:0,0:0:0:0:
394,57,140796,6,0,P|448:109|385:148,1,167.999994873047,8|0,3:0|0:0,0:0:0:0:
190,252,141131,2,0,P|249:249|303:191,1,125.999996154785,2|0,1:0|0:0,0:0:0:0:
114,243,141355,2,0,P|99:171|142:148,1,125.999996154785,2|0,1:0|0:0,0:0:0:0:
292,151,141578,2,0,P|203:143|177:86,1,125.999996154785,2|0,1:0|0:0,0:0:0:0:
366,69,141801,2,0,P|429:124|352:146,1,167.999994873047,2|0,1:0|0:0,0:0:0:0:
169,186,142137,6,0,B|34:179|34:179|290:192|290:192,1,377.999988464356,4|0,0:0|0:0,0:0:0:0:
43,341,142807,2,0,L|48:199,1,125.999996154785,8|0,0:0|0:0,0:0:0:0:
333,232,143142,1,2,1:0:0:0:
361,178,143225,1,0,0:0:0:0:
337,122,143309,1,0,0:0:0:0:
279,104,143393,1,0,0:0:0:0:
86,107,143477,6,0,L|175:98,1,62.9999980773926,2|0,3:0|0:0,0:0:0:0:
349,251,143813,2,0,P|413:202|398:153,1,125.999996154785,2|0,1:0|0:0,0:0:0:0:
360,106,144064,1,0,0:0:0:0:
205,260,144148,6,0,L|49:229,1,125.999996154785,8|0,0:0|0:0,0:0:0:0:
273,235,144399,2,0,P|320:160|268:133,1,125.999996154785,2|0,3:0|0:0,0:0:0:0:
134,144,144651,2,0,L|131:56,1,62.9999980773926,2|0,3:0|0:0,0:0:0:0:
373,52,144818,6,0,L|425:48,6,31.4999990386963,4|0|0|0|0|0|0,0:0|3:0|3:0|3:0|3:0|3:0|3:0,3:0:0:0:
132,262,145489,6,0,L|15:201,1,125.999996154785,8|0,0:0|0:0,0:0:0:0:
317,112,145824,2,0,P|379:147|341:184,1,125.999996154785,2|0,1:0|0:0,0:0:0:0:
291,209,146075,1,0,0:0:0:0:
114,295,146159,6,0,L|127:197,1,62.9999980773926,2|0,3:0|0:0,0:0:0:0:
296,212,146327,2,0,L|374:201,1,62.9999980773926,2|0,3:0|0:0,0:0:0:0:
72,169,146494,2,0,P|36:101|79:72,1,125.999996154785,2|0,1:0|0:0,0:0:0:0:
133,47,146746,1,0,3:0:0:0:
356,94,146829,6,0,L|280:103,1,62.9999980773926,2|0,3:0|0:0,0:0:0:0:
106,232,146997,2,0,L|23:243,1,62.9999980773926,2|0,3:0|0:0,0:0:0:0:
283,268,147165,1,2,1:0:0:0:
340,278,147248,1,0,3:0:0:0:
367,226,147332,1,0,3:0:0:0:
325,185,147416,1,0,3:0:0:0:
121,170,147500,5,4,0:0:0:0:
90,174,147541,1,0,3:0:0:0:
62,160,147583,1,0,3:0:0:0:
47,132,147625,1,0,3:0:0:0:
50,102,147667,1,0,3:0:0:0:
70,78,147709,1,0,3:0:0:0:
100,70,147751,1,0,3:0:0:0:
279,63,147835,6,0,L|425:55,1,125.999996154785,2|0,1:0|0:0,0:0:0:0:
205,66,148086,2,0,P|183:122|179:224,1,125.999996154785,2|0,1:0|0:0,0:0:0:0:
392,191,148338,2,0,P|400:250|367:336,1,125.999996154785,2|0,1:0|0:0,0:0:0:0:
169,328,148589,2,0,P|131:257|165:240,1,125.999996154785,2|0,1:0|0:0,0:0:0:0:
309,232,148841,5,4,0:0:0:0:
335,215,148882,1,0,3:0:0:0:
350,188,148924,1,0,3:0:0:0:
348,157,148966,1,0,3:0:0:0:
330,131,149008,1,0,3:0:0:0:
302,118,149050,1,0,3:0:0:0:
271,121,149092,1,0,3:0:0:0:
468,61,149176,6,0,L|459:210,1,125.999996154785,2|0,1:0|0:0,0:0:0:0:
256,296,149427,2,0,L|96:278,1,125.999996154785,2|0,1:0|0:0,0:0:0:0:
352,182,149679,2,0,L|499:164,1,125.999996154785,2|0,1:0|0:0,0:0:0:0:
249,79,149930,2,0,P|199:126|249:165,1,125.999996154785,2|0,1:0|0:0,0:0:0:0:
379,124,150181,5,4,0:0:0:0:
408,113,150222,1,0,3:0:0:0:
438,120,150264,1,0,3:0:0:0:
459,143,150306,1,0,3:0:0:0:
465,174,150348,1,0,3:0:0:0:
453,202,150390,1,0,3:0:0:0:
427,219,150432,1,0,3:0:0:0:
237,283,150517,6,0,P|186:235|241:210,1,125.999996154785,2|0,1:0|0:0,0:0:0:0:
411,137,150768,2,0,L|251:123,1,125.999996154785,2|0,1:0|0:0,0:0:0:0:
79,96,151019,2,0,P|57:161|109:192,1,125.999996154785,2|0,1:0|0:0,0:0:0:0:
310,183,151271,2,0,P|356:232|293:263,1,125.999996154785,2|0,1:0|0:0,0:0:0:0:
150,291,151522,5,4,0:0:0:0:
119,286,151563,1,0,3:0:0:0:
99,262,151605,1,0,3:0:0:0:
99,232,151647,1,0,3:0:0:0:
118,208,151689,1,0,3:0:0:0:
307,145,151773,6,0,L|453:132,1,125.999996154785,2|0,1:0|0:0,0:0:0:0:
240,64,152025,2,0,L|152:44,1,62.9999980773926,2|2,1:0|3:0,0:0:0:0:
400,280,152192,6,2,L|487:277,2,83.9999974365235,2|2|2,3:0|3:0|3:0,3:0:0:0:
184,164,152528,2,2,L|97:161,2,83.9999974365235,2|2|2,3:0|3:0|3:0,3:0:0:0:
353,175,152863,6,0,P|404:200|344:257,1,157.500006008148,4|2,0:0|0:0,0:0:0:0:
170,292,153533,1,2,0:0:0:0:
264,292,153701,1,2,0:0:0:0:
75,289,154036,6,2,P|35:242|100:172,1,157.500006008148
267,136,154706,2,2,L|95:123,1,157.500006008148
417,69,155544,6,2,P|485:106|383:184,1,236.250009012223
120,192,156550,1,2,0:0:0:0:
214,192,156718,2,2,P|223:114|152:79,1,157.500006008148
351,77,157388,5,2,0:0:0:0:
397,72,157471,1,2,0:0:0:0:
440,91,157555,1,2,0:0:0:0:
464,131,157639,1,2,0:0:0:0:
463,178,157723,1,2,0:0:0:0:
444,221,157806,1,2,0:0:0:0:
401,242,157890,1,2,0:0:0:0:
353,247,157974,1,2,0:0:0:0:
306,237,158058,1,2,0:0:0:0:
260,225,158142,1,2,0:0:0:0:
206,203,158226,6,2,P|160:145|234:95,1,157.500006008148
420,80,158896,2,2,L|311:84,1,78.7500030040742
105,82,159399,6,2,P|34:127|87:165,1,157.500006008148
308,198,160070,2,2,L|490:216,1,157.500006008148
103,314,160908,6,2,P|27:258|118:179,1,236.250009012223
237,181,161578,2,0,L|325:186,1,78.7500030040742
189,263,161913,1,2,0:0:0:0:
145,244,161996,1,2,0:0:0:0:
142,196,162080,1,2,0:0:0:0:
181,170,162164,1,2,0:0:0:0:
295,171,162248,6,0,P|321:111|292:61,1,118.125004506111,2|2,0:0|0:0,0:0:0:0:
107,40,162751,1,2,0:0:0:0:
299,67,163003,1,2,0:0:0:0:
339,112,163086,1,0,3:0:0:0:
297,158,163170,1,0,3:0:0:0:
126,237,163254,2,0,L|113:134,1,78.7500030040742,8|0,0:0|0:0,0:0:0:0:
386,88,163589,6,0,P|458:108|429:194,1,157.5,4|0,0:0|0:0,0:0:0:0:
356,245,163924,2,0,P|332:184|362:154,1,105
99,233,164260,2,0,L|81:165,1,52.5,8|0,0:0|0:0,0:0:0:0:
229,132,164427,2,0,L|343:124,1,105
94,71,164762,6,0,P|43:121|144:167,1,210,4|0,0:0|0:0,0:0:0:0:
17,228,165265,1,8,0:0:0:0:
282,318,165433,2,0,L|58:294,1,210,4|0,0:0|0:0,0:0:0:0:
315,250,165936,1,0,3:0:0:0:
364,243,166019,1,0,3:0:0:0:
380,195,166103,1,0,3:0:0:0:
345,160,166187,1,0,3:0:0:0:
109,182,166271,6,0,P|50:146|115:106,1,157.5,4|0,0:0|0:0,0:0:0:0:
239,55,166606,2,0,P|240:119|150:152,1,157.5
348,272,166941,1,8,0:0:0:0:
386,255,166997,1,2,0:0:0:0:
415,224,167053,1,2,0:0:0:0:
413,182,167108,1,2,0:0:0:0:
381,153,167165,1,2,0:0:0:0:
339,148,167220,1,2,0:0:0:0:
178,267,167276,2,0,L|150:200,1,52.5,2|0,0:0|0:0,0:0:0:0:
340,119,167444,6,0,L|455:108,1,105,4|0,0:0|0:0,0:0:0:0:
182,155,167779,2,0,L|65:139,1,105,8|2,0:0|3:0,0:0:0:0:
334,180,168114,2,0,P|376:219|341:275,1,105,4|2,0:0|0:0,0:0:0:0:
274,306,168366,2,2,L|193:291,2,52.5
364,259,168617,2,2,L|423:274,2,52.5
73,248,168952,6,0,P|25:166|93:149,1,157.5,4|0,0:0|0:0,0:0:0:0:
213,126,169287,2,0,P|215:182|80:237,1,210,0|8,0:0|0:0,0:0:0:0:
156,234,169706,1,0,0:0:0:0:
93,243,169790,1,0,0:0:0:0:
218,256,169958,2,0,L|328:247,1,105,2|0,0:0|3:0,0:0:0:0:
58,74,170293,6,0,P|24:145|83:184,1,157.5,4|0,0:0|0:0,0:0:0:0:
291,179,170628,2,0,L|213:173,1,52.5,8|0,0:0|0:0,0:0:0:0:
83,171,170796,6,0,P|79:241|241:316,1,262.5,4|0,0:0|0:0,0:0:0:0:
464,261,171299,1,0,3:0:0:0:
482,213,171382,1,0,3:0:0:0:
458,169,171466,1,0,3:0:0:0:
408,159,171550,1,0,3:0:0:0:
244,205,171634,6,0,L|240:83,1,105,4|0,0:0|0:0,0:0:0:0:
471,55,171969,2,0,L|339:65,1,105,2|0,0:0|0:0,0:0:0:0:
143,257,172304,2,0,L|12:270,1,105,2|0,0:0|0:0,0:0:0:0:
281,283,172639,2,0,L|339:291,2,52.5,2|0|0,0:0|0:0|0:0,0:0:0:0:
106,187,172891,6,0,L|102:101,1,52.5,2|0,1:0|0:0,0:0:0:0:
300,204,173058,2,0,L|313:73,1,105,2|0,1:0|0:0,0:0:0:0:
103,292,173310,2,0,L|43:285,1,52.5,2|0,1:0|0:0,0:0:0:0:
225,202,173477,2,0,L|299:194,1,52.5,2|0,1:0|0:0,0:0:0:0:
64,171,173645,6,0,L|59:89,1,52.5,2|0,1:0|0:0,0:0:0:0:
286,121,173813,2,0,L|291:54,1,52.5,2|0,1:0|0:0,0:0:0:0:
43,192,173980,2,0,P|15:251|92:287,1,157.5,2|0,1:0|0:0,0:0:0:0:
357,307,174315,6,0,P|420:235|345:180,1,210,4|10,0:0|0:0,0:0:0:0:
220,181,174818,1,8,0:0:0:0:
59,188,174986,2,0,L|49:69,1,105,2|8,0:0|0:0,0:0:0:0:
175,70,175321,1,10,0:0:0:0:
339,50,175489,6,0,P|394:84|312:169,1,210,8|8,0:0|0:0,0:0:0:0:
447,195,175991,1,10,0:0:0:0:
286,174,176159,2,0,P|213:192|297:251,1,210,8|8,0:0|0:0,0:0:0:0:
401,276,176662,2,0,L|280:275,1,105,2|8,0:0|0:0,0:0:0:0:
132,277,176997,6,0,L|123:161,1,105,2|0,0:0|0:0,0:0:0:0:
249,159,177332,2,0,L|369:146,1,105,2|0,0:0|0:0,0:0:0:0:
196,93,177667,2,0,L|78:74,1,105,2|0,0:0|0:0,0:0:0:0:
219,162,178003,2,0,L|242:60,1,105,2|0,0:0|0:0,0:0:0:0:
80,250,178338,5,2,0:0:0:0:
220,244,178505,1,0,0:0:0:0:
372,237,178673,2,0,L|226:219,1,105,2|0,0:0|0:0,0:0:0:0:
397,148,179008,1,2,0:0:0:0:
442,167,179091,1,0,0:0:0:0:
448,217,179175,1,0,0:0:0:0:
407,245,179259,1,0,0:0:0:0:
321,247,179343,2,0,L|452:260,1,105,2|0,0:0|0:0,0:0:0:0:
265,321,179679,6,0,P|192:303|263:226,1,210,10|10,0:0|0:0,0:0:0:0:
374,216,180181,1,8,0:0:0:0:
213,214,180349,2,0,L|206:88,1,105,2|8,0:0|0:0,0:0:0:0:
333,100,180684,1,10,0:0:0:0:
172,83,180852,6,0,P|97:96|168:167,1,210,8|8,0:0|0:0,0:0:0:0:
280,183,181355,1,10,0:0:0:0:
120,295,181522,6,0,P|62:282|39:142,1,210,8|8,0:0|0:0,0:0:0:0:
156,129,182025,2,0,L|50:124,1,105,2|8,0:0|0:0,0:0:0:0:
217,130,182360,6,0,L|211:255,1,105,2|0,0:0|0:0,0:0:0:0:
369,252,182695,2,0,L|488:266,1,105,2|0,0:0|0:0,0:0:0:0:
315,329,183030,2,0,L|177:335,1,105,2|0,0:0|0:0,0:0:0:0:
372,324,183366,2,0,L|361:188,1,105,2|0,0:0|0:0,0:0:0:0:
188,216,183701,6,0,L|203:86,1,105,10|0,0:0|0:0,0:0:0:0:
374,136,184036,2,0,L|243:117,1,105,10|0,0:0|0:0,0:0:0:0:
96,233,184371,2,0,L|207:219,1,105,10|8,0:0|0:0,0:0:0:0:
330,42,184706,1,2,0:0:0:0:
381,80,184790,1,0,0:0:0:0:
378,143,184874,1,0,0:0:0:0:
322,170,184958,1,0,0:0:0:0:
116,263,185042,6,0,L|102:145,1,105,14|2,0:0|0:0,0:0:0:0:
330,255,185377,2,0,L|441:247,1,105,10|10,0:0|0:0,0:0:0:0:
176,201,185713,2,0,L|162:69,1,105,2|10,0:0|0:0,0:0:0:0:
411,61,186048,2,0,L|296:76,1,105,10|10,0:0|0:0,0:0:0:0:
67,323,186383,6,0,L|176:308,1,105,2|10,0:0|0:0,0:0:0:0:
430,289,186718,2,0,L|441:167,1,105,10|10,0:0|0:0,0:0:0:0:
165,139,187053,2,0,L|152:18,1,105,2|10,0:0|0:0,0:0:0:0:
430,37,187389,2,0,L|306:56,1,105,10|10,0:0|0:0,0:0:0:0:
93,280,187724,6,0,L|22:177,1,105,2|10,0:0|0:0,0:0:0:0:
93,175,187975,1,8,0:0:0:0:
274,200,188059,2,0,L|279:83,1,105,10|2,0:0|0:0,0:0:0:0:
46,83,188394,2,0,L|160:91,1,105,10|2,0:0|0:0,0:0:0:0:
394,297,188729,2,0,L|268:282,1,105,2|10,0:0|0:0,0:0:0:0:
58,260,189065,6,0,L|76:142,1,105,2|10,0:0|0:0,0:0:0:0:
136,157,189316,1,0,0:0:0:0:
298,144,189400,2,0,L|422:134,1,105,10|2,0:0|0:0,0:0:0:0:
349,101,189651,1,0,0:0:0:0:
138,114,189735,6,0,P|89:151|139:191,1,105,2|2,3:0|0:0,0:0:0:0:
158,210,189986,1,0,0:0:0:0:
389,225,190070,2,0,P|440:262|408:303,1,105,2|2,3:0|0:0,0:0:0:0:
372,320,190321,1,0,0:0:0:0:
186,327,190405,5,8,0:0:0:0:
129,299,190488,1,0,3:0:0:0:
127,235,190572,1,0,3:0:0:0:
187,216,190656,1,0,3:0:0:0:
332,216,190740,1,8,0:0:0:0:
346,155,190823,1,0,3:0:0:0:
310,102,190907,1,2,3:0:0:0:
247,107,190991,1,0,3:0:0:0:
395,68,191076,5,8,0:0:0:0:
435,115,191159,1,0,3:0:0:0:
398,166,191243,1,2,3:0:0:0:
334,167,191327,1,0,3:0:0:0:
140,85,191411,1,0,0:0:0:0:
118,144,191495,1,0,3:0:0:0:
158,191,191578,1,2,3:0:0:0:
220,198,191662,1,0,3:0:0:0:
45,298,191746,6,0,L|43:221,1,52.5,8|0,0:0|3:0,0:0:0:0:
241,221,191914,2,0,L|247:144,1,52.5,2|0,3:0|3:0,3:0:0:0:
51,79,192081,2,0,L|112:89,1,52.5,8|0,0:0|3:0,0:0:0:0:
272,112,192249,2,0,L|329:123,1,52.5,2|0,3:0|3:0,3:0:0:0:
139,306,192416,6,0,L|123:237,1,52.5,8|0,0:0|3:0,3:0:0:0:
319,236,192584,2,0,L|327:166,1,52.5,2|0,3:0|3:0,3:0:0:0:
152,119,192752,2,0,L|94:109,1,52.5,8|0,0:0|3:0,3:0:0:0:
325,43,192919,2,0,L|392:50,1,52.5,2|0,3:0|3:0,3:0:0:0:
119,159,193087,5,8,0:0:0:0:
64,189,193170,1,0,3:0:0:0:
82,249,193254,1,0,3:0:0:0:
142,248,193338,1,0,3:0:0:0:
330,204,193422,1,8,0:0:0:0:
392,197,193505,1,0,3:0:0:0:
330,204,193589,1,0,3:0:0:0:
392,197,193673,1,0,3:0:0:0:
156,315,193757,5,8,0:0:0:0:
93,304,193841,1,0,3:0:0:0:
156,315,193925,1,0,3:0:0:0:
93,304,194009,1,0,3:0:0:0:
353,51,194092,1,8,0:0:0:0:
409,80,194176,1,0,3:0:0:0:
403,142,194260,1,0,3:0:0:0:
342,160,194344,1,0,3:0:0:0:
135,193,194428,6,0,P|79:223|158:308,1,210,2|0,0:0|0:0,0:0:0:0:
305,315,194930,2,0,L|323:189,1,105,2|2,0:0|0:0,0:0:0:0:
170,159,195266,1,8,3:0:0:0:
478,76,195433,6,0,L|463:187,1,105,8|0,0:0|0:0,0:0:0:0:
389,205,195685,1,0,0:0:0:0:
112,300,195768,6,0,P|48:256|137:209,1,188.999994232178,4|0,0:0|0:0,0:0:0:0:
282,199,196104,2,0,L|290:67,1,125.999996154785,2|0,1:0|0:0,0:0:0:0:
213,73,196355,1,0,0:0:0:0:
369,68,196439,6,0,L|451:65,1,62.9999980773926,8|0,0:0|0:0,0:0:0:0:
249,238,196606,2,0,L|168:243,1,62.9999980773926,2|0,3:0|0:0,0:0:0:0:
394,320,196774,2,0,P|431:281|386:232,1,125.999996154785,2|0,1:0|0:0,3:0:0:0:
154,323,197109,6,0,P|94:281|185:233,1,188.999994232178,0|0,1:0|0:0,0:0:0:0:
325,152,197444,2,0,L|174:135,1,125.999996154785,2|0,1:0|0:0,0:0:0:0:
268,104,197696,1,0,0:0:0:0:
436,58,197780,6,0,P|482:103|390:168,1,188.999994232178,2|0,3:0|0:0,0:0:0:0:
168,171,198115,1,2,1:0:0:0:
118,202,198198,1,0,3:0:0:0:
131,260,198282,1,0,3:0:0:0:
189,267,198366,1,0,3:0:0:0:
386,277,198450,6,0,P|409:214|303:162,1,188.999994232178,4|0,0:0|0:0,0:0:0:0:
474,160,198785,2,0,L|482:25,1,125.999996154785,2|0,1:0|0:0,0:0:0:0:
405,42,199037,1,0,0:0:0:0:
202,89,199120,6,0,L|284:97,1,62.9999980773926,8|0,0:0|0:0,0:0:0:0:
464,188,199288,2,0,L|380:197,1,62.9999980773926,2|0,3:0|0:0,0:0:0:0:
199,284,199456,1,2,1:0:0:0:
142,268,199539,1,0,3:0:0:0:
141,209,199623,1,0,3:0:0:0:
197,192,199707,1,0,3:0:0:0:
354,198,199791,6,0,L|363:127,1,62.9999980773926,2|0,3:0|0:0,0:0:0:0:
182,342,199958,2,0,L|171:262,1,62.9999980773926,2|0,3:0|0:0,0:0:0:0:
339,282,200126,2,0,P|336:207|270:188,1,125.999996154785,2|0,1:0|0:0,0:0:0:0:
221,177,200377,1,0,3:0:0:0:
60,147,200461,6,0,L|132:136,1,62.9999980773926,2|0,3:0|0:0,0:0:0:0:
295,111,200629,2,0,L|365:100,1,62.9999980773926,2|0,3:0|0:0,0:0:0:0:
131,182,200796,1,2,1:0:0:0:
78,206,200879,1,0,3:0:0:0:
90,263,200963,1,0,3:0:0:0:
148,264,201047,1,0,3:0:0:0:
348,260,201132,6,0,L|150:239,1,188.999994232178,4|0,0:0|0:0,0:0:0:0:
376,217,201467,2,0,P|389:145|343:122,1,125.999996154785,2|0,1:0|0:0,0:0:0:0:
276,111,201718,1,0,0:0:0:0:
92,98,201802,6,0,L|99:180,1,62.9999980773926,8|0,0:0|0:0,0:0:0:0:
272,177,201970,2,0,L|346:176,1,62.9999980773926,2|0,3:0|0:0,0:0:0:0:
70,316,202137,2,0,L|213:307,1,125.999996154785,2|0,1:0|0:0,0:0:0:0:
435,290,202472,6,0,P|340:263|297:165,1,188.999994232178,0|0,1:0|0:0,0:0:0:0:
472,135,202808,2,0,P|493:73|449:38,1,125.999996154785,2|0,1:0|0:0,0:0:0:0:
376,36,203059,1,0,3:0:0:0:
174,63,203143,6,0,L|179:148,1,62.9999980773926,2|0,3:0|0:0,0:0:0:0:
346,229,203310,2,0,L|423:223,1,62.9999980773926,2|0,3:0|0:0,0:0:0:0:
168,309,203478,1,2,1:0:0:0:
108,306,203561,1,2,0:0:0:0:
81,252,203645,1,2,0:0:0:0:
116,204,203729,1,2,0:0:0:0:
311,191,203813,6,0,P|343:130|237:79,1,188.999994232178,4|0,0:0|0:0,0:0:0:0:
86,69,204148,2,0,L|92:147,1,62.9999980773926,2|0,0:0|0:0,0:0:0:0:
286,172,204316,2,0,L|273:244,1,62.9999980773926,2|0,0:0|0:0,0:0:0:0:
76,324,204484,6,0,L|150:321,1,62.9999980773926,8|0,0:0|0:0,0:0:0:0:
307,319,204651,2,0,L|377:314,1,62.9999980773926,2|0,0:0|0:0,0:0:0:0:
205,258,204819,1,2,0:0:0:0:
146,258,204902,1,0,0:0:0:0:
131,202,204986,1,0,3:0:0:0:
182,174,205070,1,0,3:0:0:0:
366,170,205154,6,0,P|394:98|339:81,1,125.999996154785,2|0,3:0|0:0,0:0:0:0:
195,63,205405,2,0,L|58:48,1,125.999996154785,2|0,3:0|0:0,0:0:0:0:
307,281,205657,2,0,L|312:186,1,62.9999980773926,2|0,3:0|0:0,0:0:0:0:
111,301,205824,6,0,P|64:245|134:218,1,125.999996154785,8|0,0:0|0:0,0:0:0:0:
312,163,206076,2,0,L|448:149,1,125.999996154785,8|0,0:0|0:0,0:0:0:0:
225,112,206327,2,0,L|120:101,1,62.9999980773926,8|0,0:0|0:0,0:0:0:0:
385,55,206495,6,0,P|454:81|372:137,1,188.999994232178,2|0,1:0|0:0,0:0:0:0:
191,159,206830,2,0,P|158:214|190:269,1,125.999996154785,0|0,3:0|0:0,0:0:0:0:
258,272,207081,1,0,0:0:0:0:
426,275,207165,6,0,L|439:202,1,62.9999980773926,4|0,0:0|0:0,0:0:0:0:
255,123,207333,2,0,L|137:99,1,62.9999980773926,2|0,3:0|0:0,0:0:0:0:
373,68,207500,2,0,L|525:53,1,125.999996154785,2|0,1:0|0:0,0:0:0:0:
230,311,207835,6,0,P|176:271|248:204,1,188.999994232178,0|0,1:0|0:0,0:0:0:0:
440,174,208171,2,0,L|300:165,1,125.999996154785,2|0,1:0|0:0,0:0:0:0:
254,158,208422,1,0,3:0:0:0:
75,151,208506,5,8,0:0:0:0:
25,180,208589,1,2,3:0:0:0:
17,235,208673,1,2,3:0:0:0:
52,280,208729,1,2,3:0:0:0:
103,287,208785,1,2,3:0:0:0:
153,260,208841,2,2,L|231:255,3,62.9999980773926,2|2|2|2,3:0|3:0|3:0|3:0,3:0:0:0:
406,258,209176,6,0,P|470:216|372:170,1,188.999994232178,4|0,0:0|0:0,0:0:0:0:
219,190,209511,2,0,L|201:61,1,125.999996154785,2|0,1:0|0:0,0:0:0:0:
277,54,209763,1,0,0:0:0:0:
433,27,209847,6,0,L|422:100,1,62.9999980773926,8|0,0:0|0:0,0:0:0:0:
226,309,210014,2,0,L|129:300,1,62.9999980773926,2|0,3:0|0:0,0:0:0:0:
457,294,210182,2,0,P|452:219|390:192,1,125.999996154785,2|0,1:0|0:0,0:0:0:0:
338,195,210433,1,0,0:0:0:0:
142,164,210517,6,0,L|36:147,1,62.9999980773926,2|0,3:0|0:0,0:0:0:0:
270,76,210685,2,0,L|339:89,1,62.9999980773926,2|0,3:0|0:0,0:0:0:0:
128,308,210852,2,0,P|54:248|82:222,1,125.999996154785,2|0,1:0|0:0,0:0:0:0:
117,210,211104,1,0,0:0:0:0:
323,161,211187,6,0,L|235:145,1,62.9999980773926,8|0,0:0|0:0,0:0:0:0:
55,43,211355,2,0,L|136:57,1,62.9999980773926,8|0,0:0|0:0,0:0:0:0:
379,189,211523,1,2,1:0:0:0:
418,234,211606,1,2,0:0:0:0:
405,294,211690,1,2,0:0:0:0:
350,318,211774,1,2,0:0:0:0:
145,298,211858,6,0,B|22:266|22:266|292:221,1,377.999988464356,4|0,0:0|0:0,0:0:0:0:
329,214,212444,1,0,0:0:0:0:
132,199,212528,6,0,L|114:51,1,125.999996154785,8|0,0:0|0:0,0:0:0:0:
361,35,212863,2,0,L|345:165,1,125.999996154785,2|0,1:0|0:0,0:0:0:0:
273,185,213115,1,0,0:0:0:0:
76,316,213199,6,0,L|223:328,1,125.999996154785,0|0,1:0|0:0,0:0:0:0:
456,191,213534,2,0,L|306:208,1,125.999996154785,2|0,1:0|0:0,0:0:0:0:
269,214,213785,1,0,0:0:0:0:
448,328,213869,6,0,L|439:257,1,62.9999980773926,2|0,3:0|0:0,0:0:0:0:
237,189,214037,2,0,L|165:180,1,62.9999980773926,2|0,3:0|0:0,0:0:0:0:
408,56,214204,1,2,1:0:0:0:
458,86,214287,1,0,0:0:0:0:
449,145,214371,1,0,0:0:0:0:
391,158,214455,1,0,0:0:0:0:
171,292,214539,6,0,P|104:238|171:184,1,188.999994232178,6|0,0:0|0:0,0:0:0:0:
347,212,214875,2,0,L|351:137,1,62.9999980773926,2|0,0:0|0:0,0:0:0:0:
174,115,215042,2,0,L|117:49,1,62.9999980773926,2|0,0:0|0:0,0:0:0:0:
333,55,215210,6,0,L|463:38,1,125.999996154785,10|0,0:0|0:0,0:0:0:0:
259,280,215461,2,0,L|119:253,1,125.999996154785,2|0,0:0|0:0,0:0:0:0:
328,231,215713,2,0,L|418:226,1,62.9999980773926,2|0,0:0|0:0,0:0:0:0:
179,204,215880,6,0,P|117:166|157:145,1,125.999996154785,2|0,3:0|0:0,0:0:0:0:
291,135,216132,2,0,L|437:115,1,125.999996154785,2|0,3:0|0:0,0:0:0:0:
220,315,216383,2,0,P|190:252|234:229,1,125.999996154785,2|0,3:0|0:0,0:0:0:0:
395,285,216634,2,0,P|431:344|365:359,1,125.999996154785,2|0,3:0|0:0,0:0:0:0:
155,369,216886,2,0,L|17:328,1,125.999996154785,8|0,0:0|0:0,0:0:0:0:
335,224,217220,6,0,P|382:163|299:122,1,157.5,4|0,0:0|0:0,0:0:0:0:
253,89,217556,2,0,L|463:79,1,210,2|8,0:0|0:0,0:0:0:0:
206,309,218059,2,0,L|197:193,1,105,2|0,0:0|0:0,0:0:0:0:
429,270,218394,6,0,P|487:182|408:118,1,210,2|2,0:0|0:0,0:0:0:0:
274,90,218897,1,0,0:0:0:0:
150,65,219065,2,0,L|223:80,1,52.5,2|0,0:0|0:0,0:0:0:0:
363,254,219232,6,0,L|492:280,1,105,8|2,0:0|0:0,0:0:0:0:
231,329,219567,1,0,0:0:0:0:
189,300,219650,1,0,0:0:0:0:
193,250,219734,1,0,0:0:0:0:
239,228,219818,1,0,0:0:0:0:
407,199,219903,6,0,P|385:130|266:104,1,157.5,4|0,0:0|0:0,0:0:0:0:
201,90,220238,2,0,P|139:114|212:154,1,157.5,2|0,0:0|0:0,0:0:0:0:
326,245,220573,2,0,L|443:264,2,105,8|0|2,0:0|0:0|0:0,0:0:0:0:
71,333,221076,6,0,L|46:205,1,105,2|0,0:0|3:0,0:0:0:0:
320,110,221411,2,0,L|442:78,1,105,2|0,0:0|0:0,0:0:0:0:
249,62,221746,2,0,L|186:62,1,52.5,2|0,0:0|0:0,0:0:0:0:
396,163,221914,5,8,0:0:0:0:
427,216,221997,1,2,0:0:0:0:
389,266,222081,1,2,0:0:0:0:
325,268,222165,1,2,0:0:0:0:
388,268,222249,1,2,0:0:0:0:
429,315,222333,1,2,0:0:0:0:
386,361,222416,1,2,0:0:0:0:
322,360,222500,1,2,0:0:0:0:
133,309,222584,6,0,P|84:264|159:217,1,157.5,4|0,0:0|0:0,0:0:0:0:
227,189,222919,2,2,L|17:150,1,210,2|10,0:0|0:0,0:0:0:0:
275,80,223422,2,0,L|406:66,1,105,2|0,0:0|0:0,0:0:0:0:
119,316,223757,6,0,P|57:256|163:192,1,210,2|2,0:0|0:0,0:0:0:0:
280,173,224260,1,0,0:0:0:0:
406,167,224428,2,0,L|462:163,1,52.5,2|0,0:0|0:0,0:0:0:0:
242,89,224595,6,0,L|94:72,1,105,8|2,0:0|0:0,0:0:0:0:
376,43,224930,1,0,0:0:0:0:
424,55,225013,1,0,0:0:0:0:
435,104,225097,1,0,0:0:0:0:
398,137,225181,1,0,0:0:0:0:
189,323,225266,6,0,L|177:201,1,105,4|0,0:0|0:0,0:0:0:0:
419,255,225601,2,0,L|430:111,1,105,8|0,0:0|0:0,0:0:0:0:
178,89,225936,2,0,L|43:75,1,105,0|0,3:0|0:0,0:0:0:0:
348,54,226271,1,8,0:0:0:0:
409,61,226354,1,0,3:0:0:0:
447,111,226438,1,0,3:0:0:0:
412,164,226522,1,0,3:0:0:0:
223,256,226606,6,0,L|88:244,1,105,2|0,1:0|0:0,0:0:0:0:
293,265,226858,2,0,P|325:204|270:169,1,105,2|0,1:0|0:0,0:0:0:0:
146,151,227109,2,0,P|112:100|143:73,1,105,2|0,1:0|0:0,0:0:0:0:
303,63,227361,2,0,L|417:56,1,105,2|0,1:0|0:0,0:0:0:0:
183,325,227612,2,0,P|140:262|188:222,1,105,8|0,0:0|0:0,0:0:0:0:
204,216,227863,1,0,3:0:0:0:
417,199,227947,6,0,P|415:125|321:103,1,157.5,4|0,0:0|0:0,0:0:0:0:
137,158,228282,2,0,L|130:47,1,105,8|0,0:0|0:0,0:0:0:0:
380,260,228618,2,0,L|249:267,2,105,2|2|8,0:0|0:0|0:0,0:0:0:0:
134,277,229120,6,0,P|98:220|203:157,1,210,2|2,0:0|0:0,0:0:0:0:
319,162,229623,1,8,0:0:0:0:
63,207,229791,2,0,P|50:280|167:316,1,210,2|2,0:0|0:0,0:0:0:0:
397,312,230294,1,8,0:0:0:0:
436,263,230377,1,0,3:0:0:0:
406,207,230461,1,0,3:0:0:0:
342,206,230545,1,0,3:0:0:0:
165,191,230629,6,0,P|144:131|226:99,1,157.5,4|0,0:0|0:0,0:0:0:0:
394,101,230964,2,0,L|275:84,1,105,8|2,0:0|0:0,0:0:0:0:
32,44,231299,2,0,L|40:170,1,105
151,206,231634,1,2,0:0:0:0:
430,214,231802,6,0,L|300:222,1,105,2|0,0:0|3:0,0:0:0:0:
66,298,232137,2,0,L|195:309,1,105,2|8,0:0|0:0,0:0:0:0:
429,329,232472,2,0,L|489:341,1,52.5
258,220,232640,5,2,0:0:0:0:
197,203,232723,1,2,0:0:0:0:
189,140,232807,1,2,0:0:0:0:
249,121,232891,1,2,0:0:0:0:
322,115,232975,2,2,L|390:113,3,52.5,10|2|2|2,0:0|0:0|0:0|0:0,0:0:0:0:
119,321,233310,6,0,L|110:204,1,105,4|0,0:0|0:0,0:0:0:0:
362,286,233646,2,0,P|402:219|332:182,1,157.5,8|0,0:0|0:0,0:0:0:0:
167,143,233981,2,0,L|53:133,1,105
337,63,234316,2,0,L|194:52,1,105,10|2,0:0|0:0,0:0:0:0:
475,71,234651,6,0,P|488:131|397:167,1,157.5,2|0,0:0|0:0,0:0:0:0:
246,244,234986,2,0,L|181:239,1,52.5,8|0,0:0|0:0,0:0:0:0:
393,239,235154,2,0,P|458:271|367:325,1,210,2|0,0:0|3:0,0:0:0:0:
127,321,235657,1,8,0:0:0:0:
84,274,235740,1,0,3:0:0:0:
101,213,235824,1,0,3:0:0:0:
163,203,235908,1,0,3:0:0:0:
357,218,235992,6,0,L|376:113,1,105,4|0,0:0|0:0,0:0:0:0:
123,148,236327,2,0,L|112:22,1,105,8|0,0:0|0:0,0:0:0:0:
357,332,236662,2,0,L|380:210,1,105,2|0,0:0|0:0,0:0:0:0:
153,327,236997,2,2,L|86:309,2,52.5
400,337,237249,6,0,L|419:272,1,52.5,2|0,1:0|0:0,0:0:0:0:
242,231,237416,2,0,P|214:184|256:149,1,105,2|0,1:0|0:0,0:0:0:0:
413,106,237668,2,0,L|478:99,1,52.5,2|0,1:0|0:0,0:0:0:0:
244,71,237835,2,0,L|169:56,1,52.5,2|0,1:0|0:0,0:0:0:0:
410,166,238003,6,0,P|458:193|417:241,1,105,8|2,0:0|1:0,0:0:0:0:
399,275,238254,1,0,3:0:0:0:
139,308,238338,1,2,1:0:0:0:
82,282,238421,1,2,3:0:0:0:
77,219,238505,1,2,3:0:0:0:
136,197,238589,1,2,3:0:0:0:
336,238,238673,5,2,0:0:0:0:
383,203,238729,1,2,0:0:0:0:
382,144,238785,1,2,0:0:0:0:
336,108,238840,1,2,0:0:0:0:
152,101,238925,2,2,L|69:89,2,62.9999980773926
334,74,239176,2,2,L|417:64,1,62.9999980773926
158,314,239344,6,0,L|151:224,1,62.9999980773926,8|0,0:0|0:0,0:0:0:0:
323,214,239511,2,0,L|403:203,1,62.9999980773926,2|0,3:0|0:0,0:0:0:0:
147,181,239679,2,0,P|60:123|63:89,1,125.999996154785,2|0,0:0|0:0,0:0:0:0:
298,44,239930,5,0,0:0:0:0:
372,55,240014,2,0,P|402:97|328:149,1,125.999996154785,0|0,1:0|0:0,0:0:0:0:
120,276,240349,2,2,L|38:290,2,62.9999980773926
408,237,240685,1,8,0:0:0:0:
474,200,240768,2,0,P|481:123|432:99,1,125.999996154785
250,83,241020,2,0,L|401:64,1,125.999996154785,8|0,0:0|0:0,0:0:0:0:
146,309,241355,6,0,L|132:229,1,62.9999980773926,6|0,0:0|0:0,0:0:0:0:
350,240,241523,2,0,L|361:139,1,62.9999980773926,2|0,0:0|0:0,0:0:0:0:
85,83,241690,1,2,0:0:0:0:
27,96,241773,1,2,0:0:0:0:
23,155,241857,1,2,0:0:0:0:
77,177,241941,1,2,0:0:0:0:
323,186,242025,6,0,L|174:201,1,125.999996154785,8|0,0:0|0:0,0:0:0:0:
405,301,242277,2,0,P|428:230|380:207,1,125.999996154785,2|0,3:0|0:0,0:0:0:0:
174,174,242528,6,0,P|127:130|231:68,1,188.999994232178,8|0,3:0|0:0,0:0:0:0:
355,47,242863,2,0,L|428:41,1,62.9999980773926,2|0,0:0|0:0,0:0:0:0:
178,317,243031,2,0,L|166:225,1,62.9999980773926,8|0,0:0|0:0,0:0:0:0:
390,192,243199,2,0,L|293:200,1,62.9999980773926,2|0,3:0|0:0,0:0:0:0:
109,213,243366,6,0,P|65:146|157:111,1,188.999994232178,8|0,3:0|0:0,0:0:0:0:
337,104,243701,2,0,L|137:73,1,188.999994232178,8|0,0:0|0:0,0:0:0:0:
400,61,244037,6,0,P|475:113|376:164,1,188.999994232178,4|0,0:0|0:0,0:0:0:0:
200,290,244372,2,0,L|180:149,1,125.999996154785,2|2,0:0|0:0,0:0:0:0:
417,97,244707,2,0,L|488:80,1,62.9999980773926,8|0,0:0|0:0,0:0:0:0:
330,189,244875,2,0,L|192:226,1,125.999996154785,2|0,0:0|3:0,0:0:0:0:
448,320,245210,5,0,0:0:0:0:
488,255,245294,2,0,P|489:191|374:151,1,188.999994232178,2|2,0:0|0:0,0:0:0:0:
244,78,245713,2,2,L|339:78,2,62.9999980773926
473,86,246048,6,0,P|495:168|435:206,1,125.999996154785,8|0,0:0|0:0,0:0:0:0:
142,316,246383,2,0,P|123:252|186:194,1,125.999996154785,2|2,0:0|0:0,0:0:0:0:
411,229,246718,6,0,P|390:137|294:117,1,188.999994232178,2|0,1:0|0:0,0:0:0:0:
52,102,247053,2,0,P|121:96|178:134,1,125.999996154785,8|0,0:0|3:0,0:0:0:0:
107,169,247305,1,0,3:0:0:0:
32,180,247389,1,0,3:0:0:0:
251,296,247556,6,0,P|288:235|265:190,1,125.999996154785,8|0,0:0|3:0,0:0:0:0:
190,186,247808,1,0,3:0:0:0:
263,172,247891,1,0,3:0:0:0:
484,113,248059,6,0,L|420:105,1,62.9999980773926,8|0,3:0|0:0,0:0:0:0:
226,130,248227,2,0,L|312:149,1,62.9999980773926,8|0,3:0|0:0,0:0:0:0:
440,180,248394,2,0,P|492:237|441:281,1,125.999996154785,8|0,0:0|3:0,0:0:0:0:
414,295,248646,1,0,3:0:0:0:
348,295,248729,1,0,3:0:0:0:
104,334,248897,6,0,L|97:253,1,62.9999980773926,8|0,0:0|0:0,0:0:0:0:
270,284,249065,1,2,0:0:0:0:
342,263,249148,1,2,0:0:0:0:
348,187,249232,1,2,0:0:0:0:
278,156,249316,1,2,0:0:0:0:
93,146,249400,6,0,P|89:66|201:39,1,188.999994232178,4|0,0:0|0:0,0:0:0:0:
361,34,249735,2,0,P|420:67|341:131,1,188.999994232178,2|0,0:0|0:0,0:0:0:0:
131,309,250070,2,0,L|121:161,1,125.999996154785,8|2,0:0|0:0,0:0:0:0:
273,168,250405,1,2,0:0:0:0:
40,140,250573,6,0,P|24:228|156:262,1,251.999992309571,8|2,0:0|0:0,0:0:0:0:
306,249,251076,2,2,L|236:245,2,62.9999980773926
82,331,251411,6,0,P|69:247|119:228,1,125.999996154785,2|0,3:0|0:0,0:0:0:0:
266,134,251634,2,0,P|310:99|259:55,1,125.999996154785,2|0,3:0|0:0,0:0:0:0:
144,125,251858,2,0,P|112:77|176:51,1,125.999996154785,2|0,3:0|0:0,0:0:0:0:
309,274,252081,6,0,L|458:250,1,125.999996154785,2|2,0:0|0:0,0:0:0:0:
309,274,252416,1,2,0:0:0:0:
433,253,252584,1,2,0:0:0:0:
174,289,252752,6,0,L|164:190,1,62.9999980773926,8|0,0:0|0:0,0:0:0:0:
340,204,252919,2,0,L|352:62,1,125.999996154785,2|0,0:0|0:0,0:0:0:0:
85,71,253254,6,0,P|23:111|136:181,1,251.999992309571,2|2,0:0|0:0,0:0:0:0:
182,194,253646,1,2,0:0:0:0:
180,251,253701,1,0,0:0:0:0:
122,193,253757,1,2,0:0:0:0:
198,194,253841,1,2,0:0:0:0:
122,193,253925,1,2,0:0:0:0:
198,194,254009,1,2,0:0:0:0:
351,196,254092,6,0,P|369:123|302:97,1,125.999996154785,2|0,3:0|0:0,0:0:0:0:
171,74,254344,2,0,L|35:47,1,125.999996154785,2|0,3:0|0:0,0:0:0:0:
268,270,254595,2,0,L|277:194,1,62.9999980773926,2|0,3:0|0:0,0:0:0:0:
103,330,254763,6,0,P|36:261|111:215,1,188.999994232178,4|0,0:0|0:0,0:0:0:0:
305,171,255098,2,0,L|441:152,1,125.999996154785,2|0,0:0|0:0,0:0:0:0:
180,71,255433,2,0,L|102:61,1,62.9999980773926,8|0,0:0|0:0,0:0:0:0:
312,84,255601,2,0,P|345:147|295:180,1,125.999996154785,2|2,0:0|0:0,0:0:0:0:
73,313,255936,5,0,0:0:0:0:
33,248,256020,2,0,P|36:184|156:149,1,188.999994232178,2|2,0:0|0:0,0:0:0:0:
401,150,256439,2,2,L|483:151,2,62.9999980773926
151,344,256774,2,0,L|149:199,1,125.999996154785,8|0,0:0|0:0,0:0:0:0:
413,226,257109,2,0,L|420:73,1,125.999996154785,2|2,0:0|0:0,0:0:0:0:
137,76,257444,6,0,L|-11:64,1,125.999996154785,4|0,0:0|0:0,0:0:0:0:
302,216,257780,2,0,L|131:203,1,125.999996154785,2|0,3:0|0:0,0:0:0:0:
462,344,258115,6,0,L|339:331,2,83.9999974365235,2|0|0,3:0|3:0|3:0,0:0:0:0:
207,317,258450,1,0,3:0:0:0:
140,282,258533,1,0,3:0:0:0:
132,206,258617,1,0,3:0:0:0:
196,165,258701,1,0,3:0:0:0:
389,188,258785,6,0,P|428:130|349:95,1,125.999996154785,2|0,3:0|0:0,0:0:0:0:
123,188,259037,2,0,P|84:130|163:95,1,125.999996154785,2|0,3:0|0:0,0:0:0:0:
386,88,259288,2,0,L|284:84,1,62.9999980773926,2|0,3:0|0:0,0:0:0:0:
109,63,259456,6,0,P|40:81|127:148,1,188.999994232178,8|0,0:0|0:0,0:0:0:0:
276,173,259791,1,0,3:0:0:0:
334,182,259874,1,0,3:0:0:0:
346,240,259958,1,0,3:0:0:0:
297,272,260042,1,0,3:0:0:0:
127,308,260125,6,0,P|63:252|146:204,1,188.999994232178,4|0,0:0|0:0,0:0:0:0:
333,206,260461,2,0,P|344:127|300:97,1,125.999996154785,2|0,1:0|0:0,0:0:0:0:
239,82,260713,1,0,0:0:0:0:
77,79,260796,6,0,L|97:154,1,62.9999980773926,2|0,3:0|0:0,0:0:0:0:
280,223,260964,2,0,L|379:243,1,62.9999980773926,2|0,3:0|0:0,0:0:0:0:
155,311,261132,2,0,L|9:323,1,125.999996154785,2|0,1:0|0:0,0:0:0:0:
313,336,261467,6,0,P|363:274|279:227,1,188.999994232178,0|0,1:0|0:0,0:0:0:0:
136,212,261802,2,0,P|97:156|136:120,1,125.999996154785,2|0,1:0|0:0,0:0:0:0:
202,101,262053,1,0,0:0:0:0:
379,72,262137,6,0,L|449:60,1,62.9999980773926,2|0,3:0|0:0,0:0:0:0:
259,207,262305,2,0,L|180:195,1,62.9999980773926,2|0,3:0|0:0,0:0:0:0:
406,157,262472,1,2,1:0:0:0:
463,172,262555,1,0,0:0:0:0:
467,231,262639,1,0,0:0:0:0:
414,255,262723,1,0,0:0:0:0:
214,334,262808,6,0,P|127:281|197:235,1,188.999994232178,4|0,0:0|0:0,0:0:0:0:
344,226,263143,2,0,L|359:94,1,125.999996154785,2|0,1:0|0:0,0:0:0:0:
283,87,263394,1,0,0:0:0:0:
100,94,263478,6,0,L|189:105,1,62.9999980773926,2|0,3:0|0:0,0:0:0:0:
334,129,263646,2,0,L|399:138,1,62.9999980773926,2|0,3:0|0:0,0:0:0:0:
164,323,263813,2,0,P|117:255|214:217,1,188.999994232178,2|0,1:0|0:0,0:0:0:0:
377,199,264148,5,0,1:0:0:0:
399,177,264189,1,0,0:0:0:0:
409,148,264231,1,0,0:0:0:0:
404,117,264273,1,0,0:0:0:0:
385,92,264315,1,0,0:0:0:0:
357,79,264357,1,0,0:0:0:0:
326,81,264399,1,0,0:0:0:0:
134,77,264484,2,0,L|282:73,1,125.999996154785,2|0,1:0|0:0,0:0:0:0:
214,133,264735,1,0,0:0:0:0:
52,310,264819,6,0,L|41:211,1,62.9999980773926,2|0,0:0|0:0,0:0:0:0:
236,198,264986,2,0,L|324:177,1,62.9999980773926,2|0,0:0|0:0,0:0:0:0:
102,165,265154,2,0,L|11:152,3,62.9999980773926,10|2|2|2,0:0|0:0|0:0|0:0,0:0:0:0:
293,56,265489,6,0,P|300:125|203:166,1,188.999994232178,4|0,0:0|0:0,0:0:0:0:
401,257,265824,2,0,P|452:206|430:135,1,125.999996154785,2|0,1:0|0:0,0:0:0:0:
382,115,266076,1,0,0:0:0:0:
207,77,266159,6,0,L|122:58,1,62.9999980773926,2|0,3:0|0:0,0:0:0:0:
327,191,266327,2,0,L|412:211,1,62.9999980773926,2|0,3:0|0:0,0:0:0:0:
128,323,266495,2,0,P|79:249|125:201,1,125.999996154785,2|0,1:0|0:0,0:0:0:0:
334,112,266830,6,0,L|143:124,1,188.999994232178,0|0,1:0|0:0,0:0:0:0:
342,183,267165,2,0,P|395:244|365:270,1,125.999996154785,2|0,1:0|0:0,0:0:0:0:
317,308,267416,1,0,0:0:0:0:
105,336,267500,6,0,L|109:245,1,62.9999980773926,2|0,3:0|0:0,0:0:0:0:
309,176,267668,2,0,L|231:163,1,62.9999980773926,2|0,3:0|0:0,0:0:0:0:
66,167,267835,1,2,1:0:0:0:
20,128,267918,1,0,3:0:0:0:
36,71,268002,1,0,3:0:0:0:
95,63,268086,1,0,3:0:0:0:
294,69,268171,6,0,P|368:111|289:181,1,188.999994232178,4|0,0:0|0:0,0:0:0:0:
139,285,268506,2,0,L|131:182,1,62.9999980773926,10|0,0:0|0:0,0:0:0:0:
337,235,268673,2,0,L|340:146,1,62.9999980773926,2|0,0:0|0:0,0:0:0:0:
184,120,268841,6,0,L|62:99,1,62.9999980773926
287,302,269009,2,0,L|429:283,1,125.999996154785,2|10,0:0|0:0,0:0:0:0:
156,292,269344,2,0,L|60:273,1,62.9999980773926
309,203,269511,6,0,P|345:131|269:113,1,125.999996154785,4|0,0:0|0:0,0:0:0:0:
171,85,269763,2,0,L|28:64,1,125.999996154785,8|0,0:0|0:0,0:0:0:0:
255,32,270014,2,0,L|337:23,1,62.9999980773926,2|0,3:0|0:0,0:0:0:0:
134,271,270182,6,0,P|94:199|154:163,1,125.999996154785,8|0,0:0|0:0,0:0:0:0:
185,148,270433,1,0,3:0:0:0:
383,141,270517,2,0,L|366:235,1,62.9999980773926,8|0,0:0|0:0,0:0:0:0:
188,276,270685,2,0,L|117:280,1,62.9999980773926,8|0,0:0|0:0,0:0:0:0:
371,202,270852,6,0,P|451:256|367:296,1,188.999994232178,0|0,1:0|0:0,0:0:0:0:
194,335,271187,2,0,P|126:321|89:268,1,125.999996154785,2|0,1:0|0:0,0:0:0:0:
110,204,271439,1,0,0:0:0:0:
314,146,271523,6,0,L|397:128,1,62.9999980773926,2|0,3:0|0:0,0:0:0:0:
171,119,271690,2,0,L|70:102,1,62.9999980773926,2|0,3:0|0:0,0:0:0:0:
377,258,271858,1,2,1:0:0:0:
421,217,271941,1,0,0:0:0:0:
408,159,272025,1,0,0:0:0:0:
350,142,272109,1,0,0:0:0:0:
121,75,272193,6,0,P|69:123|148:173,1,188.999994232178,0|0,1:0|0:0,0:0:0:0:
329,222,272528,2,0,L|201:244,1,125.999996154785,2|0,1:0|0:0,0:0:0:0:
277,267,272780,1,0,0:0:0:0:
446,324,272863,6,0,L|447:232,1,62.9999980773926,2|0,3:0|0:0,0:0:0:0:
253,125,273031,2,0,L|169:115,1,62.9999980773926,2|0,3:0|0:0,0:0:0:0:
383,60,273199,1,2,1:0:0:0:
441,67,273282,1,0,3:0:0:0:
449,125,273366,1,0,3:0:0:0:
396,148,273450,1,0,3:0:0:0:
174,301,273534,6,0,P|103:257|169:198,1,188.999994232178,4|0,0:0|0:0,0:0:0:0:
356,214,273869,2,0,P|373:150|322:130,1,125.999996154785,2|0,1:0|0:0,0:0:0:0:
253,121,274120,1,0,3:0:0:0:
75,117,274204,6,0,L|-8:104,3,62.9999980773926,0|0|0|0,3:0|3:0|3:0|3:0,3:0:0:0:
192,63,274539,2,0,P|260:104|228:168,1,125.999996154785,2|0,1:0|0:0,0:0:0:0:
214,205,274791,1,0,0:0:0:0:
32,300,274875,6,0,L|2:291,6,31.4999990386963,0|0|0|0|0|0|0,3:0|0:0|0:0|0:0|0:0|0:0|0:0,0:0:0:0:
235,283,275210,2,0,P|257:217|219:182,1,125.999996154785,2|0,1:0|0:0,0:0:0:0:
147,168,275461,1,0,0:0:0:0:
330,94,275545,6,0,L|416:80,1,62.9999980773926,2|0,3:0|0:0,0:0:0:0:
187,292,275713,2,0,L|110:280,1,62.9999980773926,2|0,3:0|0:0,0:0:0:0:
351,307,275880,1,10,0:0:0:0:
400,274,275963,1,2,0:0:0:0:
389,216,276047,1,2,0:0:0:0:
331,204,276131,1,2,0:0:0:0:
152,194,276215,6,0,P|141:120|251:89,1,188.999994232178,4|0,0:0|0:0,0:0:0:0:
69,67,276551,2,0,P|47:120|99:162,1,125.999996154785,2|0,1:0|0:0,0:0:0:0:
166,170,276802,1,0,0:0:0:0:
334,155,276886,6,0,L|409:137,1,62.9999980773926,2|0,3:0|0:0,0:0:0:0:
197,319,277053,2,0,L|108:295,1,62.9999980773926,2|0,3:0|0:0,0:0:0:0:
373,336,277221,2,0,L|397:193,1,125.999996154785,2|0,1:0|0:0,0:0:0:0:
108,188,277556,6,0,P|35:156|117:93,1,188.999994232178,0|0,1:0|0:0,0:0:0:0:
289,67,277891,2,0,L|428:48,1,125.999996154785,2|0,1:0|0:0,0:0:0:0:
358,102,278143,1,0,0:0:0:0:
173,317,278227,6,0,L|157:219,1,62.9999980773926,2|0,3:0|0:0,0:0:0:0:
360,194,278394,2,0,L|452:178,1,62.9999980773926,2|0,3:0|0:0,0:0:0:0:
212,186,278562,1,2,1:0:0:0:
164,149,278645,1,0,3:0:0:0:
176,90,278729,1,0,3:0:0:0:
233,74,278813,1,0,3:0:0:0:
439,52,278897,6,0,P|479:108|389:165,1,188.999994232178,4|0,0:0|0:0,0:0:0:0:
196,317,279232,2,0,L|176:240,1,62.9999980773926,10|0,0:0|0:0,0:0:0:0:
343,209,279400,2,0,L|424:189,1,62.9999980773926,2|0,0:0|0:0,0:0:0:0:
179,176,279567,6,0,L|31:158,1,125.999996154785,0|2,0:0|0:0,0:0:0:0:
333,47,279903,2,0,P|351:114|308:145,1,125.999996154785,10|0,0:0|0:0,0:0:0:0:
238,160,280154,1,0,3:0:0:0:
69,298,280238,6,0,P|26:228|116:188,1,188.999994232178,2|0,3:0|0:0,0:0:0:0:
323,194,280573,2,0,L|202:184,1,62.9999980773926,8|0,0:0|0:0,0:0:0:0:
95,180,280740,2,0,P|35:137|115:76,1,188.999994232178,2|0,3:0|0:0,0:0:0:0:
302,71,281076,2,0,L|381:64,1,62.9999980773926,8|0,0:0|0:0,0:0:0:0:
161,316,281243,6,0,P|103:272|185:219,1,188.999994232178,0|0,1:0|0:0,0:0:0:0:
425,293,281578,6,0,L|435:175,1,105,2|2,0:0|0:0,0:0:0:0:
272,173,281914,2,0,L|131:153,1,105,2|2,0:0|0:0,0:0:0:0:
330,186,282249,2,0,L|343:61,1,105,2|2,0:0|0:0,0:0:0:0:
172,309,282584,2,0,L|155:163,1,105,2|2,0:0|0:0,0:0:0:0:
317,313,282919,6,0,L|432:297,1,105,2|2,0:0|0:0,0:0:0:0:
245,210,283254,2,0,L|110:195,1,105,2|2,0:0|0:0,0:0:0:0:
300,184,283590,5,2,0:0:0:0:
336,149,283673,1,0,0:0:0:0:
326,100,283757,1,0,0:0:0:0:
279,83,283841,1,0,0:0:0:0:
196,181,283925,1,2,0:0:0:0:
159,146,284008,1,0,0:0:0:0:
169,97,284092,1,0,0:0:0:0:
216,80,284176,1,0,0:0:0:0:
394,81,284260,5,4,0:0:0:0:
256,192,284343,12,0,285600,0:0:0:0:
