osu file format v14

[General]
AudioFilename: audio.mp3
AudioLeadIn: 0
PreviewTime: 153569
Countdown: 0
SampleSet: Normal
StackLeniency: 0.7
Mode: 1
LetterboxInBreaks: 0
WidescreenStoryboard: 1

[Editor]
Bookmarks: 1640,22973,36306,46972,68306,78972,110971,121638,142971,153637,177637,198970,209636,220303,252302,262969
DistanceSpacing: 0.1
BeatDivisor: 4
GridSize: 32
TimelineZoom: 2.000006

[Metadata]
Title:Bakuure! Match Uri no Haken Shoujo
TitleUnicode:爆売れ!マッチ売りの派遣少女
Artist:Nanahira
ArtistUnicode:ななひら
Creator:JarvisGaming
Version:Cychlo's Oni
Source:
Tags:arm iosys komuso 狐夢想 wonder trick confetti box confetto C90 halloween spooky cychloryn
BeatmapID:2119295
BeatmapSetID:1010029

[Difficulty]
HPDrainRate:5
CircleSize:2
OverallDifficulty:5.5
ApproachRate:10
SliderMultiplier:1.4
SliderTickRate:1

[Events]
//Background and Video events
0,0,"749358.jpg",0,10
//Break Periods
//Storyboard Layer 0 (Background)
//Storyboard Layer 1 (Fail)
//Storyboard Layer 2 (Pass)
//Storyboard Layer 3 (Foreground)
//Storyboard Layer 4 (Overlay)
//Storyboard Sound Samples

[TimingPoints]
1646,666.666666666667,4,1,0,40,1,0
12084,-100,4,1,0,40,0,0
12306,-98.7124929543958,4,1,0,40,0,0
12528,-97.4576229890838,4,1,0,40,0,0
12750,-96.2343498888493,4,1,0,40,0,0
12972,-95.0413144593955,4,1,0,40,0,0
13417,-92.7419242650898,4,1,0,40,0,0
13639,-91.6334953413531,4,1,0,40,0,0
13861,-90.5511668423359,4,1,0,40,0,0
14083,-89.4941877999733,4,1,0,40,0,0
14306,-88.4615214497074,4,1,0,40,0,0
14750,-86.4661459098919,4,1,0,40,0,0
14972,-85.5018746286012,4,1,0,40,0,0
15195,-84.5588017679554,4,1,0,40,0,0
15417,-83.6363758016547,4,1,0,40,0,0
15640,-82.7337891413556,4,1,0,40,0,0
16083,-80.9858898284152,4,1,0,40,0,0
16306,-80.1393784069253,4,1,0,40,0,0
16528,-79.3103174792009,4,1,0,40,0,0
16750,-78.4982961944811,4,1,0,40,0,0
16972,-77.7026738267091,4,1,0,40,0,0
17417,-76.1589681373725,4,1,0,40,0,0
17640,-75.4098335931202,4,1,0,40,0,0
17862,-74.6753489205678,4,1,0,40,0,0
18084,-73.9549791668824,4,1,0,40,0,0
18306,-73.2484286380846,4,1,0,40,0,0
18751,-71.8750179687545,4,1,0,40,0,0
18973,-71.2074215223007,4,1,0,40,0,0
19195,-70.5521623885011,4,1,0,40,0,0
19418,-69.9088039652274,4,1,0,40,0,0
19640,-69.2771209536966,4,1,0,40,0,0
20084,-68.0473473442821,4,1,0,40,0,0
20306,-67.4486665061388,4,1,0,40,0,0
20528,-66.8604728907527,4,1,0,40,0,0
20751,-66.2824054680333,4,1,0,40,0,0
20973,-65.7142913469393,4,1,0,40,0,0
21417,-64.6067452026261,4,1,0,40,0,0
21640,-64.0668345217731,4,1,0,40,0,0
21862,-63.5359133573457,4,1,0,40,0,0
22084,-63.013679639713,4,1,0,40,0,0
22306,-62.5,4,1,0,40,0,0
22973,-100,4,1,0,80,0,0
22979,333.333333333333,4,1,0,80,1,8
22988,333.333333333333,4,1,0,80,1,0
24139,-105.263157894737,4,1,0,80,0,0
25639,-90.9090909090909,4,1,0,80,0,0
26806,-105.263157894737,4,1,0,80,0,0
28306,-90.9090909090909,4,1,0,80,0,0
29472,-105.263157894737,4,1,0,80,0,0
30806,-104.166666666667,4,1,0,80,0,0
30889,-102.040816326531,4,1,0,80,0,0
30972,-100,4,1,0,80,0,0
35639,-86.9565217391304,4,1,0,80,0,0
35722,-89.2857142857143,4,1,0,80,0,0
35806,-91.743119266055,4,1,0,80,0,0
35889,-94.3396226415094,4,1,0,80,0,0
35972,-97.0873786407767,4,1,0,80,0,0
36321,333.333333333333,4,1,0,90,1,1
36321,-95.2380952380952,4,1,0,90,0,1
46987,-100,4,1,0,65,0,0
65639,-100,4,1,0,80,0,0
67639,-102.040816326531,4,1,0,80,0,0
67722,-103.092783505155,4,1,0,80,0,0
67806,-104.166666666667,4,1,0,80,0,0
67889,-105.263157894737,4,1,0,80,0,0
67972,-106.382978723404,4,1,0,80,0,0
68154,-116.279069767442,4,1,0,55,0,0
68320,666.666666666667,4,1,0,55,1,8
68320,-61.3496932515337,4,1,0,55,0,0
68321,666.666666666667,4,1,0,55,1,0
68321,-61.3496932515337,4,1,0,55,0,0
68750,-64.1025641025641,4,1,0,55,0,0
68972,-65.7894736842105,4,1,0,55,0,0
69417,-66.6666666666667,4,1,0,55,0,0
73639,-66.6666666666667,4,1,0,55,0,0
73861,-64.8739402030944,4,1,0,55,0,0
74083,-63.1751049654369,4,1,0,55,0,0
74306,-61.5630109729911,4,1,0,55,0,0
74528,-60.0311081202279,4,1,0,55,0,0
74750,-58.5735924472867,4,1,0,55,0,0
74972,-57.1851741717442,4,1,0,55,0,0
75194,-55.8610846546807,4,1,0,55,0,0
75417,-54.5968947470144,4,1,0,55,0,0
75639,-53.388658220225,4,1,0,55,0,0
75861,-52.2327407354788,4,1,0,55,0,0
76083,-51.1258160319311,4,1,0,55,0,0
76306,-50.0648590248667,4,1,0,55,0,0
78306,-40,4,1,0,80,0,0
78987,222.222222222222,6,1,0,100,1,0
78987,-125,6,1,0,100,0,0
84083,-142.857142857143,6,1,0,60,0,0
84305,-125,6,1,0,100,0,0
89416,-142.857142857143,6,1,0,60,0,0
89638,-125,6,1,0,100,0,0
94749,-142.857142857143,6,1,0,60,0,0
94971,-125,6,1,0,100,0,0
97653,222.222222222222,6,1,0,100,1,0
97653,-117.647058823529,6,1,0,100,0,0
106971,-117.647058823529,6,1,0,100,0,0
107305,-123.057233919496,6,1,0,100,0,0
107638,-128.988984340737,6,1,0,100,0,0
107805,-132.174777351588,6,1,0,100,0,0
107971,-135.521738364442,6,1,0,100,0,0
108138,-139.042608216862,6,1,0,100,0,0
108319,333.333333333333,4,1,0,100,1,8
108319,-95.2380952380952,3,1,0,100,0,0
108320,333.333333333333,4,1,0,100,1,0
108320,-95.2380952380952,3,1,0,100,0,0
110304,-86.9565217391304,4,1,0,80,0,0
110388,-89.2857142857143,4,1,0,80,0,0
110471,-91.743119266055,4,1,0,80,0,0
110554,-94.3396226415094,4,1,0,80,0,0
110638,-97.0873786407767,4,1,0,80,0,0
110986,333.333333333333,4,1,0,90,1,1
110986,-95.2380952380952,4,1,0,90,0,9
121652,-111.111111111111,4,1,0,60,0,8
129471,-105.263157894737,4,1,0,80,0,0
129554,-103.092783505155,4,1,0,80,0,0
129637,-100,4,1,0,80,0,0
132137,-105.263157894737,4,1,0,80,0,0
132304,-107.52688172043,4,1,0,65,0,0
140304,-100,4,1,0,65,0,0
141637,-102.040816326531,4,1,0,65,0,0
141887,-105.95611085976,4,1,0,65,0,0
142137,-110.183852776743,4,1,0,65,0,0
142221,-111.111111111111,4,1,0,65,0,0
142304,-113.194903512664,4,1,0,65,0,0
142471,-116.375146923623,4,1,0,65,0,0
142804,-126.582278481013,4,1,0,65,0,0
142985,666.666666666667,4,1,0,50,1,8
142985,-66.6666666666667,4,1,0,50,0,0
142986,666.666666666667,4,1,0,50,1,0
142986,-66.6666666666667,4,1,0,50,0,0
150971,-66.6666666666667,4,1,0,40,0,0
152319,333.333333333333,4,1,0,90,1,0
152319,-105.263157894737,4,1,0,90,0,0
152970,-105.263157894737,4,1,0,90,0,0
153137,-101.305524291545,4,1,0,90,0,0
153304,-97.6346063909661,4,1,0,90,0,0
153387,-95.8971368950809,4,1,0,90,0,0
153470,-94.2205136902406,4,1,0,90,0,0
153554,-92.6014240246986,4,1,0,90,0,0
153652,333.333333333333,4,1,0,100,1,1
153652,-90.9090909090909,4,1,0,100,0,1
172137,-86.9565217391304,4,1,0,100,0,1
172235,-78.7401574803149,4,1,0,100,0,1
172318,222.222222222222,6,1,0,100,1,8
172318,-117.647058823529,6,1,0,100,0,0
172319,222.222222222222,6,1,0,100,1,0
172319,-117.647058823529,6,1,0,100,0,0
177652,333.333333333333,4,1,0,80,1,0
177652,-78.7401574803149,4,1,0,80,0,0
177970,-81.6326530612245,4,1,0,80,0,0
178137,-84.2105263157895,4,1,0,80,0,0
178470,-89.8876404494382,4,1,0,80,0,0
178637,-93.0232558139535,4,1,0,80,0,0
178970,-100,4,1,0,80,0,0
198636,-98.0392156862745,4,1,0,80,0,0
198720,-96.1538461538461,4,1,0,80,0,0
198803,-94.3396226415094,4,1,0,80,0,0
198886,-92.5925925925926,4,1,0,80,0,0
198970,-90.9090909090909,4,1,0,80,0,0
200136,-105.263157894737,4,1,0,80,0,0
201636,-90.9090909090909,4,1,0,80,0,0
202803,-105.263157894737,4,1,0,80,0,0
204303,-90.9090909090909,4,1,0,80,0,0
205470,-105.263157894737,4,1,0,80,0,0
206803,-100,4,1,0,80,0,0
206886,-97.0873786407767,4,1,0,80,0,0
206970,-90.9090909090909,4,1,0,80,0,0
208136,-105.263157894737,4,1,0,80,0,0
208970,-105.263157894737,4,1,0,80,0,0
209053,-106.666666666667,4,1,0,80,0,0
209136,-108.108108108108,4,1,0,80,0,0
209219,-109.58904109589,4,1,0,80,0,0
209303,-111.111111111111,4,1,0,80,0,0
209469,-114.285714285714,4,1,0,80,0,0
209636,-117.647058823529,4,1,0,80,0,0
209970,-115.339455551634,4,1,0,80,0,0
210136,-114.219271303893,4,1,0,80,0,0
210470,-112.042809316584,4,1,0,80,0,0
210636,-110.985450917239,4,1,0,80,0,0
210803,-109.947862723497,4,1,0,80,0,0
211136,-107.929819714029,4,1,0,80,0,0
211303,-106.948325777434,4,1,0,80,0,0
211470,-105.984522020404,4,1,0,80,0,0
211636,-105.037934450027,4,1,0,80,0,0
211803,-104.108105857122,4,1,0,80,0,0
211886,-103.649283990746,4,1,0,80,0,0
211970,-103.194595079888,4,1,0,80,0,0
212136,-102.296871659368,4,1,0,80,0,0
212303,-101.414735561077,4,1,0,80,0,0
212636,-99.6953310682554,4,1,0,80,0,0
212803,-98.857308372522,4,1,0,80,0,0
212970,-98.0332568020375,4,1,0,80,0,0
213303,-96.4256924328974,4,1,0,80,0,0
213470,-95.6415202793497,4,1,0,80,0,0
213636,-94.869999639494,4,1,0,80,0,0
213970,-93.3636204918209,4,1,0,80,0,0
214136,-92.628271630554,4,1,0,80,0,0
214220,-92.2649665308834,4,1,0,80,0,0
214303,-91.9044157314626,4,1,0,80,0,0
214470,-91.1917854439672,4,1,0,80,0,0
214636,-90.4901216458705,4,1,0,80,0,0
214803,-89.7991731292138,4,1,0,80,0,0
214886,-89.4576006755838,4,1,0,80,0,0
214970,-89.1186963004156,4,1,0,80,0,0
215053,-88.7822712458195,4,1,0,80,0,0
215136,-88.4484548939414,4,1,0,80,0,0
215220,-88.1170617541992,4,1,0,80,0,0
215303,-87.7882196987986,4,1,0,80,0,0
215470,-87.1376923673481,4,1,0,80,0,0
215636,-86.4968099976473,4,1,0,80,0,0
215720,-86.1799281776479,4,1,0,80,0,0
215803,-85.8652859528685,4,1,0,80,0,0
215886,-85.5530060759745,4,1,0,80,0,0
215970,-85.2429167398335,4,1,0,80,0,0
216136,-84.6295047227495,4,1,0,80,0,0
216303,-84.0248579139653,4,1,0,85,0,0
216386,-83.7257279114785,4,1,0,85,0,0
216470,-83.4287897736327,4,1,0,85,0,0
216636,-82.8411190178357,4,1,0,90,0,0
216720,-82.5503433268779,4,1,0,90,0,0
216803,-82.2616694347718,4,1,0,90,0,0
216970,-81.6902697085945,4,1,0,91,0,0
217053,-81.4075031667519,4,1,0,92,0,0
217136,-80.6451612903226,4,1,0,93,0,0
217220,-80,4,1,0,94,0,0
217303,-79.3650793650794,4,1,0,95,0,0
217386,-78.7401574803149,4,1,0,96,0,0
217470,-78.125,4,1,0,97,0,0
217651,666.666666666667,4,1,0,100,1,8
217651,-35.7142857142857,4,1,0,100,0,0
217652,666.666666666667,4,1,0,100,1,0
217652,-35.7142857142857,4,1,0,100,0,0
217720,-28.5714285714286,4,1,0,75,0,0
218970,-35.7142857142857,4,1,0,75,0,0
219637,-40,4,1,0,100,0,0
220318,222.222222222222,6,1,0,100,1,0
220318,-125,6,1,0,100,0,0
225414,-142.857142857143,6,1,0,60,0,0
225636,-125,6,1,0,100,0,0
230747,-142.857142857143,6,1,0,60,0,0
230969,-125,6,1,0,100,0,0
236080,-142.857142857143,6,1,0,60,0,0
236302,-125,6,1,0,100,0,0
238984,222.222222222222,6,1,0,100,1,0
238984,-117.647058823529,6,1,0,100,0,0
248302,-117.647058823529,6,1,0,100,0,0
248636,-123.456790123457,6,1,0,100,0,0
248969,-128.205128205128,6,1,0,100,0,0
249136,-131.578947368421,6,1,0,100,0,0
249302,-135.135135135135,6,1,0,100,0,0
249469,-138.888888888889,6,1,0,100,0,0
249650,333.333333333333,4,1,0,100,1,8
249650,-95.2380952380952,4,1,0,100,0,0
249651,333.333333333333,4,1,0,100,1,0
249651,-95.2380952380952,4,1,0,100,0,0
251636,-86.9565217391304,4,1,0,100,0,0
251719,-89.2857142857143,4,1,0,100,0,0
251802,-91.743119266055,4,1,0,100,0,0
251886,-94.3396226415094,4,1,0,100,0,0
251969,-97.0873786407767,4,1,0,100,0,0
252317,333.333333333333,4,1,0,90,1,1
252317,-95.2380952380952,4,1,0,90,0,1
262817,-100,4,1,0,40,0,1
262983,666.666666666667,4,1,0,40,1,8
262983,-50,4,1,0,40,0,0
262984,666.666666666667,4,1,0,40,1,0
262984,-50,4,1,0,40,0,0
263191,-52.1739039697558,4,1,0,40,0,0
263413,-54.5454644628117,4,1,0,40,0,0
263635,-57.1428571428571,4,1,0,40,0,0
263857,-59.9999880000024,4,1,0,40,0,0
264080,-63.1579080332438,4,1,0,40,0,0
264302,-66.6666666666667,4,1,0,40,0,0
264969,-50,4,1,0,100,0,0
265191,-47.6190476190476,4,1,0,100,0,0
265413,-45.4545454545455,4,1,0,100,0,0
265635,-43.4782608695652,4,1,0,100,0,0
265857,-40,4,1,0,100,0,0

[HitObjects]
256,192,1646,5,8,0:0:0:0:
256,192,1868,1,0,0:0:0:0:
256,192,2090,1,0,0:0:0:0:
256,192,2312,1,8,0:0:0:0:
256,192,2757,1,0,0:0:0:0:
256,192,2979,1,8,0:0:0:0:
256,192,3201,1,8,0:0:0:0:
256,192,3423,1,0,0:0:0:0:
256,192,3646,1,8,0:0:0:0:
256,192,4090,1,0,0:0:0:0:
256,192,4312,1,8,0:0:0:0:
256,192,4534,1,0,0:0:0:0:
256,192,4757,1,0,0:0:0:0:
256,192,4979,1,8,0:0:0:0:
256,192,5423,1,0,0:0:0:0:
256,192,5646,1,8,0:0:0:0:
256,192,5868,1,8,0:0:0:0:
256,192,6090,1,0,0:0:0:0:
256,192,6312,1,8,0:0:0:0:
256,192,6757,1,0,0:0:0:0:
256,192,6979,1,8,0:0:0:0:
256,192,7201,1,0,0:0:0:0:
256,192,7423,1,0,0:0:0:0:
256,192,7646,1,8,0:0:0:0:
256,192,8090,1,8,0:0:0:0:
256,192,8312,1,8,0:0:0:0:
256,192,8534,1,0,0:0:0:0:
256,192,8757,1,0,0:0:0:0:
256,192,8979,1,8,0:0:0:0:
256,192,9423,1,0,0:0:0:0:
256,192,9646,1,8,0:0:0:0:
256,192,9868,1,8,0:0:0:0:
256,192,10090,1,0,0:0:0:0:
256,192,10312,1,8,0:0:0:0:
256,192,10757,1,8,0:0:0:0:
256,192,10979,1,0,0:0:0:0:
256,192,11201,1,0,0:0:0:0:
256,192,11423,1,8,0:0:0:0:
256,192,11646,1,0,0:0:0:0:
256,192,12090,1,0,0:0:0:0:
256,192,12312,5,8,0:0:0:0:
256,192,12534,1,0,0:0:0:0:
256,192,12757,1,0,0:0:0:0:
256,192,12979,1,8,0:0:0:0:
256,192,13423,1,0,0:0:0:0:
256,192,13646,1,8,0:0:0:0:
256,192,13868,1,8,0:0:0:0:
256,192,14090,1,0,0:0:0:0:
256,192,14312,1,8,0:0:0:0:
256,192,14757,1,0,0:0:0:0:
256,192,14979,1,8,0:0:0:0:
256,192,15201,1,0,0:0:0:0:
256,192,15423,1,0,0:0:0:0:
256,192,15646,1,8,0:0:0:0:
256,192,16090,1,0,0:0:0:0:
256,192,16312,1,8,0:0:0:0:
256,192,16534,1,8,0:0:0:0:
256,192,16757,1,0,0:0:0:0:
256,192,16979,1,8,0:0:0:0:
256,192,17423,1,0,0:0:0:0:
256,192,17646,1,8,0:0:0:0:
256,192,17868,1,0,0:0:0:0:
256,192,18090,1,0,0:0:0:0:
256,192,18312,1,8,0:0:0:0:
256,192,18757,1,8,0:0:0:0:
256,192,18979,1,8,0:0:0:0:
256,192,19201,1,0,0:0:0:0:
256,192,19423,1,0,0:0:0:0:
256,192,19646,1,8,0:0:0:0:
256,192,20090,1,0,0:0:0:0:
256,192,20312,1,8,0:0:0:0:
256,192,20534,1,8,0:0:0:0:
256,192,20757,1,0,0:0:0:0:
256,192,20979,1,8,0:0:0:0:
256,192,21423,1,8,0:0:0:0:
256,192,21646,1,0,0:0:0:0:
256,192,21868,1,0,0:0:0:0:
256,192,22090,1,8,0:0:0:0:
256,192,22312,1,0,0:0:0:0:
256,192,22757,1,0,0:0:0:0:
256,192,22988,5,12,0:0:0:0:
256,192,24154,1,8,0:0:0:0:
256,192,24238,1,8,0:0:0:0:
256,192,24321,1,8,0:0:0:0:
256,192,24488,1,8,0:0:0:0:
256,192,24654,1,0,0:0:0:0:
256,192,24821,1,0,0:0:0:0:
256,192,24987,1,8,0:0:0:0:
256,192,25154,1,0,0:0:0:0:
256,192,25237,1,0,0:0:0:0:
256,192,25321,1,0,0:0:0:0:
256,192,25654,1,12,0:0:0:0:
256,192,26821,1,8,0:0:0:0:
256,192,26904,1,8,0:0:0:0:
256,192,26987,1,8,0:0:0:0:
256,192,27154,1,0,0:0:0:0:
256,192,27321,1,8,0:0:0:0:
256,192,27487,1,8,0:0:0:0:
256,192,27654,1,0,0:0:0:0:
256,192,27821,1,0,0:0:0:0:
256,192,27904,1,8,0:0:0:0:
256,192,27987,1,0,0:0:0:0:
256,192,28154,1,0,0:0:0:0:
256,192,28321,1,12,0:0:0:0:
256,192,29487,1,8,0:0:0:0:
256,192,29571,1,8,0:0:0:0:
256,192,29654,1,8,0:0:0:0:
256,192,29821,1,8,0:0:0:0:
256,192,29987,1,0,0:0:0:0:
256,192,30154,1,0,0:0:0:0:
256,192,30321,1,8,0:0:0:0:
256,192,30487,1,0,0:0:0:0:
256,192,30571,1,0,0:0:0:0:
256,192,30654,1,0,0:0:0:0:
256,192,30821,1,0,0:0:0:0:
256,192,30904,1,0,0:0:0:0:
256,192,30987,1,12,0:0:0:0:
256,192,31321,1,0,0:0:0:0:
256,192,31654,1,12,0:0:0:0:
256,192,31987,1,0,0:0:0:0:
256,192,32321,1,12,0:0:0:0:
256,192,32487,1,0,0:0:0:0:
256,192,32654,1,12,0:0:0:0:
256,192,32821,1,0,0:0:0:0:
256,192,32987,1,8,0:0:0:0:
256,192,33071,1,0,0:0:0:0:
256,192,33154,1,8,0:0:0:0:
256,192,33237,1,8,0:0:0:0:
256,192,33321,1,8,0:0:0:0:
256,192,33487,1,8,0:0:0:0:
256,192,33571,1,8,0:0:0:0:
256,192,33654,1,0,0:0:0:0:
256,192,33821,12,0,35487,0:0:0:0:
256,192,35654,5,8,0:0:0:0:
256,192,35737,1,8,0:0:0:0:
256,192,35821,1,8,0:0:0:0:
256,192,35904,1,8,0:0:0:0:
256,192,35987,1,0,0:0:0:0:
256,192,36321,1,12,0:0:0:0:
256,192,36487,1,0,0:0:0:0:
256,192,36654,1,8,0:0:0:0:
256,192,36737,1,0,0:0:0:0:
256,192,36821,1,8,0:0:0:0:
256,192,36904,1,8,0:0:0:0:
256,192,36987,1,0,0:0:0:0:
256,192,37154,1,0,0:0:0:0:
256,192,37321,1,8,0:0:0:0:
256,192,37487,1,0,0:0:0:0:
256,192,37571,1,0,0:0:0:0:
256,192,37654,1,8,0:0:0:0:
256,192,37821,1,8,0:0:0:0:
256,192,37904,1,8,0:0:0:0:
256,192,37987,1,0,0:0:0:0:
256,192,38154,1,0,0:0:0:0:
256,192,38321,1,8,0:0:0:0:
256,192,38487,1,0,0:0:0:0:
256,192,38571,1,0,0:0:0:0:
256,192,38654,1,0,0:0:0:0:
256,192,38821,1,0,0:0:0:0:
256,192,38987,1,8,0:0:0:0:
256,192,39154,1,0,0:0:0:0:
256,192,39321,1,8,0:0:0:0:
256,192,39404,1,0,0:0:0:0:
256,192,39487,1,8,0:0:0:0:
256,192,39571,1,8,0:0:0:0:
256,192,39654,1,8,0:0:0:0:
256,192,39820,1,0,0:0:0:0:
256,192,39904,1,0,0:0:0:0:
256,192,39987,1,8,0:0:0:0:
256,192,40154,1,0,0:0:0:0:
256,192,40320,1,0,0:0:0:0:
256,192,40404,1,0,0:0:0:0:
256,192,40487,1,8,0:0:0:0:
256,192,40570,1,0,0:0:0:0:
256,192,40654,1,8,0:0:0:0:
256,192,40820,1,0,0:0:0:0:
256,192,40987,1,8,0:0:0:0:
256,192,41154,1,8,0:0:0:0:
256,192,41320,1,0,0:0:0:0:
256,192,41654,1,12,0:0:0:0:
256,192,41820,1,0,0:0:0:0:
256,192,41987,1,8,0:0:0:0:
256,192,42070,1,0,0:0:0:0:
256,192,42154,1,8,0:0:0:0:
256,192,42237,1,8,0:0:0:0:
256,192,42320,1,0,0:0:0:0:
256,192,42487,1,8,0:0:0:0:
256,192,42654,1,0,0:0:0:0:
256,192,42820,1,0,0:0:0:0:
256,192,42904,1,0,0:0:0:0:
256,192,42987,1,8,0:0:0:0:
256,192,43154,1,8,0:0:0:0:
256,192,43237,1,0,0:0:0:0:
256,192,43320,1,8,0:0:0:0:
256,192,43487,1,0,0:0:0:0:
256,192,43654,1,8,0:0:0:0:
256,192,43737,1,8,0:0:0:0:
256,192,43820,1,0,0:0:0:0:
256,192,43904,1,8,0:0:0:0:
256,192,43987,1,0,0:0:0:0:
256,192,44154,1,0,0:0:0:0:
256,192,44320,1,4,0:0:0:0:
256,192,44487,1,4,0:0:0:0:
256,192,44654,1,12,0:0:0:0:
256,192,44987,1,12,0:0:0:0:
256,192,45154,1,4,0:0:0:0:
256,192,45320,1,12,0:0:0:0:
256,192,45654,1,8,0:0:0:0:
256,192,45737,1,8,0:0:0:0:
256,192,45820,1,0,0:0:0:0:
256,192,45904,1,0,0:0:0:0:
256,192,45987,1,8,0:0:0:0:
256,192,46070,1,8,0:0:0:0:
256,192,46154,1,0,0:0:0:0:
256,192,46320,1,12,0:0:0:0:
256,192,46487,1,12,0:0:0:0:
256,192,46654,1,12,0:0:0:0:
256,192,46987,1,4,0:0:0:0:
256,192,47154,1,0,0:0:0:0:
256,192,47320,1,8,0:0:0:0:
256,192,47487,1,8,0:0:0:0:
256,192,47570,1,8,0:0:0:0:
256,192,47654,1,0,0:0:0:0:
256,192,47820,1,8,0:0:0:0:
256,192,47987,1,0,0:0:0:0:
256,192,48154,1,8,0:0:0:0:
256,192,48320,1,0,0:0:0:0:
256,192,48487,1,0,0:0:0:0:
256,192,48570,1,0,0:0:0:0:
256,192,48654,1,8,0:0:0:0:
256,192,48820,1,0,0:0:0:0:
256,192,48987,1,8,0:0:0:0:
256,192,49154,1,8,0:0:0:0:
256,192,49237,1,0,0:0:0:0:
256,192,49320,1,0,0:0:0:0:
256,192,49487,1,8,0:0:0:0:
256,192,49654,1,0,0:0:0:0:
256,192,49820,1,8,0:0:0:0:
256,192,49987,1,8,0:0:0:0:
256,192,50154,1,0,0:0:0:0:
256,192,50320,1,8,0:0:0:0:
256,192,50487,1,0,0:0:0:0:
256,192,50570,1,8,0:0:0:0:
256,192,50654,1,0,0:0:0:0:
256,192,50820,1,8,0:0:0:0:
256,192,50987,1,8,0:0:0:0:
256,192,51154,1,0,0:0:0:0:
256,192,51320,1,8,0:0:0:0:
256,192,51487,1,8,0:0:0:0:
256,192,51570,1,8,0:0:0:0:
256,192,51654,1,0,0:0:0:0:
256,192,51820,1,0,0:0:0:0:
256,192,51987,1,0,0:0:0:0:
256,192,52154,1,8,0:0:0:0:
256,192,52487,1,0,0:0:0:0:
256,192,52654,1,8,0:0:0:0:
256,192,52737,1,8,0:0:0:0:
256,192,52820,1,0,0:0:0:0:
256,192,52987,1,12,0:0:0:0:
256,192,53154,1,12,0:0:0:0:
256,192,53320,1,0,0:0:0:0:
256,192,53487,1,0,0:0:0:0:
256,192,53820,1,0,0:0:0:0:
256,192,53987,1,8,0:0:0:0:
256,192,54070,1,8,0:0:0:0:
256,192,54154,1,0,0:0:0:0:
256,192,54320,1,12,0:0:0:0:
256,192,54487,1,12,0:0:0:0:
256,192,54654,1,0,0:0:0:0:
256,192,54820,1,0,0:0:0:0:
256,192,54904,1,0,0:0:0:0:
256,192,54987,1,12,0:0:0:0:
256,192,55154,1,12,0:0:0:0:
256,192,55320,1,4,0:0:0:0:
256,192,55654,1,12,0:0:0:0:
256,192,55820,1,12,0:0:0:0:
256,192,55987,1,4,0:0:0:0:
256,192,56320,1,12,0:0:0:0:
256,192,56487,1,0,0:0:0:0:
256,192,56654,1,12,0:0:0:0:
256,192,56820,1,0,0:0:0:0:
256,192,56987,1,8,0:0:0:0:
256,192,57070,1,8,0:0:0:0:
256,192,57154,1,0,0:0:0:0:
256,192,57237,1,0,0:0:0:0:
256,192,57320,1,8,0:0:0:0:
256,192,57487,5,4,0:0:0:0:
256,192,57820,1,0,0:0:0:0:
256,192,57904,1,0,0:0:0:0:
256,192,57987,1,8,0:0:0:0:
256,192,58154,1,0,0:0:0:0:
256,192,58237,1,8,0:0:0:0:
256,192,58320,1,8,0:0:0:0:
256,192,58487,1,8,0:0:0:0:
256,192,58654,1,0,0:0:0:0:
256,192,58820,1,8,0:0:0:0:
256,192,58987,1,0,0:0:0:0:
256,192,59154,1,0,0:0:0:0:
256,192,59237,1,0,0:0:0:0:
256,192,59320,1,8,0:0:0:0:
256,192,59487,1,0,0:0:0:0:
256,192,59654,1,8,0:0:0:0:
256,192,59820,1,8,0:0:0:0:
256,192,59904,1,0,0:0:0:0:
256,192,59987,1,0,0:0:0:0:
256,192,60154,1,8,0:0:0:0:
256,192,60320,1,0,0:0:0:0:
256,192,60487,1,0,0:0:0:0:
256,192,60654,1,8,0:0:0:0:
256,192,60820,1,0,0:0:0:0:
256,192,60904,1,0,0:0:0:0:
256,192,60987,1,8,0:0:0:0:
256,192,61154,1,0,0:0:0:0:
256,192,61320,1,8,0:0:0:0:
256,192,61487,1,0,0:0:0:0:
256,192,61570,1,8,0:0:0:0:
256,192,61654,1,8,0:0:0:0:
256,192,61737,1,0,0:0:0:0:
256,192,61820,1,8,0:0:0:0:
256,192,61987,1,8,0:0:0:0:
256,192,62154,1,0,0:0:0:0:
256,192,62320,1,0,0:0:0:0:
256,192,62487,1,8,0:0:0:0:
256,192,62654,1,8,0:0:0:0:
256,192,62820,1,0,0:0:0:0:
256,192,63154,1,0,0:0:0:0:
256,192,63320,1,8,0:0:0:0:
256,192,63404,1,8,0:0:0:0:
256,192,63487,1,0,0:0:0:0:
256,192,63654,1,12,0:0:0:0:
256,192,63820,1,12,0:0:0:0:
256,192,63987,1,0,0:0:0:0:
256,192,64154,1,0,0:0:0:0:
256,192,64487,1,0,0:0:0:0:
256,192,64654,1,8,0:0:0:0:
256,192,64737,1,8,0:0:0:0:
256,192,64820,1,0,0:0:0:0:
256,192,64987,1,12,0:0:0:0:
256,192,65154,1,12,0:0:0:0:
256,192,65320,1,0,0:0:0:0:
256,192,65487,1,8,0:0:0:0:
256,192,65654,1,4,0:0:0:0:
256,192,65820,1,4,0:0:0:0:
256,192,65987,1,12,0:0:0:0:
256,192,66320,1,4,0:0:0:0:
256,192,66487,1,4,0:0:0:0:
256,192,66654,1,12,0:0:0:0:
256,192,66987,1,4,0:0:0:0:
256,192,67154,1,8,0:0:0:0:
256,192,67320,1,4,0:0:0:0:
256,192,67487,1,8,0:0:0:0:
256,192,67654,1,0,0:0:0:0:
256,192,67737,1,0,0:0:0:0:
256,192,67820,1,0,0:0:0:0:
256,192,67904,1,0,0:0:0:0:
256,192,67987,1,8,0:0:0:0:
256,192,68321,5,0,0:0:0:0:
256,192,68765,1,0,0:0:0:0:
256,192,68987,1,8,0:0:0:0:
256,192,69432,1,0,0:0:0:0:
256,192,69654,1,8,0:0:0:0:
256,192,69876,1,8,0:0:0:0:
256,192,70098,1,0,0:0:0:0:
256,192,70321,1,8,0:0:0:0:
256,192,70765,1,0,0:0:0:0:
256,192,70987,1,8,0:0:0:0:
256,192,71432,1,0,0:0:0:0:
256,192,71654,1,8,0:0:0:0:
256,192,71876,1,8,0:0:0:0:
256,192,72098,1,0,0:0:0:0:
256,192,72321,1,8,0:0:0:0:
256,192,72765,1,8,0:0:0:0:
256,192,72987,1,8,0:0:0:0:
256,192,73654,1,0,0:0:0:0:
256,192,73876,1,0,0:0:0:0:
256,192,74098,1,0,0:0:0:0:
256,192,74321,1,8,0:0:0:0:
256,192,74543,1,8,0:0:0:0:
256,192,74765,1,0,0:0:0:0:
256,192,74987,1,8,0:0:0:0:
256,192,75209,1,8,0:0:0:0:
256,192,75432,1,0,0:0:0:0:
256,192,75654,1,8,0:0:0:0:
256,192,75876,1,0,0:0:0:0:
256,192,76098,1,8,0:0:0:0:
256,192,76321,1,8,0:0:0:0:
256,192,76987,1,8,0:0:0:0:
256,192,77654,1,8,0:0:0:0:
256,192,78321,1,4,0:0:0:0:
256,192,78987,1,8,0:0:0:0:
256,192,79098,1,8,0:0:0:0:
256,192,79209,1,8,0:0:0:0:
256,192,79320,1,8,0:0:0:0:
256,192,79431,1,0,0:0:0:0:
256,192,79542,1,8,0:0:0:0:
256,192,79653,1,0,0:0:0:0:
256,192,79875,1,0,0:0:0:0:
256,192,79987,1,0,0:0:0:0:
256,192,80098,1,8,0:0:0:0:
256,192,80320,1,8,0:0:0:0:
256,192,80431,1,8,0:0:0:0:
256,192,80542,1,8,0:0:0:0:
256,192,80653,1,8,0:0:0:0:
256,192,80764,1,0,0:0:0:0:
256,192,80875,1,0,0:0:0:0:
256,192,80987,1,8,0:0:0:0:
256,192,81209,1,0,0:0:0:0:
256,192,81320,1,8,0:0:0:0:
256,192,81431,1,8,0:0:0:0:
256,192,81653,1,8,0:0:0:0:
256,192,81764,1,8,0:0:0:0:
256,192,81875,1,0,0:0:0:0:
256,192,81987,1,0,0:0:0:0:
256,192,82098,1,0,0:0:0:0:
256,192,82209,1,0,0:0:0:0:
256,192,82320,1,8,0:0:0:0:
256,192,82542,1,8,0:0:0:0:
256,192,82653,1,8,0:0:0:0:
256,192,82764,1,0,0:0:0:0:
256,192,82987,1,8,0:0:0:0:
256,192,83209,1,0,0:0:0:0:
256,192,83320,1,0,0:0:0:0:
256,192,83431,1,0,0:0:0:0:
256,192,83542,1,0,0:0:0:0:
256,192,83653,1,8,0:0:0:0:
256,192,84098,1,0,0:0:0:0:
256,192,84320,1,8,0:0:0:0:
256,192,84431,1,8,0:0:0:0:
256,192,84542,1,8,0:0:0:0:
256,192,84653,1,8,0:0:0:0:
256,192,84764,1,0,0:0:0:0:
256,192,84875,1,0,0:0:0:0:
256,192,84987,1,8,0:0:0:0:
256,192,85209,1,0,0:0:0:0:
256,192,85320,1,0,0:0:0:0:
256,192,85431,1,8,0:0:0:0:
256,192,85653,1,8,0:0:0:0:
256,192,85764,1,8,0:0:0:0:
256,192,85875,1,0,0:0:0:0:
256,192,85987,1,0,0:0:0:0:
256,192,86098,1,8,0:0:0:0:
256,192,86209,1,0,0:0:0:0:
256,192,86320,1,8,0:0:0:0:
256,192,86542,1,0,0:0:0:0:
256,192,86653,1,8,0:0:0:0:
256,192,86764,1,0,0:0:0:0:
256,192,86875,1,0,0:0:0:0:
256,192,86987,1,8,0:0:0:0:
256,192,87209,1,0,0:0:0:0:
256,192,87320,1,0,0:0:0:0:
256,192,87431,1,8,0:0:0:0:
256,192,87542,1,8,0:0:0:0:
256,192,87653,1,0,0:0:0:0:
256,192,87875,1,0,0:0:0:0:
256,192,87986,1,8,0:0:0:0:
256,192,88098,1,8,0:0:0:0:
256,192,88320,1,8,0:0:0:0:
256,192,88542,1,0,0:0:0:0:
256,192,88653,1,0,0:0:0:0:
256,192,88764,1,0,0:0:0:0:
256,192,88875,1,0,0:0:0:0:
256,192,88986,1,8,0:0:0:0:
256,192,89431,1,0,0:0:0:0:
256,192,89653,1,8,0:0:0:0:
256,192,89764,1,8,0:0:0:0:
256,192,89875,1,8,0:0:0:0:
256,192,89986,1,8,0:0:0:0:
256,192,90098,1,0,0:0:0:0:
256,192,90209,1,0,0:0:0:0:
256,192,90320,1,8,0:0:0:0:
256,192,90542,1,0,0:0:0:0:
256,192,90653,1,0,0:0:0:0:
256,192,90764,1,8,0:0:0:0:
256,192,90875,1,0,0:0:0:0:
256,192,90986,1,8,0:0:0:0:
256,192,91209,1,8,0:0:0:0:
256,192,91320,1,0,0:0:0:0:
256,192,91431,1,0,0:0:0:0:
256,192,91542,1,8,0:0:0:0:
256,192,91653,1,0,0:0:0:0:
256,192,91875,1,0,0:0:0:0:
256,192,91986,1,8,0:0:0:0:
256,192,92098,1,0,0:0:0:0:
256,192,92209,1,8,0:0:0:0:
256,192,92320,1,8,0:0:0:0:
256,192,92542,1,8,0:0:0:0:
256,192,92653,1,8,0:0:0:0:
256,192,92764,1,0,0:0:0:0:
256,192,92875,1,0,0:0:0:0:
256,192,92986,1,8,0:0:0:0:
256,192,93098,1,8,0:0:0:0:
256,192,93209,1,0,0:0:0:0:
256,192,93431,1,8,0:0:0:0:
256,192,93542,1,0,0:0:0:0:
256,192,93653,1,8,0:0:0:0:
256,192,93875,1,0,0:0:0:0:
256,192,93986,1,0,0:0:0:0:
256,192,94098,1,0,0:0:0:0:
256,192,94209,1,0,0:0:0:0:
256,192,94320,1,8,0:0:0:0:
256,192,94764,1,8,0:0:0:0:
256,192,94986,1,8,0:0:0:0:
256,192,95098,1,0,0:0:0:0:
256,192,95209,1,0,0:0:0:0:
256,192,95320,1,0,0:0:0:0:
256,192,95431,1,8,0:0:0:0:
256,192,95542,1,0,0:0:0:0:
256,192,95653,1,8,0:0:0:0:
256,192,95875,1,8,0:0:0:0:
256,192,95986,1,8,0:0:0:0:
256,192,96098,1,0,0:0:0:0:
256,192,96209,1,8,0:0:0:0:
256,192,96320,1,0,0:0:0:0:
256,192,96542,1,8,0:0:0:0:
256,192,96653,1,0,0:0:0:0:
256,192,96764,1,0,0:0:0:0:
256,192,96875,1,0,0:0:0:0:
256,192,96986,1,8,0:0:0:0:
256,192,97209,1,0,0:0:0:0:
256,192,97320,1,0,0:0:0:0:
256,192,97431,1,8,0:0:0:0:
256,192,97653,1,4,0:0:0:0:
256,192,97875,1,4,0:0:0:0:
256,192,98097,1,4,0:0:0:0:
256,192,98319,1,12,0:0:0:0:
256,192,98986,1,12,0:0:0:0:
256,192,99208,1,4,0:0:0:0:
256,192,99430,1,4,0:0:0:0:
256,192,99653,1,12,0:0:0:0:
256,192,100319,1,12,0:0:0:0:
256,192,100541,1,12,0:0:0:0:
256,192,100764,1,4,0:0:0:0:
256,192,100986,1,12,0:0:0:0:
256,192,101208,1,12,0:0:0:0:
256,192,101430,1,4,0:0:0:0:
256,192,101653,1,8,0:0:0:0:
256,192,101764,1,0,0:0:0:0:
256,192,101875,1,8,0:0:0:0:
256,192,101986,1,8,0:0:0:0:
256,192,102097,1,0,0:0:0:0:
256,192,102208,1,0,0:0:0:0:
256,192,102319,1,8,0:0:0:0:
256,192,102541,1,0,0:0:0:0:
256,192,102653,1,0,0:0:0:0:
256,192,102764,1,8,0:0:0:0:
256,192,102875,1,8,0:0:0:0:
256,192,102986,1,4,0:0:0:0:
256,192,103875,1,4,0:0:0:0:
256,192,104097,1,4,0:0:0:0:
256,192,104319,1,12,0:0:0:0:
256,192,105208,1,4,0:0:0:0:
256,192,105430,1,4,0:0:0:0:
256,192,105653,1,12,0:0:0:0:
256,192,106541,1,4,0:0:0:0:
256,192,106764,1,4,0:0:0:0:
256,192,106986,1,12,0:0:0:0:
256,192,107319,1,12,0:0:0:0:
256,192,107652,1,8,0:0:0:0:
256,192,107819,1,8,0:0:0:0:
256,192,107986,1,8,0:0:0:0:
256,192,108152,1,8,0:0:0:0:
256,192,108320,1,4,0:0:0:0:
256,192,110320,1,8,0:0:0:0:
256,192,110403,1,8,0:0:0:0:
256,192,110486,1,8,0:0:0:0:
256,192,110570,1,8,0:0:0:0:
256,192,110653,1,0,0:0:0:0:
256,192,110986,5,12,0:0:0:0:
256,192,111152,1,0,0:0:0:0:
256,192,111319,1,8,0:0:0:0:
256,192,111402,1,0,0:0:0:0:
256,192,111486,1,8,0:0:0:0:
256,192,111569,1,8,0:0:0:0:
256,192,111652,1,0,0:0:0:0:
256,192,111819,1,8,0:0:0:0:
256,192,111902,1,8,0:0:0:0:
256,192,111986,1,0,0:0:0:0:
256,192,112152,1,0,0:0:0:0:
256,192,112319,1,8,0:0:0:0:
256,192,112486,1,8,0:0:0:0:
256,192,112569,1,8,0:0:0:0:
256,192,112652,1,0,0:0:0:0:
256,192,112736,1,0,0:0:0:0:
256,192,112819,1,8,0:0:0:0:
256,192,112986,1,8,0:0:0:0:
256,192,113152,1,0,0:0:0:0:
256,192,113236,1,0,0:0:0:0:
256,192,113319,1,8,0:0:0:0:
256,192,113486,1,0,0:0:0:0:
256,192,113652,1,8,0:0:0:0:
256,192,113819,1,0,0:0:0:0:
256,192,113986,1,8,0:0:0:0:
256,192,114069,1,0,0:0:0:0:
256,192,114152,1,8,0:0:0:0:
256,192,114236,1,8,0:0:0:0:
256,192,114319,1,8,0:0:0:0:
256,192,114486,1,0,0:0:0:0:
256,192,114652,1,8,0:0:0:0:
256,192,114819,1,0,0:0:0:0:
256,192,114902,1,0,0:0:0:0:
256,192,114986,1,8,0:0:0:0:
256,192,115152,1,8,0:0:0:0:
256,192,115236,1,0,0:0:0:0:
256,192,115319,1,8,0:0:0:0:
256,192,115486,1,0,0:0:0:0:
256,192,115652,1,8,0:0:0:0:
256,192,115819,1,8,0:0:0:0:
256,192,115986,1,0,0:0:0:0:
256,192,116319,1,12,0:0:0:0:
256,192,116486,1,0,0:0:0:0:
256,192,116652,1,0,0:0:0:0:
256,192,116736,1,0,0:0:0:0:
256,192,116819,1,8,0:0:0:0:
256,192,116902,1,0,0:0:0:0:
256,192,116986,1,8,0:0:0:0:
256,192,117152,1,8,0:0:0:0:
256,192,117236,1,8,0:0:0:0:
256,192,117319,1,0,0:0:0:0:
256,192,117486,1,0,0:0:0:0:
256,192,117652,1,8,0:0:0:0:
256,192,117736,1,0,0:0:0:0:
256,192,117819,1,8,0:0:0:0:
256,192,117902,1,8,0:0:0:0:
256,192,117985,1,0,0:0:0:0:
256,192,118152,1,0,0:0:0:0:
256,192,118319,5,8,0:0:0:0:
256,192,118402,1,8,0:0:0:0:
256,192,118485,1,0,0:0:0:0:
256,192,118569,1,8,0:0:0:0:
256,192,118652,1,0,0:0:0:0:
256,192,118819,1,0,0:0:0:0:
256,192,118985,1,4,0:0:0:0:
256,192,119152,1,4,0:0:0:0:
256,192,119319,1,12,0:0:0:0:
256,192,119652,1,12,0:0:0:0:
256,192,119819,1,4,0:0:0:0:
256,192,119985,1,12,0:0:0:0:
256,192,120319,1,8,0:0:0:0:
256,192,120402,1,8,0:0:0:0:
256,192,120485,1,0,0:0:0:0:
256,192,120569,1,0,0:0:0:0:
256,192,120652,1,8,0:0:0:0:
256,192,120735,1,8,0:0:0:0:
256,192,120819,1,0,0:0:0:0:
256,192,120985,1,12,0:0:0:0:
256,192,121152,1,12,0:0:0:0:
256,192,121319,1,12,0:0:0:0:
256,192,121652,1,4,0:0:0:0:
256,192,122152,1,0,0:0:0:0:
256,192,122319,1,8,0:0:0:0:
256,192,122485,1,0,0:0:0:0:
256,192,122819,1,8,0:0:0:0:
256,192,122985,1,0,0:0:0:0:
256,192,123485,1,0,0:0:0:0:
256,192,123652,1,8,0:0:0:0:
256,192,123819,1,8,0:0:0:0:
256,192,124152,1,8,0:0:0:0:
256,192,124319,1,0,0:0:0:0:
256,192,124819,1,0,0:0:0:0:
256,192,124985,1,8,0:0:0:0:
256,192,125152,1,8,0:0:0:0:
256,192,125319,1,0,0:0:0:0:
256,192,125652,1,8,0:0:0:0:
256,192,125819,1,8,0:0:0:0:
256,192,125985,1,0,0:0:0:0:
256,192,126152,1,8,0:0:0:0:
256,192,126319,1,8,0:0:0:0:
256,192,126485,1,0,0:0:0:0:
256,192,126819,1,0,0:0:0:0:
256,192,126902,1,0,0:0:0:0:
256,192,126985,1,0,0:0:0:0:
256,192,127485,1,0,0:0:0:0:
256,192,127652,1,8,0:0:0:0:
256,192,127819,1,0,0:0:0:0:
256,192,128152,1,8,0:0:0:0:
256,192,128235,1,8,0:0:0:0:
256,192,128319,1,0,0:0:0:0:
256,192,128485,1,0,0:0:0:0:
256,192,128819,1,0,0:0:0:0:
256,192,128985,1,8,0:0:0:0:
256,192,129152,1,0,0:0:0:0:
256,192,129485,1,0,0:0:0:0:
256,192,129569,1,0,0:0:0:0:
256,192,129652,1,12,0:0:0:0:
256,192,129985,1,0,0:0:0:0:
256,192,130319,1,12,0:0:0:0:
256,192,130652,1,0,0:0:0:0:
256,192,130985,1,12,0:0:0:0:
256,192,131235,1,0,0:0:0:0:
256,192,131485,1,8,0:0:0:0:
256,192,131652,1,12,0:0:0:0:
256,192,131819,1,0,0:0:0:0:
256,192,132152,1,0,0:0:0:0:
256,192,132319,1,12,0:0:0:0:
256,192,132652,1,0,0:0:0:0:
256,192,132819,1,0,0:0:0:0:
256,192,132985,1,8,0:0:0:0:
256,192,133152,1,8,0:0:0:0:
256,192,133485,1,8,0:0:0:0:
256,192,133652,1,0,0:0:0:0:
256,192,133985,1,8,0:0:0:0:
256,192,134152,1,0,0:0:0:0:
256,192,134319,1,8,0:0:0:0:
256,192,134485,1,8,0:0:0:0:
256,192,134819,1,8,0:0:0:0:
256,192,134985,1,0,0:0:0:0:
256,192,135319,1,8,0:0:0:0:
256,192,135485,1,0,0:0:0:0:
256,192,135652,1,8,0:0:0:0:
256,192,135819,1,8,0:0:0:0:
256,192,135985,1,0,0:0:0:0:
256,192,136319,1,8,0:0:0:0:
256,192,136485,1,8,0:0:0:0:
256,192,136652,1,0,0:0:0:0:
256,192,136819,1,8,0:0:0:0:
256,192,136985,1,8,0:0:0:0:
256,192,137152,1,0,0:0:0:0:
256,192,137485,1,0,0:0:0:0:
256,192,137569,1,0,0:0:0:0:
256,192,137652,1,8,0:0:0:0:
256,192,138152,1,0,0:0:0:0:
256,192,138319,1,8,0:0:0:0:
256,192,138819,1,8,0:0:0:0:
256,192,138985,1,0,0:0:0:0:
256,192,139319,1,8,0:0:0:0:
256,192,139485,1,0,0:0:0:0:
256,192,139652,1,8,0:0:0:0:
256,192,139985,1,0,0:0:0:0:
256,192,140319,1,12,0:0:0:0:
256,192,140652,1,0,0:0:0:0:
256,192,140985,1,12,0:0:0:0:
256,192,141319,1,0,0:0:0:0:
256,192,141652,1,12,0:0:0:0:
256,192,141902,1,8,0:0:0:0:
256,192,142152,1,0,0:0:0:0:
256,192,142235,1,0,0:0:0:0:
256,192,142319,1,12,0:0:0:0:
256,192,142485,1,0,0:0:0:0:
256,192,142819,1,0,0:0:0:0:
256,192,142986,5,8,0:0:0:0:
256,192,143208,1,0,0:0:0:0:
256,192,143430,1,0,0:0:0:0:
256,192,143652,1,8,0:0:0:0:
256,192,143874,1,8,0:0:0:0:
256,192,144097,1,0,0:0:0:0:
256,192,144319,1,8,0:0:0:0:
256,192,144763,1,8,0:0:0:0:
256,192,144986,1,0,0:0:0:0:
256,192,145430,1,0,0:0:0:0:
256,192,145652,1,8,0:0:0:0:
256,192,145874,1,8,0:0:0:0:
256,192,146097,1,0,0:0:0:0:
256,192,146319,1,8,0:0:0:0:
256,192,146541,1,0,0:0:0:0:
256,192,146763,1,0,0:0:0:0:
256,192,146986,1,8,0:0:0:0:
256,192,147208,1,8,0:0:0:0:
256,192,147430,1,0,0:0:0:0:
256,192,147652,1,8,0:0:0:0:
256,192,148319,12,0,150763,0:0:0:0:
256,192,150986,5,0,0:0:0:0:
256,192,151652,1,0,0:0:0:0:
256,192,152319,1,12,0:0:0:0:
256,192,152652,1,12,0:0:0:0:
256,192,152985,1,8,0:0:0:0:
256,192,153152,1,8,0:0:0:0:
256,192,153319,1,8,0:0:0:0:
256,192,153402,1,8,0:0:0:0:
256,192,153485,1,8,0:0:0:0:
256,192,153569,1,8,0:0:0:0:
256,192,153652,5,4,0:0:0:0:
256,192,153818,1,8,0:0:0:0:
256,192,153902,1,8,0:0:0:0:
256,192,153985,1,0,0:0:0:0:
256,192,154152,1,0,0:0:0:0:
256,192,154318,1,8,0:0:0:0:
256,192,154402,1,8,0:0:0:0:
256,192,154485,1,0,0:0:0:0:
256,192,154568,1,0,0:0:0:0:
256,192,154652,1,8,0:0:0:0:
256,192,154818,1,8,0:0:0:0:
256,192,154985,1,0,0:0:0:0:
256,192,155152,1,0,0:0:0:0:
256,192,155235,1,0,0:0:0:0:
256,192,155318,1,8,0:0:0:0:
256,192,155402,1,0,0:0:0:0:
256,192,155485,1,8,0:0:0:0:
256,192,155568,1,8,0:0:0:0:
256,192,155652,1,0,0:0:0:0:
256,192,155818,1,0,0:0:0:0:
256,192,155985,1,8,0:0:0:0:
256,192,156068,1,8,0:0:0:0:
256,192,156152,1,0,0:0:0:0:
256,192,156318,1,8,0:0:0:0:
256,192,156652,1,8,0:0:0:0:
256,192,156818,1,0,0:0:0:0:
256,192,156985,1,8,0:0:0:0:
256,192,157068,1,8,0:0:0:0:
256,192,157152,1,0,0:0:0:0:
256,192,157235,1,8,0:0:0:0:
256,192,157318,1,0,0:0:0:0:
256,192,157485,1,8,0:0:0:0:
256,192,157652,1,0,0:0:0:0:
256,192,157818,1,0,0:0:0:0:
256,192,157902,1,0,0:0:0:0:
256,192,157985,1,8,0:0:0:0:
256,192,158068,1,8,0:0:0:0:
256,192,158152,1,0,0:0:0:0:
256,192,158235,1,0,0:0:0:0:
256,192,158318,1,8,0:0:0:0:
256,192,158485,1,0,0:0:0:0:
256,192,158652,1,8,0:0:0:0:
256,192,158735,1,8,0:0:0:0:
256,192,158818,1,0,0:0:0:0:
256,192,158985,1,12,0:0:0:0:
256,192,159318,1,0,0:0:0:0:
256,192,159485,1,0,0:0:0:0:
256,192,159568,1,0,0:0:0:0:
256,192,159652,1,8,0:0:0:0:
256,192,159818,1,0,0:0:0:0:
256,192,159985,1,8,0:0:0:0:
256,192,160068,1,0,0:0:0:0:
256,192,160152,1,8,0:0:0:0:
256,192,160318,1,0,0:0:0:0:
256,192,160485,1,8,0:0:0:0:
256,192,160568,1,0,0:0:0:0:
256,192,160652,1,8,0:0:0:0:
256,192,160735,1,8,0:0:0:0:
256,192,160818,1,0,0:0:0:0:
256,192,160985,1,8,0:0:0:0:
256,192,161068,1,8,0:0:0:0:
256,192,161152,1,0,0:0:0:0:
256,192,161318,1,8,0:0:0:0:
256,192,161402,1,0,0:0:0:0:
256,192,161485,1,0,0:0:0:0:
256,192,161652,1,8,0:0:0:0:
256,192,161818,1,0,0:0:0:0:
256,192,161985,1,8,0:0:0:0:
256,192,162152,1,0,0:0:0:0:
256,192,162235,1,0,0:0:0:0:
256,192,162318,1,8,0:0:0:0:
256,192,162402,1,8,0:0:0:0:
256,192,162485,1,0,0:0:0:0:
256,192,162652,1,8,0:0:0:0:
256,192,162735,1,0,0:0:0:0:
256,192,162818,1,8,0:0:0:0:
256,192,162902,1,8,0:0:0:0:
256,192,162985,1,0,0:0:0:0:
256,192,163152,1,12,0:0:0:0:
256,192,163485,1,0,0:0:0:0:
256,192,163568,1,0,0:0:0:0:
256,192,163652,1,12,0:0:0:0:
256,192,163818,1,8,0:0:0:0:
256,192,163985,1,4,0:0:0:0:
256,192,164152,1,0,0:0:0:0:
256,192,164318,5,12,0:0:0:0:
256,192,164485,1,0,0:0:0:0:
256,192,164652,1,8,0:0:0:0:
256,192,164735,1,8,0:0:0:0:
256,192,164818,1,0,0:0:0:0:
256,192,164985,1,8,0:0:0:0:
256,192,165152,1,0,0:0:0:0:
256,192,165235,1,0,0:0:0:0:
256,192,165318,1,8,0:0:0:0:
256,192,165402,1,0,0:0:0:0:
256,192,165485,1,8,0:0:0:0:
256,192,165652,1,0,0:0:0:0:
256,192,165818,1,0,0:0:0:0:
256,192,165902,1,8,0:0:0:0:
256,192,165985,1,0,0:0:0:0:
256,192,166068,1,0,0:0:0:0:
256,192,166152,1,8,0:0:0:0:
256,192,166235,1,8,0:0:0:0:
256,192,166318,1,0,0:0:0:0:
256,192,166485,1,0,0:0:0:0:
256,192,166652,1,8,0:0:0:0:
256,192,166735,1,8,0:0:0:0:
256,192,166818,1,0,0:0:0:0:
256,192,166985,1,12,0:0:0:0:
256,192,167318,1,8,0:0:0:0:
256,192,167485,1,0,0:0:0:0:
256,192,167651,1,8,0:0:0:0:
256,192,167735,1,8,0:0:0:0:
256,192,167818,1,0,0:0:0:0:
256,192,167901,1,8,0:0:0:0:
256,192,167985,1,0,0:0:0:0:
256,192,168151,1,12,0:0:0:0:
256,192,168485,1,8,0:0:0:0:
256,192,168651,1,0,0:0:0:0:
256,192,168818,1,8,0:0:0:0:
256,192,168901,1,8,0:0:0:0:
256,192,168985,1,0,0:0:0:0:
256,192,169151,1,8,0:0:0:0:
256,192,169235,1,8,0:0:0:0:
256,192,169318,1,0,0:0:0:0:
256,192,169485,1,8,0:0:0:0:
256,192,169651,1,0,0:0:0:0:
256,192,169818,1,0,0:0:0:0:
256,192,169985,1,8,0:0:0:0:
256,192,170318,1,0,0:0:0:0:
256,192,170485,1,0,0:0:0:0:
256,192,170651,1,8,0:0:0:0:
256,192,170985,1,0,0:0:0:0:
256,192,171151,1,0,0:0:0:0:
256,192,171318,1,8,0:0:0:0:
256,192,171485,1,0,0:0:0:0:
256,192,171568,1,0,0:0:0:0:
256,192,171651,1,8,0:0:0:0:
256,192,171735,1,0,0:0:0:0:
256,192,171818,1,0,0:0:0:0:
256,192,171901,1,0,0:0:0:0:
256,192,171985,1,8,0:0:0:0:
256,192,172151,1,8,0:0:0:0:
256,192,172319,5,4,0:0:0:0:
256,192,172541,1,4,0:0:0:0:
256,192,172763,1,4,0:0:0:0:
256,192,172985,1,12,0:0:0:0:
256,192,173652,1,12,0:0:0:0:
256,192,173874,1,4,0:0:0:0:
256,192,174096,1,4,0:0:0:0:
256,192,174319,1,12,0:0:0:0:
256,192,174985,1,12,0:0:0:0:
256,192,175207,1,12,0:0:0:0:
256,192,175430,1,4,0:0:0:0:
256,192,175652,1,12,0:0:0:0:
256,192,175874,1,4,0:0:0:0:
256,192,176096,1,4,0:0:0:0:
256,192,176319,1,8,0:0:0:0:
256,192,176430,1,0,0:0:0:0:
256,192,176541,1,8,0:0:0:0:
256,192,176652,1,8,0:0:0:0:
256,192,176763,1,0,0:0:0:0:
256,192,176874,1,0,0:0:0:0:
256,192,176985,1,8,0:0:0:0:
256,192,177207,1,0,0:0:0:0:
256,192,177319,1,0,0:0:0:0:
256,192,177430,1,8,0:0:0:0:
256,192,177541,1,8,0:0:0:0:
256,192,177652,5,4,0:0:0:0:
256,192,177985,1,8,0:0:0:0:
256,192,178152,1,0,0:0:0:0:
256,192,178485,1,0,0:0:0:0:
256,192,178652,1,8,0:0:0:0:
256,192,178985,1,0,0:0:0:0:
256,192,179152,1,0,0:0:0:0:
256,192,179318,1,8,0:0:0:0:
256,192,179485,1,0,0:0:0:0:
256,192,179818,1,0,0:0:0:0:
256,192,179985,1,8,0:0:0:0:
256,192,180152,1,8,0:0:0:0:
256,192,180318,1,0,0:0:0:0:
256,192,180652,1,8,0:0:0:0:
256,192,180818,1,0,0:0:0:0:
256,192,181152,1,0,0:0:0:0:
256,192,181318,1,8,0:0:0:0:
256,192,181485,1,8,0:0:0:0:
256,192,181652,1,0,0:0:0:0:
256,192,181818,1,0,0:0:0:0:
256,192,181985,1,8,0:0:0:0:
256,192,182152,1,0,0:0:0:0:
256,192,182485,1,0,0:0:0:0:
256,192,182652,1,8,0:0:0:0:
256,192,182818,1,0,0:0:0:0:
256,192,182902,1,8,0:0:0:0:
256,192,182985,1,0,0:0:0:0:
256,192,183318,1,8,0:0:0:0:
256,192,183485,1,0,0:0:0:0:
256,192,183818,1,0,0:0:0:0:
256,192,183985,1,8,0:0:0:0:
256,192,184318,1,0,0:0:0:0:
256,192,184485,1,8,0:0:0:0:
256,192,184652,1,0,0:0:0:0:
256,192,184818,1,0,0:0:0:0:
256,192,185152,1,0,0:0:0:0:
256,192,185318,1,8,0:0:0:0:
256,192,185485,1,0,0:0:0:0:
256,192,185652,1,8,0:0:0:0:
256,192,185818,1,8,0:0:0:0:
256,192,185985,1,0,0:0:0:0:
256,192,186318,1,8,0:0:0:0:
256,192,186485,1,8,0:0:0:0:
256,192,186652,1,0,0:0:0:0:
256,192,186985,1,8,0:0:0:0:
256,192,187152,1,0,0:0:0:0:
256,192,187318,1,0,0:0:0:0:
256,192,187485,1,8,0:0:0:0:
256,192,187818,1,0,0:0:0:0:
256,192,187985,1,8,0:0:0:0:
256,192,188068,1,8,0:0:0:0:
256,192,188152,1,0,0:0:0:0:
256,192,188235,1,8,0:0:0:0:
256,192,188318,1,4,0:0:0:0:
256,192,188652,1,8,0:0:0:0:
256,192,188818,1,0,0:0:0:0:
256,192,189152,1,0,0:0:0:0:
256,192,189318,1,8,0:0:0:0:
256,192,189485,1,8,0:0:0:0:
256,192,189652,1,0,0:0:0:0:
256,192,189985,1,8,0:0:0:0:
256,192,190152,1,0,0:0:0:0:
256,192,190485,1,0,0:0:0:0:
256,192,190652,1,8,0:0:0:0:
256,192,190818,1,0,0:0:0:0:
256,192,190985,1,8,0:0:0:0:
256,192,191318,1,8,0:0:0:0:
256,192,191485,1,0,0:0:0:0:
256,192,191818,1,0,0:0:0:0:
256,192,191985,1,8,0:0:0:0:
256,192,192151,1,8,0:0:0:0:
256,192,192318,1,0,0:0:0:0:
256,192,192485,1,0,0:0:0:0:
256,192,192651,1,8,0:0:0:0:
256,192,192818,1,0,0:0:0:0:
256,192,193151,1,0,0:0:0:0:
256,192,193235,1,0,0:0:0:0:
256,192,193318,1,8,0:0:0:0:
256,192,193485,1,0,0:0:0:0:
256,192,193651,1,12,0:0:0:0:
256,192,193985,1,8,0:0:0:0:
256,192,194151,1,0,0:0:0:0:
256,192,194485,1,0,0:0:0:0:
256,192,194651,1,8,0:0:0:0:
256,192,194818,1,0,0:0:0:0:
256,192,194985,1,12,0:0:0:0:
256,192,195318,1,8,0:0:0:0:
256,192,195485,1,0,0:0:0:0:
256,192,195818,1,0,0:0:0:0:
256,192,195901,1,0,0:0:0:0:
256,192,195985,1,8,0:0:0:0:
256,192,196151,1,0,0:0:0:0:
256,192,196318,1,12,0:0:0:0:
256,192,196651,1,8,0:0:0:0:
256,192,196985,1,0,0:0:0:0:
256,192,197151,1,0,0:0:0:0:
256,192,197318,1,8,0:0:0:0:
256,192,197651,1,0,0:0:0:0:
256,192,197985,1,8,0:0:0:0:
256,192,198151,1,0,0:0:0:0:
256,192,198485,1,0,0:0:0:0:
256,192,198651,1,8,0:0:0:0:
256,192,198735,1,8,0:0:0:0:
256,192,198818,1,0,0:0:0:0:
256,192,198901,1,8,0:0:0:0:
256,192,198985,1,4,0:0:0:0:
256,192,200151,1,8,0:0:0:0:
256,192,200235,1,8,0:0:0:0:
256,192,200318,1,8,0:0:0:0:
256,192,200485,1,8,0:0:0:0:
256,192,200651,1,0,0:0:0:0:
256,192,200818,1,0,0:0:0:0:
256,192,200985,1,8,0:0:0:0:
256,192,201151,1,0,0:0:0:0:
256,192,201235,1,0,0:0:0:0:
256,192,201318,1,0,0:0:0:0:
256,192,201651,1,12,0:0:0:0:
256,192,202818,1,8,0:0:0:0:
256,192,202901,1,8,0:0:0:0:
256,192,202985,1,8,0:0:0:0:
256,192,203151,1,0,0:0:0:0:
256,192,203318,1,8,0:0:0:0:
256,192,203485,1,8,0:0:0:0:
256,192,203651,1,0,0:0:0:0:
256,192,203818,1,0,0:0:0:0:
256,192,203901,1,0,0:0:0:0:
256,192,203985,1,8,0:0:0:0:
256,192,204151,1,0,0:0:0:0:
256,192,204318,1,12,0:0:0:0:
256,192,205485,1,8,0:0:0:0:
256,192,205568,1,8,0:0:0:0:
256,192,205651,1,8,0:0:0:0:
256,192,205818,1,8,0:0:0:0:
256,192,205985,1,0,0:0:0:0:
256,192,206151,1,0,0:0:0:0:
256,192,206318,1,8,0:0:0:0:
256,192,206485,1,0,0:0:0:0:
256,192,206568,1,0,0:0:0:0:
256,192,206651,1,0,0:0:0:0:
256,192,206818,1,0,0:0:0:0:
256,192,206901,1,0,0:0:0:0:
256,192,206985,1,12,0:0:0:0:
256,192,208151,1,8,0:0:0:0:
256,192,208235,1,8,0:0:0:0:
256,192,208318,1,8,0:0:0:0:
256,192,208485,1,0,0:0:0:0:
256,192,208651,1,8,0:0:0:0:
256,192,208818,1,8,0:0:0:0:
256,192,208985,1,0,0:0:0:0:
256,192,209068,1,8,0:0:0:0:
256,192,209151,1,0,0:0:0:0:
256,192,209235,1,0,0:0:0:0:
256,192,209318,1,8,0:0:0:0:
256,192,209485,1,8,0:0:0:0:
256,192,209651,5,4,0:0:0:0:
256,192,209985,1,0,0:0:0:0:
256,192,210151,1,8,0:0:0:0:
256,192,210485,1,8,0:0:0:0:
256,192,210651,1,0,0:0:0:0:
256,192,210818,1,8,0:0:0:0:
256,192,211151,1,8,0:0:0:0:
256,192,211318,1,0,0:0:0:0:
256,192,211485,1,8,0:0:0:0:
256,192,211651,1,8,0:0:0:0:
256,192,211818,1,0,0:0:0:0:
256,192,211901,1,0,0:0:0:0:
256,192,211985,1,8,0:0:0:0:
256,192,212151,1,0,0:0:0:0:
256,192,212318,1,12,0:0:0:0:
256,192,212651,1,0,0:0:0:0:
256,192,212818,1,0,0:0:0:0:
256,192,212985,1,8,0:0:0:0:
256,192,213318,1,0,0:0:0:0:
256,192,213485,1,0,0:0:0:0:
256,192,213651,1,8,0:0:0:0:
256,192,213985,1,0,0:0:0:0:
256,192,214151,1,0,0:0:0:0:
256,192,214235,1,0,0:0:0:0:
256,192,214318,1,8,0:0:0:0:
256,192,214485,1,0,0:0:0:0:
256,192,214651,1,8,0:0:0:0:
256,192,214818,1,8,0:0:0:0:
256,192,214901,1,0,0:0:0:0:
256,192,214985,1,8,0:0:0:0:
256,192,215068,1,8,0:0:0:0:
256,192,215151,1,0,0:0:0:0:
256,192,215235,1,0,0:0:0:0:
256,192,215318,1,8,0:0:0:0:
256,192,215485,1,0,0:0:0:0:
256,192,215651,1,8,0:0:0:0:
256,192,215735,1,0,0:0:0:0:
256,192,215818,1,0,0:0:0:0:
256,192,215901,1,0,0:0:0:0:
256,192,215985,1,8,0:0:0:0:
256,192,216151,1,0,0:0:0:0:
256,192,216318,1,8,0:0:0:0:
256,192,216401,1,8,0:0:0:0:
256,192,216485,1,0,0:0:0:0:
256,192,216651,1,8,0:0:0:0:
256,192,216735,1,8,0:0:0:0:
256,192,216818,1,0,0:0:0:0:
256,192,216985,1,8,0:0:0:0:
256,192,217068,1,8,0:0:0:0:
256,192,217151,1,0,0:0:0:0:
256,192,217235,1,0,0:0:0:0:
256,192,217318,1,8,0:0:0:0:
256,192,217401,1,0,0:0:0:0:
256,192,217485,1,8,0:0:0:0:
256,192,217652,1,4,0:0:0:0:
256,192,217818,12,0,218818,0:0:0:0:
256,192,218985,5,0,0:0:0:0:
256,192,219652,5,4,0:0:0:0:
256,192,220318,1,8,0:0:0:0:
256,192,220429,1,8,0:0:0:0:
256,192,220540,1,8,0:0:0:0:
256,192,220651,1,8,0:0:0:0:
256,192,220762,1,0,0:0:0:0:
256,192,220873,1,8,0:0:0:0:
256,192,220984,1,0,0:0:0:0:
256,192,221206,1,0,0:0:0:0:
256,192,221318,1,0,0:0:0:0:
256,192,221429,1,8,0:0:0:0:
256,192,221651,1,8,0:0:0:0:
256,192,221762,1,8,0:0:0:0:
256,192,221873,1,0,0:0:0:0:
256,192,221984,1,0,0:0:0:0:
256,192,222095,1,8,0:0:0:0:
256,192,222206,1,8,0:0:0:0:
256,192,222318,1,0,0:0:0:0:
256,192,222540,1,0,0:0:0:0:
256,192,222651,1,8,0:0:0:0:
256,192,222762,1,0,0:0:0:0:
256,192,222984,1,8,0:0:0:0:
256,192,223095,1,8,0:0:0:0:
256,192,223206,1,8,0:0:0:0:
256,192,223318,1,8,0:0:0:0:
256,192,223429,1,0,0:0:0:0:
256,192,223540,1,0,0:0:0:0:
256,192,223651,1,8,0:0:0:0:
256,192,223873,1,8,0:0:0:0:
256,192,223984,1,8,0:0:0:0:
256,192,224095,1,0,0:0:0:0:
256,192,224318,1,8,0:0:0:0:
256,192,224540,1,0,0:0:0:0:
256,192,224651,1,0,0:0:0:0:
256,192,224762,1,0,0:0:0:0:
256,192,224873,1,0,0:0:0:0:
256,192,224984,1,8,0:0:0:0:
256,192,225429,1,0,0:0:0:0:
256,192,225651,1,8,0:0:0:0:
256,192,225762,1,8,0:0:0:0:
256,192,225873,1,0,0:0:0:0:
256,192,225984,1,0,0:0:0:0:
256,192,226095,1,8,0:0:0:0:
256,192,226206,1,0,0:0:0:0:
256,192,226318,1,8,0:0:0:0:
256,192,226540,1,0,0:0:0:0:
256,192,226651,1,0,0:0:0:0:
256,192,226762,1,8,0:0:0:0:
256,192,226984,1,8,0:0:0:0:
256,192,227095,1,8,0:0:0:0:
256,192,227206,1,8,0:0:0:0:
256,192,227318,1,8,0:0:0:0:
256,192,227429,1,0,0:0:0:0:
256,192,227540,1,0,0:0:0:0:
256,192,227651,1,8,0:0:0:0:
256,192,227873,1,0,0:0:0:0:
256,192,227984,1,8,0:0:0:0:
256,192,228095,1,8,0:0:0:0:
256,192,228318,1,8,0:0:0:0:
256,192,228540,1,0,0:0:0:0:
256,192,228651,1,0,0:0:0:0:
256,192,228762,1,8,0:0:0:0:
256,192,228873,1,0,0:0:0:0:
256,192,228984,1,8,0:0:0:0:
256,192,229206,1,8,0:0:0:0:
256,192,229318,1,8,0:0:0:0:
256,192,229429,1,0,0:0:0:0:
256,192,229651,1,8,0:0:0:0:
256,192,229873,1,0,0:0:0:0:
256,192,229984,1,0,0:0:0:0:
256,192,230095,1,0,0:0:0:0:
256,192,230206,1,0,0:0:0:0:
256,192,230318,1,8,0:0:0:0:
256,192,230762,1,0,0:0:0:0:
256,192,230984,1,8,0:0:0:0:
256,192,231095,1,8,0:0:0:0:
256,192,231206,1,8,0:0:0:0:
256,192,231318,1,8,0:0:0:0:
256,192,231429,1,0,0:0:0:0:
256,192,231540,1,8,0:0:0:0:
256,192,231651,1,0,0:0:0:0:
256,192,231873,1,0,0:0:0:0:
256,192,231984,1,0,0:0:0:0:
256,192,232095,1,8,0:0:0:0:
256,192,232206,1,0,0:0:0:0:
256,192,232318,1,8,0:0:0:0:
256,192,232540,1,0,0:0:0:0:
256,192,232651,1,0,0:0:0:0:
256,192,232762,1,8,0:0:0:0:
256,192,232873,1,8,0:0:0:0:
256,192,232984,1,0,0:0:0:0:
256,192,233206,1,0,0:0:0:0:
256,192,233318,1,8,0:0:0:0:
256,192,233429,1,0,0:0:0:0:
256,192,233540,1,8,0:0:0:0:
256,192,233651,1,8,0:0:0:0:
256,192,233873,1,0,0:0:0:0:
256,192,233984,1,0,0:0:0:0:
256,192,234095,1,0,0:0:0:0:
256,192,234206,1,0,0:0:0:0:
256,192,234318,1,8,0:0:0:0:
256,192,234429,1,8,0:0:0:0:
256,192,234540,1,0,0:0:0:0:
256,192,234762,1,8,0:0:0:0:
256,192,234873,1,0,0:0:0:0:
256,192,234984,1,8,0:0:0:0:
256,192,235206,1,0,0:0:0:0:
256,192,235318,1,0,0:0:0:0:
256,192,235429,1,0,0:0:0:0:
256,192,235540,1,0,0:0:0:0:
256,192,235651,1,8,0:0:0:0:
256,192,236095,1,8,0:0:0:0:
256,192,236318,1,8,0:0:0:0:
256,192,236429,1,8,0:0:0:0:
256,192,236540,1,0,0:0:0:0:
256,192,236651,1,0,0:0:0:0:
256,192,236762,1,8,0:0:0:0:
256,192,236873,1,0,0:0:0:0:
256,192,236984,1,8,0:0:0:0:
256,192,237206,1,8,0:0:0:0:
256,192,237318,1,8,0:0:0:0:
256,192,237429,1,0,0:0:0:0:
256,192,237540,1,8,0:0:0:0:
256,192,237651,1,0,0:0:0:0:
256,192,237873,1,8,0:0:0:0:
256,192,237984,1,0,0:0:0:0:
256,192,238095,1,0,0:0:0:0:
256,192,238206,1,0,0:0:0:0:
256,192,238317,1,8,0:0:0:0:
256,192,238540,1,0,0:0:0:0:
256,192,238651,1,0,0:0:0:0:
256,192,238762,1,8,0:0:0:0:
256,192,238984,5,4,0:0:0:0:
256,192,239206,1,4,0:0:0:0:
256,192,239428,1,4,0:0:0:0:
256,192,239650,1,12,0:0:0:0:
256,192,240317,1,12,0:0:0:0:
256,192,240539,1,4,0:0:0:0:
256,192,240761,1,4,0:0:0:0:
256,192,240984,1,12,0:0:0:0:
256,192,241650,1,12,0:0:0:0:
256,192,241872,1,12,0:0:0:0:
256,192,242095,1,4,0:0:0:0:
256,192,242317,1,12,0:0:0:0:
256,192,242539,1,12,0:0:0:0:
256,192,242761,1,4,0:0:0:0:
256,192,242984,1,8,0:0:0:0:
256,192,243095,1,0,0:0:0:0:
256,192,243206,1,8,0:0:0:0:
256,192,243317,1,8,0:0:0:0:
256,192,243428,1,0,0:0:0:0:
256,192,243539,1,0,0:0:0:0:
256,192,243650,1,8,0:0:0:0:
256,192,243872,1,0,0:0:0:0:
256,192,243984,1,0,0:0:0:0:
256,192,244095,1,8,0:0:0:0:
256,192,244206,1,8,0:0:0:0:
256,192,244317,5,4,0:0:0:0:
256,192,245206,1,4,0:0:0:0:
256,192,245428,1,4,0:0:0:0:
256,192,245650,1,12,0:0:0:0:
256,192,246539,1,4,0:0:0:0:
256,192,246761,1,4,0:0:0:0:
256,192,246984,1,12,0:0:0:0:
256,192,247872,1,4,0:0:0:0:
256,192,248095,1,4,0:0:0:0:
256,192,248317,1,12,0:0:0:0:
256,192,248650,1,12,0:0:0:0:
256,192,248984,1,8,0:0:0:0:
256,192,249150,1,8,0:0:0:0:
256,192,249317,1,8,0:0:0:0:
256,192,249484,1,8,0:0:0:0:
256,192,249651,1,4,0:0:0:0:
256,192,251651,1,8,0:0:0:0:
256,192,251734,1,8,0:0:0:0:
256,192,251817,1,8,0:0:0:0:
256,192,251901,1,8,0:0:0:0:
256,192,251984,1,0,0:0:0:0:
256,192,252317,1,12,0:0:0:0:
256,192,252483,1,0,0:0:0:0:
256,192,252650,1,0,0:0:0:0:
256,192,252733,1,0,0:0:0:0:
256,192,252817,1,8,0:0:0:0:
256,192,252900,1,8,0:0:0:0:
256,192,252983,1,0,0:0:0:0:
256,192,253150,1,8,0:0:0:0:
256,192,253233,1,0,0:0:0:0:
256,192,253317,1,8,0:0:0:0:
256,192,253483,1,0,0:0:0:0:
256,192,253650,1,8,0:0:0:0:
256,192,253733,1,0,0:0:0:0:
256,192,253817,1,8,0:0:0:0:
256,192,253900,1,8,0:0:0:0:
256,192,253983,1,0,0:0:0:0:
256,192,254150,1,0,0:0:0:0:
256,192,254317,1,8,0:0:0:0:
256,192,254483,1,0,0:0:0:0:
256,192,254567,1,0,0:0:0:0:
256,192,254650,1,8,0:0:0:0:
256,192,254817,1,8,0:0:0:0:
256,192,254983,1,0,0:0:0:0:
256,192,255150,1,0,0:0:0:0:
256,192,255317,1,8,0:0:0:0:
256,192,255400,1,0,0:0:0:0:
256,192,255483,1,8,0:0:0:0:
256,192,255567,1,0,0:0:0:0:
256,192,255650,1,8,0:0:0:0:
256,192,255817,1,0,0:0:0:0:
256,192,255900,1,0,0:0:0:0:
256,192,255983,1,8,0:0:0:0:
256,192,256150,1,0,0:0:0:0:
256,192,256317,1,8,0:0:0:0:
256,192,256400,1,0,0:0:0:0:
256,192,256483,1,8,0:0:0:0:
256,192,256567,1,8,0:0:0:0:
256,192,256650,1,8,0:0:0:0:
256,192,256817,1,0,0:0:0:0:
256,192,256983,1,8,0:0:0:0:
256,192,257150,1,8,0:0:0:0:
256,192,257317,1,0,0:0:0:0:
256,192,257650,1,12,0:0:0:0:
256,192,257817,1,0,0:0:0:0:
256,192,257983,1,8,0:0:0:0:
256,192,258067,1,0,0:0:0:0:
256,192,258150,1,8,0:0:0:0:
256,192,258233,1,8,0:0:0:0:
256,192,258317,1,0,0:0:0:0:
256,192,258483,1,0,0:0:0:0:
256,192,258567,1,0,0:0:0:0:
256,192,258650,1,8,0:0:0:0:
256,192,258817,1,0,0:0:0:0:
256,192,258983,1,8,0:0:0:0:
256,192,259150,1,8,0:0:0:0:
256,192,259233,1,8,0:0:0:0:
256,192,259317,1,0,0:0:0:0:
256,192,259400,1,8,0:0:0:0:
256,192,259483,1,0,0:0:0:0:
256,192,259650,1,0,0:0:0:0:
256,192,259733,1,0,0:0:0:0:
256,192,259817,1,0,0:0:0:0:
256,192,259900,1,0,0:0:0:0:
256,192,259983,1,8,0:0:0:0:
256,192,260150,1,8,0:0:0:0:
256,192,260317,1,4,0:0:0:0:
256,192,260483,1,4,0:0:0:0:
256,192,260650,1,12,0:0:0:0:
256,192,260983,1,12,0:0:0:0:
256,192,261150,1,4,0:0:0:0:
256,192,261317,1,12,0:0:0:0:
256,192,261650,1,8,0:0:0:0:
256,192,261733,1,8,0:0:0:0:
256,192,261817,1,0,0:0:0:0:
256,192,261900,1,0,0:0:0:0:
256,192,261983,1,8,0:0:0:0:
256,192,262067,1,8,0:0:0:0:
256,192,262150,1,0,0:0:0:0:
256,192,262317,1,12,0:0:0:0:
256,192,262483,1,12,0:0:0:0:
256,192,262650,1,12,0:0:0:0:
256,192,262984,1,8,0:0:0:0:
256,192,263206,1,8,0:0:0:0:
256,192,263428,1,0,0:0:0:0:
256,192,263650,1,8,0:0:0:0:
256,192,263872,1,0,0:0:0:0:
256,192,264095,1,0,0:0:0:0:
256,192,264317,1,0,0:0:0:0:
256,192,264984,1,4,0:0:0:0:
256,192,265206,1,12,0:0:0:0:
256,192,265428,1,4,0:0:0:0:
256,192,265650,1,12,0:0:0:0:
256,192,265872,12,0,268317,0:0:0:0:
