osu file format v14

[General]
AudioFilename: audio.mp3
AudioLeadIn: 0
PreviewTime: 100399
Countdown: 0
SampleSet: Soft
StackLeniency: 0.7
Mode: 3
LetterboxInBreaks: 0
SpecialStyle: 0
WidescreenStoryboard: 0

[Editor]
DistanceSpacing: 0.8
BeatDivisor: 16
GridSize: 8
TimelineZoom: 2

[Metadata]
Title:Bakuure! Match Uri no Haken Shoujo (Cut Ver.)
TitleUnicode:爆売れ!マッチ売りの派遣少女 (Cut Ver.)
Artist:Nanahira
ArtistUnicode:ななひら
Creator:Rhezie
Version:Matches
Source:
Tags:wonder trick Confetto C90 Comiket Comic Market ARM 狐夢想 Kitsune Musou CFCD-0012 Electronic Japanese MEGAtive Halloween IOSYS Denpa
BeatmapID:2462897
BeatmapSetID:1181237

[Difficulty]
HPDrainRate:8.5
CircleSize:4
OverallDifficulty:8
ApproachRate:5
SliderMultiplier:1.4
SliderTickRate:1

[Events]
//Background and Video events
0,0,"BG.jpg",0,0
//Break Periods
//Storyboard Layer 0 (Background)
//Storyboard Layer 1 (Fail)
//Storyboard Layer 2 (Pass)
//Storyboard Layer 3 (Foreground)
//Storyboard Layer 4 (Overlay)
//Storyboard Sound Samples

[TimingPoints]
1733,333.333333333333,4,2,1,40,1,0
1733,-117.647058823529,4,2,1,40,0,0
3066,-116.279069767442,4,2,1,40,0,0
4399,-114.942528735632,4,2,1,40,0,0
5732,-113.636363636364,4,2,1,40,0,0
7066,-112.359550561798,4,2,1,40,0,0
8399,-111.111111111111,4,2,1,40,0,0
9732,-109.89010989011,4,2,1,40,0,0
11066,-108.695652173913,4,2,1,40,0,0
12399,-107.52688172043,4,2,1,40,0,0
13732,-106.382978723404,4,2,1,40,0,0
15066,-105.263157894737,4,2,1,40,0,0
16399,-104.166666666667,4,2,1,40,0,0
17732,-103.092783505155,4,2,1,40,0,0
19066,-102.040816326531,4,2,1,40,0,0
20399,-101.010101010101,4,2,1,40,0,0
21732,-100,4,2,1,40,0,0
23066,-142.857142857143,4,2,1,40,0,0
24232,-40,4,2,1,40,0,0
24253,-200,4,2,1,40,0,0
24316,-40,4,2,1,40,0,0
24337,-200,4,2,1,40,0,0
24399,-100,4,2,1,40,0,0
24732,-50,4,2,1,40,0,0
24774,-250,4,2,1,40,0,0
24816,-100,4,2,1,40,0,0
24899,-50,4,2,1,40,0,0
24941,-250,4,2,1,40,0,0
24982,-100,4,2,1,40,0,0
25232,-62.5,4,2,1,40,0,0
25274,-250,4,2,1,40,0,0
25316,-62.5,4,2,1,40,0,0
25357,-250,4,2,1,40,0,0
25399,-66.6666666666667,4,2,1,40,0,0
25482,-83.3333333333333,4,2,1,40,0,0
25566,-125,4,2,1,40,0,0
25649,-200,4,2,1,40,0,0
25732,-142.857142857143,4,2,1,40,0,0
26899,-40,4,2,1,40,0,0
26920,-200,4,2,1,40,0,0
26982,-40,4,2,1,40,0,0
27003,-200,4,2,1,40,0,0
27066,-100,4,2,1,40,0,0
27399,-50,4,2,1,40,0,0
27441,-250,4,2,1,40,0,0
27482,-100,4,2,1,40,0,0
27566,-50,4,2,1,40,0,0
27607,-250,4,2,1,40,0,0
27649,-100,4,2,1,40,0,0
27899,-62.5,4,2,1,40,0,0
27927,-250,4,2,1,40,0,0
27955,-62.5,4,2,1,40,0,0
27982,-250,4,2,1,40,0,0
28010,-62.5,4,2,1,40,0,0
28038,-250,4,2,1,40,0,0
28066,-76.9230769230769,4,2,1,40,0,0
28149,-142.857142857143,4,2,1,40,0,0
28232,-76.9230769230769,4,2,1,40,0,0
28316,-142.857142857143,4,2,1,40,0,0
29566,-40,4,2,1,40,0,0
29587,-200,4,2,1,40,0,0
29649,-40,4,2,1,40,0,0
29670,-200,4,2,1,40,0,0
29732,-100,4,2,1,40,0,0
30066,-50,4,2,1,40,0,0
30107,-250,4,2,1,40,0,0
30149,-100,4,2,1,40,0,0
30232,-50,4,2,1,40,0,0
30274,-250,4,2,1,40,0,0
30316,-100,4,2,1,40,0,0
30399,-50,4,2,1,40,0,0
30441,-250,4,2,1,40,0,0
30482,-100,4,2,1,40,0,0
30566,-62.5,4,2,1,40,0,0
30607,-250,4,2,1,40,0,0
30649,-62.5,4,2,1,40,0,0
30691,-250,4,2,1,40,0,0
30732,-100,4,2,1,40,0,0
30899,-62.5,4,2,1,40,0,0
30941,-250,4,2,1,40,0,0
30982,-62.5,4,2,1,40,0,0
31024,-250,4,2,1,40,0,0
31066,-142.857142857143,4,2,1,40,0,0
31316,-100,4,2,1,40,0,0
31399,-66.6666666666667,4,2,1,40,0,0
31482,-83.3333333333333,4,2,1,40,0,0
31566,-125,4,2,1,40,0,0
31649,-200,4,2,1,40,0,0
31732,-142.857142857143,4,2,1,40,0,0
31982,-100,4,2,1,40,0,0
32066,-66.6666666666667,4,2,1,40,0,0
32149,-83.3333333333333,4,2,1,40,0,0
32232,-125,4,2,1,40,0,0
32316,-200,4,2,1,40,0,0
32399,-62.5,4,2,1,40,0,0
32420,-250,4,2,1,40,0,0
32441,-62.5,4,2,1,40,0,0
32462,-250,4,2,1,40,0,0
32482,-62.5,4,2,1,40,0,0
32503,-250,4,2,1,40,0,0
32524,-62.5,4,2,1,40,0,0
32545,-250,4,2,1,40,0,0
32566,-100,4,2,1,40,0,0
32732,-62.5,4,2,1,40,0,0
32753,-250,4,2,1,40,0,0
32774,-62.5,4,2,1,40,0,0
32795,-250,4,2,1,40,0,0
32816,-62.5,4,2,1,40,0,0
32837,-250,4,2,1,40,0,0
32857,-62.5,4,2,1,40,0,0
32878,-250,4,2,1,40,0,0
32899,-100,4,2,1,40,0,0
33066,-62.5,4,2,1,40,0,0
33087,-250,4,2,1,40,0,0
33107,-62.5,4,2,1,40,0,0
33128,-250,4,2,1,40,0,0
33149,-62.5,4,2,1,40,0,0
33170,-250,4,2,1,40,0,0
33191,-62.5,4,2,1,40,0,0
33212,-250,4,2,1,40,0,0
33232,-62.5,4,2,1,40,0,0
33253,-250,4,2,1,40,0,0
33274,-62.5,4,2,1,40,0,0
33295,-250,4,2,1,40,0,0
33316,-62.5,4,2,1,40,0,0
33337,-250,4,2,1,40,0,0
33357,-62.5,4,2,1,40,0,0
33378,-250,4,2,1,40,0,0
33399,-62.5,4,2,1,40,0,0
33420,-250,4,2,1,40,0,0
33441,-62.5,4,2,1,40,0,0
33462,-250,4,2,1,40,0,0
33482,-62.5,4,2,1,40,0,0
33503,-250,4,2,1,40,0,0
33524,-62.5,4,2,1,40,0,0
33545,-250,4,2,1,40,0,0
33566,-62.5,4,2,1,40,0,0
33587,-250,4,2,1,40,0,0
33607,-62.5,4,2,1,40,0,0
33628,-250,4,2,1,40,0,0
33649,-62.5,4,2,1,40,0,0
33670,-250,4,2,1,40,0,0
33691,-62.5,4,2,1,40,0,0
33712,-250,4,2,1,40,0,0
33732,-100,4,2,1,40,0,0
35732,-62.5,4,2,1,40,0,0
35774,-250,4,2,1,40,0,0
35816,-62.5,4,2,1,40,0,0
35857,-250,4,2,1,40,0,0
35899,-62.5,4,2,1,40,0,0
35941,-250,4,2,1,40,0,0
35982,-62.5,4,2,1,40,0,0
36024,-250,4,2,1,40,0,0
36066,-66.6666666666667,4,2,1,40,0,0
36149,-83.3333333333333,4,2,1,40,0,0
36232,-125,4,2,1,40,0,0
36316,-200,4,2,1,40,0,0
36399,-100,4,2,1,40,0,0
38566,-62.5,4,2,1,40,0,0
38607,-250,4,2,1,40,0,0
38649,-62.5,4,2,1,40,0,0
38691,-250,4,2,1,40,0,0
38732,-76.9230769230769,4,2,1,40,0,0
38816,-142.857142857143,4,2,1,40,0,0
38899,-76.9230769230769,4,2,1,40,0,0
38982,-142.857142857143,4,2,1,40,0,0
39066,-100,4,2,1,40,0,0
41066,-76.9230769230769,4,2,1,40,0,0
41149,-142.857142857143,4,2,1,40,0,0
41232,-76.9230769230769,4,2,1,40,0,0
41316,-142.857142857143,4,2,1,40,0,0
41399,-76.9230769230769,4,2,1,40,0,0
41482,-142.857142857143,4,2,1,40,0,0
41566,-76.9230769230769,4,2,1,40,0,0
41649,-142.857142857143,4,2,1,40,0,0
41732,-100,4,2,1,40,0,0
43732,-62.5,4,2,1,40,0,0
43774,-250,4,2,1,40,0,0
43816,-62.5,4,2,1,40,0,0
43857,-250,4,2,1,40,0,0
43899,-62.5,4,2,1,40,0,0
43941,-250,4,2,1,40,0,0
43982,-62.5,4,2,1,40,0,0
44024,-250,4,2,1,40,0,0
44066,-76.9230769230769,4,2,1,40,0,0
44149,-142.857142857143,4,2,1,40,0,0
44232,-76.9230769230769,4,2,1,40,0,0
44316,-142.857142857143,4,2,1,40,0,0
44399,-76.9230769230769,4,2,1,40,0,0
44482,-142.857142857143,4,2,1,40,0,0
44566,-76.9230769230769,4,2,1,40,0,0
44649,-142.857142857143,4,2,1,40,0,0
44732,-66.6666666666667,4,2,1,40,0,0
44816,-83.3333333333333,4,2,1,40,0,0
44899,-125,4,2,1,40,0,0
44982,-200,4,2,1,40,0,0
45066,-76.9230769230769,4,2,1,40,0,0
45149,-142.857142857143,4,2,1,40,0,0
45232,-76.9230769230769,4,2,1,40,0,0
45316,-142.857142857143,4,2,1,40,0,0
45399,-66.6666666666667,4,2,1,40,0,0
45482,-83.3333333333333,4,2,1,40,0,0
45566,-125,4,2,1,40,0,0
45649,-200,4,2,1,40,0,0
45732,-62.5,4,2,1,40,0,0
45774,-250,4,2,1,40,0,0
45816,-62.5,4,2,1,40,0,0
45857,-250,4,2,1,40,0,0
45899,-62.5,4,2,1,40,0,0
45941,-250,4,2,1,40,0,0
45982,-62.5,4,2,1,40,0,0
46024,-250,4,2,1,40,0,0
46066,-62.5,4,2,1,40,0,0
46107,-250,4,2,1,40,0,0
46149,-62.5,4,2,1,40,0,0
46191,-250,4,2,1,40,0,0
46232,-62.5,4,2,1,40,0,0
46274,-250,4,2,1,40,0,0
46316,-62.5,4,2,1,40,0,0
46357,-250,4,2,1,40,0,0
46399,-76.9230769230769,4,2,1,40,0,0
46482,-142.857142857143,4,2,1,40,0,0
46566,-76.9230769230769,4,2,1,40,0,0
46649,-142.857142857143,4,2,1,40,0,0
46732,-66.6666666666667,4,2,1,40,0,0
46816,-83.3333333333333,4,2,1,40,0,0
46899,-125,4,2,1,40,0,0
46982,-200,4,2,1,40,0,0
47066,-100,4,2,1,40,0,0
49232,-62.5,4,2,1,40,0,0
49274,-250,4,2,1,40,0,0
49316,-62.5,4,2,1,40,0,0
49357,-250,4,2,1,40,0,0
49399,-76.9230769230769,4,2,1,40,0,0
49482,-142.857142857143,4,2,1,40,0,0
49566,-76.9230769230769,4,2,1,40,0,0
49649,-142.857142857143,4,2,1,40,0,0
49732,-100,4,2,1,40,0,0
51732,-76.9230769230769,4,2,1,40,0,0
51816,-142.857142857143,4,2,1,40,0,0
51899,-76.9230769230769,4,2,1,40,0,0
51982,-142.857142857143,4,2,1,40,0,0
52066,-76.9230769230769,4,2,1,40,0,0
52149,-142.857142857143,4,2,1,40,0,0
52232,-76.9230769230769,4,2,1,40,0,0
52316,-142.857142857143,4,2,1,40,0,0
52399,-100,4,2,1,40,0,0
54566,-62.5,4,2,1,40,0,0
54607,-250,4,2,1,40,0,0
54649,-62.5,4,2,1,40,0,0
54691,-250,4,2,1,40,0,0
54732,-76.9230769230769,4,2,1,40,0,0
54816,-142.857142857143,4,2,1,40,0,0
54899,-76.9230769230769,4,2,1,40,0,0
54982,-142.857142857143,4,2,1,40,0,0
55066,-76.9230769230769,4,2,1,40,0,0
55149,-142.857142857143,4,2,1,40,0,0
55232,-76.9230769230769,4,2,1,40,0,0
55316,-142.857142857143,4,2,1,40,0,0
55399,-66.6666666666667,4,2,1,40,0,0
55482,-83.3333333333333,4,2,1,40,0,0
55566,-125,4,2,1,40,0,0
55649,-200,4,2,1,40,0,0
55732,-76.9230769230769,4,2,1,40,0,0
55816,-142.857142857143,4,2,1,40,0,0
55899,-76.9230769230769,4,2,1,40,0,0
55982,-142.857142857143,4,2,1,40,0,0
56066,-66.6666666666667,4,2,1,40,0,0
56149,-83.3333333333333,4,2,1,40,0,0
56232,-125,4,2,1,40,0,0
56316,-200,4,2,1,40,0,0
56399,-50,4,2,1,40,0,0
56441,-250,4,2,1,40,0,0
56482,-100,4,2,1,40,0,0
56732,-50,4,2,1,40,0,0
56774,-250,4,2,1,40,0,0
56816,-100,4,2,1,40,0,0
57066,-62.5,4,2,1,40,0,0
57107,-250,4,2,1,40,0,0
57149,-62.5,4,2,1,40,0,0
57191,-250,4,2,1,40,0,0
57232,-62.5,4,2,1,40,0,0
57274,-250,4,2,1,40,0,0
57316,-62.5,4,2,1,40,0,0
57357,-250,4,2,1,40,0,0
57399,-76.9230769230769,4,2,1,40,0,0
57482,-142.857142857143,4,2,1,40,0,0
57566,-100,4,2,1,40,0,0
59899,-62.5,4,2,1,40,0,0
59941,-250,4,2,1,40,0,0
59982,-62.5,4,2,1,40,0,0
60024,-250,4,2,1,40,0,0
60066,-76.9230769230769,4,2,1,40,0,0
60149,-142.857142857143,4,2,1,40,0,0
60232,-76.9230769230769,4,2,1,40,0,0
60316,-142.857142857143,4,2,1,40,0,0
60399,-100,4,2,1,40,0,0
62399,-76.9230769230769,4,2,1,40,0,0
62482,-142.857142857143,4,2,1,40,0,0
62566,-76.9230769230769,4,2,1,40,0,0
62649,-142.857142857143,4,2,1,40,0,0
62732,-76.9230769230769,4,2,1,40,0,0
62816,-142.857142857143,4,2,1,40,0,0
62899,-76.9230769230769,4,2,1,40,0,0
62982,-142.857142857143,4,2,1,40,0,0
63066,-100,4,2,1,40,0,0
65232,-62.5,4,2,1,40,0,0
65274,-250,4,2,1,40,0,0
65316,-62.5,4,2,1,40,0,0
65357,-250,4,2,1,40,0,0
65399,-76.9230769230769,4,2,1,40,0,0
65482,-142.857142857143,4,2,1,40,0,0
65566,-76.9230769230769,4,2,1,40,0,0
65649,-142.857142857143,4,2,1,40,0,0
65732,-76.9230769230769,4,2,1,40,0,0
65816,-142.857142857143,4,2,1,40,0,0
65899,-76.9230769230769,4,2,1,40,0,0
65982,-142.857142857143,4,2,1,40,0,0
66066,-66.6666666666667,4,2,1,40,0,0
66149,-83.3333333333333,4,2,1,40,0,0
66232,-125,4,2,1,40,0,0
66316,-200,4,2,1,40,0,0
66399,-76.9230769230769,4,2,1,40,0,0
66482,-142.857142857143,4,2,1,40,0,0
66566,-76.9230769230769,4,2,1,40,0,0
66649,-142.857142857143,4,2,1,40,0,0
66732,-66.6666666666667,4,2,1,40,0,0
66816,-83.3333333333333,4,2,1,40,0,0
66899,-125,4,2,1,40,0,0
66982,-200,4,2,1,40,0,0
67066,-50,4,2,1,40,0,0
67107,-250,4,2,1,40,0,0
67149,-100,4,2,1,40,0,0
67399,-50,4,2,1,40,0,0
67441,-250,4,2,1,40,0,0
67482,-100,4,2,1,40,0,0
67732,-62.5,4,2,1,40,0,0
67774,-250,4,2,1,40,0,0
67816,-62.5,4,2,1,40,0,0
67857,-250,4,2,1,40,0,0
67899,-62.5,4,2,1,40,0,0
67941,-250,4,2,1,40,0,0
67982,-62.5,4,2,1,40,0,0
68024,-250,4,2,1,40,0,0
68066,-76.9230769230769,4,2,1,40,0,0
68149,-142.857142857143,4,2,1,40,0,0
68232,-76.9230769230769,4,2,1,40,0,0
68316,-142.857142857143,4,2,1,40,0,0
68399,-117.647058823529,4,2,1,40,0,0
74399,-111.111111111111,4,2,1,40,0,0
75066,-105.263157894737,4,2,1,40,0,0
75732,-100,4,2,1,40,0,0
76399,-66.6666666666667,4,2,1,40,0,0
76566,-83.3333333333333,4,2,1,40,0,0
76732,-125,4,2,1,40,0,0
76899,-200,4,2,1,40,0,0
77066,-66.6666666666667,4,2,1,40,0,0
77232,-83.3333333333333,4,2,1,40,0,0
77399,-125,4,2,1,40,0,0
77566,-200,4,2,1,40,0,0
77732,-66.6666666666667,4,2,1,40,0,0
77899,-83.3333333333333,4,2,1,40,0,0
78066,-125,4,2,1,40,0,0
78232,-200,4,2,1,40,0,0
78399,-100,4,2,1,40,0,0
78566,-62.5,4,2,1,40,0,0
78649,-250,4,2,1,40,0,0
78732,-62.5,4,2,1,40,0,0
78774,-250,4,2,1,40,0,0
78816,-62.5,4,2,1,40,0,0
78857,-250,4,2,1,40,0,0
78899,-62.5,4,2,1,40,0,0
78941,-250,4,2,1,40,0,0
78982,-62.5,4,2,1,40,0,0
79024,-250,4,2,1,40,0,0
79066,-142.857142857143,4,2,1,40,0,0
80232,-40,4,2,1,40,0,0
80253,-200,4,2,1,40,0,0
80316,-40,4,2,1,40,0,0
80337,-200,4,2,1,40,0,0
80399,-100,4,2,1,40,0,0
80732,-50,4,2,1,40,0,0
80774,-250,4,2,1,40,0,0
80816,-100,4,2,1,40,0,0
80899,-50,4,2,1,40,0,0
80941,-250,4,2,1,40,0,0
80982,-100,4,2,1,40,0,0
81232,-62.5,4,2,1,40,0,0
81274,-250.000000000001,4,2,1,40,0,0
81316,-62.5,4,2,1,40,0,0
81357,-250.000000000001,4,2,1,40,0,0
81399,-66.6666666666667,4,2,1,40,0,0
81482,-83.3333333333333,4,2,1,40,0,0
81566,-125,4,2,1,40,0,0
81649,-200,4,2,1,40,0,0
81732,-142.857142857143,4,2,1,40,0,0
82899,-40,4,2,1,40,0,0
82920,-200,4,2,1,40,0,0
82982,-40,4,2,1,40,0,0
83003,-200,4,2,1,40,0,0
83066,-100,4,2,1,40,0,0
83399,-50,4,2,1,40,0,0
83441,-250,4,2,1,40,0,0
83482,-100,4,2,1,40,0,0
83566,-50,4,2,1,40,0,0
83607,-250,4,2,1,40,0,0
83649,-100,4,2,1,40,0,0
83899,-62.5,4,2,1,40,0,0
83927,-250,4,2,1,40,0,0
83955,-62.5,4,2,1,40,0,0
83982,-250,4,2,1,40,0,0
84010,-62.5,4,2,1,40,0,0
84038,-250,4,2,1,40,0,0
84066,-76.9230769230769,4,2,1,40,0,0
84149,-142.857142857143,4,2,1,40,0,0
84232,-76.9230769230769,4,2,1,40,0,0
84316,-142.857142857143,4,2,1,40,0,0
85566,-40,4,2,1,40,0,0
85587,-200,4,2,1,40,0,0
85649,-40,4,2,1,40,0,0
85670,-200,4,2,1,40,0,0
85732,-100,4,2,1,40,0,0
86066,-50,4,2,1,40,0,0
86107,-250,4,2,1,40,0,0
86149,-100,4,2,1,40,0,0
86232,-50,4,2,1,40,0,0
86274,-250,4,2,1,40,0,0
86316,-100,4,2,1,40,0,0
86566,-62.5,4,2,1,40,0,0
86607,-250,4,2,1,40,0,0
86649,-62.5,4,2,1,40,0,0
86691,-250,4,2,1,40,0,0
86732,-100,4,2,1,40,0,0
86899,-62.5,4,2,1,40,0,0
86941,-250,4,2,1,40,0,0
86982,-62.5,4,2,1,40,0,0
87024,-250,4,2,1,40,0,0
87066,-142.857142857143,4,2,1,40,0,0
88232,-40,4,2,1,40,0,0
88253,-200,4,2,1,40,0,0
88316,-40,4,2,1,40,0,0
88337,-200,4,2,1,40,0,0
88399,-100,4,2,1,40,0,0
88732,-50,4,2,1,40,0,0
88774,-250,4,2,1,40,0,0
88816,-100,4,2,1,40,0,0
88899,-50,4,2,1,40,0,0
88941,-250,4,2,1,40,0,0
88982,-100,4,2,1,40,0,0
89066,-76.9230769230769,4,2,1,40,0,0
89149,-142.857142857143,4,2,1,40,0,0
89232,-76.9230769230769,4,2,1,40,0,0
89316,-142.857142857143,4,2,1,40,0,0
89399,-76.9230769230769,4,2,1,40,0,0
89482,-142.857142857143,4,2,1,40,0,0
89566,-76.9230769230769,4,2,1,40,0,0
89649,-142.857142857143,4,2,1,40,0,0
89732,-98.0392156862745,4,2,1,40,0,0
92399,-96.1538461538461,4,2,1,40,0,0
97732,-100,4,2,1,40,0,0
99732,-250.000000000001,4,2,1,40,0,0
100232,-66.6666666666667,4,2,1,40,0,0
100399,-100,4,2,1,40,0,1
105066,-25,4,2,1,40,0,1
105149,-500,4,2,1,40,0,1
105566,-66.6666666666667,4,2,1,40,0,1
105732,-100,4,2,1,40,0,1
110399,-25,4,2,1,40,0,1
110482,-500,4,2,1,40,0,1
110899,-66.6666666666667,4,2,1,40,0,1
111066,-100,4,2,1,40,0,1
115732,-25,4,2,1,40,0,1
115816,-500,4,2,1,40,0,1
116232,-66.6666666666667,4,2,1,40,0,1
116399,-100,4,2,1,40,0,1
119066,-142.857142857143,4,2,1,40,0,1
119177,-76.9230769230769,4,2,1,40,0,1
119288,-142.857142857143,4,2,1,40,0,1
119399,-76.9230769230769,4,2,1,40,0,1
119510,-142.857142857143,4,2,1,40,0,1
119621,-76.9230769230769,4,2,1,40,0,1
119732,-25,4,2,1,40,0,1
119816,-500,4,2,1,40,0,1
120232,-66.6666666666667,4,2,1,40,0,1
120399,-142.857142857143,4,2,1,40,0,1
120510,-76.9230769230769,4,2,1,40,0,1
120621,-142.857142857143,4,2,1,40,0,1
120732,-76.9230769230769,4,2,1,40,0,1
120844,-142.857142857143,4,2,1,40,0,1
120955,-76.9230769230769,4,2,1,40,0,1
121066,-25,4,2,1,40,0,1
121149,-500,4,2,1,40,0,1
121566,-66.6666666666667,4,2,1,40,0,1
121732,-142.857142857143,4,2,1,40,0,1
121844,-76.9230769230769,4,2,1,40,0,1
121955,-142.857142857143,4,2,1,40,0,1
122066,-76.9230769230769,4,2,1,40,0,1
122177,-142.857142857143,4,2,1,40,0,1
122288,-76.9230769230769,4,2,1,40,0,1
122399,-142.857142857143,4,2,1,40,0,1
122510,-76.9230769230769,4,2,1,40,0,1
122621,-142.857142857143,4,2,1,40,0,1
122732,-76.9230769230769,4,2,1,40,0,1
122844,-142.857142857143,4,2,1,40,0,1
122955,-76.9230769230769,4,2,1,40,0,1
123066,-142.857142857143,4,2,1,40,0,1
123121,-76.9230769230769,4,2,1,40,0,1
123177,-142.857142857143,4,2,1,40,0,1
123232,-76.9230769230769,4,2,1,40,0,1
123288,-142.857142857143,4,2,1,40,0,1
123344,-76.9230769230769,4,2,1,40,0,1
123399,-142.857142857143,4,2,1,40,0,1
123455,-76.9230769230769,4,2,1,40,0,1
123510,-142.857142857143,4,2,1,40,0,1
123566,-76.9230769230769,4,2,1,40,0,1
123621,-142.857142857143,4,2,1,40,0,1
123677,-76.9230769230769,4,2,1,40,0,1
123732,-142.857142857143,4,2,1,40,0,1
123788,-76.9230769230769,4,2,1,40,0,1
123844,-142.857142857143,4,2,1,40,0,1
123899,-76.9230769230769,4,2,1,40,0,1
123955,-142.857142857143,4,2,1,40,0,1
124010,-76.9230769230769,4,2,1,40,0,1
124066,-142.857142857143,4,2,1,40,0,1
124121,-76.9230769230769,4,2,1,40,0,1
124177,-142.857142857143,4,2,1,40,0,1
124232,-76.9230769230769,4,2,1,40,0,1
124288,-142.857142857143,4,2,1,40,0,1
124344,-76.9230769230769,4,2,1,40,0,1
124399,-125,4,2,1,40,0,1
125177,-76.9230769230769,4,2,1,40,0,1
125288,-142.857142857143,4,2,1,40,0,1
125399,-76.9230769230769,4,2,1,40,0,1
125510,-142.857142857143,4,2,1,40,0,1
125621,-76.9230769230769,4,2,1,40,0,1
125732,-125,4,2,1,40,0,1
126510,-76.9230769230769,4,2,1,40,0,1
126621,-142.857142857143,4,2,1,40,0,1
126732,-76.9230769230769,4,2,1,40,0,1
126844,-142.857142857143,4,2,1,40,0,1
126955,-76.9230769230769,4,2,1,40,0,1
127066,-125,4,2,1,40,0,1
127844,-76.9230769230769,4,2,1,40,0,1
127955,-142.857142857143,4,2,1,40,0,1
128066,-76.9230769230769,4,2,1,40,0,1
128177,-142.857142857143,4,2,1,40,0,1
128288,-76.9230769230769,4,2,1,40,0,1
128399,-500,4,2,1,40,0,1
128482,-100,4,2,1,40,0,1
128649,-76.9230769230769,4,2,1,40,0,1
128732,-500,4,2,1,40,0,1
128816,-100,4,2,1,40,0,1
128982,-76.9230769230769,4,2,1,40,0,1
129066,-142.857142857143,4,2,1,40,0,1
129149,-76.9230769230769,4,2,1,40,0,1
129232,-142.857142857143,4,2,1,40,0,1
129316,-76.9230769230769,4,2,1,40,0,1
129399,-142.857142857143,4,2,1,40,0,1
129482,-76.9230769230769,4,2,1,40,0,1
129566,-142.857142857143,4,2,1,40,0,1
129649,-76.9230769230769,4,2,1,40,0,1
129732,-100,4,2,1,40,0,0
131732,-62.5,4,2,1,40,0,0
131774,-250,4,2,1,40,0,0
131816,-62.5,4,2,1,40,0,0
131857,-250,4,2,1,40,0,0
131899,-62.5,4,2,1,40,0,0
131941,-250,4,2,1,40,0,0
131982,-62.5,4,2,1,40,0,0
132024,-250,4,2,1,40,0,0
132066,-66.6666666666667,4,2,1,40,0,0
132149,-83.3333333333333,4,2,1,40,0,0
132232,-125,4,2,1,40,0,0
132316,-200,4,2,1,40,0,0
132399,-100,4,2,1,40,0,0
134566,-62.5,4,2,1,40,0,0
134607,-250,4,2,1,40,0,0
134649,-62.5,4,2,1,40,0,0
134691,-250,4,2,1,40,0,0
134732,-76.9230769230769,4,2,1,40,0,0
134816,-142.857142857143,4,2,1,40,0,0
134899,-76.9230769230769,4,2,1,40,0,0
134982,-142.857142857143,4,2,1,40,0,0
135066,-100,4,2,1,40,0,0
137066,-76.9230769230769,4,2,1,40,0,0
137149,-142.857142857143,4,2,1,40,0,0
137232,-76.9230769230769,4,2,1,40,0,0
137316,-142.857142857143,4,2,1,40,0,0
137399,-76.9230769230769,4,2,1,40,0,0
137482,-142.857142857143,4,2,1,40,0,0
137566,-76.9230769230769,4,2,1,40,0,0
137649,-142.857142857143,4,2,1,40,0,0
137732,-100,4,2,1,40,0,0
139732,-62.5,4,2,1,40,0,0
139774,-250,4,2,1,40,0,0
139816,-62.5,4,2,1,40,0,0
139857,-250,4,2,1,40,0,0
139899,-62.5,4,2,1,40,0,0
139941,-250,4,2,1,40,0,0
139982,-62.5,4,2,1,40,0,0
140024,-250,4,2,1,40,0,0
140066,-76.9230769230769,4,2,1,40,0,0
140149,-142.857142857143,4,2,1,40,0,0
140232,-76.9230769230769,4,2,1,40,0,0
140316,-142.857142857143,4,2,1,40,0,0
140399,-76.9230769230769,4,2,1,40,0,0
140482,-142.857142857143,4,2,1,40,0,0
140566,-76.9230769230769,4,2,1,40,0,0
140649,-142.857142857143,4,2,1,40,0,0
140732,-66.6666666666667,4,2,1,40,0,0
140816,-83.3333333333333,4,2,1,40,0,0
140899,-125,4,2,1,40,0,0
140982,-200,4,2,1,40,0,0
141066,-76.9230769230769,4,2,1,40,0,0
141149,-142.857142857143,4,2,1,40,0,0
141232,-76.9230769230769,4,2,1,40,0,0
141316,-142.857142857143,4,2,1,40,0,0
141399,-66.6666666666667,4,2,1,40,0,0
141482,-83.3333333333334,4,2,1,40,0,0
141566,-125,4,2,1,40,0,0
141649,-200,4,2,1,40,0,0
141732,-62.5,4,2,1,40,0,0
141774,-250,4,2,1,40,0,0
141816,-62.5,4,2,1,40,0,0
141857,-250,4,2,1,40,0,0
141899,-62.5,4,2,1,40,0,0
141941,-250,4,2,1,40,0,0
141982,-62.5,4,2,1,40,0,0
142024,-250,4,2,1,40,0,0
142066,-62.5,4,2,1,40,0,0
142107,-250,4,2,1,40,0,0
142149,-62.5,4,2,1,40,0,0
142191,-250,4,2,1,40,0,0
142232,-62.5,4,2,1,40,0,0
142274,-250,4,2,1,40,0,0
142316,-62.5,4,2,1,40,0,0
142357,-250,4,2,1,40,0,0
142399,-76.9230769230769,4,2,1,40,0,0
142482,-142.857142857143,4,2,1,40,0,0
142566,-76.9230769230769,4,2,1,40,0,0
142649,-142.857142857143,4,2,1,40,0,0
142732,-66.6666666666667,4,2,1,40,0,0
142816,-83.3333333333333,4,2,1,40,0,0
142899,-125,4,2,1,40,0,0
142982,-200,4,2,1,40,0,0
143066,-100,4,2,1,40,0,0
144399,-142.857142857143,4,2,1,40,0,0
144982,-71.4285714285714,4,2,1,40,0,0
145066,-142.857142857143,4,2,1,40,0,0
145177,-76.923076923077,4,2,1,40,0,0
145288,-142.857142857143,4,2,1,40,0,0
145399,-76.923076923077,4,2,1,40,0,0
145510,-142.857142857143,4,2,1,40,0,0
145621,-76.923076923077,4,2,1,40,0,0
145732,-142.857142857143,4,2,1,40,0,0

[HitObjects]
64,192,1732,5,0,0:0:0:0:
192,192,1732,1,0,0:0:0:0:
320,192,1955,1,0,0:0:0:0:
448,192,2177,1,0,0:0:0:0:
64,192,2399,1,0,0:0:0:0:
192,192,2399,1,0,0:0:0:0:
320,192,2621,1,0,0:0:0:0:
448,192,2844,1,0,0:0:0:0:
64,192,3066,1,0,0:0:0:0:
448,192,3066,1,0,0:0:0:0:
320,192,3288,1,0,0:0:0:0:
192,192,3510,1,0,0:0:0:0:
64,192,3732,1,0,0:0:0:0:
448,192,3732,1,0,0:0:0:0:
320,192,3955,1,0,0:0:0:0:
192,192,4177,1,0,0:0:0:0:
64,192,4399,1,0,0:0:0:0:
192,192,4399,1,0,0:0:0:0:
320,192,4621,1,0,0:0:0:0:
448,192,4844,1,0,0:0:0:0:
64,192,5066,1,0,0:0:0:0:
192,192,5066,1,0,0:0:0:0:
320,192,5288,1,0,0:0:0:0:
448,192,5510,1,0,0:0:0:0:
64,192,5732,1,0,0:0:0:0:
448,192,5732,1,0,0:0:0:0:
320,192,5955,1,0,0:0:0:0:
192,192,6177,1,0,0:0:0:0:
64,192,6399,1,0,0:0:0:0:
448,192,6399,1,0,0:0:0:0:
320,192,6621,1,0,0:0:0:0:
192,192,6844,1,0,0:0:0:0:
64,192,7066,1,0,0:0:0:0:
192,192,7066,1,0,0:0:0:0:
448,192,7288,1,0,0:0:0:0:
320,192,7510,1,0,0:0:0:0:
64,192,7732,1,0,0:0:0:0:
192,192,7732,1,0,0:0:0:0:
448,192,7955,1,0,0:0:0:0:
320,192,8177,1,0,0:0:0:0:
64,192,8399,1,0,0:0:0:0:
320,192,8399,1,0,0:0:0:0:
448,192,8621,1,0,0:0:0:0:
192,192,8844,1,0,0:0:0:0:
320,192,9066,1,0,0:0:0:0:
448,192,9066,1,0,0:0:0:0:
64,192,9288,1,0,0:0:0:0:
192,192,9510,1,0,0:0:0:0:
320,192,9732,1,0,0:0:0:0:
448,192,9732,1,0,0:0:0:0:
64,192,9955,1,0,0:0:0:0:
192,192,10177,1,0,0:0:0:0:
320,192,10399,1,0,0:0:0:0:
448,192,10399,1,0,0:0:0:0:
64,192,10621,1,0,0:0:0:0:
192,192,10844,1,0,0:0:0:0:
192,192,11066,1,0,0:0:0:0:
448,192,11066,1,0,0:0:0:0:
320,192,11288,1,0,0:0:0:0:
64,192,11510,1,0,0:0:0:0:
192,192,11732,1,0,0:0:0:0:
448,192,11732,1,0,0:0:0:0:
320,192,11955,1,0,0:0:0:0:
64,192,12177,1,0,0:0:0:0:
64,192,12399,1,0,0:0:0:0:
192,192,12399,1,0,0:0:0:0:
320,192,12621,1,0,0:0:0:0:
448,192,12844,1,0,0:0:0:0:
64,192,13066,1,0,0:0:0:0:
192,192,13066,1,0,0:0:0:0:
320,192,13288,1,0,0:0:0:0:
448,192,13510,1,0,0:0:0:0:
64,192,13732,1,0,0:0:0:0:
448,192,13732,1,0,0:0:0:0:
320,192,13955,1,0,0:0:0:0:
192,192,14177,1,0,0:0:0:0:
64,192,14399,1,0,0:0:0:0:
448,192,14399,128,0,14844:0:0:0:0:
320,192,14621,1,0,0:0:0:0:
192,192,14844,1,0,0:0:0:0:
64,192,15066,1,0,0:0:0:0:
192,192,15066,1,0,0:0:0:0:
320,192,15288,1,0,0:0:0:0:
448,192,15510,1,0,0:0:0:0:
64,192,15732,128,0,16177:0:0:0:0:
192,192,15732,1,0,0:0:0:0:
320,192,15955,1,0,0:0:0:0:
448,192,16177,1,0,0:0:0:0:
64,192,16399,1,0,0:0:0:0:
448,192,16399,1,0,0:0:0:0:
320,192,16621,1,0,0:0:0:0:
192,192,16844,1,0,0:0:0:0:
64,192,17066,1,0,0:0:0:0:
448,192,17066,128,0,17510:0:0:0:0:
320,192,17288,1,0,0:0:0:0:
192,192,17510,1,0,0:0:0:0:
64,192,17732,1,0,0:0:0:0:
192,192,17732,1,0,0:0:0:0:
448,192,17955,1,0,0:0:0:0:
320,192,18177,1,0,0:0:0:0:
64,192,18399,128,0,18844:0:0:0:0:
192,192,18399,1,0,0:0:0:0:
448,192,18621,1,0,0:0:0:0:
320,192,18844,1,0,0:0:0:0:
64,192,19066,1,0,0:0:0:0:
320,192,19066,1,0,0:0:0:0:
448,192,19288,1,0,0:0:0:0:
192,192,19510,1,0,0:0:0:0:
320,192,19732,1,0,0:0:0:0:
448,192,19732,128,0,20177:0:0:0:0:
64,192,19955,1,0,0:0:0:0:
192,192,20177,1,0,0:0:0:0:
320,192,20399,1,0,0:0:0:0:
448,192,20399,1,0,0:0:0:0:
64,192,20621,1,0,0:0:0:0:
192,192,20844,1,0,0:0:0:0:
320,192,21066,1,0,0:0:0:0:
448,192,21066,128,0,21510:0:0:0:0:
64,192,21288,1,0,0:0:0:0:
192,192,21510,1,0,0:0:0:0:
192,192,21732,1,0,0:0:0:0:
448,192,21732,1,0,0:0:0:0:
320,192,21955,1,0,0:0:0:0:
64,192,22177,1,0,0:0:0:0:
192,192,22399,128,0,22844:0:0:0:0:
448,192,22399,1,0,0:0:0:0:
320,192,22621,1,0,0:0:0:0:
64,192,22844,1,0,0:0:0:0:
192,192,23066,128,2,24232:0:0:0:0:
320,192,23066,128,4,24232:0:0:0:0:
448,192,23066,128,0,24232:0:0:0:0:
64,192,24232,1,0,0:0:0:0:
320,192,24316,1,0,0:0:0:0:
64,192,24399,128,0,24732:0:0:0:0:
448,192,24566,128,0,24732:0:0:0:0:
320,192,24732,1,0,0:0:0:0:
320,192,24899,1,0,0:0:0:0:
64,192,25066,128,0,25232:0:0:0:0:
192,192,25232,1,2,0:0:0:0:
320,192,25232,1,0,0:0:0:0:
64,192,25316,1,2,0:0:0:0:
448,192,25316,1,0,0:0:0:0:
192,192,25399,1,2,0:0:0:0:
320,192,25399,128,0,25732:0:0:0:0:
64,192,25732,128,2,26899:0:0:0:0:
192,192,25732,128,4,26899:0:0:0:0:
448,192,25732,128,0,26899:0:0:0:0:
320,192,26899,1,0,0:0:0:0:
192,192,26982,1,0,0:0:0:0:
320,192,27066,128,0,27399:0:0:0:0:
64,192,27232,128,0,27399:0:0:0:0:
192,192,27399,1,0,0:0:0:0:
192,192,27566,1,0,0:0:0:0:
448,192,27732,128,0,27899:0:0:0:0:
64,192,27899,1,2,0:0:0:0:
192,192,27955,1,2,0:0:0:0:
320,192,28010,1,2,0:0:0:0:
64,192,28066,1,2,0:0:0:0:
448,192,28066,1,0,0:0:0:0:
64,192,28232,1,2,0:0:0:0:
448,192,28232,1,0,0:0:0:0:
192,192,28399,128,2,29566:0:0:0:0:
320,192,28399,128,4,29566:0:0:0:0:
448,192,28399,128,0,29566:0:0:0:0:
64,192,29566,1,0,0:0:0:0:
448,192,29649,1,0,0:0:0:0:
64,192,29732,128,0,30066:0:0:0:0:
320,192,29899,128,0,30066:0:0:0:0:
448,192,30066,1,0,0:0:0:0:
448,192,30232,1,0,0:0:0:0:
64,192,30399,1,0,0:0:0:60:Snare.wav
192,192,30399,1,0,0:0:0:0:
320,192,30399,1,0,0:0:0:0:
320,192,30566,1,2,0:0:0:0:
448,192,30566,1,0,0:0:0:0:
64,192,30649,1,2,0:0:0:0:
192,192,30649,1,0,0:0:0:0:
320,192,30732,1,2,0:0:0:0:
448,192,30732,1,0,0:0:0:0:
64,192,30899,1,2,0:0:0:0:
192,192,30899,1,0,0:0:0:0:
320,192,30982,1,2,0:0:0:0:
64,192,31066,128,2,31316:0:0:0:0:
192,192,31066,128,4,31316:0:0:0:0:
448,192,31066,128,0,31316:0:0:0:0:
64,192,31399,1,0,0:0:0:60:Snare.wav
192,192,31399,1,0,0:0:0:0:
448,192,31399,1,0,0:0:0:0:
64,192,31732,128,4,31982:0:0:0:0:
320,192,31732,128,2,31982:0:0:0:0:
448,192,31732,128,0,31982:0:0:0:0:
64,192,32066,1,0,0:0:0:60:Snare.wav
320,192,32066,1,0,0:0:0:0:
448,192,32066,1,0,0:0:0:0:
320,192,32399,1,2,0:0:0:0:
448,192,32399,1,4,0:0:0:0:
64,192,32441,1,0,0:0:0:0:
192,192,32482,1,0,0:0:0:0:
448,192,32524,1,0,0:0:0:0:
320,192,32566,1,0,0:0:0:0:
64,192,32732,1,2,0:0:0:0:
192,192,32732,1,4,0:0:0:0:
448,192,32774,1,0,0:0:0:0:
320,192,32816,1,0,0:0:0:0:
64,192,32857,1,0,0:0:0:0:
192,192,32899,1,0,0:0:0:0:
64,192,33066,1,2,0:0:0:0:
448,192,33066,1,0,0:0:0:0:
320,192,33107,1,0,0:0:0:0:
192,192,33149,1,0,0:0:0:0:
64,192,33191,1,0,0:0:0:0:
448,192,33232,1,2,0:0:0:0:
320,192,33274,1,0,0:0:0:0:
192,192,33316,1,0,0:0:0:0:
64,192,33357,1,0,0:0:0:0:
448,192,33399,1,2,0:0:0:0:
320,192,33441,1,0,0:0:0:0:
192,192,33482,1,0,0:0:0:0:
64,192,33524,1,0,0:0:0:0:
448,192,33566,1,2,0:0:0:0:
320,192,33607,1,0,0:0:0:0:
192,192,33649,1,0,0:0:0:0:
64,192,33691,1,0,0:0:0:0:
320,192,33732,1,2,0:0:0:0:
448,192,33732,128,4,35732:0:0:0:0:
64,192,35732,128,0,35816:0:0:0:0:
320,192,35816,128,0,35899:0:0:0:0:
64,192,35899,128,0,35982:0:0:0:0:
320,192,35982,128,0,36066:0:0:0:0:
192,192,36066,128,0,36399:0:0:0:0:
448,192,36066,1,0,0:0:0:0:
64,192,36399,1,2,0:0:0:0:
320,192,36399,1,4,0:0:0:0:
448,192,36399,1,0,0:0:0:0:
448,192,36566,1,0,0:0:0:0:
64,192,36732,1,2,0:0:0:0:
192,192,36732,1,0,0:0:0:0:
320,192,36732,1,0,0:0:0:0:
64,192,36899,1,0,0:0:0:0:
320,192,37066,128,2,37399:0:0:0:0:
448,192,37066,1,0,0:0:0:0:
448,192,37232,1,0,0:0:0:0:
64,192,37399,1,2,0:0:0:0:
192,192,37399,128,0,37732:0:0:0:0:
64,192,37566,1,0,0:0:0:0:
320,192,37732,1,2,0:0:0:0:
448,192,37732,1,0,0:0:0:0:
448,192,37899,1,0,0:0:0:0:
320,192,37982,1,0,0:0:0:0:
64,192,38066,1,2,0:0:0:0:
192,192,38066,1,0,0:0:0:0:
64,192,38232,1,0,0:0:0:0:
320,192,38399,1,2,0:0:0:0:
448,192,38399,1,0,0:0:0:0:
64,192,38566,1,2,0:0:0:0:
448,192,38566,1,0,0:0:0:0:
192,192,38649,1,2,0:0:0:0:
320,192,38649,1,0,0:0:0:0:
64,192,38732,1,2,0:0:0:0:
448,192,38732,1,0,0:0:0:0:
64,192,38899,1,2,0:0:0:0:
320,192,38899,1,0,0:0:0:0:
192,192,39066,1,2,0:0:0:0:
448,192,39066,1,0,0:0:0:0:
192,192,39232,1,0,0:0:0:0:
64,192,39399,1,2,0:0:0:0:
320,192,39399,1,0,0:0:0:0:
448,192,39399,1,0,0:0:0:0:
448,192,39566,1,0,0:0:0:0:
64,192,39732,128,2,40066:0:0:0:0:
192,192,39732,1,0,0:0:0:0:
192,192,39899,1,0,0:0:0:0:
320,192,40066,128,2,40399:0:0:0:0:
448,192,40066,1,0,0:0:0:0:
448,192,40232,1,0,0:0:0:0:
64,192,40399,1,2,0:0:0:0:
192,192,40399,1,0,0:0:0:0:
320,192,40566,1,0,0:0:0:0:
192,192,40649,1,0,0:0:0:0:
64,192,40732,1,2,0:0:0:0:
320,192,40732,1,0,0:0:0:0:
448,192,40732,1,0,0:0:0:0:
192,192,40899,1,0,0:0:0:0:
64,192,41066,1,2,0:0:0:0:
192,192,41066,1,0,0:0:0:0:
320,192,41232,1,2,0:0:0:0:
448,192,41232,1,0,0:0:0:0:
192,192,41399,1,2,0:0:0:0:
320,192,41399,1,0,0:0:0:0:
64,192,41566,1,2,0:0:0:0:
192,192,41566,1,0,0:0:0:0:
64,192,41732,1,2,0:0:0:0:
320,192,41732,1,4,0:0:0:0:
448,192,41732,1,0,0:0:0:0:
320,192,41899,1,0,0:0:0:0:
64,192,42066,1,2,0:0:0:0:
192,192,42066,1,0,0:0:0:0:
448,192,42066,1,0,0:0:0:0:
192,192,42232,1,0,0:0:0:0:
320,192,42399,1,2,0:0:0:0:
448,192,42399,128,0,42732:0:0:0:0:
320,192,42566,1,0,0:0:0:0:
64,192,42732,128,2,43066:0:0:0:0:
192,192,42732,1,0,0:0:0:0:
192,192,42899,1,0,0:0:0:0:
320,192,43066,1,2,0:0:0:0:
448,192,43066,1,0,0:0:0:0:
320,192,43232,1,0,0:0:0:0:
64,192,43316,1,0,0:0:0:0:
192,192,43399,1,2,0:0:0:0:
448,192,43399,1,0,0:0:0:0:
192,192,43566,1,0,0:0:0:0:
320,192,43732,1,2,0:0:0:0:
448,192,43732,1,0,0:0:0:0:
64,192,43816,1,2,0:0:0:0:
192,192,43816,1,0,0:0:0:0:
320,192,43899,1,2,0:0:0:0:
448,192,43899,1,0,0:0:0:0:
64,192,43982,1,2,0:0:0:0:
192,192,43982,1,0,0:0:0:0:
320,192,44066,1,2,0:0:0:0:
448,192,44066,1,0,0:0:0:0:
192,192,44232,1,2,0:0:0:0:
320,192,44232,1,0,0:0:0:0:
64,192,44399,1,2,0:0:0:0:
192,192,44399,1,4,0:0:0:0:
448,192,44399,1,0,0:0:0:0:
64,192,44566,1,2,0:0:0:0:
320,192,44566,1,4,0:0:0:0:
448,192,44566,1,0,0:0:0:0:
64,192,44732,1,2,0:0:0:0:
192,192,44732,1,4,0:0:0:0:
448,192,44732,128,0,45066:0:0:0:0:
64,192,45066,1,2,0:0:0:0:
192,192,45066,1,4,0:0:0:0:
320,192,45066,1,0,0:0:0:0:
192,192,45232,1,2,0:0:0:0:
320,192,45232,1,4,0:0:0:0:
448,192,45232,1,0,0:0:0:0:
64,192,45399,1,2,0:0:0:0:
192,192,45399,128,4,45732:0:0:0:0:
320,192,45399,1,0,0:0:0:0:
320,192,45732,1,2,0:0:0:0:
448,192,45732,1,0,0:0:0:0:
64,192,45816,1,2,0:0:0:0:
192,192,45816,1,0,0:0:0:0:
320,192,45899,1,2,0:0:0:0:
448,192,45899,1,0,0:0:0:0:
192,192,45982,1,2,0:0:0:0:
64,192,46066,1,2,0:0:0:0:
448,192,46066,1,0,0:0:0:0:
192,192,46149,1,2,0:0:0:0:
320,192,46149,1,0,0:0:0:0:
64,192,46232,1,2,0:0:0:0:
448,192,46232,1,0,0:0:0:0:
320,192,46316,1,2,0:0:0:0:
64,192,46399,1,2,0:0:0:0:
192,192,46399,1,4,0:0:0:0:
448,192,46399,1,0,0:0:0:0:
64,192,46566,1,2,0:0:0:0:
192,192,46566,1,4,0:0:0:0:
320,192,46566,1,0,0:0:0:0:
192,192,46732,1,2,0:0:0:0:
320,192,46732,128,4,47066:0:0:0:0:
448,192,46732,1,0,0:0:0:0:
64,192,47066,1,2,0:0:0:0:
192,192,47066,1,4,0:0:0:0:
448,192,47066,1,0,0:0:0:0:
320,192,47232,1,0,0:0:0:0:
64,192,47399,1,2,0:0:0:0:
448,192,47399,1,0,0:0:0:0:
192,192,47566,1,0,0:0:0:0:
320,192,47732,1,2,0:0:0:0:
448,192,47732,1,0,0:0:0:0:
448,192,47899,128,0,48066:0:0:0:0:
64,192,48066,1,2,0:0:0:0:
192,192,48066,1,0,0:0:0:0:
320,192,48232,1,0,0:0:0:0:
64,192,48399,1,2,0:0:0:0:
448,192,48399,1,0,0:0:0:0:
192,192,48566,1,0,0:0:0:0:
64,192,48732,1,2,0:0:0:0:
320,192,48732,1,0,0:0:0:0:
192,192,48899,1,0,0:0:0:0:
320,192,49066,1,2,0:0:0:0:
448,192,49066,1,0,0:0:0:0:
64,192,49232,1,2,0:0:0:0:
448,192,49232,1,0,0:0:0:0:
192,192,49316,1,2,0:0:0:0:
320,192,49316,1,0,0:0:0:0:
64,192,49399,1,2,0:0:0:0:
448,192,49399,1,0,0:0:0:0:
64,192,49566,1,2,0:0:0:0:
320,192,49566,1,0,0:0:0:0:
192,192,49732,1,2,0:0:0:0:
320,192,49732,1,0,0:0:0:0:
448,192,49899,1,0,0:0:0:0:
64,192,50066,1,2,0:0:0:0:
320,192,50066,1,0,0:0:0:0:
192,192,50232,1,0,0:0:0:0:
64,192,50399,128,2,50732:0:0:0:0:
320,192,50399,1,0,0:0:0:0:
320,192,50566,1,0,0:0:0:0:
192,192,50732,1,2,0:0:0:0:
448,192,50732,128,0,51066:0:0:0:0:
192,192,50899,1,0,0:0:0:0:
64,192,51066,128,2,51232:0:0:0:0:
320,192,51066,1,0,0:0:0:0:
448,192,51232,128,0,51399:0:0:0:0:
192,192,51399,128,2,51566:0:0:0:0:
320,192,51399,1,0,0:0:0:0:
448,192,51566,128,0,51732:0:0:0:0:
64,192,51732,128,2,52066:0:0:0:0:
320,192,51732,1,0,0:0:0:0:
192,192,51899,1,2,0:0:0:0:
320,192,51899,1,0,0:0:0:0:
192,192,52066,1,2,0:0:0:0:
448,192,52066,1,0,0:0:0:0:
64,192,52232,1,2,0:0:0:0:
448,192,52232,1,0,0:0:0:0:
64,192,52399,1,2,0:0:0:0:
320,192,52399,1,0,0:0:0:0:
448,192,52566,1,0,0:0:0:0:
64,192,52732,1,2,0:0:0:0:
192,192,52732,1,0,0:0:0:0:
320,192,52899,1,0,0:0:0:0:
64,192,53066,1,2,0:0:0:0:
192,192,53066,1,0,0:0:0:0:
448,192,53066,1,0,0:0:0:0:
64,192,53232,128,0,53399:0:0:0:0:
448,192,53232,128,0,53399:0:0:0:0:
192,192,53399,1,2,0:0:0:0:
320,192,53399,1,0,0:0:0:0:
448,192,53566,1,0,0:0:0:0:
64,192,53732,1,2,0:0:0:0:
320,192,53732,1,0,0:0:0:0:
192,192,53899,1,0,0:0:0:0:
320,192,54066,1,2,0:0:0:0:
448,192,54066,1,0,0:0:0:0:
192,192,54232,1,0,0:0:0:0:
64,192,54399,1,2,0:0:0:0:
320,192,54399,1,0,0:0:0:0:
448,192,54399,1,0,0:0:0:0:
64,192,54566,1,2,0:0:0:0:
448,192,54566,1,0,0:0:0:0:
192,192,54649,1,2,0:0:0:0:
320,192,54649,1,0,0:0:0:0:
64,192,54732,1,2,0:0:0:0:
448,192,54732,1,0,0:0:0:0:
192,192,54899,1,2,0:0:0:0:
320,192,54899,1,0,0:0:0:0:
64,192,55066,1,2,0:0:0:0:
192,192,55066,128,0,55399:0:0:0:0:
320,192,55232,1,2,0:0:0:0:
448,192,55232,1,0,0:0:0:0:
64,192,55399,1,2,0:0:0:0:
320,192,55399,1,4,0:0:0:0:
448,192,55399,1,0,0:0:0:60:Snare.wav
320,192,55732,128,2,56066:0:0:0:0:
448,192,55732,1,0,0:0:0:0:
64,192,55899,1,2,0:0:0:0:
192,192,55899,1,0,0:0:0:0:
64,192,56066,1,2,0:0:0:0:
192,192,56066,1,4,0:0:0:0:
448,192,56066,1,0,0:0:0:60:Snare.wav
64,192,56399,1,2,0:0:0:0:
320,192,56399,1,0,0:0:0:60:Snare.wav
448,192,56399,1,0,0:0:0:0:
320,192,56566,1,0,0:0:0:0:
64,192,56732,1,2,0:0:0:0:
192,192,56732,1,0,0:0:0:60:Snare.wav
448,192,56732,1,0,0:0:0:0:
192,192,56899,1,0,0:0:0:0:
64,192,57066,1,2,0:0:0:0:
448,192,57066,128,0,57399:0:0:0:0:
192,192,57149,1,2,0:0:0:0:
320,192,57232,1,2,0:0:0:0:
64,192,57316,1,2,0:0:0:0:
192,192,57399,1,2,0:0:0:0:
320,192,57399,1,0,0:0:0:0:
64,192,57566,1,2,0:0:0:0:
192,192,57566,1,4,0:0:0:0:
448,192,57566,1,0,0:0:0:0:
320,192,57899,1,0,0:0:0:0:
64,192,58066,1,2,0:0:0:0:
448,192,58066,1,0,0:0:0:60:Clap.wav
320,192,58232,1,0,0:0:0:0:
64,192,58399,1,2,0:0:0:0:
192,192,58399,1,0,0:0:0:0:
192,192,58566,128,0,58732:0:0:0:0:
64,192,58732,1,2,0:0:0:0:
448,192,58732,1,0,0:0:0:60:Clap.wav
320,192,58899,1,0,0:0:0:0:
192,192,59066,1,2,0:0:0:0:
448,192,59066,1,0,0:0:0:0:
64,192,59232,1,0,0:0:0:0:
192,192,59399,1,2,0:0:0:0:
320,192,59399,1,0,0:0:0:60:Clap.wav
448,192,59566,1,0,0:0:0:0:
64,192,59732,1,2,0:0:0:0:
192,192,59732,1,0,0:0:0:0:
192,192,59899,1,2,0:0:0:0:
448,192,59899,1,0,0:0:0:60:Clap.wav
64,192,59982,1,2,0:0:0:0:
320,192,59982,1,0,0:0:0:0:
192,192,60066,1,2,0:0:0:0:
448,192,60066,1,0,0:0:0:60:Clap.wav
64,192,60232,1,2,0:0:0:0:
448,192,60232,1,0,0:0:0:0:
64,192,60399,1,2,0:0:0:0:
320,192,60399,1,0,0:0:0:0:
192,192,60566,1,0,0:0:0:0:
320,192,60732,1,2,0:0:0:0:
448,192,60732,1,0,0:0:0:60:Clap.wav
64,192,60899,1,0,0:0:0:0:
192,192,61066,1,2,0:0:0:0:
320,192,61066,128,0,61232:0:0:0:0:
192,192,61232,128,0,61399:0:0:0:0:
64,192,61399,128,2,61732:0:0:0:0:
448,192,61399,1,0,0:0:0:60:Clap.wav
448,192,61566,1,0,0:0:0:0:
192,192,61732,1,2,0:0:0:0:
320,192,61732,128,0,61899:0:0:0:0:
64,192,61899,128,0,62066:0:0:0:0:
192,192,62066,1,2,0:0:0:0:
448,192,62066,128,0,62232:0:0:0:60:Clap.wav
64,192,62232,128,0,62399:0:0:0:0:
192,192,62399,1,2,0:0:0:0:
320,192,62399,128,0,62732:0:0:0:0:
64,192,62566,1,2,0:0:0:0:
448,192,62566,1,0,0:0:0:60:Clap.wav
64,192,62732,1,2,0:0:0:0:
448,192,62732,1,0,0:0:0:60:Clap.wav
192,192,62899,1,2,0:0:0:0:
320,192,62899,1,0,0:0:0:0:
64,192,63066,1,2,0:0:0:0:
320,192,63066,1,0,0:0:0:0:
192,192,63232,1,0,0:0:0:0:
64,192,63399,1,2,0:0:0:0:
448,192,63399,1,0,0:0:0:60:Clap.wav
320,192,63566,1,0,0:0:0:0:
64,192,63732,1,2,0:0:0:0:
192,192,63732,1,0,0:0:0:0:
448,192,63732,1,0,0:0:0:0:
192,192,63899,128,0,64066:0:0:0:60:Clap.wav
448,192,63899,128,0,64066:0:0:0:0:
64,192,64066,1,2,0:0:0:0:
320,192,64066,1,0,0:0:0:60:Clap.wav
192,192,64232,1,0,0:0:0:0:
64,192,64399,1,2,0:0:0:0:
448,192,64399,1,0,0:0:0:0:
320,192,64566,1,0,0:0:0:0:
192,192,64732,1,2,0:0:0:0:
448,192,64732,1,0,0:0:0:60:Clap.wav
64,192,64899,1,0,0:0:0:0:
192,192,65066,1,2,0:0:0:0:
320,192,65066,1,0,0:0:0:0:
448,192,65066,1,0,0:0:0:0:
192,192,65232,1,2,0:0:0:0:
448,192,65232,1,0,0:0:0:60:Clap.wav
64,192,65316,1,2,0:0:0:0:
320,192,65316,1,0,0:0:0:0:
192,192,65399,1,2,0:0:0:0:
448,192,65399,1,0,0:0:0:60:Clap.wav
64,192,65566,1,2,0:0:0:0:
320,192,65566,1,0,0:0:0:0:
320,192,65732,1,2,0:0:0:0:
448,192,65732,128,0,66066:0:0:0:0:
64,192,65899,1,2,0:0:0:0:
192,192,65899,1,0,0:0:0:0:
64,192,66066,1,2,0:0:0:0:
192,192,66066,1,4,0:0:0:0:
320,192,66066,1,0,0:0:0:60:Snare.wav
64,192,66399,128,2,66732:0:0:0:0:
192,192,66399,1,0,0:0:0:0:
320,192,66566,1,2,0:0:0:0:
448,192,66566,1,0,0:0:0:0:
192,192,66732,1,2,0:0:0:0:
320,192,66732,1,4,0:0:0:0:
448,192,66732,1,0,0:0:0:60:Snare.wav
64,192,67066,1,2,0:0:0:0:
192,192,67066,1,0,0:0:0:60:Snare.wav
320,192,67066,1,0,0:0:0:0:
64,192,67232,1,0,0:0:0:0:
192,192,67399,1,2,0:0:0:0:
320,192,67399,1,0,0:0:0:60:Snare.wav
448,192,67399,1,0,0:0:0:0:
448,192,67566,1,0,0:0:0:0:
64,192,67732,128,2,68066:0:0:0:0:
192,192,67732,1,0,0:0:0:0:
320,192,67816,1,2,0:0:0:0:
448,192,67899,1,2,0:0:0:0:
192,192,67982,1,2,0:0:0:0:
320,192,68066,1,2,0:0:0:0:
448,192,68066,1,0,0:0:0:0:
192,192,68232,1,2,0:0:0:0:
320,192,68232,1,0,0:0:0:0:
64,192,68399,1,2,0:0:0:0:
448,192,68399,1,0,0:0:0:0:
192,192,68621,1,0,0:0:0:0:
192,192,68844,1,0,0:0:0:0:
64,192,69066,1,2,0:0:0:0:
320,192,69066,1,0,0:0:0:60:Snare.wav
448,192,69066,1,0,0:0:0:0:
192,192,69288,1,0,0:0:0:0:
192,192,69510,1,0,0:0:0:0:
64,192,69732,1,2,0:0:0:0:
448,192,69732,1,0,0:0:0:0:
192,192,69955,1,0,0:0:0:0:
320,192,70177,1,0,0:0:0:0:
64,192,70399,1,2,0:0:0:0:
192,192,70399,1,0,0:0:0:60:Snare.wav
448,192,70399,1,0,0:0:0:0:
320,192,70844,1,0,0:0:0:0:
64,192,71066,1,2,0:0:0:0:
448,192,71066,1,0,0:0:0:0:
192,192,71288,1,0,0:0:0:0:
448,192,71510,1,0,0:0:0:0:
64,192,71732,1,2,0:0:0:0:
192,192,71732,1,0,0:0:0:60:Snare.wav
320,192,71732,1,0,0:0:0:0:
448,192,71955,1,0,0:0:0:0:
64,192,72177,1,0,0:0:0:0:
192,192,72399,1,2,0:0:0:0:
320,192,72399,1,0,0:0:0:0:
192,192,72621,1,0,0:0:0:0:
320,192,72844,1,0,0:0:0:0:
64,192,73066,1,2,0:0:0:0:
192,192,73066,1,0,0:0:0:60:Snare.wav
448,192,73066,1,0,0:0:0:0:
64,192,73732,1,0,0:0:0:0:
192,192,73955,1,0,0:0:0:0:
320,192,74177,1,0,0:0:0:0:
64,192,74399,1,0,0:0:0:0:
192,192,74621,1,0,0:0:0:0:
320,192,74844,1,0,0:0:0:0:
192,192,75066,1,0,0:0:0:0:
320,192,75288,1,0,0:0:0:0:
448,192,75510,1,0,0:0:0:0:
192,192,75732,1,0,0:0:0:0:
320,192,75955,1,0,0:0:0:0:
448,192,76177,1,0,0:0:0:0:
64,192,76399,1,0,0:0:0:0:
192,192,76399,1,0,0:0:0:0:
64,192,77066,1,0,0:0:0:0:
448,192,77066,1,0,0:0:0:0:
320,192,77732,1,0,0:0:0:0:
448,192,77732,1,0,0:0:0:0:
64,192,78399,128,0,78732:0:0:0:0:
320,192,78566,1,2,0:0:0:0:
320,192,78732,1,0,0:0:0:60:Snare.wav
448,192,78732,1,0,0:0:0:0:
192,192,78816,1,0,0:0:0:60:Snare.wav
64,192,78899,1,2,0:0:0:0:
448,192,78899,1,0,0:0:0:0:
320,192,78982,1,0,0:0:0:60:Snare.wav
64,192,79066,128,2,80232:0:0:0:0:
192,192,79066,128,4,80232:0:0:0:0:
448,192,79066,128,0,80232:0:0:0:0:
320,192,80232,1,0,0:0:0:0:
448,192,80316,1,0,0:0:0:0:
320,192,80399,128,0,80732:0:0:0:0:
64,192,80566,128,0,80732:0:0:0:0:
192,192,80732,1,0,0:0:0:0:
192,192,80899,1,0,0:0:0:0:
448,192,81066,128,0,81232:0:0:0:0:
64,192,81232,1,2,0:0:0:0:
320,192,81232,1,0,0:0:0:0:
192,192,81316,1,2,0:0:0:0:
448,192,81316,1,0,0:0:0:0:
64,192,81399,128,2,81732:0:0:0:0:
320,192,81399,1,0,0:0:0:0:
192,192,81732,128,2,82899:0:0:0:0:
320,192,81732,128,4,82899:0:0:0:0:
448,192,81732,128,0,82899:0:0:0:0:
64,192,82899,1,0,0:0:0:0:
192,192,82982,1,0,0:0:0:0:
64,192,83066,128,0,83399:0:0:0:0:
448,192,83232,128,0,83399:0:0:0:0:
320,192,83399,1,0,0:0:0:0:
320,192,83566,1,0,0:0:0:0:
192,192,83732,128,0,83899:0:0:0:0:
448,192,83899,1,2,0:0:0:0:
320,192,83955,1,2,0:0:0:0:
64,192,84010,1,2,0:0:0:0:
192,192,84066,1,2,0:0:0:0:
448,192,84066,1,0,0:0:0:0:
192,192,84232,1,2,0:0:0:0:
448,192,84232,1,0,0:0:0:0:
64,192,84399,128,2,85566:0:0:0:0:
192,192,84399,128,4,85566:0:0:0:0:
320,192,84399,128,0,85566:0:0:0:0:
448,192,85566,1,0,0:0:0:0:
320,192,85649,1,0,0:0:0:0:
448,192,85732,128,0,86066:0:0:0:0:
192,192,85899,128,0,86066:0:0:0:0:
64,192,86066,1,0,0:0:0:0:
64,192,86232,1,0,0:0:0:0:
320,192,86399,128,0,86566:0:0:0:0:
64,192,86566,1,2,0:0:0:0:
192,192,86566,1,0,0:0:0:0:
320,192,86649,1,2,0:0:0:0:
448,192,86649,1,0,0:0:0:0:
64,192,86732,1,2,0:0:0:0:
192,192,86732,1,0,0:0:0:0:
320,192,86899,1,2,0:0:0:0:
448,192,86899,1,0,0:0:0:0:
192,192,86982,1,2,0:0:0:0:
64,192,87066,128,2,88232:0:0:0:0:
320,192,87066,128,4,88232:0:0:0:0:
448,192,87066,128,0,88232:0:0:0:0:
192,192,88232,1,0,0:0:0:0:
64,192,88316,1,0,0:0:0:0:
192,192,88399,128,0,88732:0:0:0:0:
448,192,88566,128,0,88732:0:0:0:0:
320,192,88732,1,0,0:0:0:0:
320,192,88899,1,0,0:0:0:0:
64,192,89066,1,2,0:0:0:0:
192,192,89066,1,0,0:0:0:0:
64,192,89232,1,2,0:0:0:0:
192,192,89232,1,0,0:0:0:0:
320,192,89399,1,2,0:0:0:0:
448,192,89399,1,0,0:0:0:0:
320,192,89566,1,2,0:0:0:0:
448,192,89566,1,0,0:0:0:0:
64,192,89732,1,2,0:0:0:0:
192,192,89732,128,4,89899:0:0:0:0:
448,192,89732,1,0,0:0:0:0:
320,192,89899,1,0,0:0:0:0:
64,192,90066,1,2,0:0:0:0:
192,192,90066,1,0,0:0:0:0:
448,192,90066,128,0,90232:0:0:0:0:
64,192,90232,128,0,90399:0:0:0:0:
192,192,90399,1,2,0:0:0:0:
448,192,90399,1,0,0:0:0:0:
64,192,90566,128,0,90732:0:0:0:0:
192,192,90732,1,2,0:0:0:0:
320,192,90732,1,0,0:0:0:0:
448,192,90732,1,0,0:0:0:0:
192,192,90899,128,0,91066:0:0:0:0:
64,192,91066,1,2,0:0:0:0:
320,192,91066,1,0,0:0:0:0:
192,192,91232,128,0,91399:0:0:0:0:
64,192,91399,1,2,0:0:0:0:
320,192,91399,1,0,0:0:0:0:
448,192,91399,1,0,0:0:0:0:
64,192,91566,128,0,91732:0:0:0:0:
320,192,91732,128,2,91899:0:0:0:0:
448,192,91732,1,0,0:0:0:0:
192,192,91899,1,0,0:0:0:0:
64,192,92066,1,2,0:0:0:0:
320,192,92066,128,0,92399:0:0:0:0:
448,192,92066,1,0,0:0:0:0:
192,192,92232,1,0,0:0:0:0:
64,192,92399,128,2,92566:0:0:0:0:
192,192,92399,1,4,0:0:0:0:
448,192,92399,1,0,0:0:0:0:
320,192,92566,1,0,0:0:0:0:
64,192,92732,1,2,0:0:0:0:
192,192,92732,1,0,0:0:0:0:
448,192,92732,128,0,92899:0:0:0:0:
192,192,92899,128,0,93066:0:0:0:0:
320,192,93066,1,2,0:0:0:0:
448,192,93066,1,0,0:0:0:0:
192,192,93232,128,0,93399:0:0:0:0:
64,192,93399,1,2,0:0:0:0:
320,192,93399,1,0,0:0:0:0:
448,192,93399,1,0,0:0:0:0:
320,192,93566,128,0,93732:0:0:0:0:
64,192,93732,1,2,0:0:0:0:
192,192,93732,1,0,0:0:0:0:
320,192,93899,128,0,94066:0:0:0:0:
64,192,94066,1,2,0:0:0:0:
192,192,94066,1,0,0:0:0:0:
448,192,94066,1,0,0:0:0:0:
64,192,94232,128,0,94399:0:0:0:0:
320,192,94399,1,2,0:0:0:0:
448,192,94399,128,0,94566:0:0:0:0:
192,192,94566,1,0,0:0:0:0:
64,192,94732,1,2,0:0:0:0:
320,192,94732,1,0,0:0:0:0:
448,192,94732,128,0,95066:0:0:0:0:
192,192,94899,1,0,0:0:0:0:
64,192,95066,1,2,0:0:0:0:
320,192,95066,1,4,0:0:0:0:
192,192,95149,1,2,0:0:0:0:
320,192,95232,1,2,0:0:0:0:
448,192,95232,1,0,0:0:0:0:
64,192,95316,1,2,0:0:0:0:
192,192,95399,1,2,0:0:0:0:
448,192,95399,1,0,0:0:0:0:
320,192,95482,1,2,0:0:0:0:
64,192,95566,1,2,0:0:0:0:
192,192,95566,1,0,0:0:0:0:
320,192,95649,1,2,0:0:0:0:
64,192,95732,1,2,0:0:0:0:
448,192,95732,1,4,0:0:0:0:
192,192,95816,1,2,0:0:0:0:
320,192,95899,1,2,0:0:0:0:
448,192,95899,1,0,0:0:0:0:
64,192,95982,1,2,0:0:0:0:
192,192,96066,1,2,0:0:0:0:
320,192,96066,1,0,0:0:0:0:
448,192,96149,1,2,0:0:0:0:
64,192,96232,1,2,0:0:0:0:
192,192,96232,1,0,0:0:0:0:
320,192,96316,1,2,0:0:0:0:
64,192,96399,1,2,0:0:0:0:
448,192,96399,1,4,0:0:0:0:
192,192,96441,1,0,0:0:0:0:
320,192,96482,1,0,0:0:0:0:
448,192,96524,1,0,0:0:0:0:
64,192,96566,1,0,0:0:0:0:
192,192,96607,1,0,0:0:0:0:
320,192,96649,1,0,0:0:0:0:
448,192,96691,1,0,0:0:0:0:
64,192,96732,1,0,0:0:0:0:
192,192,96774,1,0,0:0:0:0:
320,192,96816,1,0,0:0:0:0:
448,192,96857,1,0,0:0:0:0:
64,192,96899,1,0,0:0:0:0:
192,192,96941,1,0,0:0:0:0:
320,192,96982,1,0,0:0:0:0:
448,192,97024,1,0,0:0:0:0:
64,192,97066,1,4,0:0:0:0:
192,192,97107,1,0,0:0:0:0:
448,192,97149,1,0,0:0:0:0:
320,192,97191,1,0,0:0:0:0:
64,192,97232,1,0,0:0:0:0:
192,192,97274,1,0,0:0:0:0:
448,192,97316,1,0,0:0:0:0:
320,192,97357,1,0,0:0:0:0:
64,192,97399,1,0,0:0:0:0:
192,192,97441,1,0,0:0:0:0:
448,192,97482,1,0,0:0:0:0:
320,192,97524,1,0,0:0:0:0:
64,192,97566,1,0,0:0:0:0:
192,192,97607,1,0,0:0:0:0:
448,192,97649,1,0,0:0:0:0:
320,192,97691,1,0,0:0:0:0:
64,192,97732,1,0,0:0:0:0:
192,192,97732,1,0,0:0:0:0:
64,192,99066,1,0,0:0:0:0:
448,192,99066,1,0,0:0:0:0:
192,192,99732,128,0,100399:0:0:0:0:
64,192,100399,1,2,0:0:0:0:
320,192,100399,1,4,0:0:0:0:
448,192,100399,1,0,0:0:0:0:
320,192,100510,1,2,0:0:0:0:
448,192,100510,1,0,0:0:0:0:
64,192,100621,1,2,0:0:0:0:
192,192,100732,1,2,0:0:0:0:
448,192,100732,1,0,0:0:0:0:
64,192,100844,1,2,0:0:0:0:
320,192,100844,1,0,0:0:0:0:
448,192,100955,1,2,0:0:0:0:
64,192,101066,1,2,0:0:0:0:
192,192,101066,1,0,0:0:0:0:
320,192,101066,1,0,0:0:0:0:
64,192,101177,1,2,0:0:0:0:
320,192,101177,1,0,0:0:0:0:
448,192,101288,1,2,0:0:0:0:
192,192,101399,1,2,0:0:0:0:
320,192,101399,1,0,0:0:0:0:
64,192,101510,1,2,0:0:0:0:
448,192,101510,1,0,0:0:0:0:
192,192,101621,1,2,0:0:0:0:
64,192,101732,1,2,0:0:0:0:
320,192,101732,1,0,0:0:0:0:
448,192,101732,1,0,0:0:0:0:
64,192,101844,1,2,0:0:0:0:
448,192,101844,1,0,0:0:0:0:
192,192,101955,1,2,0:0:0:0:
320,192,102066,1,2,0:0:0:0:
448,192,102066,1,0,0:0:0:0:
64,192,102177,1,2,0:0:0:0:
192,192,102177,1,0,0:0:0:0:
448,192,102288,1,2,0:0:0:0:
64,192,102399,1,2,0:0:0:0:
192,192,102399,1,0,0:0:0:0:
320,192,102399,1,0,0:0:0:0:
64,192,102510,1,2,0:0:0:0:
192,192,102510,1,0,0:0:0:0:
448,192,102621,1,2,0:0:0:0:
64,192,102732,1,2,0:0:0:0:
320,192,102732,1,0,0:0:0:0:
192,192,102844,1,2,0:0:0:0:
448,192,102844,1,0,0:0:0:0:
64,192,102955,1,2,0:0:0:0:
192,192,103066,1,2,0:0:0:0:
320,192,103066,1,0,0:0:0:0:
448,192,103066,1,0,0:0:0:0:
192,192,103177,1,2,0:0:0:0:
448,192,103177,1,0,0:0:0:0:
64,192,103288,1,2,0:0:0:0:
192,192,103399,1,2,0:0:0:0:
320,192,103399,1,0,0:0:0:0:
64,192,103510,1,2,0:0:0:0:
448,192,103510,1,0,0:0:0:0:
320,192,103621,1,2,0:0:0:0:
64,192,103732,1,2,0:0:0:0:
192,192,103732,1,0,0:0:0:0:
448,192,103732,1,0,0:0:0:0:
64,192,103844,1,2,0:0:0:0:
448,192,103844,1,0,0:0:0:0:
320,192,103955,1,2,0:0:0:0:
64,192,104066,1,2,0:0:0:0:
192,192,104066,1,0,0:0:0:0:
320,192,104177,1,2,0:0:0:0:
448,192,104177,1,0,0:0:0:0:
64,192,104288,1,2,0:0:0:0:
192,192,104399,1,2,0:0:0:0:
320,192,104399,1,0,0:0:0:0:
448,192,104399,1,0,0:0:0:0:
320,192,104510,1,2,0:0:0:0:
448,192,104510,1,0,0:0:0:0:
64,192,104621,1,2,0:0:0:0:
192,192,104732,1,2,0:0:0:0:
448,192,104732,1,0,0:0:0:0:
64,192,104844,1,2,0:0:0:0:
320,192,104844,1,0,0:0:0:0:
448,192,104955,1,2,0:0:0:0:
64,192,105066,1,2,0:0:0:0:
192,192,105066,1,0,0:0:0:60:Snare.wav
320,192,105066,1,0,0:0:0:0:
64,192,105732,1,2,0:0:0:0:
192,192,105732,1,4,0:0:0:0:
448,192,105732,1,0,0:0:0:0:
64,192,105844,1,2,0:0:0:0:
448,192,105844,1,0,0:0:0:0:
320,192,105955,1,2,0:0:0:0:
64,192,106066,1,2,0:0:0:0:
192,192,106066,1,0,0:0:0:0:
320,192,106177,1,2,0:0:0:0:
448,192,106177,1,0,0:0:0:0:
64,192,106288,1,2,0:0:0:0:
192,192,106399,1,2,0:0:0:0:
320,192,106399,1,0,0:0:0:0:
448,192,106399,1,0,0:0:0:0:
320,192,106510,1,2,0:0:0:0:
448,192,106510,1,0,0:0:0:0:
64,192,106621,1,2,0:0:0:0:
192,192,106732,1,2,0:0:0:0:
448,192,106732,1,0,0:0:0:0:
64,192,106844,1,2,0:0:0:0:
320,192,106844,1,0,0:0:0:0:
448,192,106955,1,2,0:0:0:0:
64,192,107066,1,2,0:0:0:0:
192,192,107066,1,0,0:0:0:0:
320,192,107066,1,0,0:0:0:0:
64,192,107177,1,2,0:0:0:0:
320,192,107177,1,0,0:0:0:0:
448,192,107288,1,2,0:0:0:0:
192,192,107399,1,2,0:0:0:0:
320,192,107399,1,0,0:0:0:0:
64,192,107510,1,2,0:0:0:0:
448,192,107510,1,0,0:0:0:0:
192,192,107621,1,2,0:0:0:0:
64,192,107732,1,2,0:0:0:0:
320,192,107732,1,0,0:0:0:0:
448,192,107732,1,0,0:0:0:0:
64,192,107844,1,2,0:0:0:0:
448,192,107844,1,0,0:0:0:0:
192,192,107955,1,2,0:0:0:0:
320,192,108066,1,2,0:0:0:0:
448,192,108066,1,0,0:0:0:0:
64,192,108177,1,2,0:0:0:0:
192,192,108177,1,0,0:0:0:0:
448,192,108288,1,2,0:0:0:0:
64,192,108399,1,2,0:0:0:0:
192,192,108399,1,0,0:0:0:0:
320,192,108399,1,0,0:0:0:0:
64,192,108510,1,2,0:0:0:0:
192,192,108510,1,0,0:0:0:0:
448,192,108621,1,2,0:0:0:0:
64,192,108732,1,2,0:0:0:0:
320,192,108732,1,0,0:0:0:0:
192,192,108844,1,2,0:0:0:0:
448,192,108844,1,0,0:0:0:0:
64,192,108955,1,2,0:0:0:0:
192,192,109066,1,2,0:0:0:0:
320,192,109066,1,0,0:0:0:0:
448,192,109066,1,0,0:0:0:0:
192,192,109177,1,2,0:0:0:0:
448,192,109177,1,0,0:0:0:0:
64,192,109288,1,2,0:0:0:0:
192,192,109399,1,2,0:0:0:0:
320,192,109399,1,0,0:0:0:0:
64,192,109510,1,2,0:0:0:0:
448,192,109510,1,0,0:0:0:0:
320,192,109621,1,2,0:0:0:0:
64,192,109732,1,2,0:0:0:0:
192,192,109732,1,0,0:0:0:0:
448,192,109732,1,0,0:0:0:0:
64,192,109844,1,2,0:0:0:0:
448,192,109844,1,0,0:0:0:0:
320,192,109955,1,2,0:0:0:0:
64,192,110066,1,2,0:0:0:0:
192,192,110066,1,0,0:0:0:0:
320,192,110177,1,2,0:0:0:0:
448,192,110177,1,0,0:0:0:0:
192,192,110288,1,2,0:0:0:0:
64,192,110399,1,2,0:0:0:0:
320,192,110399,1,0,0:0:0:60:Snare.wav
448,192,110399,1,0,0:0:0:0:
64,192,111066,1,2,0:0:0:0:
192,192,111066,1,4,0:0:0:0:
320,192,111066,1,0,0:0:0:0:
64,192,111177,1,2,0:0:0:0:
320,192,111177,1,0,0:0:0:0:
448,192,111288,1,2,0:0:0:0:
192,192,111399,1,2,0:0:0:0:
320,192,111399,1,0,0:0:0:0:
64,192,111510,1,2,0:0:0:0:
448,192,111510,1,0,0:0:0:0:
192,192,111621,1,2,0:0:0:0:
64,192,111732,1,2,0:0:0:0:
320,192,111732,1,0,0:0:0:0:
448,192,111732,1,0,0:0:0:0:
64,192,111844,1,2,0:0:0:0:
448,192,111844,1,0,0:0:0:0:
192,192,111955,1,2,0:0:0:0:
320,192,112066,1,2,0:0:0:0:
448,192,112066,1,0,0:0:0:0:
64,192,112177,1,2,0:0:0:0:
192,192,112177,1,0,0:0:0:0:
448,192,112288,1,2,0:0:0:0:
64,192,112399,1,2,0:0:0:0:
192,192,112399,1,0,0:0:0:0:
320,192,112399,1,0,0:0:0:0:
64,192,112510,1,2,0:0:0:0:
192,192,112510,1,0,0:0:0:0:
448,192,112621,1,2,0:0:0:0:
64,192,112732,1,2,0:0:0:0:
320,192,112732,1,0,0:0:0:0:
192,192,112844,1,2,0:0:0:0:
448,192,112844,1,0,0:0:0:0:
64,192,112955,1,2,0:0:0:0:
192,192,113066,1,2,0:0:0:0:
320,192,113066,1,0,0:0:0:0:
448,192,113066,1,0,0:0:0:0:
192,192,113177,1,2,0:0:0:0:
448,192,113177,1,0,0:0:0:0:
64,192,113288,1,2,0:0:0:0:
192,192,113399,1,2,0:0:0:0:
320,192,113399,1,0,0:0:0:0:
64,192,113510,1,2,0:0:0:0:
448,192,113510,1,0,0:0:0:0:
320,192,113621,1,2,0:0:0:0:
64,192,113732,1,2,0:0:0:0:
192,192,113732,1,0,0:0:0:0:
448,192,113732,1,0,0:0:0:0:
64,192,113844,1,2,0:0:0:0:
448,192,113844,1,0,0:0:0:0:
320,192,113955,1,2,0:0:0:0:
64,192,114066,1,2,0:0:0:0:
192,192,114066,1,0,0:0:0:0:
320,192,114177,1,2,0:0:0:0:
448,192,114177,1,0,0:0:0:0:
64,192,114288,1,2,0:0:0:0:
192,192,114399,1,2,0:0:0:0:
320,192,114399,1,0,0:0:0:0:
448,192,114399,1,0,0:0:0:0:
320,192,114510,1,2,0:0:0:0:
448,192,114510,1,0,0:0:0:0:
64,192,114621,1,2,0:0:0:0:
192,192,114732,1,2,0:0:0:0:
448,192,114732,1,0,0:0:0:0:
64,192,114844,1,2,0:0:0:0:
320,192,114844,1,0,0:0:0:0:
448,192,114955,1,2,0:0:0:0:
64,192,115066,1,2,0:0:0:0:
192,192,115066,1,0,0:0:0:0:
320,192,115066,1,0,0:0:0:0:
64,192,115177,1,2,0:0:0:0:
320,192,115177,1,0,0:0:0:0:
448,192,115288,1,2,0:0:0:0:
192,192,115399,1,2,0:0:0:0:
320,192,115399,1,0,0:0:0:0:
64,192,115510,1,2,0:0:0:0:
448,192,115510,1,0,0:0:0:0:
192,192,115621,1,2,0:0:0:0:
64,192,115732,1,2,0:0:0:0:
320,192,115732,1,0,0:0:0:60:Snare.wav
448,192,115732,1,0,0:0:0:0:
64,192,116399,1,2,0:0:0:0:
192,192,116399,1,4,0:0:0:0:
448,192,116399,1,0,0:0:0:0:
64,192,116510,1,2,0:0:0:0:
192,192,116510,1,0,0:0:0:0:
448,192,116621,1,2,0:0:0:0:
64,192,116732,1,2,0:0:0:0:
320,192,116732,1,0,0:0:0:0:
192,192,116844,1,2,0:0:0:0:
448,192,116844,1,0,0:0:0:0:
64,192,116955,1,2,0:0:0:0:
192,192,117066,1,2,0:0:0:0:
320,192,117066,1,0,0:0:0:0:
448,192,117066,1,0,0:0:0:0:
192,192,117177,1,2,0:0:0:0:
448,192,117177,1,0,0:0:0:0:
64,192,117288,1,2,0:0:0:0:
192,192,117399,1,2,0:0:0:0:
320,192,117399,1,0,0:0:0:0:
64,192,117510,1,2,0:0:0:0:
448,192,117510,1,0,0:0:0:0:
320,192,117621,1,2,0:0:0:0:
64,192,117732,1,2,0:0:0:0:
192,192,117732,1,0,0:0:0:0:
448,192,117732,1,0,0:0:0:0:
64,192,117844,1,2,0:0:0:0:
448,192,117844,1,0,0:0:0:0:
320,192,117955,1,2,0:0:0:0:
64,192,118066,1,2,0:0:0:0:
192,192,118066,1,0,0:0:0:0:
320,192,118177,1,2,0:0:0:0:
448,192,118177,1,0,0:0:0:0:
64,192,118288,1,2,0:0:0:0:
192,192,118399,1,2,0:0:0:0:
320,192,118399,1,0,0:0:0:0:
448,192,118399,1,0,0:0:0:0:
320,192,118510,1,2,0:0:0:0:
448,192,118510,1,0,0:0:0:0:
64,192,118621,1,2,0:0:0:0:
192,192,118732,1,2,0:0:0:0:
448,192,118732,1,0,0:0:0:0:
64,192,118844,1,2,0:0:0:0:
320,192,118844,1,0,0:0:0:0:
448,192,118955,1,2,0:0:0:0:
64,192,119066,1,2,0:0:0:0:
192,192,119066,1,4,0:0:0:0:
320,192,119066,1,0,0:0:0:0:
192,192,119288,1,4,0:0:0:0:
320,192,119288,1,2,0:0:0:0:
448,192,119288,1,0,0:0:0:0:
64,192,119510,1,2,0:0:0:0:
192,192,119510,1,4,0:0:0:0:
320,192,119510,1,0,0:0:0:0:
192,192,119732,1,2,0:0:0:0:
320,192,119732,1,4,0:0:0:0:
448,192,119732,1,0,0:0:0:60:Snare.wav
64,192,120399,1,2,0:0:0:0:
192,192,120399,1,4,0:0:0:0:
448,192,120399,1,0,0:0:0:0:
64,192,120621,1,4,0:0:0:0:
320,192,120621,1,2,0:0:0:0:
448,192,120621,1,0,0:0:0:0:
64,192,120844,1,2,0:0:0:0:
192,192,120844,1,4,0:0:0:0:
448,192,120844,1,0,0:0:0:0:
64,192,121066,1,2,0:0:0:0:
320,192,121066,1,4,0:0:0:0:
448,192,121066,1,0,0:0:0:60:Snare.wav
64,192,121732,1,4,0:0:0:0:
320,192,121732,1,2,0:0:0:0:
448,192,121732,1,0,0:0:0:0:
64,192,121955,1,2,0:0:0:0:
192,192,121955,1,4,0:0:0:0:
448,192,121955,1,0,0:0:0:0:
192,192,122177,1,4,0:0:0:0:
320,192,122177,1,2,0:0:0:0:
448,192,122177,1,0,0:0:0:0:
64,192,122399,1,4,0:0:0:0:
192,192,122399,1,2,0:0:0:0:
320,192,122399,1,0,0:0:0:0:
64,192,122621,1,2,0:0:0:0:
320,192,122621,1,4,0:0:0:0:
448,192,122621,1,0,0:0:0:0:
64,192,122844,1,4,0:0:0:0:
192,192,122844,1,2,0:0:0:0:
448,192,122844,1,0,0:0:0:0:
192,192,123066,1,2,0:0:0:0:
320,192,123066,1,4,0:0:0:0:
448,192,123066,1,0,0:0:0:0:
448,192,123177,1,2,0:0:0:0:
64,192,123288,1,2,0:0:0:0:
192,192,123288,1,4,0:0:0:0:
320,192,123288,1,0,0:0:0:0:
64,192,123399,1,2,0:0:0:0:
192,192,123510,1,4,0:0:0:0:
320,192,123510,1,2,0:0:0:0:
448,192,123510,1,0,0:0:0:0:
320,192,123621,1,2,0:0:0:0:
64,192,123732,1,2,0:0:0:0:
192,192,123732,1,4,0:0:0:0:
448,192,123732,1,0,0:0:0:0:
192,192,123844,1,2,0:0:0:0:
64,192,123955,1,4,0:0:0:0:
320,192,123955,1,2,0:0:0:0:
448,192,123955,1,0,0:0:0:0:
448,192,124066,1,2,0:0:0:0:
64,192,124177,1,4,0:0:0:0:
192,192,124177,1,2,0:0:0:0:
320,192,124177,1,0,0:0:0:0:
64,192,124288,1,2,0:0:0:0:
192,192,124399,128,2,125066:0:0:0:0:
320,192,124399,128,4,125066:0:0:0:0:
448,192,124399,128,0,125066:0:0:0:0:
64,192,125288,1,2,0:0:0:0:
192,192,125288,1,0,0:0:0:0:
448,192,125288,1,0,0:0:0:0:
64,192,125510,1,2,0:0:0:0:
192,192,125510,1,0,0:0:0:0:
448,192,125510,1,0,0:0:0:0:
192,192,125732,128,2,126399:0:0:0:0:
320,192,125732,128,4,126399:0:0:0:0:
448,192,125732,128,0,126399:0:0:0:0:
64,192,126621,1,2,0:0:0:0:
192,192,126621,1,0,0:0:0:0:
448,192,126621,1,0,0:0:0:0:
64,192,126844,1,2,0:0:0:0:
192,192,126844,1,0,0:0:0:0:
448,192,126844,1,0,0:0:0:0:
192,192,127066,128,2,127732:0:0:0:0:
320,192,127066,128,4,127732:0:0:0:0:
448,192,127066,128,0,127732:0:0:0:0:
64,192,127955,1,2,0:0:0:0:
192,192,127955,1,0,0:0:0:0:
448,192,127955,1,0,0:0:0:0:
64,192,128177,1,2,0:0:0:0:
192,192,128177,1,0,0:0:0:0:
448,192,128177,1,0,0:0:0:0:
192,192,128399,1,2,0:0:0:0:
320,192,128399,1,0,0:0:0:0:
448,192,128399,1,0,0:0:0:0:
192,192,128732,1,2,0:0:0:0:
320,192,128732,1,0,0:0:0:0:
448,192,128732,1,0,0:0:0:0:
64,192,129066,1,2,0:0:0:0:
192,192,129066,1,0,0:0:0:0:
448,192,129066,1,0,0:0:0:0:
64,192,129232,1,2,0:0:0:0:
320,192,129232,1,0,0:0:0:0:
448,192,129232,1,0,0:0:0:0:
64,192,129399,1,2,0:0:0:0:
192,192,129399,1,0,0:0:0:0:
448,192,129399,1,0,0:0:0:0:
64,192,129566,1,2,0:0:0:0:
320,192,129566,1,0,0:0:0:0:
448,192,129566,1,0,0:0:0:0:
64,192,129732,1,2,0:0:0:0:
192,192,129732,128,0,131732:0:0:0:0:
320,192,129732,1,0,0:0:0:0:
448,192,129732,1,0,0:0:0:0:
448,192,131732,128,0,131816:0:0:0:0:
64,192,131816,128,0,131899:0:0:0:0:
448,192,131899,128,0,131982:0:0:0:0:
64,192,131982,128,0,132066:0:0:0:0:
192,192,132066,1,0,0:0:0:0:
320,192,132066,128,0,132399:0:0:0:0:
64,192,132399,1,2,0:0:0:0:
192,192,132399,1,4,0:0:0:0:
448,192,132399,1,0,0:0:0:0:
320,192,132566,1,0,0:0:0:0:
64,192,132732,1,2,0:0:0:0:
320,192,132732,1,0,0:0:0:0:
448,192,132732,1,0,0:0:0:0:
64,192,132899,1,0,0:0:0:0:
192,192,133066,128,2,133399:0:0:0:0:
448,192,133066,1,0,0:0:0:0:
320,192,133232,1,0,0:0:0:0:
64,192,133399,1,2,0:0:0:0:
320,192,133399,1,0,0:0:0:0:
448,192,133399,128,0,133732:0:0:0:0:
64,192,133566,1,0,0:0:0:0:
192,192,133732,1,2,0:0:0:0:
320,192,133732,1,0,0:0:0:0:
320,192,133899,1,0,0:0:0:0:
192,192,133982,1,0,0:0:0:0:
64,192,134066,1,2,0:0:0:0:
448,192,134066,1,0,0:0:0:0:
64,192,134232,1,0,0:0:0:0:
320,192,134399,1,2,0:0:0:0:
448,192,134399,1,0,0:0:0:0:
64,192,134566,1,2,0:0:0:0:
320,192,134566,1,0,0:0:0:0:
192,192,134649,1,2,0:0:0:0:
448,192,134649,1,0,0:0:0:0:
64,192,134732,1,2,0:0:0:0:
320,192,134732,1,0,0:0:0:0:
64,192,134899,1,2,0:0:0:0:
448,192,134899,1,0,0:0:0:0:
192,192,135066,1,2,0:0:0:0:
320,192,135066,1,0,0:0:0:0:
448,192,135232,1,0,0:0:0:0:
64,192,135399,1,2,0:0:0:0:
320,192,135399,1,0,0:0:0:0:
448,192,135399,1,0,0:0:0:0:
64,192,135566,1,0,0:0:0:0:
192,192,135732,128,2,136066:0:0:0:0:
320,192,135732,1,0,0:0:0:0:
448,192,135899,1,0,0:0:0:0:
64,192,136066,1,2,0:0:0:0:
320,192,136066,128,0,136399:0:0:0:0:
448,192,136066,1,0,0:0:0:0:
64,192,136232,1,0,0:0:0:0:
192,192,136399,1,2,0:0:0:0:
448,192,136399,1,0,0:0:0:0:
320,192,136566,1,0,0:0:0:0:
192,192,136649,1,0,0:0:0:0:
64,192,136732,1,2,0:0:0:0:
320,192,136732,1,0,0:0:0:0:
448,192,136732,1,0,0:0:0:0:
192,192,136899,1,0,0:0:0:0:
64,192,137066,1,2,0:0:0:0:
192,192,137066,1,0,0:0:0:0:
320,192,137232,1,2,0:0:0:0:
448,192,137232,1,0,0:0:0:0:
192,192,137399,1,2,0:0:0:0:
320,192,137399,1,0,0:0:0:0:
64,192,137566,1,2,0:0:0:0:
192,192,137566,1,0,0:0:0:0:
64,192,137732,1,2,0:0:0:0:
320,192,137732,1,4,0:0:0:0:
448,192,137732,1,0,0:0:0:0:
192,192,137899,1,0,0:0:0:0:
64,192,138066,1,2,0:0:0:0:
192,192,138066,1,0,0:0:0:0:
320,192,138066,1,0,0:0:0:0:
320,192,138232,1,0,0:0:0:0:
64,192,138399,1,2,0:0:0:0:
448,192,138399,128,0,138732:0:0:0:0:
192,192,138566,1,0,0:0:0:0:
64,192,138732,128,2,139066:0:0:0:0:
192,192,138732,1,0,0:0:0:0:
320,192,138732,1,0,0:0:0:0:
320,192,138899,1,0,0:0:0:0:
192,192,139066,1,2,0:0:0:0:
448,192,139066,1,0,0:0:0:0:
192,192,139232,1,0,0:0:0:0:
448,192,139316,1,0,0:0:0:0:
64,192,139399,1,2,0:0:0:0:
320,192,139399,1,0,0:0:0:0:
320,192,139566,1,0,0:0:0:0:
64,192,139732,1,2,0:0:0:0:
192,192,139732,1,0,0:0:0:0:
320,192,139816,1,2,0:0:0:0:
448,192,139816,1,0,0:0:0:0:
64,192,139899,1,2,0:0:0:0:
192,192,139899,1,0,0:0:0:0:
320,192,139982,1,2,0:0:0:0:
448,192,139982,1,0,0:0:0:0:
64,192,140066,1,2,0:0:0:0:
192,192,140066,1,0,0:0:0:0:
64,192,140232,1,2,0:0:0:0:
448,192,140232,1,0,0:0:0:0:
192,192,140399,1,2,0:0:0:0:
320,192,140399,1,4,0:0:0:0:
448,192,140399,1,0,0:0:0:0:
64,192,140566,1,2,0:0:0:0:
192,192,140566,1,4,0:0:0:0:
320,192,140566,1,0,0:0:0:0:
192,192,140732,1,2,0:0:0:0:
320,192,140732,128,4,141066:0:0:0:0:
448,192,140732,1,0,0:0:0:0:
64,192,141066,1,2,0:0:0:0:
192,192,141066,1,4,0:0:0:0:
448,192,141066,1,0,0:0:0:0:
64,192,141232,1,2,0:0:0:0:
320,192,141232,1,4,0:0:0:0:
448,192,141232,1,0,0:0:0:0:
64,192,141399,1,2,0:0:0:0:
192,192,141399,128,4,141732:0:0:0:0:
448,192,141399,1,0,0:0:0:0:
320,192,141732,1,2,0:0:0:0:
448,192,141732,1,0,0:0:0:0:
64,192,141816,1,2,0:0:0:0:
192,192,141816,1,0,0:0:0:0:
320,192,141899,1,2,0:0:0:0:
448,192,141899,1,0,0:0:0:0:
192,192,141982,1,2,0:0:0:0:
64,192,142066,1,2,0:0:0:0:
448,192,142066,1,0,0:0:0:0:
192,192,142149,1,2,0:0:0:0:
320,192,142149,1,0,0:0:0:0:
64,192,142232,1,2,0:0:0:0:
448,192,142232,1,0,0:0:0:0:
320,192,142316,1,2,0:0:0:0:
64,192,142399,1,2,0:0:0:0:
192,192,142399,1,4,0:0:0:0:
448,192,142399,1,0,0:0:0:0:
64,192,142566,1,2,0:0:0:0:
192,192,142566,1,4,0:0:0:0:
320,192,142566,1,0,0:0:0:0:
192,192,142732,1,2,0:0:0:0:
320,192,142732,1,4,0:0:0:0:
448,192,142732,128,0,143066:0:0:0:0:
64,192,143066,1,0,0:0:0:0:
448,192,143288,1,0,0:0:0:0:
320,192,143510,1,0,0:0:0:0:
64,192,143732,1,0,0:0:0:0:
192,192,143955,1,0,0:0:0:0:
320,192,144177,1,0,0:0:0:0:
448,192,144399,1,0,0:0:0:0:
64,192,145066,1,4,0:0:0:0:
320,192,145066,1,2,0:0:0:0:
448,192,145066,1,0,0:0:0:0:
64,192,145288,1,4,0:0:0:0:
192,192,145288,1,2,0:0:0:0:
448,192,145288,1,0,0:0:0:0:
64,192,145510,1,4,0:0:0:0:
192,192,145510,1,2,0:0:0:0:
320,192,145510,1,0,0:0:0:0:
192,192,145732,128,4,148399:0:0:0:0:
320,192,145732,128,2,148399:0:0:0:0:
448,192,145732,128,0,148399:0:0:0:0:
