osu file format v14

[General]
AudioFilename: audio.mp3
AudioLeadIn: 0
PreviewTime: 100399
Countdown: 0
SampleSet: Soft
StackLeniency: 0.7
Mode: 3
LetterboxInBreaks: 0
SpecialStyle: 0
WidescreenStoryboard: 0

[Editor]
Bookmarks: 111073
DistanceSpacing: 0.8
BeatDivisor: 4
GridSize: 8
TimelineZoom: 1.9

[Metadata]
Title:Bakuure! Match Uri no Haken Shoujo (Cut Ver.)
TitleUnicode:爆売れ!マッチ売りの派遣少女 (Cut Ver.)
Artist:Nanahira
ArtistUnicode:ななひら
Creator:Rhezie
Version:MEGA's Hard
Source:
Tags:wonder trick Confetto C90 Comiket Comic Market ARM 狐夢想 Kitsune Musou CFCD-0012 Electronic Japanese MEGAtive Halloween IOSYS Denpa
BeatmapID:2462895
BeatmapSetID:1181237

[Difficulty]
HPDrainRate:7.5
CircleSize:4
OverallDifficulty:7.5
ApproachRate:5
SliderMultiplier:1.4
SliderTickRate:1

[Events]
//Background and Video events
0,0,"BG.jpg",0,0
//Break Periods
//Storyboard Layer 0 (Background)
//Storyboard Layer 1 (Fail)
//Storyboard Layer 2 (Pass)
//Storyboard Layer 3 (Foreground)
//Storyboard Layer 4 (Overlay)
//Storyboard Sound Samples
Sample,59899,0,"Clap.wav",60
Sample,60066,0,"Clap.wav",60

[TimingPoints]
1733,333.333333333333,4,2,1,40,1,0
100399,-100,4,2,1,40,0,1
129732,-100,4,2,1,40,0,0

[HitObjects]
320,192,1732,5,0,0:0:0:0:
192,192,1955,1,0,0:0:0:0:
64,192,2177,1,0,0:0:0:0:
320,192,2399,1,0,0:0:0:0:
192,192,2621,1,0,0:0:0:0:
64,192,2844,1,0,0:0:0:0:
448,192,3066,1,0,0:0:0:0:
192,192,3288,1,0,0:0:0:0:
64,192,3510,1,0,0:0:0:0:
320,192,3732,1,0,0:0:0:0:
192,192,3955,1,0,0:0:0:0:
64,192,4177,1,0,0:0:0:0:
448,192,4399,1,0,0:0:0:0:
320,192,4621,1,0,0:0:0:0:
192,192,4844,1,0,0:0:0:0:
448,192,5066,1,0,0:0:0:0:
320,192,5288,1,0,0:0:0:0:
192,192,5510,1,0,0:0:0:0:
448,192,5732,1,0,0:0:0:0:
320,192,5955,1,0,0:0:0:0:
64,192,6177,1,0,0:0:0:0:
448,192,6399,1,0,0:0:0:0:
320,192,6621,1,0,0:0:0:0:
192,192,6844,1,0,0:0:0:0:
448,192,7066,1,0,0:0:0:0:
192,192,7288,1,0,0:0:0:0:
64,192,7510,1,0,0:0:0:0:
448,192,7732,1,0,0:0:0:0:
192,192,7955,1,0,0:0:0:0:
64,192,8177,1,0,0:0:0:0:
320,192,8399,1,0,0:0:0:0:
192,192,8621,1,0,0:0:0:0:
64,192,8844,1,0,0:0:0:0:
448,192,9066,1,0,0:0:0:0:
192,192,9288,1,0,0:0:0:0:
64,192,9510,1,0,0:0:0:0:
448,192,9732,1,0,0:0:0:0:
320,192,9955,1,0,0:0:0:0:
64,192,10177,1,0,0:0:0:0:
448,192,10399,1,0,0:0:0:0:
320,192,10621,1,0,0:0:0:0:
64,192,10844,1,0,0:0:0:0:
448,192,11066,1,0,0:0:0:0:
320,192,11288,1,0,0:0:0:0:
192,192,11510,1,0,0:0:0:0:
448,192,11732,1,0,0:0:0:0:
320,192,11955,1,0,0:0:0:0:
64,192,12177,1,0,0:0:0:0:
448,192,12399,1,0,0:0:0:0:
320,192,12621,1,0,0:0:0:0:
192,192,12844,1,0,0:0:0:0:
448,192,13066,1,0,0:0:0:0:
320,192,13288,1,0,0:0:0:0:
192,192,13510,1,0,0:0:0:0:
448,192,13732,1,0,0:0:0:0:
192,192,13955,1,0,0:0:0:0:
64,192,14177,1,0,0:0:0:0:
320,192,14399,1,0,0:0:0:0:
448,192,14399,1,0,0:0:0:0:
192,192,14621,1,0,0:0:0:0:
64,192,14844,1,0,0:0:0:0:
448,192,15066,1,0,0:0:0:0:
320,192,15288,1,0,0:0:0:0:
64,192,15510,1,0,0:0:0:0:
192,192,15732,1,0,0:0:0:0:
448,192,15732,1,0,0:0:0:0:
320,192,15955,1,0,0:0:0:0:
64,192,16177,1,0,0:0:0:0:
320,192,16399,1,0,0:0:0:0:
192,192,16621,1,0,0:0:0:0:
64,192,16844,1,0,0:0:0:0:
320,192,17066,1,0,0:0:0:0:
448,192,17066,1,0,0:0:0:0:
192,192,17288,1,0,0:0:0:0:
64,192,17510,1,0,0:0:0:0:
448,192,17732,1,0,0:0:0:0:
320,192,17955,1,0,0:0:0:0:
64,192,18177,1,0,0:0:0:0:
192,192,18399,1,0,0:0:0:0:
448,192,18399,1,0,0:0:0:0:
320,192,18621,1,0,0:0:0:0:
64,192,18844,1,0,0:0:0:0:
448,192,19066,1,0,0:0:0:0:
320,192,19288,1,0,0:0:0:0:
192,192,19510,1,0,0:0:0:0:
64,192,19732,1,0,0:0:0:0:
448,192,19732,1,0,0:0:0:0:
320,192,19955,1,0,0:0:0:0:
192,192,20177,1,0,0:0:0:0:
448,192,20399,1,0,0:0:0:0:
192,192,20621,1,0,0:0:0:0:
64,192,20844,1,0,0:0:0:0:
320,192,21066,1,0,0:0:0:0:
448,192,21066,1,0,0:0:0:0:
192,192,21288,1,0,0:0:0:0:
64,192,21510,1,0,0:0:0:0:
448,192,21732,1,0,0:0:0:0:
320,192,21955,1,0,0:0:0:0:
64,192,22177,1,0,0:0:0:0:
192,192,22399,1,0,0:0:0:0:
448,192,22399,1,0,0:0:0:0:
320,192,22621,1,0,0:0:0:0:
192,192,22844,1,0,0:0:0:0:
64,192,23066,128,2,24232:0:0:0:0:
320,192,23066,1,4,0:0:0:0:
448,192,23066,128,0,24232:0:0:0:0:
192,192,24232,1,0,0:0:0:0:
320,192,24316,1,0,0:0:0:0:
192,192,24399,128,0,24566:0:0:0:0:
448,192,24566,128,0,24732:0:0:0:0:
64,192,24732,1,0,0:0:0:0:
320,192,24899,1,0,0:0:0:0:
192,192,25066,128,0,25232:0:0:0:0:
448,192,25232,1,2,0:0:0:0:
64,192,25316,1,2,0:0:0:0:
320,192,25399,128,2,25732:0:0:0:0:
64,192,25732,128,2,26899:0:0:0:0:
192,192,25732,1,4,0:0:0:0:
448,192,25732,128,0,26899:0:0:0:0:
192,192,26899,1,0,0:0:0:0:
320,192,26982,1,0,0:0:0:0:
192,192,27066,128,0,27232:0:0:0:0:
448,192,27232,128,0,27399:0:0:0:0:
64,192,27399,1,0,0:0:0:0:
320,192,27566,1,0,0:0:0:0:
64,192,27732,128,0,27899:0:0:0:0:
448,192,27899,128,2,28066:0:0:0:0:
192,192,27982,1,0,0:0:0:0:
320,192,28066,1,2,0:0:0:0:
320,192,28232,1,2,0:0:0:0:
64,192,28399,1,2,0:0:0:0:
192,192,28399,128,4,29566:0:0:0:0:
448,192,28399,128,0,29566:0:0:0:0:
64,192,29566,1,0,0:0:0:0:
320,192,29649,1,0,0:0:0:0:
64,192,29732,128,0,29899:0:0:0:0:
448,192,29899,128,0,30066:0:0:0:0:
192,192,30066,1,0,0:0:0:0:
320,192,30232,1,0,0:0:0:0:
64,192,30399,1,0,0:0:0:60:Snare.wav
448,192,30399,128,0,30566:0:0:0:0:
192,192,30566,1,2,0:0:0:0:
320,192,30649,1,2,0:0:0:0:
64,192,30732,128,2,30899:0:0:0:0:
320,192,30899,1,2,0:0:0:0:
192,192,30982,1,2,0:0:0:0:
64,192,31066,128,2,31399:0:0:0:0:
320,192,31066,1,4,0:0:0:0:
448,192,31066,128,0,31399:0:0:0:0:
192,192,31399,1,0,0:0:0:60:Snare.wav
64,192,31732,128,4,32066:0:0:0:0:
192,192,31732,128,2,32066:0:0:0:0:
448,192,31732,1,0,0:0:0:0:
320,192,32066,1,0,0:0:0:60:Snare.wav
64,192,32399,1,2,0:0:0:0:
320,192,32399,128,4,32566:0:0:0:0:
448,192,32399,128,0,32566:0:0:0:0:
192,192,32732,128,2,32899:0:0:0:0:
320,192,32732,128,4,32899:0:0:0:0:
448,192,32732,1,0,0:0:0:0:
64,192,33066,128,2,33732:0:0:0:0:
320,192,33066,1,0,0:0:0:0:
448,192,33066,1,0,0:0:0:0:
320,192,33232,1,2,0:0:0:0:
448,192,33232,1,0,0:0:0:0:
320,192,33399,1,2,0:0:0:0:
448,192,33399,1,0,0:0:0:0:
320,192,33566,1,2,0:0:0:0:
448,192,33566,1,0,0:0:0:0:
192,192,33732,1,2,0:0:0:0:
320,192,33732,128,4,35732:0:0:0:0:
448,192,33732,128,0,35732:0:0:0:0:
64,192,35732,1,0,0:0:0:0:
192,192,35816,1,0,0:0:0:0:
320,192,35899,1,0,0:0:0:0:
192,192,35982,1,0,0:0:0:0:
64,192,36066,1,0,0:0:0:0:
448,192,36066,1,0,0:0:0:0:
64,192,36399,1,2,0:0:0:0:
320,192,36399,1,4,0:0:0:0:
448,192,36399,1,0,0:0:0:0:
192,192,36566,1,0,0:0:0:0:
320,192,36649,1,0,0:0:0:0:
64,192,36732,1,2,0:0:0:0:
448,192,36732,1,0,0:0:0:0:
64,192,36899,1,0,0:0:0:0:
320,192,37066,1,2,0:0:0:0:
448,192,37066,128,0,37399:0:0:0:0:
64,192,37399,128,2,37732:0:0:0:0:
192,192,37399,1,0,0:0:0:0:
320,192,37732,1,2,0:0:0:0:
448,192,37732,1,0,0:0:0:0:
192,192,37899,1,0,0:0:0:0:
64,192,37982,1,0,0:0:0:0:
320,192,38066,1,2,0:0:0:0:
448,192,38066,1,0,0:0:0:0:
320,192,38232,1,0,0:0:0:0:
64,192,38399,1,2,0:0:0:0:
448,192,38399,128,0,38732:0:0:0:0:
192,192,38566,1,2,0:0:0:0:
320,192,38649,1,2,0:0:0:0:
64,192,38732,128,2,39066:0:0:0:0:
192,192,38899,1,2,0:0:0:0:
320,192,39066,1,2,0:0:0:0:
448,192,39066,1,0,0:0:0:0:
192,192,39232,1,0,0:0:0:0:
320,192,39316,1,0,0:0:0:0:
64,192,39399,1,2,0:0:0:0:
448,192,39399,1,0,0:0:0:0:
64,192,39566,1,0,0:0:0:0:
320,192,39732,1,2,0:0:0:0:
448,192,39732,128,0,40066:0:0:0:0:
64,192,40066,128,2,40399:0:0:0:0:
192,192,40066,1,0,0:0:0:0:
320,192,40399,1,2,0:0:0:0:
448,192,40399,1,0,0:0:0:0:
192,192,40566,1,0,0:0:0:0:
320,192,40649,1,0,0:0:0:0:
64,192,40732,1,2,0:0:0:0:
448,192,40732,1,0,0:0:0:0:
448,192,40899,1,0,0:0:0:0:
64,192,41066,1,2,0:0:0:0:
192,192,41066,1,0,0:0:0:0:
64,192,41232,1,2,0:0:0:0:
192,192,41232,1,0,0:0:0:0:
320,192,41399,1,2,0:0:0:0:
448,192,41399,1,0,0:0:0:0:
320,192,41566,1,2,0:0:0:0:
448,192,41566,1,0,0:0:0:0:
64,192,41732,1,2,0:0:0:0:
192,192,41732,1,4,0:0:0:0:
448,192,41732,1,0,0:0:0:0:
320,192,41899,1,0,0:0:0:0:
192,192,41982,1,0,0:0:0:0:
64,192,42066,1,2,0:0:0:0:
448,192,42066,1,0,0:0:0:0:
448,192,42232,1,0,0:0:0:0:
64,192,42399,128,2,42732:0:0:0:0:
192,192,42399,1,0,0:0:0:0:
320,192,42732,1,2,0:0:0:0:
448,192,42732,128,0,43066:0:0:0:0:
64,192,43066,1,2,0:0:0:0:
192,192,43066,1,0,0:0:0:0:
448,192,43232,1,0,0:0:0:0:
320,192,43316,1,0,0:0:0:0:
64,192,43399,1,2,0:0:0:0:
192,192,43399,1,0,0:0:0:0:
64,192,43566,1,0,0:0:0:0:
320,192,43732,1,2,0:0:0:0:
448,192,43732,1,0,0:0:0:0:
192,192,43816,1,2,0:0:0:0:
320,192,43899,1,2,0:0:0:0:
192,192,43982,1,2,0:0:0:0:
64,192,44066,1,2,0:0:0:0:
448,192,44066,1,0,0:0:0:0:
448,192,44232,1,2,0:0:0:0:
64,192,44399,1,2,0:0:0:0:
192,192,44399,1,4,0:0:0:0:
64,192,44566,1,2,0:0:0:0:
192,192,44566,1,4,0:0:0:0:
64,192,44732,1,2,0:0:0:0:
320,192,44732,1,4,0:0:0:0:
448,192,44732,1,0,0:0:0:0:
320,192,45066,1,2,0:0:0:0:
448,192,45066,1,4,0:0:0:0:
320,192,45232,1,2,0:0:0:0:
448,192,45232,1,4,0:0:0:0:
64,192,45399,1,2,0:0:0:0:
192,192,45399,1,4,0:0:0:0:
448,192,45399,1,0,0:0:0:0:
64,192,45732,1,2,0:0:0:0:
320,192,45732,1,0,0:0:0:0:
448,192,45816,1,2,0:0:0:0:
192,192,45899,1,2,0:0:0:0:
320,192,45982,1,2,0:0:0:0:
64,192,46066,1,2,0:0:0:0:
448,192,46066,1,0,0:0:0:0:
192,192,46149,1,2,0:0:0:0:
320,192,46232,1,2,0:0:0:0:
64,192,46316,1,2,0:0:0:0:
192,192,46399,1,2,0:0:0:0:
448,192,46399,1,4,0:0:0:0:
320,192,46566,1,2,0:0:0:0:
448,192,46566,1,4,0:0:0:0:
192,192,46732,1,2,0:0:0:0:
448,192,46732,128,4,47066:0:0:0:0:
64,192,47066,1,2,0:0:0:0:
192,192,47066,1,4,0:0:0:0:
320,192,47066,1,0,0:0:0:0:
448,192,47232,1,0,0:0:0:0:
64,192,47399,1,2,0:0:0:0:
192,192,47399,1,0,0:0:0:0:
448,192,47566,1,0,0:0:0:0:
192,192,47732,1,2,0:0:0:0:
320,192,47732,1,0,0:0:0:0:
448,192,47899,1,0,0:0:0:0:
64,192,48066,1,2,0:0:0:0:
192,192,48066,1,0,0:0:0:0:
448,192,48232,1,0,0:0:0:0:
192,192,48399,1,2,0:0:0:0:
320,192,48399,1,0,0:0:0:0:
64,192,48566,1,0,0:0:0:0:
320,192,48732,1,2,0:0:0:0:
448,192,48732,1,0,0:0:0:0:
64,192,48899,1,0,0:0:0:0:
192,192,49066,1,2,0:0:0:0:
320,192,49066,1,0,0:0:0:0:
64,192,49232,1,2,0:0:0:0:
192,192,49316,1,2,0:0:0:0:
320,192,49399,1,2,0:0:0:0:
64,192,49566,1,2,0:0:0:0:
448,192,49566,1,0,0:0:0:0:
192,192,49732,1,2,0:0:0:0:
320,192,49732,1,0,0:0:0:0:
448,192,49899,1,0,0:0:0:0:
64,192,50066,1,2,0:0:0:0:
192,192,50066,1,0,0:0:0:0:
448,192,50232,1,0,0:0:0:0:
192,192,50399,1,2,0:0:0:0:
320,192,50399,1,0,0:0:0:0:
448,192,50566,1,0,0:0:0:0:
64,192,50732,1,2,0:0:0:0:
192,192,50732,1,0,0:0:0:0:
320,192,50899,1,0,0:0:0:0:
64,192,51066,1,2,0:0:0:0:
448,192,51066,1,0,0:0:0:0:
192,192,51232,1,0,0:0:0:0:
320,192,51399,1,2,0:0:0:0:
448,192,51399,1,0,0:0:0:0:
192,192,51566,1,0,0:0:0:0:
64,192,51732,1,2,0:0:0:0:
448,192,51732,1,0,0:0:0:0:
320,192,51899,1,2,0:0:0:0:
448,192,51899,1,0,0:0:0:0:
64,192,52066,1,2,0:0:0:0:
448,192,52066,1,0,0:0:0:0:
64,192,52232,1,2,0:0:0:0:
192,192,52232,1,0,0:0:0:0:
64,192,52399,1,2,0:0:0:0:
448,192,52399,1,0,0:0:0:0:
320,192,52566,1,0,0:0:0:0:
64,192,52732,1,2,0:0:0:0:
192,192,52732,1,0,0:0:0:0:
320,192,52899,1,0,0:0:0:0:
64,192,53066,1,2,0:0:0:0:
448,192,53066,1,0,0:0:0:0:
64,192,53232,1,0,0:0:0:0:
448,192,53232,1,0,0:0:0:0:
192,192,53399,1,2,0:0:0:0:
320,192,53399,1,0,0:0:0:0:
192,192,53566,1,0,0:0:0:0:
64,192,53732,1,2,0:0:0:0:
448,192,53732,1,0,0:0:0:0:
192,192,53899,1,0,0:0:0:0:
320,192,54066,1,2,0:0:0:0:
448,192,54066,1,0,0:0:0:0:
192,192,54232,1,0,0:0:0:0:
64,192,54399,1,2,0:0:0:0:
448,192,54399,1,0,0:0:0:0:
64,192,54566,1,2,0:0:0:0:
448,192,54566,1,0,0:0:0:0:
192,192,54732,1,2,0:0:0:0:
320,192,54732,1,0,0:0:0:0:
320,192,54899,1,2,0:0:0:0:
64,192,55066,1,2,0:0:0:0:
448,192,55066,128,0,55399:0:0:0:0:
64,192,55232,1,2,0:0:0:0:
64,192,55399,1,2,0:0:0:0:
192,192,55399,1,4,0:0:0:0:
320,192,55399,1,0,0:0:0:60:Snare.wav
192,192,55732,128,2,56066:0:0:0:0:
448,192,55732,1,0,0:0:0:0:
448,192,55899,1,2,0:0:0:0:
64,192,56066,1,2,0:0:0:0:
320,192,56066,1,4,0:0:0:0:
448,192,56066,1,0,0:0:0:60:Snare.wav
64,192,56399,1,2,0:0:0:0:
192,192,56399,1,0,0:0:0:60:Snare.wav
320,192,56399,128,0,56732:0:0:0:0:
64,192,56732,1,2,0:0:0:0:
192,192,56732,1,0,0:0:0:60:Snare.wav
448,192,56732,1,0,0:0:0:0:
64,192,57066,1,2,0:0:0:0:
448,192,57066,1,0,0:0:0:0:
320,192,57149,1,2,0:0:0:0:
192,192,57232,1,2,0:0:0:0:
320,192,57316,1,2,0:0:0:0:
64,192,57399,1,2,0:0:0:0:
448,192,57399,1,0,0:0:0:0:
64,192,57566,1,2,0:0:0:0:
192,192,57566,1,4,0:0:0:0:
320,192,57566,1,0,0:0:0:0:
448,192,57899,1,0,0:0:0:0:
64,192,58066,1,2,0:0:0:0:
320,192,58066,1,0,0:0:0:60:Clap.wav
448,192,58232,1,0,0:0:0:0:
64,192,58399,1,2,0:0:0:0:
192,192,58399,1,0,0:0:0:0:
448,192,58566,1,0,0:0:0:0:
64,192,58732,1,2,0:0:0:0:
320,192,58732,1,0,0:0:0:60:Clap.wav
448,192,58899,1,0,0:0:0:0:
192,192,59066,1,2,0:0:0:0:
320,192,59066,1,0,0:0:0:0:
64,192,59232,1,0,0:0:0:0:
320,192,59399,1,2,0:0:0:0:
448,192,59399,1,0,0:0:0:60:Clap.wav
64,192,59566,1,0,0:0:0:0:
192,192,59732,1,2,0:0:0:0:
320,192,59732,1,0,0:0:0:0:
448,192,59899,1,2,0:0:0:0:
320,192,59982,1,2,0:0:0:0:
192,192,60066,1,2,0:0:0:0:
64,192,60232,1,2,0:0:0:0:
448,192,60232,1,0,0:0:0:0:
192,192,60399,1,2,0:0:0:0:
320,192,60399,1,0,0:0:0:0:
64,192,60566,1,0,0:0:0:0:
320,192,60732,1,2,0:0:0:0:
448,192,60732,1,0,0:0:0:60:Clap.wav
64,192,60899,1,0,0:0:0:0:
192,192,61066,1,2,0:0:0:0:
320,192,61066,1,0,0:0:0:0:
64,192,61232,1,0,0:0:0:0:
320,192,61399,1,2,0:0:0:0:
448,192,61399,1,0,0:0:0:60:Clap.wav
64,192,61566,1,0,0:0:0:0:
192,192,61732,1,2,0:0:0:0:
448,192,61732,1,0,0:0:0:0:
320,192,61899,1,0,0:0:0:0:
64,192,62066,1,2,0:0:0:0:
192,192,62066,1,0,0:0:0:60:Clap.wav
320,192,62232,1,0,0:0:0:0:
64,192,62399,1,2,0:0:0:0:
448,192,62399,1,0,0:0:0:0:
64,192,62566,1,2,0:0:0:0:
192,192,62566,1,0,0:0:0:60:Clap.wav
64,192,62732,1,2,0:0:0:0:
448,192,62732,1,0,0:0:0:60:Clap.wav
320,192,62899,1,2,0:0:0:0:
448,192,62899,1,0,0:0:0:0:
64,192,63066,1,2,0:0:0:0:
448,192,63066,1,0,0:0:0:0:
192,192,63232,1,0,0:0:0:0:
320,192,63399,1,2,0:0:0:0:
448,192,63399,1,0,0:0:0:60:Clap.wav
64,192,63566,1,0,0:0:0:0:
192,192,63732,1,2,0:0:0:0:
320,192,63732,1,0,0:0:0:0:
192,192,63899,1,0,0:0:0:60:Clap.wav
320,192,63899,1,0,0:0:0:0:
64,192,64066,1,2,0:0:0:0:
448,192,64066,1,0,0:0:0:60:Clap.wav
448,192,64232,1,0,0:0:0:0:
64,192,64399,1,2,0:0:0:0:
192,192,64399,1,0,0:0:0:0:
448,192,64566,1,0,0:0:0:0:
64,192,64732,1,2,0:0:0:0:
320,192,64732,1,0,0:0:0:60:Clap.wav
448,192,64899,1,0,0:0:0:0:
192,192,65066,1,2,0:0:0:0:
320,192,65066,1,0,0:0:0:0:
192,192,65232,1,2,0:0:0:0:
320,192,65232,1,0,0:0:0:60:Clap.wav
64,192,65399,1,2,0:0:0:0:
448,192,65399,1,0,0:0:0:60:Clap.wav
64,192,65566,1,2,0:0:0:0:
192,192,65732,128,2,66066:0:0:0:0:
320,192,65732,1,0,0:0:0:0:
320,192,65899,1,2,0:0:0:0:
64,192,66066,1,2,0:0:0:0:
320,192,66066,1,4,0:0:0:0:
448,192,66066,1,0,0:0:0:60:Snare.wav
192,192,66399,1,2,0:0:0:0:
448,192,66399,128,0,66732:0:0:0:0:
192,192,66566,1,2,0:0:0:0:
64,192,66732,1,2,0:0:0:0:
192,192,66732,1,4,0:0:0:0:
320,192,66732,1,0,0:0:0:60:Snare.wav
64,192,67066,128,2,67399:0:0:0:0:
192,192,67066,1,0,0:0:0:60:Snare.wav
448,192,67066,1,0,0:0:0:0:
192,192,67399,1,2,0:0:0:0:
320,192,67399,1,0,0:0:0:60:Snare.wav
448,192,67399,1,0,0:0:0:0:
64,192,67732,1,2,0:0:0:0:
448,192,67732,1,0,0:0:0:0:
192,192,67816,1,2,0:0:0:0:
320,192,67899,1,2,0:0:0:0:
192,192,67982,1,2,0:0:0:0:
64,192,68066,1,2,0:0:0:0:
448,192,68066,1,0,0:0:0:0:
448,192,68232,1,2,0:0:0:0:
64,192,68399,1,2,0:0:0:0:
448,192,68399,1,0,0:0:0:0:
192,192,68621,1,0,0:0:0:0:
192,192,68844,1,0,0:0:0:0:
64,192,69066,1,2,0:0:0:0:
448,192,69066,1,0,0:0:0:60:Snare.wav
320,192,69288,1,0,0:0:0:0:
320,192,69510,1,0,0:0:0:0:
64,192,69732,1,2,0:0:0:0:
448,192,69732,1,0,0:0:0:0:
192,192,69955,1,0,0:0:0:0:
192,192,70177,1,0,0:0:0:0:
64,192,70399,1,2,0:0:0:0:
448,192,70399,1,0,0:0:0:60:Snare.wav
448,192,70844,1,0,0:0:0:0:
192,192,71066,1,2,0:0:0:0:
320,192,71066,1,0,0:0:0:0:
64,192,71288,1,0,0:0:0:0:
64,192,71510,1,0,0:0:0:0:
192,192,71732,1,2,0:0:0:0:
320,192,71732,1,0,0:0:0:60:Snare.wav
448,192,71955,1,0,0:0:0:0:
448,192,72177,1,0,0:0:0:0:
192,192,72399,1,2,0:0:0:0:
320,192,72399,1,0,0:0:0:0:
64,192,72621,1,0,0:0:0:0:
64,192,72844,1,0,0:0:0:0:
192,192,73066,1,2,0:0:0:0:
320,192,73066,1,0,0:0:0:60:Snare.wav
64,192,73732,1,0,0:0:0:0:
192,192,73955,1,0,0:0:0:0:
320,192,74177,1,0,0:0:0:0:
64,192,74399,1,0,0:0:0:0:
192,192,74621,1,0,0:0:0:0:
320,192,74844,1,0,0:0:0:0:
64,192,75066,1,0,0:0:0:0:
192,192,75288,1,0,0:0:0:0:
448,192,75510,1,0,0:0:0:0:
64,192,75732,1,0,0:0:0:0:
320,192,75955,1,0,0:0:0:0:
448,192,76177,1,0,0:0:0:0:
64,192,76399,1,0,0:0:0:0:
192,192,76399,1,0,0:0:0:0:
192,192,77066,1,0,0:0:0:0:
320,192,77066,1,0,0:0:0:0:
320,192,77732,1,0,0:0:0:0:
448,192,77732,1,0,0:0:0:0:
320,192,78399,128,0,78899:0:0:0:0:
448,192,78399,128,0,78899:0:0:0:0:
64,192,78566,1,2,0:0:0:0:
192,192,78732,1,0,0:0:0:60:Snare.wav
64,192,78899,1,2,0:0:0:0:
64,192,79066,128,2,80232:0:0:0:0:
192,192,79066,128,4,80232:0:0:0:0:
448,192,79066,1,0,0:0:0:0:
448,192,80232,1,0,0:0:0:0:
320,192,80316,1,0,0:0:0:0:
448,192,80399,128,0,80566:0:0:0:0:
192,192,80566,128,0,80732:0:0:0:0:
64,192,80732,1,0,0:0:0:0:
320,192,80899,1,0,0:0:0:0:
448,192,81066,128,0,81232:0:0:0:0:
320,192,81232,1,2,0:0:0:0:
192,192,81316,1,2,0:0:0:0:
64,192,81399,128,2,81566:0:0:0:0:
64,192,81732,1,2,0:0:0:0:
192,192,81732,128,4,82899:0:0:0:0:
448,192,81732,128,0,82899:0:0:0:0:
320,192,82899,1,0,0:0:0:0:
64,192,82982,1,0,0:0:0:0:
320,192,83066,128,0,83232:0:0:0:0:
192,192,83232,128,0,83399:0:0:0:0:
64,192,83399,1,0,0:0:0:0:
320,192,83566,1,0,0:0:0:0:
448,192,83732,128,0,83899:0:0:0:0:
64,192,83899,1,2,0:0:0:0:
320,192,83982,1,0,0:0:0:0:
192,192,84066,1,2,0:0:0:0:
192,192,84232,1,2,0:0:0:0:
64,192,84399,128,2,85566:0:0:0:0:
320,192,84399,1,4,0:0:0:0:
448,192,84399,128,0,85566:0:0:0:0:
320,192,85566,1,0,0:0:0:0:
192,192,85649,1,0,0:0:0:0:
320,192,85732,128,0,85899:0:0:0:0:
64,192,85899,128,0,86066:0:0:0:0:
448,192,86066,1,0,0:0:0:0:
192,192,86232,1,0,0:0:0:0:
320,192,86399,128,0,86566:0:0:0:0:
448,192,86566,1,2,0:0:0:0:
64,192,86649,1,2,0:0:0:0:
192,192,86732,128,2,86899:0:0:0:0:
448,192,86899,1,2,0:0:0:0:
64,192,86982,1,2,0:0:0:0:
192,192,87066,1,2,0:0:0:0:
320,192,87066,128,4,88232:0:0:0:0:
448,192,87066,128,0,88232:0:0:0:0:
192,192,88232,1,0,0:0:0:0:
64,192,88316,1,0,0:0:0:0:
192,192,88399,128,0,88566:0:0:0:0:
320,192,88566,128,0,88732:0:0:0:0:
64,192,88732,1,0,0:0:0:0:
448,192,88899,1,0,0:0:0:0:
64,192,89066,1,2,0:0:0:0:
192,192,89066,1,0,0:0:0:0:
64,192,89232,1,2,0:0:0:0:
192,192,89399,128,2,89732:0:0:0:0:
448,192,89399,1,0,0:0:0:0:
448,192,89566,1,2,0:0:0:0:
64,192,89732,1,2,0:0:0:0:
320,192,89732,128,4,89899:0:0:0:0:
448,192,89732,128,0,89899:0:0:0:0:
320,192,90066,1,2,0:0:0:0:
448,192,90066,128,0,90232:0:0:0:0:
64,192,90232,128,0,90399:0:0:0:0:
192,192,90232,128,0,90399:0:0:0:0:
320,192,90399,1,2,0:0:0:0:
64,192,90566,128,0,90732:0:0:0:0:
192,192,90566,128,0,90732:0:0:0:0:
448,192,90732,1,2,0:0:0:0:
192,192,90899,128,0,91066:0:0:0:0:
320,192,90899,128,0,91066:0:0:0:0:
448,192,91066,1,2,0:0:0:0:
192,192,91232,128,0,91399:0:0:0:0:
320,192,91232,128,0,91399:0:0:0:0:
64,192,91399,1,2,0:0:0:0:
320,192,91566,128,0,91732:0:0:0:0:
64,192,91732,128,2,91899:0:0:0:0:
192,192,91732,1,0,0:0:0:0:
448,192,91732,128,0,91899:0:0:0:0:
64,192,92066,128,2,92399:0:0:0:0:
192,192,92066,1,0,0:0:0:0:
448,192,92066,128,0,92232:0:0:0:0:
192,192,92399,1,2,0:0:0:0:
320,192,92399,128,4,92566:0:0:0:0:
448,192,92399,128,0,92566:0:0:0:0:
64,192,92732,1,2,0:0:0:0:
448,192,92732,128,0,92899:0:0:0:0:
192,192,92899,128,0,93066:0:0:0:0:
320,192,92899,128,0,93066:0:0:0:0:
448,192,93066,1,2,0:0:0:0:
192,192,93232,128,0,93399:0:0:0:0:
320,192,93232,128,0,93399:0:0:0:0:
64,192,93399,1,2,0:0:0:0:
320,192,93566,128,0,93732:0:0:0:0:
448,192,93566,128,0,93732:0:0:0:0:
192,192,93732,1,2,0:0:0:0:
320,192,93899,128,0,94066:0:0:0:0:
448,192,93899,128,0,94066:0:0:0:0:
64,192,94066,1,2,0:0:0:0:
448,192,94232,128,0,94399:0:0:0:0:
64,192,94399,1,2,0:0:0:0:
192,192,94399,128,0,94566:0:0:0:0:
320,192,94399,128,0,94566:0:0:0:0:
64,192,94732,128,2,94899:0:0:0:0:
320,192,94732,1,0,0:0:0:0:
448,192,94732,128,0,95066:0:0:0:0:
192,192,95066,1,2,0:0:0:0:
320,192,95066,1,4,0:0:0:0:
64,192,95149,1,2,0:0:0:0:
448,192,95232,1,2,0:0:0:0:
320,192,95316,1,2,0:0:0:0:
448,192,95399,1,2,0:0:0:0:
64,192,95482,1,2,0:0:0:0:
192,192,95566,1,2,0:0:0:0:
320,192,95649,1,2,0:0:0:0:
64,192,95732,1,2,0:0:0:0:
448,192,95732,1,4,0:0:0:0:
192,192,95816,1,2,0:0:0:0:
64,192,95899,1,2,0:0:0:0:
448,192,95982,1,2,0:0:0:0:
320,192,96066,1,2,0:0:0:0:
192,192,96149,1,2,0:0:0:0:
320,192,96232,1,2,0:0:0:0:
192,192,96316,1,2,0:0:0:0:
64,192,96399,1,2,0:0:0:0:
448,192,96399,1,4,0:0:0:0:
320,192,96482,1,0,0:0:0:0:
192,192,96566,1,0,0:0:0:0:
320,192,96649,1,0,0:0:0:0:
64,192,96732,1,0,0:0:0:0:
448,192,96732,1,0,0:0:0:0:
192,192,96816,1,0,0:0:0:0:
320,192,96899,1,0,0:0:0:0:
192,192,96982,1,0,0:0:0:0:
64,192,97066,1,4,0:0:0:0:
448,192,97066,1,0,0:0:0:0:
320,192,97149,1,0,0:0:0:0:
192,192,97232,1,0,0:0:0:0:
320,192,97316,1,0,0:0:0:0:
192,192,97399,1,0,0:0:0:0:
448,192,97399,1,0,0:0:0:0:
64,192,97482,1,0,0:0:0:0:
448,192,97566,1,0,0:0:0:0:
64,192,97649,1,0,0:0:0:0:
320,192,97732,1,0,0:0:0:0:
64,192,99066,1,0,0:0:0:0:
320,192,99732,128,0,100399:0:0:0:0:
64,192,100399,1,2,0:0:0:0:
192,192,100399,1,4,0:0:0:0:
448,192,100399,1,0,0:0:0:0:
192,192,100510,1,2,0:0:0:0:
320,192,100621,1,2,0:0:0:0:
320,192,100732,1,2,0:0:0:0:
64,192,100844,1,2,0:0:0:0:
64,192,100955,1,2,0:0:0:0:
320,192,101066,1,2,0:0:0:0:
448,192,101066,1,0,0:0:0:0:
448,192,101177,1,2,0:0:0:0:
192,192,101288,1,2,0:0:0:0:
192,192,101399,1,2,0:0:0:0:
320,192,101510,1,2,0:0:0:0:
320,192,101621,1,2,0:0:0:0:
64,192,101732,1,2,0:0:0:0:
192,192,101732,1,0,0:0:0:0:
64,192,101844,1,2,0:0:0:0:
448,192,101955,1,2,0:0:0:0:
448,192,102066,1,2,0:0:0:0:
192,192,102177,1,2,0:0:0:0:
192,192,102288,1,2,0:0:0:0:
64,192,102399,1,2,0:0:0:0:
448,192,102399,1,0,0:0:0:0:
448,192,102510,1,2,0:0:0:0:
64,192,102621,1,2,0:0:0:0:
64,192,102732,1,2,0:0:0:0:
320,192,102844,1,2,0:0:0:0:
320,192,102955,1,2,0:0:0:0:
64,192,103066,1,2,0:0:0:0:
192,192,103066,1,0,0:0:0:0:
192,192,103177,1,2,0:0:0:0:
448,192,103288,1,2,0:0:0:0:
448,192,103399,1,2,0:0:0:0:
64,192,103510,1,2,0:0:0:0:
64,192,103621,1,2,0:0:0:0:
320,192,103732,1,2,0:0:0:0:
448,192,103732,1,0,0:0:0:0:
320,192,103844,1,2,0:0:0:0:
192,192,103955,1,2,0:0:0:0:
192,192,104066,1,2,0:0:0:0:
448,192,104177,1,2,0:0:0:0:
448,192,104288,1,2,0:0:0:0:
64,192,104399,1,2,0:0:0:0:
192,192,104399,1,0,0:0:0:0:
192,192,104510,1,2,0:0:0:0:
320,192,104621,1,2,0:0:0:0:
320,192,104732,1,2,0:0:0:0:
64,192,104844,1,2,0:0:0:0:
64,192,104955,1,2,0:0:0:0:
192,192,105066,1,2,0:0:0:0:
320,192,105066,1,0,0:0:0:60:Snare.wav
448,192,105066,1,0,0:0:0:0:
64,192,105732,1,2,0:0:0:0:
320,192,105732,1,4,0:0:0:0:
448,192,105732,1,0,0:0:0:0:
320,192,105844,1,2,0:0:0:0:
192,192,105955,1,2,0:0:0:0:
192,192,106066,1,2,0:0:0:0:
448,192,106177,1,2,0:0:0:0:
448,192,106288,1,2,0:0:0:0:
64,192,106399,1,2,0:0:0:0:
192,192,106399,1,0,0:0:0:0:
64,192,106510,1,2,0:0:0:0:
320,192,106621,1,2,0:0:0:0:
320,192,106732,1,2,0:0:0:0:
192,192,106844,1,2,0:0:0:0:
192,192,106955,1,2,0:0:0:0:
320,192,107066,1,2,0:0:0:0:
448,192,107066,1,0,0:0:0:0:
448,192,107177,1,2,0:0:0:0:
64,192,107288,1,2,0:0:0:0:
64,192,107399,1,2,0:0:0:0:
320,192,107510,1,2,0:0:0:0:
320,192,107621,1,2,0:0:0:0:
64,192,107732,1,2,0:0:0:0:
448,192,107732,1,0,0:0:0:0:
64,192,107844,1,2,0:0:0:0:
448,192,107955,1,2,0:0:0:0:
448,192,108066,1,2,0:0:0:0:
192,192,108177,1,2,0:0:0:0:
192,192,108288,1,2,0:0:0:0:
320,192,108399,1,2,0:0:0:0:
448,192,108399,1,0,0:0:0:0:
320,192,108510,1,2,0:0:0:0:
64,192,108621,1,2,0:0:0:0:
64,192,108732,1,2,0:0:0:0:
448,192,108844,1,2,0:0:0:0:
448,192,108955,1,2,0:0:0:0:
64,192,109066,1,2,0:0:0:0:
192,192,109066,1,0,0:0:0:0:
192,192,109177,1,2,0:0:0:0:
320,192,109288,1,2,0:0:0:0:
320,192,109399,1,2,0:0:0:0:
64,192,109510,1,2,0:0:0:0:
64,192,109621,1,2,0:0:0:0:
320,192,109732,1,2,0:0:0:0:
448,192,109732,1,0,0:0:0:0:
320,192,109844,1,2,0:0:0:0:
192,192,109955,1,2,0:0:0:0:
192,192,110066,1,2,0:0:0:0:
448,192,110177,1,2,0:0:0:0:
448,192,110288,1,2,0:0:0:0:
64,192,110399,1,2,0:0:0:0:
192,192,110399,1,0,0:0:0:60:Snare.wav
320,192,110399,1,0,0:0:0:0:
64,192,111066,1,2,0:0:0:0:
192,192,111066,1,4,0:0:0:0:
320,192,111066,1,0,0:0:0:0:
192,192,111177,1,2,0:0:0:0:
448,192,111288,1,2,0:0:0:0:
448,192,111399,1,2,0:0:0:0:
64,192,111510,1,2,0:0:0:0:
64,192,111621,1,2,0:0:0:0:
320,192,111732,1,2,0:0:0:0:
448,192,111732,1,0,0:0:0:0:
320,192,111844,1,2,0:0:0:0:
192,192,111955,1,2,0:0:0:0:
192,192,112066,1,2,0:0:0:0:
448,192,112177,1,2,0:0:0:0:
448,192,112288,1,2,0:0:0:0:
64,192,112399,1,2,0:0:0:0:
192,192,112399,1,0,0:0:0:0:
64,192,112510,1,2,0:0:0:0:
448,192,112621,1,2,0:0:0:0:
448,192,112732,1,2,0:0:0:0:
192,192,112844,1,2,0:0:0:0:
192,192,112955,1,2,0:0:0:0:
320,192,113066,1,2,0:0:0:0:
448,192,113066,1,0,0:0:0:0:
320,192,113177,1,2,0:0:0:0:
64,192,113288,1,2,0:0:0:0:
64,192,113399,1,2,0:0:0:0:
448,192,113510,1,2,0:0:0:0:
448,192,113621,1,2,0:0:0:0:
64,192,113732,1,2,0:0:0:0:
192,192,113732,1,0,0:0:0:0:
64,192,113844,1,2,0:0:0:0:
320,192,113955,1,2,0:0:0:0:
320,192,114066,1,2,0:0:0:0:
192,192,114177,1,2,0:0:0:0:
192,192,114288,1,2,0:0:0:0:
320,192,114399,1,2,0:0:0:0:
448,192,114399,1,0,0:0:0:0:
448,192,114510,1,2,0:0:0:0:
64,192,114621,1,2,0:0:0:0:
64,192,114732,1,2,0:0:0:0:
320,192,114844,1,2,0:0:0:0:
320,192,114955,1,2,0:0:0:0:
64,192,115066,1,2,0:0:0:0:
192,192,115066,1,0,0:0:0:0:
192,192,115177,1,2,0:0:0:0:
448,192,115288,1,2,0:0:0:0:
448,192,115399,1,2,0:0:0:0:
64,192,115510,1,2,0:0:0:0:
64,192,115621,1,2,0:0:0:0:
192,192,115732,1,2,0:0:0:0:
320,192,115732,1,0,0:0:0:60:Snare.wav
448,192,115732,1,0,0:0:0:0:
192,192,116399,1,2,0:0:0:0:
320,192,116399,1,4,0:0:0:0:
448,192,116399,1,0,0:0:0:0:
320,192,116510,1,2,0:0:0:0:
64,192,116621,1,2,0:0:0:0:
64,192,116732,1,2,0:0:0:0:
448,192,116844,1,2,0:0:0:0:
448,192,116955,1,2,0:0:0:0:
64,192,117066,1,2,0:0:0:0:
192,192,117066,1,0,0:0:0:0:
192,192,117177,1,2,0:0:0:0:
320,192,117288,1,2,0:0:0:0:
320,192,117399,1,2,0:0:0:0:
64,192,117510,1,2,0:0:0:0:
64,192,117621,1,2,0:0:0:0:
320,192,117732,1,2,0:0:0:0:
448,192,117732,1,0,0:0:0:0:
448,192,117844,1,2,0:0:0:0:
64,192,117955,1,2,0:0:0:0:
64,192,118066,1,2,0:0:0:0:
320,192,118177,1,2,0:0:0:0:
320,192,118288,1,2,0:0:0:0:
64,192,118399,1,2,0:0:0:0:
192,192,118399,1,0,0:0:0:0:
192,192,118510,1,2,0:0:0:0:
448,192,118621,1,2,0:0:0:0:
448,192,118732,1,2,0:0:0:0:
64,192,118844,1,2,0:0:0:0:
64,192,118955,1,2,0:0:0:0:
320,192,119066,1,2,0:0:0:0:
448,192,119066,1,4,0:0:0:0:
64,192,119288,1,4,0:0:0:0:
320,192,119288,1,2,0:0:0:0:
320,192,119510,1,2,0:0:0:0:
448,192,119510,1,4,0:0:0:0:
64,192,119732,1,2,0:0:0:0:
192,192,119732,1,4,0:0:0:0:
320,192,119732,1,0,0:0:0:60:Snare.wav
64,192,120399,1,2,0:0:0:0:
192,192,120399,1,4,0:0:0:0:
192,192,120621,1,4,0:0:0:0:
448,192,120621,1,2,0:0:0:0:
64,192,120844,1,2,0:0:0:0:
192,192,120844,1,4,0:0:0:0:
192,192,121066,1,2,0:0:0:0:
320,192,121066,1,4,0:0:0:0:
448,192,121066,1,0,0:0:0:60:Snare.wav
192,192,121732,1,4,0:0:0:0:
448,192,121732,1,2,0:0:0:0:
320,192,121955,1,2,0:0:0:0:
448,192,121955,1,4,0:0:0:0:
192,192,122177,1,4,0:0:0:0:
448,192,122177,1,2,0:0:0:0:
64,192,122399,1,4,0:0:0:0:
320,192,122399,1,2,0:0:0:0:
64,192,122621,1,2,0:0:0:0:
192,192,122621,1,4,0:0:0:0:
64,192,122844,1,4,0:0:0:0:
320,192,122844,1,2,0:0:0:0:
320,192,123066,1,2,0:0:0:0:
448,192,123066,1,4,0:0:0:0:
64,192,123177,1,2,0:0:0:0:
192,192,123288,1,2,0:0:0:0:
320,192,123288,1,4,0:0:0:0:
448,192,123399,1,2,0:0:0:0:
64,192,123510,1,4,0:0:0:0:
192,192,123510,1,2,0:0:0:0:
320,192,123621,1,2,0:0:0:0:
64,192,123732,1,2,0:0:0:0:
448,192,123732,1,4,0:0:0:0:
192,192,123844,1,2,0:0:0:0:
320,192,123955,1,4,0:0:0:0:
448,192,123955,1,2,0:0:0:0:
192,192,124066,1,2,0:0:0:0:
64,192,124177,1,4,0:0:0:0:
448,192,124177,1,2,0:0:0:0:
320,192,124288,1,2,0:0:0:0:
64,192,124399,128,2,125066:0:0:0:0:
192,192,124399,128,4,125066:0:0:0:0:
448,192,124399,1,0,0:0:0:0:
64,192,125288,1,2,0:0:0:0:
320,192,125288,1,0,0:0:0:0:
448,192,125288,1,0,0:0:0:0:
64,192,125510,1,2,0:0:0:0:
320,192,125510,1,0,0:0:0:0:
448,192,125510,1,0,0:0:0:0:
64,192,125732,1,2,0:0:0:0:
320,192,125732,128,4,126399:0:0:0:0:
448,192,125732,128,0,126399:0:0:0:0:
64,192,126621,1,2,0:0:0:0:
192,192,126621,1,0,0:0:0:0:
448,192,126621,1,0,0:0:0:0:
64,192,126844,1,2,0:0:0:0:
192,192,126844,1,0,0:0:0:0:
448,192,126844,1,0,0:0:0:0:
64,192,127066,128,2,127732:0:0:0:0:
192,192,127066,1,4,0:0:0:0:
448,192,127066,128,0,127732:0:0:0:0:
64,192,127955,1,2,0:0:0:0:
192,192,127955,1,0,0:0:0:0:
320,192,127955,1,0,0:0:0:0:
64,192,128177,1,2,0:0:0:0:
192,192,128177,1,0,0:0:0:0:
320,192,128177,1,0,0:0:0:0:
64,192,128399,1,2,0:0:0:0:
192,192,128399,1,0,0:0:0:0:
320,192,128399,1,0,0:0:0:0:
192,192,128732,1,2,0:0:0:0:
320,192,128732,1,0,0:0:0:0:
448,192,128732,1,0,0:0:0:0:
64,192,129066,1,2,0:0:0:0:
448,192,129066,1,0,0:0:0:0:
64,192,129232,1,2,0:0:0:0:
448,192,129232,1,0,0:0:0:0:
64,192,129399,1,2,0:0:0:0:
448,192,129399,1,0,0:0:0:0:
64,192,129566,1,2,0:0:0:0:
448,192,129566,1,0,0:0:0:0:
192,192,129732,1,2,0:0:0:0:
320,192,129732,1,0,0:0:0:0:
448,192,131732,1,0,0:0:0:0:
320,192,131816,1,0,0:0:0:0:
192,192,131899,1,0,0:0:0:0:
320,192,131982,1,0,0:0:0:0:
64,192,132066,1,0,0:0:0:0:
448,192,132066,1,0,0:0:0:0:
64,192,132399,1,2,0:0:0:0:
320,192,132399,1,4,0:0:0:0:
448,192,132399,1,0,0:0:0:0:
192,192,132566,1,0,0:0:0:0:
320,192,132649,1,0,0:0:0:0:
64,192,132732,1,2,0:0:0:0:
448,192,132732,1,0,0:0:0:0:
64,192,132899,1,0,0:0:0:0:
320,192,133066,1,2,0:0:0:0:
448,192,133066,128,0,133399:0:0:0:0:
64,192,133399,128,2,133732:0:0:0:0:
192,192,133399,1,0,0:0:0:0:
320,192,133732,1,2,0:0:0:0:
448,192,133732,1,0,0:0:0:0:
192,192,133899,1,0,0:0:0:0:
64,192,133982,1,0,0:0:0:0:
320,192,134066,1,2,0:0:0:0:
448,192,134066,1,0,0:0:0:0:
320,192,134232,1,0,0:0:0:0:
64,192,134399,1,2,0:0:0:0:
448,192,134399,128,0,134732:0:0:0:0:
192,192,134566,1,2,0:0:0:0:
320,192,134649,1,2,0:0:0:0:
64,192,134732,128,2,135066:0:0:0:0:
192,192,134899,1,2,0:0:0:0:
320,192,135066,1,2,0:0:0:0:
448,192,135066,1,0,0:0:0:0:
192,192,135232,1,0,0:0:0:0:
320,192,135316,1,0,0:0:0:0:
64,192,135399,1,2,0:0:0:0:
448,192,135399,1,0,0:0:0:0:
64,192,135566,1,0,0:0:0:0:
320,192,135732,128,2,136066:0:0:0:0:
448,192,135732,1,0,0:0:0:0:
64,192,136066,1,2,0:0:0:0:
192,192,136066,128,0,136399:0:0:0:0:
64,192,136399,1,2,0:0:0:0:
448,192,136399,1,0,0:0:0:0:
320,192,136566,1,0,0:0:0:0:
192,192,136649,1,0,0:0:0:0:
64,192,136732,1,2,0:0:0:0:
448,192,136732,1,0,0:0:0:0:
448,192,136899,1,0,0:0:0:0:
64,192,137066,1,2,0:0:0:0:
192,192,137066,1,0,0:0:0:0:
64,192,137232,1,2,0:0:0:0:
192,192,137232,1,0,0:0:0:0:
320,192,137399,1,2,0:0:0:0:
448,192,137399,1,0,0:0:0:0:
320,192,137566,1,2,0:0:0:0:
448,192,137566,1,0,0:0:0:0:
64,192,137732,1,2,0:0:0:0:
192,192,137732,1,4,0:0:0:0:
448,192,137732,1,0,0:0:0:0:
320,192,137899,1,0,0:0:0:0:
192,192,137982,1,0,0:0:0:0:
64,192,138066,1,2,0:0:0:0:
448,192,138066,1,0,0:0:0:0:
448,192,138232,1,0,0:0:0:0:
64,192,138399,128,2,138732:0:0:0:0:
192,192,138399,1,0,0:0:0:0:
320,192,138732,1,2,0:0:0:0:
448,192,138732,128,0,139066:0:0:0:0:
64,192,139066,1,2,0:0:0:0:
192,192,139066,1,0,0:0:0:0:
448,192,139232,1,0,0:0:0:0:
320,192,139316,1,0,0:0:0:0:
64,192,139399,1,2,0:0:0:0:
192,192,139399,1,0,0:0:0:0:
64,192,139566,1,0,0:0:0:0:
320,192,139732,1,2,0:0:0:0:
448,192,139732,1,0,0:0:0:0:
192,192,139816,1,2,0:0:0:0:
320,192,139899,1,2,0:0:0:0:
192,192,139982,1,2,0:0:0:0:
64,192,140066,1,2,0:0:0:0:
448,192,140066,1,0,0:0:0:0:
448,192,140232,1,2,0:0:0:0:
64,192,140399,1,2,0:0:0:0:
192,192,140399,1,4,0:0:0:0:
64,192,140566,1,2,0:0:0:0:
192,192,140566,1,4,0:0:0:0:
64,192,140732,1,2,0:0:0:0:
320,192,140732,1,4,0:0:0:0:
448,192,140732,1,0,0:0:0:0:
320,192,141066,1,2,0:0:0:0:
448,192,141066,1,4,0:0:0:0:
320,192,141232,1,2,0:0:0:0:
448,192,141232,1,4,0:0:0:0:
64,192,141399,1,2,0:0:0:0:
192,192,141399,1,4,0:0:0:0:
448,192,141399,1,0,0:0:0:0:
64,192,141732,1,2,0:0:0:0:
448,192,141732,1,0,0:0:0:0:
192,192,141816,1,2,0:0:0:0:
320,192,141899,1,2,0:0:0:0:
192,192,141982,1,2,0:0:0:0:
64,192,142066,1,2,0:0:0:0:
448,192,142066,1,0,0:0:0:0:
320,192,142149,1,2,0:0:0:0:
448,192,142232,1,2,0:0:0:0:
192,192,142316,1,2,0:0:0:0:
64,192,142399,1,2,0:0:0:0:
448,192,142399,1,4,0:0:0:0:
64,192,142566,1,2,0:0:0:0:
192,192,142566,1,4,0:0:0:0:
320,192,142732,128,2,143066:0:0:0:0:
448,192,142732,128,4,143066:0:0:0:0:
64,192,143066,1,0,0:0:0:0:
320,192,143288,1,0,0:0:0:0:
192,192,143510,1,0,0:0:0:0:
64,192,143732,1,0,0:0:0:0:
320,192,143955,1,0,0:0:0:0:
448,192,144177,1,0,0:0:0:0:
64,192,144399,1,0,0:0:0:0:
64,192,145066,1,4,0:0:0:0:
192,192,145066,1,2,0:0:0:0:
320,192,145066,1,0,0:0:0:0:
192,192,145288,1,4,0:0:0:0:
320,192,145288,1,2,0:0:0:0:
448,192,145288,1,0,0:0:0:0:
64,192,145510,1,4,0:0:0:0:
192,192,145510,1,2,0:0:0:0:
320,192,145510,1,0,0:0:0:0:
64,192,145732,128,4,148399:0:0:0:0:
192,192,145732,128,2,148399:0:0:0:0:
448,192,145732,128,0,148399:0:0:0:0:
