osu file format v14

[General]
AudioFilename: audio.mp3
AudioLeadIn: 0
PreviewTime: 100399
Countdown: 0
SampleSet: Soft
StackLeniency: 0.7
Mode: 3
LetterboxInBreaks: 0
SpecialStyle: 0
WidescreenStoryboard: 1

[Editor]
Bookmarks: 111073
DistanceSpacing: 0.8
BeatDivisor: 3
GridSize: 8
TimelineZoom: 1.2

[Metadata]
Title:Bakuure! Match Uri no Haken Shoujo (Cut Ver.)
TitleUnicode:爆売れ!マッチ売りの派遣少女 (Cut Ver.)
Artist:Nanahira
ArtistUnicode:ななひら
Creator:Rhezie
Version:Easy
Source:
Tags:wonder trick Confetto C90 Comiket Comic Market ARM 狐夢想 Kitsune Musou CFCD-0012 Electronic Japanese MEGAtive Halloween IOSYS Denpa
BeatmapID:2462894
BeatmapSetID:1181237

[Difficulty]
HPDrainRate:6.9
CircleSize:4
OverallDifficulty:6.5
ApproachRate:5
SliderMultiplier:1.4
SliderTickRate:1

[Events]
//Background and Video events
0,0,"BG.jpg",0,0
//Break Periods
//Storyboard Layer 0 (Background)
//Storyboard Layer 1 (Fail)
//Storyboard Layer 2 (Pass)
//Storyboard Layer 3 (Foreground)
//Storyboard Layer 4 (Overlay)
//Storyboard Sound Samples
Sample,56399,0,"Snare.wav",60
Sample,56732,0,"Snare.wav",60
Sample,58066,0,"Clap.wav",60
Sample,58732,0,"Clap.wav",60
Sample,59399,0,"Clap.wav",60
Sample,60066,0,"Clap.wav",60
Sample,60732,0,"Clap.wav",60
Sample,61399,0,"Clap.wav",60
Sample,62066,0,"Clap.wav",60
Sample,62732,0,"Clap.wav",60
Sample,63399,0,"Clap.wav",60
Sample,64066,0,"Clap.wav",60
Sample,64732,0,"Clap.wav",60
Sample,65399,0,"Clap.wav",60
Sample,67066,0,"Snare.wav",60
Sample,67399,0,"Snare.wav",60
Sample,69066,0,"Snare.wav",60
Sample,70399,0,"Snare.wav",60
Sample,71732,0,"Snare.wav",60
Sample,73066,0,"Snare.wav",60
Sample,119732,0,"Snare.wav",60
Sample,121066,0,"Snare.wav",60

[TimingPoints]
1733,333.333333333333,4,2,1,40,1,0
100399,-100,4,2,1,40,0,1
129732,-100,4,2,1,40,0,0

[HitObjects]
192,192,1732,5,0,0:0:0:0:
192,192,2399,1,0,0:0:0:0:
448,192,3066,1,0,0:0:0:0:
448,192,3732,1,0,0:0:0:0:
192,192,4399,1,0,0:0:0:0:
192,192,5066,1,0,0:0:0:0:
448,192,5732,1,0,0:0:0:0:
448,192,6399,1,0,0:0:0:0:
64,192,7066,1,0,0:0:0:0:
64,192,7732,1,0,0:0:0:0:
320,192,8399,1,0,0:0:0:0:
448,192,9066,1,0,0:0:0:0:
448,192,9732,1,0,0:0:0:0:
448,192,10399,1,0,0:0:0:0:
64,192,11066,1,0,0:0:0:0:
64,192,11732,1,0,0:0:0:0:
192,192,12399,1,0,0:0:0:0:
192,192,13066,1,0,0:0:0:0:
448,192,13732,1,0,0:0:0:0:
448,192,14399,128,0,14844:0:0:0:0:
192,192,15066,1,0,0:0:0:0:
192,192,15732,128,0,16177:0:0:0:0:
448,192,16399,1,0,0:0:0:0:
448,192,17066,128,0,17510:0:0:0:0:
64,192,17732,1,0,0:0:0:0:
64,192,18399,128,0,18844:0:0:0:0:
320,192,19066,1,0,0:0:0:0:
320,192,19732,128,0,20177:0:0:0:0:
192,192,20399,1,0,0:0:0:0:
192,192,21066,128,0,21510:0:0:0:0:
448,192,21732,1,0,0:0:0:0:
448,192,22399,128,0,22844:0:0:0:0:
64,192,23066,128,2,24232:0:0:0:0:
192,192,23066,1,4,0:0:0:0:
448,192,24232,1,0,0:0:0:0:
320,192,24399,128,0,24732:0:0:0:0:
192,192,24732,1,0,0:0:0:0:
64,192,24899,1,0,0:0:0:0:
448,192,25066,1,0,0:0:0:0:
192,192,25399,128,2,25732:0:0:0:0:
320,192,25732,128,2,26899:0:0:0:0:
448,192,25732,1,4,0:0:0:0:
64,192,26899,1,0,0:0:0:0:
192,192,27066,128,0,27399:0:0:0:0:
448,192,27399,1,0,0:0:0:0:
320,192,27566,1,0,0:0:0:0:
64,192,27732,1,0,0:0:0:0:
448,192,28066,128,2,28399:0:0:0:0:
64,192,28399,1,2,0:0:0:0:
192,192,28399,128,4,29566:0:0:0:0:
320,192,29566,1,0,0:0:0:0:
448,192,29732,128,0,30066:0:0:0:0:
64,192,30066,1,0,0:0:0:0:
192,192,30232,1,0,0:0:0:0:
320,192,30399,1,0,0:0:0:60:Snare.wav
64,192,30732,128,2,31066:0:0:0:0:
448,192,31066,128,6,31399:0:0:0:0:
192,192,31399,1,0,0:0:0:60:Snare.wav
192,192,31732,128,6,32066:0:0:0:0:
448,192,32066,1,0,0:0:0:60:Snare.wav
320,192,32399,1,2,0:0:0:0:
448,192,32399,1,4,0:0:0:0:
64,192,32732,1,2,0:0:0:0:
192,192,32732,1,4,0:0:0:0:
192,192,33066,1,2,0:0:0:0:
448,192,33066,128,0,33399:0:0:0:0:
64,192,33399,128,2,33732:0:0:0:0:
320,192,33399,1,0,0:0:0:0:
320,192,33732,128,2,35732:0:0:0:0:
448,192,33732,1,4,0:0:0:0:
64,192,35732,128,0,36066:0:0:0:0:
448,192,36066,128,0,36399:0:0:0:0:
64,192,36399,1,2,0:0:0:0:
192,192,36399,1,4,0:0:0:0:
448,192,36732,1,2,0:0:0:0:
192,192,37066,128,2,37399:0:0:0:0:
448,192,37399,128,2,37732:0:0:0:0:
192,192,37732,1,2,0:0:0:0:
448,192,38066,1,2,0:0:0:0:
320,192,38232,1,0,0:0:0:0:
64,192,38399,128,2,38732:0:0:0:0:
192,192,38732,128,2,39066:0:0:0:0:
448,192,39066,1,2,0:0:0:0:
64,192,39399,1,2,0:0:0:0:
448,192,39732,128,2,40066:0:0:0:0:
64,192,40066,128,2,40399:0:0:0:0:
448,192,40399,1,2,0:0:0:0:
64,192,40732,1,2,0:0:0:0:
448,192,40899,1,0,0:0:0:0:
320,192,41066,128,2,41399:0:0:0:0:
192,192,41399,128,2,41732:0:0:0:0:
64,192,41732,1,2,0:0:0:0:
448,192,41732,1,4,0:0:0:0:
192,192,42066,1,2,0:0:0:0:
448,192,42399,128,2,42732:0:0:0:0:
192,192,42732,128,2,43066:0:0:0:0:
448,192,43066,1,2,0:0:0:0:
192,192,43399,1,2,0:0:0:0:
320,192,43566,1,0,0:0:0:0:
448,192,43732,128,2,44066:0:0:0:0:
64,192,44066,128,2,44399:0:0:0:0:
320,192,44399,128,2,44732:0:0:0:0:
448,192,44399,1,4,0:0:0:0:
64,192,44732,1,6,0:0:0:0:
64,192,45066,1,2,0:0:0:0:
192,192,45066,128,4,45399:0:0:0:0:
448,192,45399,1,6,0:0:0:0:
320,192,45732,128,2,46066:0:0:0:0:
448,192,45732,1,0,0:0:0:0:
64,192,46066,1,2,0:0:0:0:
192,192,46066,128,0,46399:0:0:0:0:
448,192,46399,1,6,0:0:0:0:
64,192,46566,1,6,0:0:0:0:
448,192,46732,128,6,47066:0:0:0:0:
64,192,47066,1,2,0:0:0:0:
192,192,47066,1,4,0:0:0:0:
320,192,47399,1,2,0:0:0:0:
64,192,47732,128,2,48066:0:0:0:0:
448,192,48066,1,2,0:0:0:0:
192,192,48399,1,2,0:0:0:0:
320,192,48732,1,2,0:0:0:0:
64,192,49066,128,2,49399:0:0:0:0:
320,192,49399,1,2,0:0:0:0:
192,192,49732,1,2,0:0:0:0:
448,192,50066,1,2,0:0:0:0:
64,192,50399,1,2,0:0:0:0:
64,192,50732,1,2,0:0:0:0:
320,192,51066,128,2,51399:0:0:0:0:
192,192,51399,128,2,51732:0:0:0:0:
64,192,51732,128,2,52066:0:0:0:0:
320,192,52066,1,2,0:0:0:0:
448,192,52399,1,2,0:0:0:0:
192,192,52732,1,2,0:0:0:0:
64,192,53066,1,2,0:0:0:0:
448,192,53066,128,0,53399:0:0:0:0:
320,192,53399,1,2,0:0:0:0:
192,192,53732,1,2,0:0:0:0:
320,192,54066,1,2,0:0:0:0:
64,192,54399,1,2,0:0:0:0:
448,192,54399,128,0,54732:0:0:0:0:
192,192,54732,1,2,0:0:0:0:
320,192,55066,128,2,55399:0:0:0:0:
64,192,55399,1,6,0:0:0:0:
192,192,55399,1,0,0:0:0:60:Snare.wav
192,192,55732,128,2,56066:0:0:0:0:
320,192,56066,1,6,0:0:0:0:
448,192,56066,1,0,0:0:0:60:Snare.wav
64,192,56399,1,2,0:0:0:0:
448,192,56732,1,2,0:0:0:0:
192,192,57066,128,2,57399:0:0:0:0:
64,192,57399,1,2,0:0:0:0:
320,192,57566,1,2,0:0:0:0:
448,192,57566,1,4,0:0:0:0:
192,192,58066,1,2,0:0:0:0:
320,192,58399,128,2,58732:0:0:0:0:
64,192,58732,1,2,0:0:0:0:
448,192,59066,1,2,0:0:0:0:
192,192,59399,1,2,0:0:0:0:
320,192,59732,128,2,60066:0:0:0:0:
192,192,60066,1,2,0:0:0:0:
448,192,60399,1,2,0:0:0:0:
64,192,60732,1,2,0:0:0:0:
320,192,61066,1,2,0:0:0:0:
320,192,61399,1,2,0:0:0:0:
192,192,61732,128,2,62066:0:0:0:0:
448,192,62066,128,2,62399:0:0:0:0:
320,192,62399,128,2,62732:0:0:0:0:
64,192,62732,1,2,0:0:0:0:
192,192,63066,1,2,0:0:0:0:
448,192,63399,1,2,0:0:0:0:
64,192,63732,128,2,64066:0:0:0:0:
320,192,63732,1,0,0:0:0:0:
192,192,64066,1,2,0:0:0:0:
448,192,64399,1,2,0:0:0:0:
192,192,64732,1,2,0:0:0:0:
64,192,65066,128,2,65399:0:0:0:0:
320,192,65066,1,0,0:0:0:0:
448,192,65399,1,2,0:0:0:0:
192,192,65732,128,2,66066:0:0:0:0:
320,192,66066,1,6,0:0:0:0:
448,192,66066,1,0,0:0:0:60:Snare.wav
320,192,66399,128,2,66732:0:0:0:0:
64,192,66732,1,6,0:0:0:0:
192,192,66732,1,0,0:0:0:60:Snare.wav
64,192,67066,1,2,0:0:0:0:
448,192,67399,1,2,0:0:0:0:
192,192,67732,128,2,68066:0:0:0:0:
320,192,68066,1,2,0:0:0:0:
448,192,68232,1,2,0:0:0:0:
64,192,68399,1,2,0:0:0:0:
320,192,69066,1,2,0:0:0:0:
64,192,69732,1,2,0:0:0:0:
320,192,70399,1,2,0:0:0:0:
192,192,71066,1,2,0:0:0:0:
448,192,71732,1,2,0:0:0:0:
192,192,72399,1,2,0:0:0:0:
448,192,73066,1,2,0:0:0:0:
64,192,73732,128,0,74399:0:0:0:0:
192,192,74399,128,0,75066:0:0:0:0:
320,192,75066,128,0,75732:0:0:0:0:
448,192,75732,128,0,76399:0:0:0:0:
64,192,76399,1,0,0:0:0:0:
320,192,77066,1,0,0:0:0:0:
64,192,77732,1,0,0:0:0:0:
448,192,78399,128,0,79066:0:0:0:0:
64,192,79066,128,2,80232:0:0:0:0:
192,192,79066,1,4,0:0:0:0:
448,192,80232,1,0,0:0:0:0:
320,192,80399,128,0,80732:0:0:0:0:
192,192,80732,1,0,0:0:0:0:
448,192,80899,1,0,0:0:0:0:
192,192,81066,1,0,0:0:0:0:
64,192,81399,128,2,81732:0:0:0:0:
320,192,81732,1,2,0:0:0:0:
448,192,81732,128,4,82899:0:0:0:0:
192,192,82899,1,0,0:0:0:0:
64,192,83066,128,0,83399:0:0:0:0:
448,192,83399,1,0,0:0:0:0:
192,192,83566,1,0,0:0:0:0:
448,192,83732,1,0,0:0:0:0:
320,192,84066,128,2,84399:0:0:0:0:
64,192,84399,1,2,0:0:0:0:
192,192,84399,128,4,85566:0:0:0:0:
320,192,85566,1,0,0:0:0:0:
448,192,85732,128,0,86066:0:0:0:0:
64,192,86066,1,0,0:0:0:0:
320,192,86232,1,0,0:0:0:0:
64,192,86399,1,0,0:0:0:0:
192,192,86732,128,2,87066:0:0:0:0:
320,192,87066,128,2,88232:0:0:0:0:
448,192,87066,1,4,0:0:0:0:
192,192,88232,1,0,0:0:0:0:
64,192,88399,128,0,88732:0:0:0:0:
448,192,88732,1,0,0:0:0:0:
192,192,88899,1,0,0:0:0:0:
448,192,89066,128,2,89399:0:0:0:0:
64,192,89399,128,2,89732:0:0:0:0:
320,192,89732,1,2,0:0:0:0:
448,192,89732,1,4,0:0:0:0:
192,192,90066,1,2,0:0:0:0:
64,192,90232,1,0,0:0:0:0:
64,192,90566,1,0,0:0:0:0:
192,192,90899,1,0,0:0:0:0:
192,192,91232,1,0,0:0:0:0:
448,192,91566,1,0,0:0:0:0:
320,192,91732,1,2,0:0:0:0:
320,192,92066,128,2,92399:0:0:0:0:
64,192,92399,1,2,0:0:0:0:
192,192,92399,1,4,0:0:0:0:
448,192,92732,1,2,0:0:0:0:
192,192,92899,1,0,0:0:0:0:
192,192,93232,1,0,0:0:0:0:
320,192,93566,1,0,0:0:0:0:
320,192,93899,1,0,0:0:0:0:
64,192,94232,1,0,0:0:0:0:
448,192,94399,1,2,0:0:0:0:
448,192,94732,128,2,95066:0:0:0:0:
64,192,95066,128,6,95399:0:0:0:0:
320,192,95399,128,2,95732:0:0:0:0:
192,192,95732,128,6,96066:0:0:0:0:
448,192,96066,128,2,96399:0:0:0:0:
320,192,96399,128,6,97066:0:0:0:0:
64,192,96732,1,0,0:0:0:0:
192,192,97066,128,4,97732:0:0:0:0:
448,192,97399,1,0,0:0:0:0:
64,192,97732,1,0,0:0:0:0:
448,192,99066,1,0,0:0:0:0:
320,192,99732,128,0,100399:0:0:0:0:
64,192,100399,1,2,0:0:0:0:
192,192,100399,128,4,101066:0:0:0:0:
448,192,101066,128,2,101510:0:0:0:0:
192,192,101510,1,2,0:0:0:0:
64,192,101732,1,2,0:0:0:0:
320,192,101732,128,0,102399:0:0:0:0:
64,192,102399,128,2,102844:0:0:0:0:
320,192,102844,1,2,0:0:0:0:
192,192,103066,1,2,0:0:0:0:
448,192,103066,128,0,103732:0:0:0:0:
192,192,103732,128,2,104177:0:0:0:0:
448,192,104177,1,2,0:0:0:0:
64,192,104399,128,2,105066:0:0:0:0:
320,192,104399,1,0,0:0:0:0:
320,192,105066,1,2,0:0:0:0:
448,192,105066,1,0,0:0:0:60:Snare.wav
64,192,105732,128,2,106399:0:0:0:0:
192,192,105732,1,4,0:0:0:0:
320,192,106399,128,2,106844:0:0:0:0:
64,192,106844,1,2,0:0:0:0:
192,192,107066,1,2,0:0:0:0:
448,192,107066,128,0,107732:0:0:0:0:
192,192,107732,128,2,108177:0:0:0:0:
448,192,108177,1,2,0:0:0:0:
64,192,108399,1,2,0:0:0:0:
320,192,108399,128,0,109066:0:0:0:0:
64,192,109066,128,2,109510:0:0:0:0:
320,192,109510,1,2,0:0:0:0:
192,192,109732,128,2,110399:0:0:0:0:
448,192,109732,1,0,0:0:0:0:
320,192,110399,1,2,0:0:0:0:
448,192,110399,1,0,0:0:0:60:Snare.wav
64,192,111066,128,2,111510:0:0:0:0:
448,192,111066,1,4,0:0:0:0:
192,192,111510,1,2,0:0:0:0:
320,192,111732,128,2,112177:0:0:0:0:
448,192,112177,1,2,0:0:0:0:
192,192,112399,128,2,112844:0:0:0:0:
64,192,112844,1,2,0:0:0:0:
448,192,113066,128,2,113510:0:0:0:0:
320,192,113510,1,2,0:0:0:0:
64,192,113732,128,2,114177:0:0:0:0:
448,192,114177,1,2,0:0:0:0:
192,192,114399,128,2,114844:0:0:0:0:
64,192,114844,1,2,0:0:0:0:
320,192,115066,128,2,115732:0:0:0:0:
64,192,115732,1,2,0:0:0:0:
448,192,115732,1,0,0:0:0:60:Snare.wav
64,192,116399,128,2,116844:0:0:0:0:
320,192,116399,1,4,0:0:0:0:
448,192,116844,1,2,0:0:0:0:
320,192,117066,128,2,117510:0:0:0:0:
192,192,117510,1,2,0:0:0:0:
64,192,117732,128,2,118177:0:0:0:0:
448,192,118177,1,2,0:0:0:0:
192,192,118399,128,2,118844:0:0:0:0:
64,192,118844,1,2,0:0:0:0:
320,192,119066,1,6,0:0:0:0:
192,192,119288,1,6,0:0:0:0:
448,192,119510,1,6,0:0:0:0:
64,192,119732,128,6,120066:0:0:0:0:
320,192,120399,1,6,0:0:0:0:
192,192,120621,1,6,0:0:0:0:
448,192,120844,1,6,0:0:0:0:
64,192,121066,128,6,121399:0:0:0:0:
448,192,121732,1,6,0:0:0:0:
192,192,121955,1,6,0:0:0:0:
320,192,122177,1,6,0:0:0:0:
64,192,122399,1,6,0:0:0:0:
320,192,122621,1,6,0:0:0:0:
192,192,122844,1,6,0:0:0:0:
64,192,123066,1,2,0:0:0:0:
448,192,123066,1,4,0:0:0:0:
320,192,123288,1,6,0:0:0:0:
320,192,123510,1,6,0:0:0:0:
64,192,123732,1,2,0:0:0:0:
448,192,123732,1,4,0:0:0:0:
192,192,123955,1,6,0:0:0:0:
192,192,124177,1,6,0:0:0:0:
320,192,124399,1,2,0:0:0:0:
448,192,124399,128,4,125066:0:0:0:0:
192,192,125288,1,2,0:0:0:0:
64,192,125510,1,2,0:0:0:0:
320,192,125732,1,2,0:0:0:0:
448,192,125732,128,4,126399:0:0:0:0:
192,192,126621,1,2,0:0:0:0:
64,192,126844,1,2,0:0:0:0:
320,192,127066,1,2,0:0:0:0:
448,192,127066,128,4,127732:0:0:0:0:
192,192,127955,1,2,0:0:0:0:
64,192,128177,1,2,0:0:0:0:
448,192,128399,1,2,0:0:0:0:
448,192,128732,1,2,0:0:0:0:
64,192,129066,1,2,0:0:0:0:
192,192,129232,1,2,0:0:0:0:
448,192,129399,1,2,0:0:0:0:
320,192,129566,1,2,0:0:0:0:
64,192,129732,128,2,131732:0:0:0:0:
320,192,131732,128,0,132066:0:0:0:0:
192,192,132066,128,0,132399:0:0:0:0:
320,192,132399,1,2,0:0:0:0:
448,192,132399,1,4,0:0:0:0:
448,192,132732,1,2,0:0:0:0:
64,192,133066,128,2,133399:0:0:0:0:
192,192,133399,128,2,133732:0:0:0:0:
448,192,133732,1,2,0:0:0:0:
448,192,134066,1,2,0:0:0:0:
64,192,134232,1,0,0:0:0:0:
320,192,134399,128,2,134732:0:0:0:0:
192,192,134732,128,2,135066:0:0:0:0:
448,192,135066,1,2,0:0:0:0:
448,192,135399,1,2,0:0:0:0:
64,192,135732,128,2,136066:0:0:0:0:
320,192,136066,128,2,136399:0:0:0:0:
448,192,136399,1,2,0:0:0:0:
192,192,136732,1,2,0:0:0:0:
64,192,136899,1,0,0:0:0:0:
448,192,137066,128,2,137399:0:0:0:0:
320,192,137399,1,2,0:0:0:0:
64,192,137732,1,2,0:0:0:0:
192,192,137732,1,4,0:0:0:0:
192,192,138066,1,2,0:0:0:0:
320,192,138399,128,2,138732:0:0:0:0:
448,192,138732,128,2,139066:0:0:0:0:
192,192,139066,1,2,0:0:0:0:
192,192,139399,1,2,0:0:0:0:
320,192,139566,1,0,0:0:0:0:
64,192,139732,128,2,140066:0:0:0:0:
448,192,140066,128,2,140399:0:0:0:0:
64,192,140399,1,2,0:0:0:0:
192,192,140399,128,4,140732:0:0:0:0:
448,192,140732,1,6,0:0:0:0:
320,192,141066,128,2,141399:0:0:0:0:
448,192,141066,1,4,0:0:0:0:
64,192,141399,1,6,0:0:0:0:
64,192,141732,1,2,0:0:0:0:
192,192,141732,128,0,142066:0:0:0:0:
320,192,142066,1,2,0:0:0:0:
448,192,142066,128,0,142399:0:0:0:0:
64,192,142399,1,6,0:0:0:0:
320,192,142566,1,6,0:0:0:0:
64,192,142732,128,6,143066:0:0:0:0:
448,192,143066,128,0,143732:0:0:0:0:
192,192,143732,128,0,144399:0:0:0:0:
320,192,144399,1,0,0:0:0:0:
64,192,145066,1,4,0:0:0:0:
448,192,145066,1,2,0:0:0:0:
320,192,145288,1,6,0:0:0:0:
192,192,145510,1,6,0:0:0:0:
64,192,145732,1,4,0:0:0:0:
448,192,145732,128,2,148399:0:0:0:0:
