osu file format v14

[General]
AudioFilename: audio.mp3
AudioLeadIn: 0
PreviewTime: 12841
Countdown: 0
SampleSet: Soft
StackLeniency: 0.7
Mode: 0
LetterboxInBreaks: 0
WidescreenStoryboard: 1

[Editor]
DistanceSpacing: 1
BeatDivisor: 2
GridSize: 16
TimelineZoom: 1.3

[Metadata]
Title:Egao ni Naru
TitleUnicode:笑顔になる
Artist:Nanahira & *namirin
ArtistUnicode:ななひら & *なみりん
Creator:Uta
Version:Normal
Source:幸腹グラフィティ
Tags:koufuku graffiti happy cooking gourmet girl ryou fluffy hair waifuiscute リョウときりん(佐藤利奈と大亀あすか)
BeatmapID:1645399
BeatmapSetID:781710

[Difficulty]
HPDrainRate:4
CircleSize:3.5
OverallDifficulty:4
ApproachRate:5
SliderMultiplier:1
SliderTickRate:1

[Events]
//Background and Video events
0,0,"fooooddddd.jpg",0,0
//Break Periods
//Storyboard Layer 0 (Background)
//Storyboard Layer 1 (Fail)
//Storyboard Layer 2 (Pass)
//Storyboard Layer 3 (Foreground)
//Storyboard Sound Samples

[TimingPoints]
1145,357.142857142857,7,2,1,65,1,0
1145,-100,7,2,1,65,0,0
10341,-100,7,2,1,30,0,0
10431,357.142857142857,7,2,1,65,1,0
10431,-100,7,2,1,65,0,0
12038,-100,7,2,1,30,0,0
12931,-100,7,2,1,30,0,0
17573,-100,7,2,1,30,0,0
17930,357.142857142857,4,2,1,55,1,0
18108,-100,4,2,1,55,0,0
22215,-100,4,2,1,55,0,0
23644,357.142857142857,7,2,1,50,1,0
23644,-100,7,2,1,50,0,0
28286,-100,7,2,1,50,0,0
28644,357.142857142857,4,2,1,55,1,0
42929,-100,4,2,1,65,0,0
51501,-100,4,2,1,55,0,0
54358,-100,4,2,1,65,0,1
69893,-100,4,2,1,65,0,1
70786,-100,4,2,1,55,0,1
75786,357.142857142857,7,2,1,65,1,0
75786,-100,7,2,1,65,0,0
89357,-100,7,2,1,5,0,0

[Colours]
Combo1 : 173,91,255
Combo2 : 121,188,255
Combo3 : 255,128,128

[HitObjects]
434,274,1145,6,0,P|379:287|321:266,1,100,4|8,0:0|0:0,0:0:0:0:
260,213,1859,1,8,0:0:0:0:
167,250,2216,1,8,0:0:0:0:
167,250,2394,2,0,P|155:307|175:358,2,100,2|2|2,0:0|0:0|0:0,0:0:0:0:
192,152,3466,1,2,0:0:0:0:
192,152,3644,6,0,L|308:148,1,100,10|8,0:2|0:0,0:0:0:0:
325,53,4359,2,0,L|215:56,1,100,8|8,0:0|0:0,0:0:0:0:
127,33,5073,1,8,0:0:0:0:
127,33,5252,1,2,0:0:0:0:
174,117,5609,2,0,P|198:166|187:222,1,100,2|2,0:0|0:0,0:0:0:0:
156,243,6144,6,0,P|205:219|261:228,1,100,10|8,0:0|0:0,0:0:0:0:
281,320,6859,2,0,L|380:311,1,100,8|8,0:0|0:0,0:0:0:0:
419,280,7394,2,0,P|441:321|429:387,2,100,2|2|2,0:0|0:0|0:0,0:0:0:0:
332,227,8466,1,2,0:0:0:0:
332,227,8644,6,0,L|340:112,1,100,4|8,0:2|0:0,0:0:0:0:
286,41,9359,2,0,P|232:52|170:30,1,100,8|8,0:0|0:0,0:0:0:0:
143,21,9894,1,8,0:0:0:0:
71,158,10431,5,6,2:0:0:0:
256,192,10520,12,4,12216,0:3:0:0:
175,185,12931,6,0,P|122:165|69:179,1,100,6|0,0:0|0:0,0:0:0:0:
37,197,13466,2,0,P|56:240|45:299,1,100,10|8,0:0|0:0,0:0:0:0:
31,338,14002,1,10,0:0:0:0:
127,364,14359,1,0,0:0:0:0:
127,364,14538,2,0,L|235:359,1,100,10|2,0:0|0:0,0:0:0:0:
266,328,15073,2,0,L|327:333,1,50,8|2,0:0|0:0,0:0:0:0:
358,357,15430,6,0,P|382:305|372:250,1,100,2|8,0:0|0:0,0:0:0:0:
357,217,15966,2,0,L|472:213,1,100,2|0,0:0|0:0,0:0:0:0:
507,212,16502,1,10,0:0:0:0:
482,115,16859,1,0,0:0:0:0:
482,115,17038,2,0,P|432:96|375:100,1,100,2|2,0:0|0:0,0:0:0:0:
339,115,17573,6,0,P|285:130|255:98,1,100,8|4,0:0|0:2,0:0:0:0:
190,28,18287,1,8,0:0:0:0:
109,87,18644,2,0,L|115:189,1,100,4|8,0:3|0:0,0:0:0:0:
171,269,19358,6,0,P|120:250|53:259,1,100,0|8,0:0|0:0,0:0:0:0:
105,347,20072,2,0,L|165:349,1,50,4|4,0:3|0:3,0:0:0:0:
202,365,20430,1,8,0:0:0:0:
292,329,20787,6,0,L|397:336,1,100,0|8,0:0|0:0,0:0:0:0:
486,309,21501,2,0,P|468:261|468:207,1,100,4|8,0:3|0:0,0:0:0:0:
483,114,22215,2,0,B|401:116|356:91|356:91|386:115|389:151,1,200,2|2,0:0|0:0,0:0:0:0:
290,167,23287,1,8,0:0:0:0:
207,223,23644,6,0,P|192:175|208:111,1,100,2|8,0:0|0:0,0:0:0:0:
226,84,24179,2,0,L|119:79,1,100,2|8,0:0|0:0,0:0:0:0:
76,76,24715,1,2,0:0:0:0:
10,151,25072,1,0,0:0:0:0:
10,151,25251,2,0,P|34:187|37:263,1,100,2|2,0:0|0:0,0:0:0:0:
23,288,25786,2,0,L|22:349,1,50,2|2,0:0|0:0,0:0:0:0:
51,379,26144,6,0,P|100:355|165:360,1,100,2|8,0:0|0:0,0:0:0:0:
191,370,26679,1,2,0:0:0:0:
277,319,27036,1,8,0:0:0:0:
277,319,27215,2,0,L|270:214,1,100,2|0,0:0|0:0,0:0:0:0:
266,169,27751,1,2,0:0:0:0:
359,204,28108,1,2,0:0:0:0:
359,204,28286,6,0,P|417:213|450:184,1,100,8|2,0:0|0:0,0:0:0:0:
486,97,29001,1,8,0:0:0:0:
433,12,29358,2,0,L|353:18,1,50,4|4,0:3|0:3,0:0:0:0:
342,45,29715,1,8,0:0:0:0:
245,23,30072,2,0,P|219:63|228:145,1,100,0|8,0:0|0:0,0:0:0:0:
229,162,30608,2,0,L|117:155,1,100,4|0,0:3|0:0,0:0:0:0:
79,154,31144,1,8,0:0:0:0:
34,64,31501,6,0,P|69:27|130:13,2,100,0|8|4,0:0|0:0|0:3,0:0:0:0:
2,158,32572,1,8,0:0:0:0:
38,250,32929,2,0,L|26:304,2,50,8|0|8,0:0|0:0|0:0,0:0:0:0:
121,194,33644,2,0,L|190:200,1,50,8|8,0:0|0:0,0:0:0:0:
213,225,34001,2,0,P|214:246|214:289,1,50,8|0,0:0|0:0,0:0:0:0:
197,322,34358,6,0,P|252:332|310:311,1,100,4|8,0:0|0:0,0:0:0:0:
370,257,35072,1,4,0:3:0:0:
453,312,35429,2,0,P|464:286|467:254,1,50,8|0,0:0|0:0,0:0:0:0:
469,214,35786,2,0,L|465:94,1,100,4|8,0:3|0:0,0:0:0:0:
492,17,36501,2,0,L|432:23,1,50,8|8,0:0|0:0,0:0:0:0:
396,42,36858,1,0,0:0:0:0:
295,20,37215,6,0,P|276:66|282:151,1,100,4|8,0:3|0:0,0:0:0:0:
310,208,37929,1,4,0:3:0:0:
210,203,38286,2,0,L|137:200,1,50,8|0,0:0|0:0,0:0:0:0:
109,199,38644,2,0,P|128:138|116:86,1,100,4|8,0:3|0:0,0:0:0:0:
41,44,39358,2,0,P|22:105|34:157,1,100,4|8,0:3|0:0,0:0:0:0:
109,199,40072,6,0,L|98:305,1,100,4|8,0:3|0:0,0:0:0:0:
197,285,40786,1,4,0:3:0:0:
252,368,41143,2,0,L|318:361,1,50,8|0,0:0|0:0,0:0:0:0:
351,355,41501,2,0,B|378:337|380:320|380:320|377:246,1,100,2|8,0:0|0:0,0:0:0:0:
417,175,42215,2,0,P|391:169|364:168,1,50,2|8,0:0|0:0,0:0:0:0:
317,167,42572,1,8,0:0:0:0:
229,215,42929,6,0,P|217:167|236:103,1,100,4|8,0:0|0:0,0:0:0:0:
262,24,43643,1,8,0:0:0:0:
164,45,44001,2,0,P|133:44|92:40,1,50,8|0,0:0|0:0,0:0:0:0:
67,62,44358,2,0,P|84:111|84:176,1,100,8|8,0:0|0:0,0:0:0:0:
172,208,45072,2,0,P|155:257|155:322,1,100,8|8,0:0|0:0,0:0:0:0:
246,271,45786,6,0,L|350:269,1,100,4|8,0:3|0:0,0:0:0:0:
426,328,46501,1,8,0:0:0:0:
463,235,46858,2,0,L|459:168,1,50,8|0,0:0|0:0,0:0:0:0:
457,135,47215,2,0,P|410:140|346:124,1,100,8|8,0:0|0:0,0:0:0:0:
317,38,47929,2,0,P|270:32|206:49,1,100,8|8,0:0|0:0,0:0:0:0:
156,121,48643,6,0,P|158:64|122:15,1,100,4|8,0:3|0:0,0:0:0:0:
60,92,49358,1,8,0:0:0:0:
49,191,49715,2,0,L|54:268,1,50,8|0,0:0|0:0,0:0:0:0:
53,290,50072,6,0,P|109:267|172:271,1,100,8|8,0:0|0:0,0:0:0:0:
227,326,50786,2,0,P|246:265|216:202,1,100,8|8,0:0|0:0,0:0:0:0:
218,185,51322,1,0,0:0:0:0:
218,185,51501,2,0,P|265:158|332:169,1,100,4|0,0:3|0:0,0:0:0:0:
406,183,52215,1,0,0:0:0:0:
357,270,52572,1,8,0:3:0:0:
402,359,52929,6,0,P|347:366|289:343,1,100,8|4,0:3|0:3,0:0:0:0:
226,291,53643,2,0,L|156:304,1,50,4|4,0:3|0:3,0:0:0:0:
134,327,54001,2,0,L|60:315,1,50,4|4,0:3|0:3,0:0:0:0:
40,295,54358,6,0,P|29:233|55:187,1,100,4|8,0:2|0:0,0:0:0:0:
120,137,55072,2,0,L|114:77,1,50,4|4,3:0|3:0,0:0:0:0:
110,37,55429,1,8,0:0:0:0:
201,76,55786,2,0,P|255:82|316:59,1,100,2|8,0:0|0:0,0:0:0:0:
389,28,56501,1,4,0:3:0:0:
455,102,56858,1,8,0:0:0:0:
418,195,57215,6,0,P|370:178|303:184,1,100,4|8,0:2|0:0,0:0:0:0:
355,272,57929,2,0,L|354:333,1,50,4|4,0:3|0:3,0:0:0:0:
351,372,58286,1,8,0:0:0:0:
261,327,58643,2,0,P|206:321|153:344,1,100,2|8,0:0|0:0,0:0:0:0:
99,259,59358,2,0,L|42:266,2,50,0|0|8,0:0|0:0|0:0,0:0:0:0:
177,197,60072,6,0,P|184:140|157:91,1,100,4|8,0:2|0:0,0:0:0:0:
142,5,60786,1,4,0:3:0:0:
236,38,61143,1,8,0:0:0:0:
334,19,61501,2,0,L|437:12,1,100,2|8,0:0|0:0,0:0:0:0:
501,75,62215,2,0,L|494:132,1,50,4|4,0:3|0:3,0:0:0:0:
485,173,62572,1,8,0:0:0:0:
387,150,62929,6,0,P|337:164|276:141,1,100,4|8,0:2|0:0,0:0:0:0:
215,87,63643,2,0,L|134:95,1,50,4|4,0:3|0:3,0:0:0:0:
120,114,64001,2,0,L|52:108,1,50,8|0,0:0|0:0,0:0:0:0:
21,98,64358,2,0,P|12:149|38:218,1,100,2|8,0:0|0:0,0:0:0:0:
75,281,65072,2,0,P|127:262|191:264,1,100,0|8,0:0|0:0,0:0:0:0:
224,176,65786,6,0,P|276:195|340:193,1,100,4|8,0:2|0:0,0:0:0:0:
418,178,66501,2,0,L|426:238,1,50,4|4,0:3|0:3,0:0:0:0:
429,277,66858,1,8,0:0:0:0:
357,347,67215,2,0,P|310:330|239:346,1,100,4|8,0:2|0:0,0:0:0:0:
168,373,67929,2,0,L|94:365,1,50,4|4,0:3|0:3,0:0:0:0:
68,363,68286,1,8,0:0:0:0:
60,263,68643,6,0,P|32:224|15:157,2,100,4|8|8,0:2|0:0|0:0,0:0:0:0:
105,285,69536,1,8,0:0:0:0:
190,232,69893,2,0,P|197:174|180:122,1,100,4|0,0:3|0:0,0:0:0:0:
154,39,70608,1,2,0:0:0:0:
252,56,70965,1,0,0:0:0:0:
252,56,71143,2,0,P|299:46|339:45,1,50,8|0,0:0|0:0,0:0:0:0:
351,44,71501,6,0,P|337:89|346:145,1,100,4|8,0:2|0:0,0:0:0:0:
434,97,72215,1,8,0:0:0:0:
480,185,72572,1,8,0:0:0:0:
442,277,72929,2,0,P|393:262|328:271,1,100,8|8,0:0|0:0,0:0:0:0:
283,344,73643,2,0,P|288:284|273:245,1,100,8|8,0:0|0:0,0:0:0:0:
257,200,74179,1,4,0:2:0:0:
171,252,74536,6,0,L|175:309,2,50,8|4|4,0:3|0:3|0:3,0:0:0:0:
146,208,75072,2,0,L|154:90,1,100,8|8,0:0|0:0,0:0:0:0:
189,15,75786,6,0,P|244:28|302:7,1,100,4|8,0:2|0:0,0:0:0:0:
364,77,76500,1,8,0:0:0:0:
451,125,76857,1,8,0:0:0:0:
451,125,77035,2,0,P|463:68|443:17,2,100,2|2|2,0:0|0:0|0:0,0:0:0:0:
359,166,78107,1,2,0:0:0:0:
359,166,78285,6,0,L|365:277,1,100,10|8,0:0|0:0,0:0:0:0:
378,365,79000,2,0,P|324:348|268:354,1,100,8|8,0:0|0:0,0:0:0:0:
190,307,79714,2,0,L|125:301,2,50,8|2|8,0:0|0:0|0:0,0:0:0:0:
231,278,80250,2,0,P|235:223|205:175,1,100,2|2,0:0|0:0,0:0:0:0:
192,140,80786,6,0,L|90:135,1,100,10|8,0:0|0:0,0:0:0:0:
89,35,81500,2,0,L|188:39,1,100,8|8,0:0|0:0,0:0:0:0:
237,50,82035,2,0,P|294:58|345:41,2,100,2|2|2,0:0|0:0|0:0,0:0:0:0:
192,140,83107,1,2,0:0:0:0:
192,140,83285,6,0,L|184:255,1,100,4|8,0:0|0:0,0:0:0:0:
207,337,84000,2,0,P|261:348|323:326,1,100,8|8,0:0|0:0,0:0:0:0:
392,290,84714,1,8,0:0:0:0:
342,203,85071,1,8,0:0:0:0:
406,126,85428,2,0,L|459:132,2,50,8|4|8,0:0|0:3|0:0,0:0:0:0:
362,101,85964,5,4,0:0:0:0:
256,192,86143,12,0,89357,0:0:0:0:
