osu file format v14

[General]
AudioFilename: audio.mp3
AudioLeadIn: 0
PreviewTime: 12841
Countdown: 0
SampleSet: Soft
StackLeniency: 0.7
Mode: 0
LetterboxInBreaks: 0
WidescreenStoryboard: 1

[Editor]
DistanceSpacing: 1.3
BeatDivisor: 4
GridSize: 16
TimelineZoom: 1.3

[Metadata]
Title:Egao ni Naru
TitleUnicode:笑顔になる
Artist:Nanahira & *namirin
ArtistUnicode:ななひら & *なみりん
Creator:Uta
Version:Hard
Source:幸腹グラフィティ
Tags:koufuku graffiti happy cooking gourmet girl ryou fluffy hair waifuiscute リョウときりん(佐藤利奈と大亀あすか)
BeatmapID:1642915
BeatmapSetID:781710

[Difficulty]
HPDrainRate:5.5
CircleSize:3.8
OverallDifficulty:6
ApproachRate:8
SliderMultiplier:1.4
SliderTickRate:1

[Events]
//Background and Video events
0,0,"fooooddddd.jpg",0,0
//Break Periods
//Storyboard Layer 0 (Background)
//Storyboard Layer 1 (Fail)
//Storyboard Layer 2 (Pass)
//Storyboard Layer 3 (Foreground)
//Storyboard Sound Samples

[TimingPoints]
1145,357.142857142857,7,2,1,65,1,0
1145,-90.9090909090909,7,2,1,65,0,0
10341,-200,7,2,1,30,0,0
10431,357.142857142857,7,2,1,65,1,0
10431,-200,7,2,1,65,0,0
12038,-100,7,2,1,30,0,0
12931,-111.111111111111,7,2,1,30,0,0
17573,-125,7,2,1,30,0,0
17930,357.142857142857,4,2,1,55,1,0
18108,-111.111111111111,4,2,1,55,0,0
22215,-142.857142857143,4,2,1,55,0,0
23644,357.142857142857,7,2,1,50,1,0
23644,-111.111111111111,7,2,1,50,0,0
28286,-142.857142857143,7,2,1,50,0,0
28644,357.142857142857,4,2,1,55,1,0
42929,-100,4,2,1,65,0,0
51501,-100,4,2,1,55,0,0
54358,-90.9090909090909,4,2,1,65,0,1
69893,-125,4,2,1,65,0,1
70786,-90.9090909090909,4,2,1,55,0,1
75786,357.142857142857,7,2,1,65,1,0
75786,-90.9090909090909,7,2,1,65,0,0
89357,-100,7,2,1,5,0,0

[Colours]
Combo1 : 173,91,255
Combo2 : 121,188,255
Combo3 : 255,128,128

[HitObjects]
457,86,1145,6,0,P|375:66|306:115,1,154.000004699707,4|8,0:0|0:0,0:0:0:0:
274,188,1680,1,0,0:0:0:0:
189,128,1859,2,0,L|96:123,1,77.0000023498536,8|0,0:0|0:0,0:0:0:0:
142,212,2216,1,8,0:0:0:0:
69,277,2394,6,0,P|48:239|50:194,1,77.0000023498536,2|8,0:0|0:0,0:0:0:0:
159,221,2752,2,0,P|179:258|178:304,1,77.0000023498536,2|8,0:0|0:0,0:0:0:0:
119,374,3109,2,0,L|37:368,1,77.0000023498536,2|8,0:0|0:0,0:0:0:0:
164,295,3466,1,2,0:0:0:0:
250,345,3644,6,0,L|410:332,1,154.000004699707,10|8,0:2|0:0,0:0:0:0:
403,332,4180,1,0,0:0:0:0:
324,168,4359,2,0,P|322:206|342:255,1,77.0000023498536,8|0,0:0|0:0,0:0:0:0:
440,190,4716,2,0,P|459:150|468:103,1,77.0000023498536,8|0,0:0|0:0,0:0:0:0:
425,22,5073,1,8,0:0:0:0:
343,85,5252,6,0,P|297:89|249:73,1,77.0000023498536,2|8,0:0|0:0,0:0:0:0:
181,18,5609,2,0,P|143:44|93:54,1,77.0000023498536,2|8,0:0|0:0,0:0:0:0:
14,25,5966,1,2,0:0:0:0:
45,120,6144,6,0,L|39:279,1,154.000004699707,10|8,0:0|0:0,0:0:0:0:
139,218,6680,1,0,0:0:0:0:
207,288,6859,2,0,P|250:290|295:276,1,77.0000023498536,8|0,0:0|0:0,0:0:0:0:
320,195,7216,1,8,0:0:0:0:
424,192,7394,6,0,P|415:150|394:120,1,77.0000023498536,2|8,0:0|0:0,0:0:0:0:
310,220,7752,2,0,L|306:320,1,77.0000023498536,2|8,0:0|0:0,0:0:0:0:
207,246,8109,2,0,P|169:242|122:259,1,77.0000023498536,2|8,0:0|0:0,0:0:0:0:
57,315,8466,1,2,0:0:0:0:
21,217,8644,6,0,L|28:127,1,77.0000023498536,4|0,0:2|0:0,0:0:0:0:
11,32,9002,2,0,P|46:48|103:49,1,77.0000023498536,8|0,0:0|0:0,0:0:0:0:
152,138,9359,2,0,P|187:122|244:121,1,77.0000023498536,8|0,0:0|0:0,0:0:0:0:
331,142,9716,1,8,0:0:0:0:
331,142,9805,1,8,0:0:0:0:
331,142,9894,1,0,0:0:0:0:
482,32,10430,5,6,2:0:0:0:
256,192,10520,12,4,12573,0:3:0:0:
318,105,12931,6,0,L|393:98,1,62.9999980773926,6|0,0:0|0:0,0:0:0:0:
466,131,13288,1,0,0:0:0:0:
404,203,13466,2,0,P|395:277|429:328,1,125.999996154785,10|8,0:0|0:0,0:0:0:0:
333,358,14002,2,0,L|250:353,1,62.9999980773926,10|0,0:0|0:0,0:0:0:0:
189,303,14359,1,0,0:0:0:0:
114,353,14538,2,0,P|104:331|100:291,1,62.9999980773926,10|0,0:0|0:0,0:0:0:0:
62,208,14895,2,0,L|-5:215,2,62.9999980773926,2|8|2,0:0|0:0|0:0,0:0:0:0:
148,169,15430,6,0,P|150:135|135:96,1,62.9999980773926,2|0,0:0|0:0,0:0:0:0:
102,25,15788,1,8,0:0:0:0:
201,42,15966,2,0,L|341:33,1,125.999996154785,2|0,0:0|0:0,0:0:0:0:
430,46,16502,2,0,P|415:71|414:129,1,62.9999980773926,10|8,0:0|0:0,0:0:0:0:
481,179,16859,1,0,0:0:0:0:
413,241,17038,2,0,L|424:315,1,62.9999980773926,2|8,0:0|0:0,0:0:0:0:
462,382,17395,1,2,0:0:0:0:
339,319,17573,6,0,P|288:301|214:312,1,112,8|4,0:0|0:2,0:0:0:0:
231,305,18287,6,0,L|235:217,1,62.9999980773926,8|0,0:0|0:0,0:0:0:0:
226,141,18644,1,4,0:3:0:0:
226,141,18822,1,4,0:3:0:0:
320,169,19001,2,0,P|366:168|399:157,1,62.9999980773926,8|0,0:0|0:0,0:0:0:0:
409,64,19358,6,0,P|362:64|330:76,1,62.9999980773926,0|0,0:0|0:0,0:0:0:0:
259,28,19715,2,0,L|181:24,1,62.9999980773926,8|0,0:0|0:0,0:0:0:0:
110,71,20072,1,4,0:3:0:0:
110,71,20251,1,4,0:3:0:0:
20,16,20430,2,0,P|6:50|21:130,1,94.499997116089,8|0,0:0|0:0,0:0:0:0:
18,126,20787,6,0,L|13:206,1,62.9999980773926,0|0,0:0|0:0,0:0:0:0:
116,236,21144,2,0,L|112:173,1,62.9999980773926,8|0,0:0|0:0,0:0:0:0:
217,125,21501,2,0,L|214:188,1,62.9999980773926,4|4,0:3|0:3,0:0:0:0:
320,233,21858,2,0,L|317:171,1,62.9999980773926,8|0,0:0|0:0,0:0:0:0:
306,77,22215,6,0,B|339:64|339:64|403:82|437:72|437:72|421:93|434:143,1,195.999994018555,2|2,0:0|0:0,0:0:0:0:
431,131,23287,1,8,0:0:0:0:
503,273,23644,6,0,L|494:190,1,62.9999980773926,2|0,0:0|0:0,0:0:0:0:
408,261,24001,1,8,0:0:0:0:
318,221,24179,2,0,P|246:214|195:255,1,125.999996154785,2|8,0:0|0:0,0:0:0:0:
218,337,24715,2,0,P|184:335|135:313,1,62.9999980773926,2|8,0:0|0:0,0:0:0:0:
75,282,25072,1,0,0:0:0:0:
110,190,25251,2,0,L|103:117,1,62.9999980773926,2|0,0:0|0:0,0:0:0:0:
165,45,25608,2,0,P|199:44|234:49,2,62.9999980773926,2|2|2,0:0|0:0|0:0,0:0:0:0:
266,128,26144,6,0,P|294:109|310:71,1,62.9999980773926,2|0,0:0|0:0,0:0:0:0:
379,18,26501,1,8,0:0:0:0:
427,98,26679,2,0,L|435:237,1,125.999996154785,2|8,0:0|0:0,0:0:0:0:
339,189,27215,2,0,P|305:190|272:205,1,62.9999980773926,2|0,0:0|0:0,0:0:0:0:
214,273,27572,1,0,0:0:0:0:
298,322,27751,2,0,P|332:321|365:306,1,62.9999980773926,2|8,0:0|0:0,0:0:0:0:
221,382,28108,1,2,0:0:0:0:
221,382,28286,6,0,L|103:374,1,97.9999970092774,8|2,0:0|0:0,0:0:0:0:
123,375,29001,6,0,P|126:337|112:290,1,70,8|0,0:0|0:0,0:0:0:0:
27,280,29358,1,4,0:3:0:0:
27,280,29536,1,4,0:3:0:0:
75,191,29715,2,0,L|71:108,1,70,8|0,0:0|0:0,0:0:0:0:
12,49,30072,6,0,P|84:79|161:64,1,140,0|8,0:0|0:0,0:0:0:0:
217,13,30608,1,4,0:3:0:0:
280,84,30786,2,0,P|291:115|287:153,1,70,4|0,0:3|0:0,0:0:0:0:
229,245,31144,2,0,P|263:248|295:261,1,70,8|0,0:0|0:0,0:0:0:0:
181,361,31501,6,0,L|88:355,1,70,0|0,0:0|0:0,0:0:0:0:
51,238,31858,2,0,L|144:232,1,70,8|0,0:0|0:0,0:0:0:0:
189,374,32215,2,0,L|96:368,1,70,4|4,0:3|0:3,0:0:0:0:
59,251,32572,2,0,L|152:245,1,70,8|0,0:0|0:0,0:0:0:0:
225,271,32929,5,8,0:0:0:0:
273,188,33108,2,0,P|305:194|351:193,2,70,0|8|0,0:0|0:0|0:0,0:0:0:0:
201,128,33644,2,0,L|195:43,1,70,8|8,0:0|0:0,0:0:0:0:
199,43,33911,1,8,0:0:0:0:
199,43,34001,1,8,0:0:0:0:
106,106,34179,1,0,0:0:0:0:
146,204,34358,6,0,P|216:219|279:180,1,140,4|8,0:0|0:0,0:0:0:0:
338,111,34894,1,0,0:0:0:0:
426,168,35072,2,0,P|440:129|439:83,1,70,4|4,0:3|0:3,0:0:0:0:
357,219,35429,2,0,L|368:298,1,70,8|0,0:0|0:0,0:0:0:0:
427,346,35786,6,0,P|361:318|274:324,1,140,4|8,0:3|0:0,0:0:0:0:
210,372,36322,1,0,0:0:0:0:
122,323,36501,1,0,0:0:0:0:
122,323,36590,1,8,0:0:0:0:
122,323,36679,2,0,P|85:323|43:335,1,70,0|8,0:0|0:0,0:0:0:0:
106,229,37036,1,0,0:0:0:0:
106,229,37215,6,0,P|115:143|69:90,1,140,4|8,0:3|0:0,0:0:0:0:
34,29,37751,2,0,L|-3:27,2,35,0|8|4,0:0|0:0|0:3,0:0:0:0:
139,17,38108,1,4,0:3:0:0:
193,102,38286,2,0,L|275:97,1,70,8|0,0:0|0:0,0:0:0:0:
336,28,38644,6,0,P|365:78|335:174,1,140,4|8,0:3|0:0,0:0:0:0:
254,191,39179,1,0,0:0:0:0:
347,262,39358,1,4,0:3:0:0:
347,262,39447,1,8,0:0:0:0:
347,262,39536,2,0,L|421:257,1,70,0|8,0:0|0:0,0:0:0:0:
366,352,39893,1,0,0:0:0:0:
267,312,40072,6,0,P|251:275|253:242,1,70,4|0,0:3|0:0,0:0:0:0:
160,306,40429,1,8,0:0:0:0:
66,270,40608,2,0,L|23:281,2,35,0|8|4,0:0|0:0|0:3,0:0:0:0:
101,171,40965,1,4,0:3:0:0:
101,171,41143,2,0,P|139:180|176:178,1,70,8|0,0:0|0:0,0:0:0:0:
238,63,41501,6,0,B|192:76|184:103|184:103|191:183,1,140,2|8,0:0|0:0,0:0:0:0:
210,279,42036,1,2,0:0:0:0:
210,279,42215,1,2,0:0:0:0:
283,210,42393,2,0,L|273:128,2,70,8|8|8,0:0|0:0|0:0,0:0:0:0:
361,275,42929,6,0,L|434:271,1,70,4|0,0:0|0:0,0:0:0:0:
318,371,43286,2,0,L|245:367,1,70,8|0,0:0|0:0,0:0:0:0:
168,308,43643,1,8,0:0:0:0:
168,308,43822,1,0,0:0:0:0:
93,376,44001,2,0,P|74:346|68:297,1,70,8|0,0:0|0:0,0:0:0:0:
0,236,44358,6,0,P|50:173|58:92,1,140,8|8,0:0|0:0,0:0:0:0:
46,17,44893,1,0,0:0:0:0:
140,58,45072,2,0,L|221:55,1,70,8|0,0:0|0:0,0:0:0:0:
272,135,45429,2,0,L|353:138,1,70,8|0,0:0|0:0,0:0:0:0:
475,86,45786,6,0,P|463:122|463:169,1,70,4|0,0:3|0:0,0:0:0:0:
408,288,46143,2,0,P|405:253|394:220,1,70,8|0,0:0|0:0,0:0:0:0:
311,277,46501,1,8,0:0:0:0:
311,277,46679,1,0,0:0:0:0:
383,369,46858,2,0,P|424:371|454:360,1,70,8|0,0:0|0:0,0:0:0:0:
312,295,47215,6,0,P|236:286|159:345,1,140,8|8,0:0|0:0,0:0:0:0:
106,378,47751,1,0,0:0:0:0:
80,280,47929,2,0,L|73:208,1,70,8|0,0:0|0:0,0:0:0:0:
7,119,48286,2,0,L|14:47,1,70,8|0,0:0|0:0,0:0:0:0:
108,117,48643,6,0,P|184:128|241:90,1,140,4|8,0:3|0:0,0:0:0:0:
305,25,49179,1,0,0:0:0:0:
395,77,49358,2,0,P|386:108|385:149,1,70,8|0,0:0|0:0,0:0:0:0:
307,247,49715,2,0,P|306:212|296:178,1,70,8|0,0:0|0:0,0:0:0:0:
242,308,50072,6,0,L|400:294,1,140,8|8,0:0|0:0,0:0:0:0:
488,327,50608,1,0,0:0:0:0:
505,228,50786,2,0,L|496:151,1,70,8|0,0:0|0:0,0:0:0:0:
459,60,51143,2,0,P|425:75|385:73,1,70,8|0,0:0|0:0,0:0:0:0:
298,46,51501,5,4,0:3:0:0:
239,121,51679,1,8,0:0:0:0:
239,121,51768,1,8,0:0:0:0:
239,121,51858,2,0,L|243:212,1,70,0|8,0:0|0:0,0:0:0:0:
243,215,52126,1,8,0:0:0:0:
243,216,52215,6,0,P|202:207|155:208,1,70,0|8,0:0|0:3,0:0:0:0:
85,166,52572,2,0,P|77:199|88:245,1,70,8|8,0:3|0:3,0:0:0:0:
98,333,52929,2,0,L|26:349,2,70,8|8|4,0:3|0:3|0:3,0:0:0:0:
197,304,53465,1,4,0:3:0:0:
270,371,53643,2,0,P|314:373|355:353,1,70,4|4,0:3|0:3,0:0:0:0:
365,268,54001,2,0,P|321:266|280:286,1,70,4|4,0:3|0:3,0:0:0:0:
465,353,54358,6,0,L|472:193,1,154.000004699707,4|8,0:2|0:0,0:0:0:0:
437,96,54893,1,0,0:0:0:0:
349,155,55072,2,0,P|333:116|334:75,1,77.0000023498536,4|4,3:0|3:0,0:0:0:0:
242,166,55429,2,0,P|175:177|128:155,1,115.50000352478,8|0,0:0|0:0,0:0:0:0:
106,144,55786,6,0,P|62:194|67:289,1,154.000004699707,2|8,0:0|0:0,0:0:0:0:
108,369,56322,1,0,0:0:0:0:
181,292,56501,2,0,L|268:286,1,77.0000023498536,4|4,0:3|0:3,0:0:0:0:
326,368,56858,2,0,L|413:374,1,77.0000023498536,8|0,0:0|0:0,0:0:0:0:
481,302,57215,6,0,P|492:232|466:154,1,154.000004699707,4|8,0:2|0:0,0:0:0:0:
373,178,57751,1,0,0:0:0:0:
408,78,57929,2,0,P|449:62|487:61,1,77.0000023498536,4|4,0:3|0:3,0:0:0:0:
326,25,58286,2,0,L|237:22,1,77.0000023498536,8|0,0:0|0:0,0:0:0:0:
156,149,58643,6,0,P|168:86|147:32,1,115.50000352478,2|0,0:0|0:0,0:0:0:0:
128,45,59001,2,0,P|92:60|42:59,1,77.0000023498536,8|0,0:0|0:0,0:0:0:0:
26,165,59358,2,0,L|33:224,2,38.5000011749268,0|8|0,0:0|0:0|0:0,0:0:0:0:
95,280,59715,2,0,P|135:267|184:271,1,77.0000023498536,8|8,0:0|0:0,0:0:0:0:
194,279,59983,1,8,0:0:0:0:
194,279,60072,6,0,P|296:288|340:233,1,154.000004699707,4|8,0:2|0:0,0:0:0:0:
252,197,60608,1,0,0:0:0:0:
307,117,60786,2,0,P|267:101|224:104,1,77.0000023498536,4|4,0:3|0:3,0:0:0:0:
389,61,61143,2,0,P|429:45|472:48,1,77.0000023498536,8|0,0:0|0:0,0:0:0:0:
480,202,61501,6,0,B|450:244|450:244|440:127,1,154.000004699707,2|8,0:0|0:0,0:0:0:0:
346,183,62036,1,0,0:0:0:0:
353,277,62215,2,0,L|357:357,1,77.0000023498536,4|4,0:3|0:3,0:0:0:0:
257,283,62572,2,0,P|201:261|131:280,1,115.50000352478,8|0,0:0|0:0,0:0:0:0:
119,280,62929,6,0,L|113:120,1,154.000004699707,4|8,0:2|0:0,0:0:0:0:
108,25,63465,1,0,0:0:0:0:
205,80,63643,2,0,P|245:87|292:77,1,77.0000023498536,4|4,0:3|0:3,0:0:0:0:
358,8,64001,2,0,P|395:2|433:10,1,77.0000023498536,8|0,0:0|0:0,0:0:0:0:
452,119,64358,6,0,P|408:165|393:104,1,154.000004699707,2|8,0:0|0:0,0:0:0:0:
215,191,65072,2,0,P|258:237|274:175,1,154.000004699707,8|8,0:0|0:0,0:0:0:0:
266,163,65518,1,8,0:0:0:0:
266,163,65608,1,8,0:0:0:0:
131,156,65786,6,0,P|123:224|170:304,1,154.000004699707,4|8,0:2|0:0,0:0:0:0:
243,362,66322,1,0,0:0:0:0:
293,273,66501,2,0,P|332:265|372:269,1,77.0000023498536,4|4,0:3|0:3,0:0:0:0:
464,296,66858,2,0,P|465:250|447:211,1,77.0000023498536,8|0,0:0|0:0,0:0:0:0:
402,131,67215,6,0,P|322:150|258:105,1,154.000004699707,4|8,0:2|0:0,0:0:0:0:
223,35,67751,1,0,0:0:0:0:
140,87,67929,2,0,L|59:77,1,77.0000023498536,4|4,0:3|0:3,0:0:0:0:
3,151,68286,2,0,P|19:186|17:242,1,77.0000023498536,8|0,0:0|0:0,0:0:0:0:
81,307,68643,6,0,P|102:210|91:147,1,154.000004699707,4|8,0:2|0:0,0:0:0:0:
184,199,69179,1,0,0:0:0:0:
248,121,69358,2,0,L|329:129,1,77.0000023498536,8|8,0:0|0:0,0:0:0:0:
352,134,69626,1,8,0:0:0:0:
352,134,69715,1,8,0:0:0:0:
333,31,69893,1,4,0:3:0:0:
453,360,70786,5,8,0:0:0:0:
456,261,70965,1,0,0:0:0:0:
456,261,71054,1,8,0:0:0:0:
456,261,71143,2,0,L|451:144,1,115.50000352478,8|0,0:0|0:0,0:0:0:0:
449,122,71501,6,0,P|400:127|366:114,1,77.0000023498536,4|0,0:2|0:0,0:0:0:0:
340,18,71858,2,0,P|389:13|423:26,1,77.0000023498536,8|0,0:0|0:0,0:0:0:0:
281,95,72215,2,0,L|188:89,1,77.0000023498536,8|0,0:0|0:0,0:0:0:0:
111,59,72572,2,0,P|105:97|116:134,1,77.0000023498536,8|0,0:0|0:0,0:0:0:0:
204,198,72929,6,0,P|132:242|52:224,1,154.000004699707,8|8,0:0|0:0,0:0:0:0:
12,348,73465,1,0,0:0:0:0:
12,348,73643,2,0,P|54:338|95:340,1,77.0000023498536,8|0,0:0|0:0,0:0:0:0:
190,362,74001,1,8,0:0:0:0:
190,362,74179,1,4,0:2:0:0:
291,284,74536,6,0,L|374:288,2,77.0000023498536,8|4|4,0:3|0:3|0:3,0:0:0:0:
194,242,75072,2,0,L|191:282,4,38.5000011749268,8|8|8|8|8,0:0|0:0|0:0|0:0|0:0,0:0:0:0:
246,147,75786,6,0,P|210:134|153:141,1,77.0000023498536,4|0,0:2|0:0,0:0:0:0:
66,191,76143,2,0,P|79:155|72:98,1,77.0000023498536,8|0,0:0|0:0,0:0:0:0:
138,29,76500,2,0,B|190:15|190:15|235:41|294:25,1,154.000004699707,8|8,0:0|0:0,0:0:0:0:
400,56,77036,6,0,P|381:83|377:132,1,77.0000023498536,2|8,0:0|0:0,0:0:0:0:
286,182,77393,2,0,P|283:214|304:259,1,77.0000023498536,2|8,0:0|0:0,0:0:0:0:
266,352,77750,2,0,L|379:345,1,77.0000023498536,2|8,0:0|0:0,0:0:0:0:
198,274,78107,1,2,0:0:0:0:
198,274,78286,6,0,L|29:263,1,154.000004699707,10|8,0:0|0:0,0:0:0:0:
79,161,78821,1,0,0:0:0:0:
176,182,79000,2,0,P|173:138|155:99,1,77.0000023498536,8|0,0:0|0:0,0:0:0:0:
73,31,79357,2,0,P|124:26|168:-1,1,77.0000023498536,8|0,0:0|0:0,0:0:0:0:
244,56,79714,1,8,0:0:0:0:
338,14,79893,2,0,L|421:9,1,77.0000023498536,2|8,0:0|0:0,0:0:0:0:
348,102,80250,2,0,P|339:138|350:187,1,77.0000023498536,2|8,0:0|0:0,0:0:0:0:
407,254,80607,1,2,0:0:0:0:
407,254,80786,6,0,P|334:214|245:233,1,154.000004699707,10|8,0:0|0:0,0:0:0:0:
160,182,81321,1,0,0:0:0:0:
160,182,81500,2,0,P|171:216|167:267,1,77.0000023498536,8|0,0:0|0:0,0:0:0:0:
79,310,81857,1,8,0:0:0:0:
12,236,82036,6,0,P|5:189|21:146,1,77.0000023498536,2|8,0:0|0:0,0:0:0:0:
67,79,82393,2,0,L|153:74,1,77.0000023498536,2|8,0:0|0:0,0:0:0:0:
220,4,82750,2,0,L|306:9,1,77.0000023498536,2|8,0:0|0:0,0:0:0:0:
389,67,83107,1,2,0:0:0:0:
445,151,83286,6,0,P|363:162|292:96,1,154.000004699707,4|8,0:0|0:0,0:0:0:0:
389,67,83821,1,0,0:0:0:0:
445,151,84000,2,0,L|450:242,1,77.0000023498536,8|0,0:0|0:0,0:0:0:0:
345,258,84357,2,0,L|340:349,1,77.0000023498536,8|0,0:0|0:0,0:0:0:0:
245,279,84714,2,0,P|204:267|153:275,1,77.0000023498536,8|0,0:0|0:0,0:0:0:0:
37,338,85071,2,0,P|77:349|129:342,1,77.0000023498536,8|0,0:0|0:0,0:0:0:0:
86,252,85428,2,0,L|97:159,1,77.0000023498536,8|4,0:0|0:3,0:0:0:0:
100,157,85696,1,4,0:3:0:0:
100,157,85786,1,8,0:0:0:0:
114,16,85964,5,4,0:0:0:0:
256,192,86053,12,0,89357,0:0:0:0:
