osu file format v14

[General]
AudioFilename: ElectricAngel ReolNanahira.mp3
AudioLeadIn: 0
PreviewTime: 39500
Countdown: 0
SampleSet: Normal
StackLeniency: 0.7
Mode: 0
LetterboxInBreaks: 0
WidescreenStoryboard: 0

[Editor]
DistanceSpacing: 3
BeatDivisor: 4
GridSize: 4
TimelineZoom: 1.3

[Metadata]
Title:Electric Angel
TitleUnicode:Electric Angel
Artist:Nanahira & Reol
ArtistUnicode:Nanahira & Reol
Creator:Yulia Atlantica
Version:Lolicon
Source:GigaP
Tags:Vocaloid Nanahira Reol Kagamine Rin Len
BeatmapID:1054920
BeatmapSetID:495557

[Difficulty]
HPDrainRate:7
CircleSize:4
OverallDifficulty:8
ApproachRate:9
SliderMultiplier:2.00000000596046
SliderTickRate:1

[Events]
//Background and Video events
0,0,"Electric-Angel_Nanahira-Reol.jpg",0,0
//Break Periods
2,52900,64900
2,116700,128900
2,144100,148100
//Storyboard Layer 0 (Background)
//Storyboard Layer 1 (Fail)
//Storyboard Layer 2 (Pass)
//Storyboard Layer 3 (Foreground)
//Storyboard Sound Samples

[TimingPoints]
1500,400,4,1,0,100,1,0
27100,-133.333333333333,4,1,0,100,0,0
39000,-66.6666666666667,4,1,0,100,0,0
39500,-100,4,1,0,100,0,0
39900,-100,4,1,0,100,0,1
52700,-100,4,1,0,100,0,0
71400,-66.6666666666667,4,1,0,100,0,0
71800,-100,4,1,0,100,0,0
91100,-100,4,1,0,100,0,1
116700,-100,4,1,0,100,0,0
149900,-200,4,1,0,100,0,0
150300,-100,4,1,0,100,0,1
156600,-80,4,1,0,100,0,1
169500,-100,4,1,0,100,0,0

[HitObjects]
256,192,7900,12,0,10300,0:0:0:0:
408,224,10700,6,0,P|424:176|408:128,1,100.000000298023
320,80,11100,1,0,0:0:0:0:
312,176,11300,1,0,0:0:0:0:
224,128,11500,1,0,0:0:0:0:
200,224,11700,1,0,0:0:0:0:
120,160,11900,1,0,0:0:0:0:
400,192,12300,6,0,L|320:112,1,100.000000298023
258,50,12700,1,0,0:0:0:0:
72,312,13100,1,0,0:0:0:0:
432,312,13500,1,0,0:0:0:0:
72,48,14300,6,0,P|136:64|172:84,1,100.000000298023
156,180,14700,1,0,0:0:0:0:
60,173,14900,1,0,0:0:0:0:
36,272,15100,6,0,P|80:312|124:328,1,100.000000298023
220,328,15500,1,0,0:0:0:0:
240,232,15700,1,0,0:0:0:0:
160,168,15900,5,0,0:0:0:0:
336,168,16100,1,0,0:0:0:0:
184,264,16300,1,0,0:0:0:0:
248,104,16500,1,0,0:0:0:0:
312,264,16700,2,0,P|272:296|216:312,1,100.000000298023
132,268,17100,6,0,L|116:272,1,12.5000000372529
167,176,17300,2,0,L|152:168,1,12.5000000372529
268,184,17500,2,0,P|304:132|304:92,1,100.000000298023
208,64,17900,1,0,0:0:0:0:
116,101,18100,1,0,0:0:0:0:
76,192,18300,2,0,P|120:208|176:196,1,100.000000298023
172,300,18700,5,0,0:0:0:0:
268,311,18900,1,0,0:0:0:0:
339,95,19100,2,0,P|275:71|235:79,1,100.000000298023
355,287,19500,2,0,P|388:243|384:192,1,100.000000298023
115,103,19900,2,0,P|82:147|86:198,1,100.000000298023
351,138,20300,2,0,L|247:197,1,100.000000298023
216,200,20600,1,0,0:0:0:0:
168,184,20700,5,0,0:0:0:0:
216,96,20900,1,0,0:0:0:0:
144,24,21100,2,0,P|96:56|72:112,1,100.000000298023
144,164,21500,5,0,0:0:0:0:
48,196,21700,1,0,0:0:0:0:
88,288,21900,2,0,P|152:328|208:328,1,100.000000298023
264,288,22300,5,0,0:0:0:0:
316,180,22500,1,0,0:0:0:0:
200,204,22700,1,0,0:0:0:0:
316,180,22900,1,0,0:0:0:0:
260,280,23100,2,0,P|264:220|240:168,1,100.000000298023
184,128,23500,2,0,L|172:120,1,12.5000000372529
173,224,23700,2,0,L|157:232,1,12.5000000372529
224,312,23900,6,0,B|276:344|324:344|320:344,1,100.000000298023
416,336,24300,2,0,P|440:272|432:232,1,100.000000298023
340,268,24700,1,0,0:0:0:0:
392,184,24900,1,0,0:0:0:0:
372,88,25100,1,0,0:0:0:0:
284,36,25300,1,0,0:0:0:0:
188,60,25500,5,0,0:0:0:0:
312,208,25700,1,0,0:0:0:0:
128,144,25900,1,0,0:0:0:0:
192,272,26100,1,0,0:0:0:0:
340,304,26300,1,0,0:0:0:0:
424,236,26500,1,0,0:0:0:0:
428,228,26600,1,0,0:0:0:0:
432,220,26700,2,0,P|384:152|344:128,1,100.000000298023
228,88,27100,6,0,P|144:96|100:168,1,150.000006169081
196,180,27700,1,0,0:0:0:0:
368,328,27900,1,0,0:0:0:0:
272,272,28300,2,0,L|356:292,1,75.0000030845403
340,228,28700,2,0,L|422:203,1,75.0000030845403
372,160,29100,2,0,L|431:97,1,75.0000030845403
368,328,29500,1,0,0:0:0:0:
244,108,29900,2,0,L|164:136,1,75.0000030845403
144,188,30300,6,0,P|156:272|220:320,1,150.000006169081
244,108,30900,1,0,0:0:0:0:
368,328,31100,1,0,0:0:0:0:
326,172,31300,1,0,0:0:0:0:
336,252,31500,2,0,B|316:300|273:313,1,75.0000030845403
136,217,31900,5,0,0:0:0:0:
288,49,32100,1,0,0:0:0:0:
440,216,32300,1,0,0:0:0:0:
288,49,32500,1,0,0:0:0:0:
368,328,32700,1,0,0:0:0:0:
128,112,32900,5,0,0:0:0:0:
128,112,33000,1,0,0:0:0:0:
128,112,33100,2,0,L|168:152,1,37.5000015422702
256,176,33300,6,0,L|220:192,1,37.5000015422702
54,198,33500,2,0,P|70:242|94:270,1,75.0000030845403
160,304,33900,2,0,P|196:280|244:284,1,75.0000030845403
304,280,34300,2,0,P|333:253|356:184,1,112.50000462681
356,140,34700,2,0,P|342:102|311:76,1,75.0000030845403
236,56,35100,5,0,0:0:0:0:
128,160,35300,1,0,0:0:0:0:
240,172,35500,1,0,0:0:0:0:
196,232,35700,1,0,0:0:0:0:
308,212,35900,1,0,0:0:0:0:
168,160,36100,1,0,0:0:0:0:
296,296,36300,1,0,0:0:0:0:
376,88,36500,1,0,0:0:0:0:
296,80,36700,6,0,L|220:80,1,75.0000030845403
152,112,37100,2,0,L|96:176,1,75.0000030845403
112,272,37500,2,0,L|144:240,1,37.5000015422702
184,280,37700,2,0,L|216:248,1,37.5000015422702
256,192,37900,1,0,0:0:0:0:
292,44,38100,5,0,0:0:0:0:
328,52,38200,1,0,0:0:0:0:
356,76,38300,1,0,0:0:0:0:
256,192,38500,1,0,0:0:0:0:
404,228,38700,5,0,0:0:0:0:
395,264,38800,1,0,0:0:0:0:
372,292,38900,1,0,0:0:0:0:
256,192,39100,6,0,B|240:164|240:164|272:140|272:140|256:112|256:112|256:56|256:56,1,150.000006169081
88,224,39500,5,0,0:0:0:0:
104,56,39700,1,0,0:0:0:0:
88,224,39900,6,0,P|136:192|192:192,1,100.000000298023
280,296,40300,1,0,0:0:0:0:
416,240,40500,1,0,0:0:0:0:
456,96,40700,2,0,L|356:64,1,100.000000298023
264,48,41100,1,0,0:0:0:0:
224,192,41300,1,0,0:0:0:0:
88,120,41500,5,0,0:0:0:0:
424,120,41700,1,0,0:0:0:0:
128,280,41900,1,0,0:0:0:0:
384,280,42100,1,0,0:0:0:0:
256,120,42300,2,0,L|256:16,1,100.000000298023
256,120,42700,1,0,0:0:0:0:
256,272,42900,1,0,0:0:0:0:
104,272,43100,6,0,L|16:320,1,100.000000298023
408,272,43500,2,0,L|496:320,1,100.000000298023
168,192,43900,2,0,L|56:192,1,100.000000298023
344,192,44300,2,0,L|456:192,1,100.000000298023
336,120,44700,5,0,0:0:0:0:
240,240,44900,1,0,0:0:0:0:
168,112,45100,1,0,0:0:0:0:
24,144,45300,1,0,0:0:0:0:
108,268,45500,2,0,P|176:282|218:269,1,100.000000298023
404,264,45900,1,0,0:0:0:0:
396,72,46100,1,0,0:0:0:0:
248,176,46300,6,0,P|228:224|192:264,1,100.000000298023
32,336,46700,1,0,0:0:0:0:
48,120,46900,1,0,0:0:0:0:
200,56,47100,6,0,B|240:32|272:40|296:56,1,100.000000298023
248,112,47500,1,0,0:0:0:0:
156,288,47700,1,0,0:0:0:0:
352,288,47900,1,0,0:0:0:0:
256,112,48100,1,0,0:0:0:0:
156,288,48300,1,0,0:0:0:0:
352,288,48500,1,0,0:0:0:0:
256,112,48700,6,0,P|200:160|184:208,1,100.000000298023
352,288,49100,2,0,P|400:236|412:200,1,100.000000298023
392,112,49500,5,0,0:0:0:0:
272,200,49700,1,0,0:0:0:0:
216,64,49900,1,0,0:0:0:0:
120,176,50100,1,0,0:0:0:0:
272,200,50300,1,0,0:0:0:0:
192,328,50500,1,0,0:0:0:0:
344,344,50700,2,0,P|408:344|448:320,1,100.000000298023
480,184,51100,5,0,0:0:0:0:
438,327,51300,1,0,0:0:0:0:
368,192,51500,1,0,0:0:0:0:
344,344,51700,1,0,0:0:0:0:
344,344,51800,1,0,0:0:0:0:
344,344,51900,1,0,0:0:0:0:
200,296,52100,1,0,0:0:0:0:
124,168,52300,1,0,0:0:0:0:
388,168,52500,5,0,0:0:0:0:
256,200,52700,5,0,0:0:0:0:
104,104,65500,6,0,B|112:100|168:88|212:104,1,100.000000298023
208,200,65900,1,0,0:0:0:0:
108,196,66100,1,0,0:0:0:0:
108,296,66300,2,0,P|172:328|220:332,1,100.000000298023
192,232,66700,5,0,0:0:0:0:
292,232,66900,1,0,0:0:0:0:
304,328,67100,1,0,0:0:0:0:
448,192,67300,1,0,0:0:0:0:
304,328,67500,1,0,0:0:0:0:
448,192,67700,1,0,0:0:0:0:
304,128,67900,1,0,0:0:0:0:
304,128,68100,5,0,0:0:0:0:
304,128,68200,1,0,0:0:0:0:
304,128,68300,6,0,P|280:176|240:208,1,100.000000298023
196,116,68700,2,0,P|143:137|111:173,1,100.000000298023
56,248,69100,1,0,0:0:0:0:
100,340,69300,1,0,0:0:0:0:
200,356,69500,6,0,P|256:360|316:352,1,100.000000298023
392,348,69900,1,0,0:0:0:0:
340,300,70100,1,0,0:0:0:0:
416,284,70300,5,0,0:0:0:0:
288,248,70500,1,0,0:0:0:0:
464,224,70700,1,0,0:0:0:0:
264,176,70900,1,0,0:0:0:0:
508,164,71100,1,0,0:0:0:0:
240,104,71300,1,0,0:0:0:0:
440,344,71500,6,0,B|428:324|428:324|400:328|400:328|360:304,1,75.0000030845403
232,280,71700,2,0,B|212:275|212:275|194:246|194:246|156:233,1,75.0000030845403
72,200,71900,6,0,P|61:136|95:89,1,100.000000298023
144,56,72300,1,0,0:0:0:0:
224,112,72500,1,0,0:0:0:0:
312,64,72700,2,0,P|360:96|376:160,1,100.000000298023
376,232,73100,1,0,0:0:0:0:
296,288,73300,1,0,0:0:0:0:
200,264,73500,5,0,0:0:0:0:
108,220,73700,1,0,0:0:0:0:
200,176,73900,1,0,0:0:0:0:
108,136,74100,1,0,0:0:0:0:
196,88,74300,1,0,0:0:0:0:
284,104,74500,1,0,0:0:0:0:
380,136,74700,6,0,P|400:200|384:248,1,100.000000298023
328,304,75100,2,0,P|272:336|216:336,1,100.000000298023
136,304,75500,1,0,0:0:0:0:
96,216,75700,1,0,0:0:0:0:
152,136,75900,5,0,0:0:0:0:
368,344,76100,1,0,0:0:0:0:
284,56,76300,1,0,0:0:0:0:
200,344,76500,1,0,0:0:0:0:
444,168,76700,2,0,P|388:136|324:160,1,100.000000298023
376,224,77100,2,0,P|304:216|272:176,1,100.000000298023
296,104,77500,2,0,L|272:112,7,25.0000000745058
248,120,77900,5,0,0:0:0:0:
152,152,78100,1,0,0:0:0:0:
176,248,78300,2,0,P|208:312|256:320,1,100.000000298023
328,296,78700,1,0,0:0:0:0:
400,224,78900,1,0,0:0:0:0:
408,128,79100,6,0,P|384:64|336:48,1,100.000000298023
256,40,79500,1,0,0:0:0:0:
160,80,79700,1,0,0:0:0:0:
160,176,79900,5,0,0:0:0:0:
304,328,80100,1,0,0:0:0:0:
160,176,80300,1,0,0:0:0:0:
304,328,80500,1,0,0:0:0:0:
320,176,80700,1,0,0:0:0:0:
236,124,80900,1,0,0:0:0:0:
140,100,81100,5,0,0:0:0:0:
108,196,81300,1,0,0:0:0:0:
200,152,81500,1,0,0:0:0:0:
240,240,81700,1,0,0:0:0:0:
336,256,81900,5,0,0:0:0:0:
432,272,82100,1,0,0:0:0:0:
496,192,82300,2,0,P|496:120|472:88,1,100.000000298023
384,80,82700,1,0,0:0:0:0:
296,136,82900,1,0,0:0:0:0:
208,184,83100,5,0,0:0:0:0:
496,268,83300,1,0,0:0:0:0:
196,264,83500,1,0,0:0:0:0:
488,348,83700,1,0,0:0:0:0:
328,96,83900,1,0,0:0:0:0:
232,96,84100,1,0,0:0:0:0:
184,104,84200,1,0,0:0:0:0:
136,120,84300,6,0,P|88:144|64:184,1,100.000000298023
144,232,84700,2,0,P|208:208|224:168,1,100.000000298023
240,88,85100,1,0,0:0:0:0:
336,104,85300,1,0,0:0:0:0:
352,200,85500,6,0,P|296:224|272:264,1,100.000000298023
368,296,85900,1,0,0:0:0:0:
440,224,86100,1,0,0:0:0:0:
440,128,86300,6,0,L|392:112,1,50.0000001490115
360,152,86500,2,0,L|416:168,1,50.0000001490115
416,216,86700,2,0,L|352:192,1,50.0000001490115
336,232,86900,2,0,L|400:256,1,50.0000001490115
448,344,87100,5,0,0:0:0:0:
216,296,87300,1,0,0:0:0:0:
368,160,87500,1,0,0:0:0:0:
448,344,87700,1,0,0:0:0:0:
480,200,87900,6,0,P|480:136|440:104,1,100.000000298023
360,72,88300,2,0,P|320:104|312:160,1,100.000000298023
376,224,88700,1,0,0:0:0:0:
336,256,88800,1,0,0:0:0:0:
288,256,88900,1,0,0:0:0:0:
240,240,89000,1,0,0:0:0:0:
208,200,89100,2,0,L|192:160,7,25.0000000745058
208,152,89500,6,0,L|136:64,1,100.000000298023
56,120,89900,1,0,0:0:0:0:
24,160,90000,1,0,0:0:0:0:
16,208,90100,1,0,0:0:0:0:
160,312,90300,6,0,L|180:280,2,25.0000000745058
360,280,90700,6,0,B|440:256|440:256|448:240,1,100.000000298023
440,144,91100,6,0,P|392:104|328:96,1,100.000000298023
352,192,91500,2,0,P|288:168|256:136,1,100.000000298023
224,56,91900,1,0,0:0:0:0:
152,128,92100,1,0,0:0:0:0:
64,88,92300,1,0,0:0:0:0:
8,168,92500,1,0,0:0:0:0:
88,336,92700,5,0,0:0:0:0:
168,144,92900,1,0,0:0:0:0:
320,288,93100,1,0,0:0:0:0:
400,96,93300,1,0,0:0:0:0:
168,144,93500,6,0,P|96:176|56:216,1,100.000000298023
88,288,93900,1,0,0:0:0:0:
256,168,94100,1,0,0:0:0:0:
336,232,94300,2,0,P|392:192|416:160,1,100.000000298023
400,72,94700,5,0,0:0:0:0:
208,136,94900,1,0,0:0:0:0:
152,216,95100,2,0,P|176:280|224:312,1,100.000000298023
248,216,95500,2,0,P|240:152|208:112,1,100.000000298023
64,56,95900,5,0,0:0:0:0:
312,56,96100,1,0,0:0:0:0:
160,256,96300,1,0,0:0:0:0:
312,56,96500,1,0,0:0:0:0:
160,256,96700,2,0,P|216:224|248:184,1,100.000000298023
280,104,97100,5,0,0:0:0:0:
192,64,97300,1,0,0:0:0:0:
104,112,97500,2,0,P|136:152|192:192,1,100.000000298023
344,256,97900,1,0,0:0:0:0:
440,224,98100,1,0,0:0:0:0:
480,136,98300,2,0,P|464:80|432:56,1,100.000000298023
336,40,98700,2,0,P|264:40|232:64,1,100.000000298023
152,104,99100,5,0,0:0:0:0:
56,304,99300,1,0,0:0:0:0:
304,280,99500,1,0,0:0:0:0:
152,104,99700,1,0,0:0:0:0:
384,128,99900,2,0,P|488:104|488:64,2,100.000000298023
400,240,100500,1,0,0:0:0:0:
304,280,100700,5,0,0:0:0:0:
76,176,100900,1,0,0:0:0:0:
304,280,101100,1,0,0:0:0:0:
240,40,101300,1,0,0:0:0:0:
136,268,101500,2,0,P|192:292|248:288,1,100.000000298023
428,264,101900,5,0,0:0:0:0:
272,140,102100,1,0,0:0:0:0:
192,80,102300,2,0,P|136:56|64:56,1,100.000000298023
48,60,102600,1,0,0:0:0:0:
8,96,102700,2,0,P|64:136|112:144,1,100.000000298023
144,152,103000,1,0,0:0:0:0:
192,144,103100,5,0,0:0:0:0:
252,224,103300,1,0,0:0:0:0:
344,260,103500,5,0,0:0:0:0:
392,240,103600,1,0,0:0:0:0:
424,200,103700,1,0,0:0:0:0:
424,152,103800,1,0,0:0:0:0:
400,112,103900,2,0,P|352:80|296:64,1,100.000000298023
216,80,104300,5,0,0:0:0:0:
216,80,104400,1,0,0:0:0:0:
136,136,104600,1,0,0:0:0:0:
136,136,104700,2,0,P|96:192|88:224,1,100.000000298023
96,272,105000,1,0,0:0:0:0:
128,312,105100,1,0,0:0:0:0:
224,280,105300,5,0,0:0:0:0:
440,264,105500,5,0,0:0:0:0:
320,64,105700,1,0,0:0:0:0:
224,280,105900,1,0,0:0:0:0:
448,128,106100,1,0,0:0:0:0:
328,296,106300,5,0,0:0:0:0:
184,128,106500,1,0,0:0:0:0:
104,296,106700,2,0,P|32:264|16:224,2,100.000000298023
296,232,107300,1,0,0:0:0:0:
448,128,107500,5,0,0:0:0:0:
256,80,107700,2,0,B|200:80|200:80|200:72|200:72|192:88|192:88|192:72|192:72|184:88|184:88|184:72|184:72|176:88|176:88|176:72|176:72|168:80|168:80|144:80|144:80,1,200.000000596046
57,124,108300,5,0,0:0:0:0:
16,200,108400,2,0,L|32:232,5,25.0000000745058
64,280,108700,6,0,P|112:288|168:280,1,100.000000298023
120,192,109100,2,0,P|192:184|240:200,1,100.000000298023
264,216,109400,1,0,0:0:0:0:
360,184,109600,1,0,0:0:0:0:
360,184,109700,1,0,0:0:0:0:
448,64,109900,6,0,L|424:48,4,25.0000000745058
400,48,110200,1,0,0:0:0:0:
264,56,110300,6,0,P|216:40|160:56,1,100.000000298023
208,144,110700,2,0,P|144:152|96:144,1,100.000000298023
109,147,111000,1,0,0:0:0:0:
109,147,111100,1,0,0:0:0:0:
24,96,111300,1,0,0:0:0:0:
16,192,111500,5,0,0:0:0:0:
40,232,111600,2,0,L|64:264,2,25.0000000745058
128,288,111900,2,0,B|136:288|136:288|144:280|144:280|144:296|144:296|152:280|152:280|152:296|152:296|160:280|160:280|160:296|160:296|168:280|168:280|168:296|168:296|176:288|176:288|184:288|184:288,1,150.000000447035
224,296,112300,2,0,P|280:312|328:296,1,100.000000298023
376,224,112700,2,0,P|408:200|416:184,1,50.0000001490115
424,144,112900,1,0,0:0:0:0:
336,88,113100,6,0,L|312:136,1,50.0000001490115
288,88,113300,2,0,L|288:152,1,50.0000001490115
240,96,113500,2,0,P|256:168|296:192,1,100.000000298023
368,208,113900,2,0,B|376:224|376:224|368:232|368:232|384:232|384:232|376:240|376:240|392:240|392:240|384:248|384:248|400:248|400:248|392:256|392:256|408:256|408:256|400:264|400:264|408:264|408:264|416:272|416:272,1,150.000000447035
448,296,114300,5,0,0:0:0:0:
448,296,114400,1,0,0:0:0:0:
472,256,114500,2,0,P|488:200|472:144,1,100.000000298023
416,80,114900,2,0,L|396:104,2,25.0000000745058
116,92,115100,6,0,P|100:116|88:152,1,50.0000001490115
256,192,115300,1,0,0:0:0:0:
239,363,115500,2,0,P|268:365|305:357,1,50.0000001490115
256,192,115700,1,0,0:0:0:0:
412,120,115900,2,0,P|399:94|374:66,1,50.0000001490115
256,96,116100,1,0,0:0:0:0:
256,144,116200,1,0,0:0:0:0:
256,192,116300,1,0,0:0:0:0:
256,292,116500,1,0,0:0:0:0:
88,104,129500,5,0,0:0:0:0:
104,192,129700,6,0,P|112:232|120:248,1,50.0000001490115
256,192,129900,1,0,0:0:0:0:
152,288,130100,2,0,P|184:312|216:312,1,50.0000001490115
256,192,130300,1,0,0:0:0:0:
248,320,130500,2,0,P|288:320|320:304,1,50.0000001490115
256,192,130700,1,0,0:0:0:0:
128,280,130900,5,0,0:0:0:0:
384,104,131100,1,0,0:0:0:0:
344,296,131300,2,0,P|376:272|392:240,1,50.0000001490115
256,192,131500,1,0,0:0:0:0:
408,216,131700,2,0,P|416:184|408:152,1,50.0000001490115
256,192,131900,1,0,0:0:0:0:
408,112,132100,2,0,P|384:80|360:64,1,50.0000001490115
256,192,132300,1,0,0:0:0:0:
128,72,132500,6,0,L|168:104,1,50.0000001490115
384,312,132700,1,0,0:0:0:0:
432,224,132900,2,0,P|448:184|448:160,2,50.0000001490115
328,224,133300,2,0,P|336:192|336:168,2,50.0000001490115
232,256,133700,2,0,B|232:216|224:184|216:176,2,50.0000001490115
136,256,134100,2,0,B|128:248|128:248|128:264|128:264|120:248|120:248|120:264|120:264|112:248|112:248|112:264|112:264|104:248|104:248|96:256|96:256,1,100.000000298023
64,168,134500,6,0,L|112:120,1,50.0000001490115
192,56,134700,1,0,0:0:0:0:
336,168,134900,2,0,L|280:208,1,50.0000001490115
104,312,135100,1,0,0:0:0:0:
112,96,135300,2,0,L|168:128,1,50.0000001490115
384,224,135500,1,0,0:0:0:0:
88,168,135900,5,0,0:0:0:0:
232,144,136100,2,0,L|232:72,1,50.0000001490115
232,224,136300,1,0,0:0:0:0:
320,184,136500,2,0,L|320:128,1,50.0000001490115
320,256,136700,1,0,0:0:0:0:
416,232,136900,2,0,L|416:176,1,50.0000001490115
416,304,137100,1,0,0:0:0:0:
96,312,137300,5,0,0:0:0:0:
384,72,137500,5,0,0:0:0:0:
288,112,137700,2,0,L|288:176,1,50.0000001490115
288,32,137900,1,0,0:0:0:0:
208,144,138100,2,0,L|208:208,1,50.0000001490115
208,72,138300,1,0,0:0:0:0:
136,184,138500,2,0,L|136:240,1,50.0000001490115
184,288,138700,2,0,P|224:288|304:264,1,100.000000298023
344,240,139000,1,0,0:0:0:0:
408,208,139100,6,0,B|408:200|408:200|400:192|400:192|416:192|416:192|400:184|400:184|416:184|416:184|400:176|400:176|416:176|416:176,1,100.000000298023
412,128,139400,1,0,0:0:0:0:
364,88,139500,1,0,0:0:0:0:
308,56,139600,1,0,0:0:0:0:
260,40,139700,2,0,P|228:40|200:48,1,50.0000001490115
164,60,139900,6,0,P|116:84|68:132,1,100.000000298023
56,160,140200,1,0,0:0:0:0:
48,208,140300,2,0,P|48:256|104:304,1,100.000000298023
176,328,140700,2,0,P|216:336|248:332,1,50.0000001490115
272,328,140900,2,0,P|332:316|380:284,1,100.000000298023
440,224,141300,1,0,0:0:0:0:
448,124,141500,6,0,P|400:76|344:60,1,100.000000298023
320,56,141800,1,0,0:0:0:0:
272,56,141900,2,0,P|224:64|200:88,1,50.0000001490115
184,88,142100,1,0,0:0:0:0:
160,136,142200,1,0,0:0:0:0:
160,184,142300,5,0,0:0:0:0:
256,192,142400,12,0,143900,0:0:0:0:
364,92,148700,5,0,0:0:0:0:
148,292,148900,1,0,0:0:0:0:
256,188,149100,5,0,0:0:0:0:
256,64,149300,1,0,0:0:0:0:
206,71,149400,1,0,0:0:0:0:
164,98,149500,1,0,0:0:0:0:
138,140,149600,1,0,0:0:0:0:
128,188,149700,1,0,0:0:0:0:
456,340,149900,6,0,P|476:300|472:272,1,50.0000001490115
452,48,150300,1,0,0:0:0:0:
348,220,150500,1,0,0:0:0:0:
228,60,150700,6,0,P|216:128|200:164,1,100.000000298023
44,36,151100,1,0,0:0:0:0:
96,228,151300,1,0,0:0:0:0:
280,152,151500,2,0,P|348:120|396:116,1,100.000000298023
404,316,151900,5,0,0:0:0:0:
136,184,152100,1,0,0:0:0:0:
436,148,152300,1,0,0:0:0:0:
204,340,152500,1,0,0:0:0:0:
268,48,152700,1,0,0:0:0:0:
316,244,152900,1,0,0:0:0:0:
120,196,153100,6,0,P|140:272|136:308,1,100.000000298023
356,340,153500,1,0,0:0:0:0:
476,180,153700,1,0,0:0:0:0:
304,76,153900,6,0,P|248:60|204:60,1,100.000000298023
36,164,154300,1,0,0:0:0:0:
236,192,154500,1,0,0:0:0:0:
80,316,154700,2,0,P|136:348|192:348,1,100.000000298023
352,268,155100,6,0,L|443:205,1,100.000000298023
252,40,155500,2,0,L|168:96,1,100.000000298023
108,176,155800,1,0,0:0:0:0:
100,284,155900,2,0,L|200:340,1,100.000000298023
380,284,156300,5,0,0:0:0:0:
416,88,156500,1,0,0:0:0:0:
216,68,156700,2,0,P|153:83|108:124,1,125.000000372529
52,316,157100,5,0,0:0:0:0:
248,356,157300,1,0,0:0:0:0:
412,240,157500,2,0,P|363:201|302:188,1,125.000000372529
104,188,157900,1,0,0:0:0:0:
248,52,158100,1,0,0:0:0:0:
420,152,158300,5,0,0:0:0:0:
288,300,158500,1,0,0:0:0:0:
292,100,158700,1,0,0:0:0:0:
168,256,158900,1,0,0:0:0:0:
64,88,159100,2,0,P|132:112|180:148,1,125.000000372529
292,276,159500,1,0,0:0:0:0:
476,352,159700,1,0,0:0:0:0:
480,152,159900,6,0,P|456:88|400:56,1,125.000000372529
208,44,160300,1,0,0:0:0:0:
292,224,160500,1,0,0:0:0:0:
132,124,160700,2,0,P|88:177|86:231,1,125.000000372529
292,224,161100,1,0,0:0:0:0:
392,324,161300,1,0,0:0:0:0:
436,128,161500,6,0,L|396:72,1,62.5000001862644
304,112,161700,2,0,L|352:172,1,62.5000001862644
399,77,161900,2,0,L|331:65,1,62.5000001862644
343,160,162100,2,0,L|416:176,1,62.5000001862644
468,256,162300,6,0,P|448:312|388:344,1,125.000000372529
232,256,162700,1,0,0:0:0:0:
48,336,162900,1,0,0:0:0:0:
80,140,163100,6,0,P|116:80|180:64,1,125.000000372529
320,168,163500,1,0,0:0:0:0:
476,44,163700,1,0,0:0:0:0:
476,244,163900,6,0,P|456:320|408:356,1,125.000000372529
256,260,164300,1,0,0:0:0:0:
72,336,164500,1,0,0:0:0:0:
36,140,164700,6,0,L|92:84,1,62.5000001862644
156,160,164900,2,0,L|212:104,1,62.5000001862644
272,184,165100,2,0,L|328:128,1,62.5000001862644
392,204,165300,2,0,L|448:148,1,62.5000001862644
440,68,165500,2,0,P|368:40|312:48,1,125.000000372529
124,68,165900,1,0,0:0:0:0:
80,264,166100,1,0,0:0:0:0:
268,328,166300,6,0,P|344:348|400:328,1,125.000000372529
448,144,166700,1,0,0:0:0:0:
264,220,166900,1,0,0:0:0:0:
368,48,167100,6,0,P|300:60|240:92,1,125.000000372529
68,168,167500,1,0,0:0:0:0:
252,192,167700,1,0,0:0:0:0:
256,60,167900,5,0,0:0:0:0:
88,140,168100,1,0,0:0:0:0:
100,200,168200,1,0,0:0:0:0:
116,260,168300,1,0,0:0:0:0:
424,140,168500,1,0,0:0:0:0:
412,200,168600,1,0,0:0:0:0:
396,260,168700,1,0,0:0:0:0:
256,136,168900,5,0,0:0:0:0:
256,200,169000,1,0,0:0:0:0:
256,264,169100,1,0,0:0:0:0:
144,212,169300,6,0,P|148:148|184:100,1,125.000000372529
256,192,169700,5,0,0:0:0:0:
424,88,169900,2,0,P|448:144|440:192,1,100.000000298023
320,344,170300,1,0,0:0:0:0:
200,184,170500,1,0,0:0:0:0:
64,336,170700,2,0,P|40:272|40:224,1,100.000000298023
208,128,171100,5,0,0:0:0:0:
400,184,171300,1,0,0:0:0:0:
240,304,171500,1,0,0:0:0:0:
312,120,171700,1,0,0:0:0:0:
352,312,171900,1,0,0:0:0:0:
160,248,172100,1,0,0:0:0:0:
312,120,172300,1,0,0:0:0:0:
160,248,172500,1,0,0:0:0:0:
352,304,172700,6,0,P|424:272|432:240,1,100.000000298023
456,56,173100,1,0,0:0:0:0:
368,240,173300,1,0,0:0:0:0:
240,72,173500,6,0,P|184:72|144:112,1,100.000000298023
80,288,173900,1,0,0:0:0:0:
208,136,174100,2,0,P|256:88|304:80,2,100.000000298023
112,312,174700,1,0,0:0:0:0:
296,240,174900,1,0,0:0:0:0:
472,336,175100,6,0,P|488:288|472:232,1,100.000000298023
384,64,175500,1,0,0:0:0:0:
272,232,175700,2,0,B|224:272|152:256|136:200|160:152|184:136,1,200.000000596046
336,32,176300,1,0,0:0:0:0:
216,192,176500,2,0,L|144:280,1,100.000000298023
352,280,176900,5,0,0:0:0:0:
368,232,177000,1,0,0:0:0:0:
392,192,177100,1,0,0:0:0:0:
368,144,177200,1,0,0:0:0:0:
344,104,177300,1,0,0:0:0:0:
144,88,177500,5,0,0:0:0:0:
264,248,177700,1,0,0:0:0:0:
64,272,177900,5,0,0:0:0:0:
216,144,178100,1,0,0:0:0:0:
408,88,178300,5,0,0:0:0:0:
336,272,178500,1,0,0:0:0:0:
224,104,178700,1,0,0:0:0:0:
96,264,178900,1,0,0:0:0:0:
208,96,179100,6,0,P|256:88|320:104,1,100.000000298023
448,240,179500,2,0,B|416:288|336:288,1,100.000000298023
160,280,179900,2,0,P|112:256|80:200,1,100.000000298023
256,104,180300,1,0,0:0:0:0:
64,144,180500,1,0,0:0:0:0:
160,320,180700,5,0,0:0:0:0:
408,152,180900,1,0,0:0:0:0:
108,148,181100,1,0,0:0:0:0:
360,320,181300,1,0,0:0:0:0:
316,44,181500,6,0,L|296:108,1,50.0000001490115
200,96,181700,2,0,L|220:160,1,50.0000001490115
336,168,181900,2,0,L|284:216,1,50.0000001490115
180,248,182100,2,0,L|232:296,1,50.0000001490115
256,348,182300,5,0,0:0:0:0:
