osu file format v14

[General]
AudioFilename: audio.mp3
AudioLeadIn: 0
PreviewTime: 102937
Countdown: 0
SampleSet: None
StackLeniency: 0.7
Mode: 3
LetterboxInBreaks: 0
SpecialStyle: 0
WidescreenStoryboard: 0

[Editor]
DistanceSpacing: 0.5
BeatDivisor: 4
GridSize: 4
TimelineZoom: 2.599999

[Metadata]
Title:Toho-Assisted-Speedrun!!!
TitleUnicode:Toho-Assisted-Speedrun!!!
Artist:Nanahira & Koko
ArtistUnicode:Nanahira & Koko
Creator:Violet-Fox
Version:Speedrun!
Source:
Tags:
BeatmapID:1741484
BeatmapSetID:831234

[Difficulty]
HPDrainRate:6
CircleSize:4
OverallDifficulty:7
ApproachRate:5
SliderMultiplier:1.4
SliderTickRate:1

[Events]
//Background and Video events
0,0,"Kaguya Houraisan x Fujiwara no Mokou.png",0,0
//Break Periods
//Storyboard Layer 0 (Background)
//Storyboard Layer 1 (Fail)
//Storyboard Layer 2 (Pass)
//Storyboard Layer 3 (Foreground)
//Storyboard Sound Samples

[TimingPoints]
1422,315.789473684211,4,3,0,14,1,0
1422,-99.9999999999999,4,3,0,14,0,0
41843,-99.9999999999999,4,3,0,14,0,1
63316,-99.9999999999999,4,3,0,14,0,0
93632,307.692307692308,4,3,0,14,1,0
93632,-102.631578947368,4,3,0,14,0,0
96099,300,4,3,0,14,1,0
96099,-105.263157894737,4,3,0,14,0,0
98499,279.06976744186,4,3,0,14,1,0
98499,-113.157894736842,4,3,0,14,0,0
101847,272.727272727273,4,3,0,14,1,0
101847,-115.78947368421,4,3,0,14,0,0
102937,-115.78947368421,4,3,0,14,0,1
121483,-115.78947368421,4,3,0,14,0,0
147666,266.666666666667,4,3,0,14,1,0
147666,-118.421052631579,4,3,0,14,0,0
151932,255.31914893617,4,3,0,14,1,0
151932,-123.684210526316,4,3,0,14,0,0
153974,252.100840336134,4,3,0,14,1,0
153974,-125.263157894737,4,3,0,14,0,0
155990,244.897959183673,4,3,0,14,1,0
155990,-128.947368421053,4,3,0,14,0,0
159908,235.294117647059,4,3,0,14,1,0
159908,-134.210526315789,4,3,0,14,0,0
160849,230.769230769231,4,3,0,14,1,0
160849,-136.842105263158,4,3,0,14,0,0
164541,-136.842105263158,4,3,0,14,0,1
172156,-136.842105263158,4,3,0,14,0,0
175618,-136.842105263158,4,3,0,14,0,1
180233,-136.842105263158,4,3,0,14,0,0
202387,226.415094339623,4,3,0,14,1,0
202387,-139.473684210526,4,3,0,14,0,0
204198,218.181818181818,4,3,0,14,1,0
204198,-144.736842105263,4,3,0,14,0,0
205943,210.526315789474,4,3,0,14,1,0
205943,-150,4,3,0,14,0,0
207627,200,4,3,0,14,1,0
207627,-157.894736842105,4,3,0,14,0,0
210827,-157.894736842105,4,3,0,14,0,1
221227,-157.894736842105,4,3,0,14,0,0
232480,315.789473684211,4,3,0,14,1,0
232480,-99.9999999999999,4,3,0,14,0,0

[HitObjects]
192,192,1422,5,0,0:0:0:0:
320,192,1500,1,0,0:0:0:0:
448,192,1579,1,0,0:0:0:0:
320,192,1658,1,0,0:0:0:0:
192,192,1737,1,0,0:0:0:0:
64,192,1737,1,0,0:0:0:0:
320,192,1895,1,0,0:0:0:0:
192,192,1974,1,0,0:0:0:0:
64,192,2053,1,0,0:0:0:0:
448,192,2053,1,0,0:0:0:0:
320,192,2211,1,0,0:0:0:0:
192,192,2369,1,0,0:0:0:0:
448,192,2369,1,0,0:0:0:0:
64,192,2527,1,0,0:0:0:0:
192,192,2685,1,0,0:0:0:0:
320,192,2685,1,0,0:0:0:0:
448,192,2843,1,0,0:0:0:0:
320,192,2922,1,0,0:0:0:0:
64,192,3000,1,0,0:0:0:0:
192,192,3000,1,0,0:0:0:0:
448,192,3158,1,0,0:0:0:0:
320,192,3316,1,0,0:0:0:0:
192,192,3316,1,0,0:0:0:0:
64,192,3474,1,0,0:0:0:0:
448,192,3632,1,0,0:0:0:0:
192,192,3632,1,0,0:0:0:0:
320,192,3790,1,0,0:0:0:0:
192,192,3948,1,0,0:0:0:0:
64,192,3948,1,0,0:0:0:0:
448,192,4106,1,0,0:0:0:0:
64,192,4264,1,0,0:0:0:0:
320,192,4264,1,0,0:0:0:0:
448,192,4422,1,0,0:0:0:0:
320,192,4500,1,0,0:0:0:0:
64,192,4579,1,0,0:0:0:0:
192,192,4579,1,0,0:0:0:0:
320,192,4737,1,0,0:0:0:0:
448,192,4895,1,0,0:0:0:0:
64,192,4895,1,0,0:0:0:0:
192,192,5053,1,0,0:0:0:0:
320,192,5053,1,0,0:0:0:0:
448,192,5211,1,0,0:0:0:0:
64,192,5369,1,0,0:0:0:0:
192,192,5369,1,0,0:0:0:0:
320,192,5527,1,0,0:0:0:0:
64,192,5685,1,0,0:0:0:0:
448,192,5685,1,0,0:0:0:0:
320,192,5843,1,0,0:0:0:0:
192,192,5843,1,0,0:0:0:0:
64,192,6000,1,0,0:0:0:0:
448,192,6000,1,0,0:0:0:0:
320,192,6158,1,0,0:0:0:0:
192,192,6158,1,0,0:0:0:0:
64,192,6316,1,0,0:0:0:0:
448,192,6316,1,0,0:0:0:0:
320,192,6474,1,0,0:0:0:0:
192,192,6553,1,0,0:0:0:0:
320,192,6632,1,0,0:0:0:0:
192,192,6711,1,0,0:0:0:0:
448,192,6790,1,0,0:0:0:0:
64,192,6790,1,0,0:0:0:0:
64,192,6948,1,0,0:0:0:0:
320,192,7027,1,0,0:0:0:0:
192,192,7106,1,0,0:0:0:0:
448,192,7106,1,0,0:0:0:0:
64,192,7264,1,0,0:0:0:0:
192,192,7422,1,0,0:0:0:0:
320,192,7422,1,0,0:0:0:0:
448,192,7422,1,0,0:0:0:0:
64,192,7579,1,0,0:0:0:0:
320,192,7737,1,0,0:0:0:0:
448,192,7737,1,0,0:0:0:0:
64,192,7895,1,0,0:0:0:0:
192,192,7895,1,0,0:0:0:0:
448,192,8053,1,0,0:0:0:0:
192,192,8211,1,0,0:0:0:0:
320,192,8211,1,0,0:0:0:0:
64,192,8369,128,0,8527:0:0:0:0:
320,192,8527,128,0,8685:0:0:0:0:
64,192,8685,128,0,8843:0:0:0:0:
192,192,8843,1,0,0:0:0:0:
448,192,9000,1,0,0:0:0:0:
448,192,9158,128,0,9316:0:0:0:0:
64,192,9316,1,0,0:0:0:0:
192,192,9316,1,0,0:0:0:0:
320,192,9474,1,0,0:0:0:0:
448,192,9632,1,0,0:0:0:0:
64,192,9632,1,0,0:0:0:0:
192,192,9790,1,0,0:0:0:0:
448,192,9948,1,0,0:0:0:0:
320,192,9948,1,0,0:0:0:0:
64,192,10106,1,0,0:0:0:0:
192,192,10106,1,0,0:0:0:0:
448,192,10264,1,0,0:0:0:0:
320,192,10264,1,0,0:0:0:0:
64,192,10343,1,0,0:0:0:0:
192,192,10343,1,0,0:0:0:0:
320,192,10422,1,0,0:0:0:0:
448,192,10422,1,0,0:0:0:0:
64,192,10579,1,0,0:0:0:0:
320,192,10579,1,0,0:0:0:0:
448,192,10737,1,0,0:0:0:0:
192,192,10737,1,0,0:0:0:0:
64,192,10895,1,0,0:0:0:0:
448,192,10895,1,0,0:0:0:0:
192,192,11053,1,0,0:0:0:0:
448,192,11211,1,0,0:0:0:0:
64,192,11211,1,0,0:0:0:0:
192,192,11369,1,0,0:0:0:0:
448,192,11527,1,0,0:0:0:0:
320,192,11527,1,0,0:0:0:0:
64,192,11527,1,0,0:0:0:0:
320,192,11685,1,0,0:0:0:0:
448,192,11685,1,0,0:0:0:0:
64,192,11843,1,0,0:0:0:0:
192,192,11843,1,0,0:0:0:0:
320,192,12000,1,0,0:0:0:0:
448,192,12158,1,0,0:0:0:0:
192,192,12158,1,0,0:0:0:0:
64,192,12237,1,0,0:0:0:0:
320,192,12316,1,0,0:0:0:0:
192,192,12395,1,0,0:0:0:0:
448,192,12474,1,0,0:0:0:0:
64,192,12474,1,0,0:0:0:0:
320,192,12632,1,0,0:0:0:0:
64,192,12790,1,0,0:0:0:0:
192,192,12790,1,0,0:0:0:0:
320,192,12869,1,0,0:0:0:0:
448,192,12948,1,0,0:0:0:0:
64,192,13106,1,0,0:0:0:0:
320,192,13106,1,0,0:0:0:0:
192,192,13264,128,0,13579:0:0:0:0:
448,192,13579,1,0,0:0:0:0:
64,192,13579,1,0,0:0:0:0:
320,192,13737,1,0,0:0:0:0:
192,192,13737,1,0,0:0:0:0:
64,192,13895,1,0,0:0:0:0:
192,192,14053,1,0,0:0:0:0:
448,192,14053,1,0,0:0:0:0:
320,192,14211,1,0,0:0:0:0:
192,192,14290,1,0,0:0:0:0:
64,192,14369,1,0,0:0:0:0:
320,192,14369,1,0,0:0:0:0:
448,192,14527,1,0,0:0:0:0:
192,192,14685,1,0,0:0:0:0:
64,192,14685,1,0,0:0:0:0:
320,192,14843,1,0,0:0:0:0:
192,192,15000,1,0,0:0:0:0:
192,192,15158,128,0,15474:0:0:0:0:
448,192,15474,1,0,0:0:0:0:
64,192,15632,1,0,0:0:0:0:
192,192,15632,1,0,0:0:0:0:
320,192,15632,1,0,0:0:0:0:
320,192,15948,1,0,0:0:0:0:
192,192,15948,1,0,0:0:0:0:
448,192,16106,1,0,0:0:0:0:
64,192,16106,1,0,0:0:0:0:
64,192,16264,1,0,0:0:0:0:
192,192,16264,1,0,0:0:0:0:
448,192,16264,1,0,0:0:0:0:
448,192,16579,1,0,0:0:0:0:
320,192,16579,1,0,0:0:0:0:
192,192,16895,1,0,0:0:0:0:
320,192,16895,1,0,0:0:0:0:
448,192,16895,1,0,0:0:0:0:
64,192,17053,1,0,0:0:0:0:
192,192,17053,1,0,0:0:0:0:
448,192,17211,1,0,0:0:0:0:
320,192,17211,1,0,0:0:0:0:
320,192,17369,1,0,0:0:0:0:
192,192,17369,1,0,0:0:0:0:
64,192,17527,1,0,0:0:0:0:
320,192,17527,1,0,0:0:0:0:
448,192,17527,1,0,0:0:0:0:
448,192,17685,1,0,0:0:0:0:
64,192,17685,1,0,0:0:0:0:
64,192,17843,1,0,0:0:0:0:
192,192,17843,1,0,0:0:0:0:
320,192,17843,1,0,0:0:0:0:
64,192,18000,1,0,0:0:0:0:
192,192,18000,1,0,0:0:0:0:
320,192,18000,1,0,0:0:0:0:
448,192,18158,1,0,0:0:0:0:
320,192,18158,1,0,0:0:0:0:
64,192,18316,1,0,0:0:0:0:
192,192,18474,1,0,0:0:0:0:
320,192,18474,1,0,0:0:0:0:
448,192,18632,1,0,0:0:0:0:
64,192,18632,1,0,0:0:0:0:
192,192,18790,1,0,0:0:0:0:
64,192,18790,1,0,0:0:0:0:
320,192,18790,1,0,0:0:0:0:
448,192,19106,1,0,0:0:0:0:
192,192,19106,1,0,0:0:0:0:
64,192,19106,1,0,0:0:0:0:
64,192,19422,1,0,0:0:0:0:
192,192,19422,1,0,0:0:0:0:
448,192,19422,1,0,0:0:0:0:
448,192,19737,1,0,0:0:0:0:
320,192,19737,1,0,0:0:0:0:
64,192,19895,1,0,0:0:0:0:
320,192,19895,1,0,0:0:0:0:
64,192,20053,1,0,0:0:0:0:
320,192,20053,1,0,0:0:0:0:
448,192,20053,1,0,0:0:0:0:
192,192,20211,1,0,0:0:0:0:
448,192,20369,1,0,0:0:0:0:
320,192,20369,1,0,0:0:0:0:
64,192,20369,1,0,0:0:0:0:
64,192,20527,1,0,0:0:0:0:
320,192,20527,1,0,0:0:0:0:
64,192,20685,1,0,0:0:0:0:
192,192,20685,1,0,0:0:0:0:
320,192,20685,1,0,0:0:0:0:
320,192,20843,1,0,0:0:0:0:
448,192,20843,1,0,0:0:0:0:
64,192,20922,1,0,0:0:0:0:
192,192,21000,1,0,0:0:0:0:
320,192,21000,1,0,0:0:0:0:
448,192,21000,1,0,0:0:0:0:
64,192,21158,1,0,0:0:0:0:
320,192,21158,1,0,0:0:0:0:
192,192,21237,1,0,0:0:0:0:
64,192,21316,1,0,0:0:0:0:
320,192,21316,1,0,0:0:0:0:
448,192,21316,1,0,0:0:0:0:
192,192,21395,1,0,0:0:0:0:
448,192,21474,1,0,0:0:0:0:
320,192,21474,1,0,0:0:0:0:
64,192,21632,1,0,0:0:0:0:
320,192,21632,1,0,0:0:0:0:
448,192,21632,1,0,0:0:0:0:
192,192,21632,1,0,0:0:0:0:
192,192,21790,1,0,0:0:0:0:
64,192,21948,1,0,0:0:0:0:
448,192,21948,1,0,0:0:0:0:
320,192,22106,1,0,0:0:0:0:
448,192,22264,1,0,0:0:0:0:
192,192,22264,1,0,0:0:0:0:
64,192,22264,1,0,0:0:0:0:
320,192,22422,1,0,0:0:0:0:
448,192,22579,1,0,0:0:0:0:
64,192,22579,1,0,0:0:0:0:
192,192,22579,1,0,0:0:0:0:
64,192,22737,1,0,0:0:0:0:
64,192,22895,1,0,0:0:0:0:
192,192,22895,1,0,0:0:0:0:
320,192,22895,1,0,0:0:0:0:
448,192,22895,1,0,0:0:0:0:
448,192,23053,1,0,0:0:0:0:
320,192,23211,1,0,0:0:0:0:
64,192,23211,1,0,0:0:0:0:
192,192,23369,1,0,0:0:0:0:
320,192,23527,1,0,0:0:0:0:
448,192,23527,1,0,0:0:0:0:
64,192,23685,1,0,0:0:0:0:
192,192,23843,1,0,0:0:0:0:
320,192,23843,1,0,0:0:0:0:
448,192,23843,1,0,0:0:0:0:
64,192,24000,1,0,0:0:0:0:
448,192,24000,1,0,0:0:0:0:
448,192,24158,1,0,0:0:0:0:
64,192,24158,1,0,0:0:0:0:
320,192,24158,1,0,0:0:0:0:
64,192,24316,1,0,0:0:0:0:
192,192,24316,1,0,0:0:0:0:
448,192,24316,1,0,0:0:0:0:
320,192,24474,1,0,0:0:0:0:
448,192,24474,1,0,0:0:0:0:
192,192,24632,1,0,0:0:0:0:
64,192,24790,1,0,0:0:0:0:
320,192,24790,1,0,0:0:0:0:
448,192,24790,1,0,0:0:0:0:
64,192,24948,1,0,0:0:0:0:
192,192,24948,1,0,0:0:0:0:
448,192,24948,1,0,0:0:0:0:
64,192,25106,1,0,0:0:0:0:
192,192,25106,1,0,0:0:0:0:
320,192,25264,1,0,0:0:0:0:
448,192,25422,1,0,0:0:0:0:
320,192,25422,1,0,0:0:0:0:
192,192,25422,1,0,0:0:0:0:
64,192,25422,1,0,0:0:0:0:
192,192,25579,1,0,0:0:0:0:
64,192,25737,1,0,0:0:0:0:
320,192,25737,1,0,0:0:0:0:
448,192,25895,1,0,0:0:0:0:
192,192,26053,1,0,0:0:0:0:
64,192,26053,1,0,0:0:0:0:
448,192,26211,1,0,0:0:0:0:
192,192,26211,1,0,0:0:0:0:
320,192,26211,1,0,0:0:0:0:
448,192,26369,1,0,0:0:0:0:
192,192,26369,1,0,0:0:0:0:
320,192,26369,1,0,0:0:0:0:
64,192,26527,1,0,0:0:0:0:
448,192,26685,1,0,0:0:0:0:
320,192,26685,1,0,0:0:0:0:
192,192,26685,1,0,0:0:0:0:
64,192,26685,1,0,0:0:0:0:
64,192,26843,1,0,0:0:0:0:
192,192,27000,1,0,0:0:0:0:
320,192,27000,1,0,0:0:0:0:
192,192,27158,1,0,0:0:0:0:
320,192,27316,1,0,0:0:0:0:
448,192,27316,1,0,0:0:0:0:
320,192,27474,1,0,0:0:0:0:
192,192,27632,1,0,0:0:0:0:
64,192,27632,1,0,0:0:0:0:
448,192,27632,1,0,0:0:0:0:
320,192,27790,1,0,0:0:0:0:
448,192,27948,1,0,0:0:0:0:
320,192,27948,1,0,0:0:0:0:
192,192,27948,1,0,0:0:0:0:
64,192,27948,1,0,0:0:0:0:
192,192,28106,1,0,0:0:0:0:
64,192,28264,1,0,0:0:0:0:
320,192,28264,1,0,0:0:0:0:
320,192,28422,1,0,0:0:0:0:
192,192,28579,1,0,0:0:0:0:
448,192,28579,1,0,0:0:0:0:
448,192,28737,1,0,0:0:0:0:
320,192,28895,1,0,0:0:0:0:
192,192,28895,1,0,0:0:0:0:
64,192,28895,1,0,0:0:0:0:
64,192,29053,1,0,0:0:0:0:
64,192,29211,1,0,0:0:0:0:
192,192,29211,1,0,0:0:0:0:
448,192,29211,1,0,0:0:0:0:
320,192,29211,1,0,0:0:0:0:
320,192,29369,1,0,0:0:0:0:
192,192,29527,1,0,0:0:0:0:
448,192,29527,1,0,0:0:0:0:
192,192,29685,1,0,0:0:0:0:
64,192,29685,1,0,0:0:0:0:
320,192,29843,1,0,0:0:0:0:
448,192,29843,1,0,0:0:0:0:
64,192,30000,1,0,0:0:0:0:
64,192,30158,1,0,0:0:0:0:
192,192,30158,1,0,0:0:0:0:
448,192,30158,1,0,0:0:0:0:
320,192,30316,1,0,0:0:0:0:
448,192,30316,1,0,0:0:0:0:
64,192,30474,1,0,0:0:0:0:
192,192,30474,1,0,0:0:0:0:
448,192,30474,1,0,0:0:0:0:
320,192,30474,1,0,0:0:0:0:
192,192,30632,1,0,0:0:0:0:
320,192,30790,1,0,0:0:0:0:
448,192,30790,1,0,0:0:0:0:
320,192,30948,1,0,0:0:0:0:
192,192,31106,1,0,0:0:0:0:
64,192,31106,1,0,0:0:0:0:
448,192,31264,1,0,0:0:0:0:
320,192,31422,1,0,0:0:0:0:
64,192,31422,1,0,0:0:0:0:
192,192,31422,1,0,0:0:0:0:
64,192,31579,1,0,0:0:0:0:
192,192,31737,1,0,0:0:0:0:
320,192,31737,1,0,0:0:0:0:
448,192,31737,1,0,0:0:0:0:
64,192,31737,1,0,0:0:0:0:
448,192,31895,1,0,0:0:0:0:
320,192,32053,1,0,0:0:0:0:
192,192,32053,1,0,0:0:0:0:
64,192,32211,1,0,0:0:0:0:
320,192,32369,1,0,0:0:0:0:
448,192,32369,1,0,0:0:0:0:
320,192,32527,1,0,0:0:0:0:
192,192,32685,1,0,0:0:0:0:
64,192,32685,1,0,0:0:0:0:
448,192,32685,1,0,0:0:0:0:
192,192,32843,1,0,0:0:0:0:
448,192,33000,1,0,0:0:0:0:
320,192,33000,1,0,0:0:0:0:
192,192,33000,1,0,0:0:0:0:
64,192,33000,1,0,0:0:0:0:
448,192,33158,1,0,0:0:0:0:
320,192,33316,1,0,0:0:0:0:
64,192,33316,1,0,0:0:0:0:
320,192,33474,1,0,0:0:0:0:
448,192,33632,1,0,0:0:0:0:
64,192,33632,1,0,0:0:0:0:
192,192,33790,1,0,0:0:0:0:
64,192,33948,1,0,0:0:0:0:
320,192,33948,1,0,0:0:0:0:
448,192,33948,1,0,0:0:0:0:
64,192,34106,1,0,0:0:0:0:
64,192,34264,1,0,0:0:0:0:
192,192,34264,1,0,0:0:0:0:
320,192,34264,1,0,0:0:0:0:
448,192,34264,1,0,0:0:0:0:
320,192,34422,1,0,0:0:0:0:
192,192,34579,1,0,0:0:0:0:
448,192,34579,1,0,0:0:0:0:
64,192,34737,1,0,0:0:0:0:
192,192,34737,1,0,0:0:0:0:
320,192,34895,1,0,0:0:0:0:
448,192,34895,1,0,0:0:0:0:
320,192,35053,1,0,0:0:0:0:
192,192,35053,1,0,0:0:0:0:
64,192,35211,1,0,0:0:0:0:
320,192,35211,1,0,0:0:0:0:
320,192,35369,1,0,0:0:0:0:
448,192,35369,1,0,0:0:0:0:
64,192,35527,1,0,0:0:0:0:
320,192,35527,1,0,0:0:0:0:
448,192,35527,1,0,0:0:0:0:
192,192,35527,1,0,0:0:0:0:
192,192,35685,1,0,0:0:0:0:
320,192,35843,1,0,0:0:0:0:
448,192,35843,1,0,0:0:0:0:
192,192,36000,1,0,0:0:0:0:
64,192,36158,1,0,0:0:0:0:
320,192,36158,1,0,0:0:0:0:
64,192,36316,1,0,0:0:0:0:
192,192,36316,1,0,0:0:0:0:
448,192,36316,1,0,0:0:0:0:
448,192,36474,1,0,0:0:0:0:
192,192,36474,1,0,0:0:0:0:
64,192,36474,1,0,0:0:0:0:
320,192,36632,1,0,0:0:0:0:
448,192,36790,1,0,0:0:0:0:
192,192,36790,1,0,0:0:0:0:
64,192,36790,1,0,0:0:0:0:
320,192,36790,1,0,0:0:0:0:
64,192,36948,1,0,0:0:0:0:
192,192,36948,1,0,0:0:0:0:
320,192,37106,1,0,0:0:0:0:
448,192,37106,1,0,0:0:0:0:
64,192,37264,1,0,0:0:0:0:
192,192,37264,1,0,0:0:0:0:
320,192,37422,1,0,0:0:0:0:
448,192,37422,1,0,0:0:0:0:
64,192,37579,1,0,0:0:0:0:
192,192,37579,1,0,0:0:0:0:
64,192,37737,1,0,0:0:0:0:
192,192,37737,1,0,0:0:0:0:
448,192,37737,1,0,0:0:0:0:
448,192,37895,1,0,0:0:0:0:
320,192,37895,1,0,0:0:0:0:
64,192,38053,1,0,0:0:0:0:
192,192,38053,1,0,0:0:0:0:
320,192,38053,1,0,0:0:0:0:
448,192,38053,1,0,0:0:0:0:
64,192,38211,1,0,0:0:0:0:
192,192,38211,1,0,0:0:0:0:
320,192,38369,1,0,0:0:0:0:
448,192,38369,1,0,0:0:0:0:
64,192,38527,1,0,0:0:0:0:
192,192,38527,1,0,0:0:0:0:
320,192,38685,1,0,0:0:0:0:
448,192,38685,1,0,0:0:0:0:
64,192,38843,1,0,0:0:0:0:
192,192,38843,1,0,0:0:0:0:
192,192,39000,1,0,0:0:0:0:
320,192,39000,1,0,0:0:0:0:
448,192,39000,1,0,0:0:0:0:
320,192,39158,1,0,0:0:0:0:
192,192,39158,1,0,0:0:0:0:
64,192,39316,1,0,0:0:0:0:
320,192,39316,1,0,0:0:0:0:
448,192,39316,1,0,0:0:0:0:
192,192,39395,1,0,0:0:0:0:
448,192,39474,1,0,0:0:0:0:
320,192,39553,1,0,0:0:0:0:
192,192,39632,1,0,0:0:0:0:
64,192,39632,1,0,0:0:0:0:
448,192,39711,1,0,0:0:0:0:
320,192,39790,1,0,0:0:0:0:
192,192,39869,1,0,0:0:0:0:
64,192,39948,1,0,0:0:0:0:
448,192,39948,1,0,0:0:0:0:
320,192,40027,1,0,0:0:0:0:
192,192,40106,1,0,0:0:0:0:
64,192,40185,1,0,0:0:0:0:
448,192,40264,1,0,0:0:0:0:
320,192,40264,1,0,0:0:0:0:
192,192,40264,1,0,0:0:0:0:
64,192,40422,1,0,0:0:0:0:
192,192,40422,1,0,0:0:0:0:
448,192,40579,1,0,0:0:0:0:
192,192,40579,1,0,0:0:0:0:
64,192,40579,1,0,0:0:0:0:
320,192,40895,1,0,0:0:0:0:
320,192,41211,128,0,41527:0:0:0:0:
448,192,41527,1,0,0:0:0:0:
192,192,41527,1,0,0:0:0:0:
64,192,41527,1,0,0:0:0:0:
64,192,41843,1,0,0:0:0:0:
320,192,41843,1,0,0:0:0:0:
192,192,41843,1,0,0:0:0:0:
448,192,42000,128,0,42079:0:0:0:0:
64,192,42158,1,0,0:0:0:0:
320,192,42158,128,0,42237:0:0:0:0:
320,192,42316,128,0,42395:0:0:0:0:
320,192,42474,128,0,42553:0:0:0:0:
192,192,42474,1,0,0:0:0:0:
64,192,42474,1,0,0:0:0:0:
192,192,42632,128,0,42711:0:0:0:0:
448,192,42790,128,0,42869:0:0:0:0:
64,192,42948,1,0,0:0:0:0:
320,192,42948,1,0,0:0:0:0:
64,192,43106,1,0,0:0:0:0:
448,192,43106,1,0,0:0:0:0:
320,192,43106,128,0,43264:0:0:0:0:
192,192,43264,128,0,43343:0:0:0:0:
64,192,43422,1,0,0:0:0:0:
448,192,43422,1,0,0:0:0:0:
320,192,43422,128,0,43579:0:0:0:0:
64,192,43579,1,0,0:0:0:0:
192,192,43737,128,0,43895:0:0:0:0:
448,192,43737,1,0,0:0:0:0:
64,192,44053,128,0,44369:0:0:0:0:
320,192,44053,1,0,0:0:0:0:
192,192,44369,1,0,0:0:0:0:
320,192,44369,1,0,0:0:0:0:
448,192,44369,1,0,0:0:0:0:
64,192,44527,1,0,0:0:0:0:
320,192,44527,1,0,0:0:0:0:
448,192,44606,1,0,0:0:0:0:
192,192,44685,1,0,0:0:0:0:
64,192,44685,1,0,0:0:0:0:
448,192,44843,1,0,0:0:0:0:
320,192,44843,1,0,0:0:0:0:
64,192,44922,1,0,0:0:0:0:
192,192,44922,1,0,0:0:0:0:
320,192,45000,1,0,0:0:0:0:
448,192,45000,1,0,0:0:0:0:
64,192,45158,1,0,0:0:0:0:
192,192,45158,1,0,0:0:0:0:
448,192,45316,1,0,0:0:0:0:
192,192,45316,128,0,45474:0:0:0:0:
64,192,45316,128,0,45474:0:0:0:0:
64,192,45632,1,0,0:0:0:0:
192,192,45632,1,0,0:0:0:0:
320,192,45632,1,0,0:0:0:0:
448,192,45790,128,0,45948:0:0:0:0:
192,192,45948,1,0,0:0:0:0:
64,192,45948,1,0,0:0:0:0:
320,192,46106,128,0,46185:0:0:0:0:
320,192,46264,128,0,46422:0:0:0:0:
448,192,46579,1,0,0:0:0:0:
64,192,46579,1,0,0:0:0:0:
192,192,46579,128,0,46895:0:0:0:0:
64,192,46895,1,0,0:0:0:0:
320,192,46895,1,0,0:0:0:0:
448,192,46895,1,0,0:0:0:0:
448,192,47053,1,0,0:0:0:0:
192,192,47053,1,0,0:0:0:0:
192,192,47211,128,0,47290:0:0:0:0:
192,192,47369,128,0,47448:0:0:0:0:
192,192,47527,128,0,47606:0:0:0:0:
448,192,47527,1,0,0:0:0:0:
64,192,47606,1,0,0:0:0:0:
320,192,47685,128,0,47764:0:0:0:0:
192,192,47843,1,0,0:0:0:0:
64,192,47843,128,0,47922:0:0:0:0:
320,192,48000,128,0,48079:0:0:0:0:
448,192,48158,1,0,0:0:0:0:
192,192,48158,1,0,0:0:0:0:
64,192,48158,1,0,0:0:0:0:
320,192,48316,1,0,0:0:0:0:
64,192,48474,1,0,0:0:0:0:
448,192,48474,1,0,0:0:0:0:
192,192,48632,1,0,0:0:0:0:
320,192,48790,1,0,0:0:0:0:
64,192,48790,128,0,48948:0:0:0:0:
64,192,49106,128,0,49422:0:0:0:0:
448,192,49106,1,0,0:0:0:0:
192,192,49106,1,0,0:0:0:0:
320,192,49422,1,0,0:0:0:0:
192,192,49422,1,0,0:0:0:0:
448,192,49579,1,0,0:0:0:0:
64,192,49579,1,0,0:0:0:0:
320,192,49737,1,0,0:0:0:0:
448,192,49737,1,0,0:0:0:0:
192,192,49816,1,0,0:0:0:0:
64,192,49895,1,0,0:0:0:0:
192,192,50053,1,0,0:0:0:0:
320,192,50053,1,0,0:0:0:0:
448,192,50211,1,0,0:0:0:0:
64,192,50369,1,0,0:0:0:0:
192,192,50369,1,0,0:0:0:0:
320,192,50527,1,0,0:0:0:0:
448,192,50685,1,0,0:0:0:0:
192,192,50685,1,0,0:0:0:0:
64,192,50685,1,0,0:0:0:0:
320,192,50843,128,0,51158:0:0:0:0:
192,192,50922,128,0,51158:0:0:0:0:
64,192,51000,128,0,51158:0:0:0:0:
64,192,51316,1,0,0:0:0:0:
192,192,51316,1,0,0:0:0:0:
320,192,51316,1,0,0:0:0:0:
192,192,51474,128,0,51790:0:0:0:0:
320,192,51553,128,0,51790:0:0:0:0:
448,192,51632,128,0,51790:0:0:0:0:
64,192,51948,1,0,0:0:0:0:
192,192,51948,1,0,0:0:0:0:
448,192,51948,1,0,0:0:0:0:
320,192,51948,1,0,0:0:0:0:
192,192,52106,1,0,0:0:0:0:
320,192,52264,128,0,52343:0:0:0:0:
448,192,52264,1,0,0:0:0:0:
320,192,52422,128,0,52500:0:0:0:0:
320,192,52579,128,0,52658:0:0:0:0:
64,192,52737,128,0,52816:0:0:0:0:
448,192,52895,128,0,52974:0:0:0:0:
192,192,52895,1,0,0:0:0:0:
192,192,53053,128,0,53132:0:0:0:0:
320,192,53211,1,0,0:0:0:0:
448,192,53211,1,0,0:0:0:0:
64,192,53369,1,0,0:0:0:0:
320,192,53527,1,0,0:0:0:0:
448,192,53527,1,0,0:0:0:0:
192,192,53685,1,0,0:0:0:0:
192,192,53843,128,0,54000:0:0:0:0:
64,192,53843,1,0,0:0:0:0:
192,192,54158,128,0,54474:0:0:0:0:
64,192,54158,1,0,0:0:0:0:
448,192,54474,1,0,0:0:0:0:
320,192,54474,1,0,0:0:0:0:
64,192,54553,1,0,0:0:0:0:
192,192,54553,1,0,0:0:0:0:
320,192,54632,1,0,0:0:0:0:
448,192,54711,1,0,0:0:0:0:
64,192,54790,1,0,0:0:0:0:
192,192,54790,1,0,0:0:0:0:
320,192,54948,1,0,0:0:0:0:
192,192,55027,1,0,0:0:0:0:
64,192,55106,1,0,0:0:0:0:
448,192,55106,1,0,0:0:0:0:
320,192,55264,1,0,0:0:0:0:
64,192,55422,1,0,0:0:0:0:
192,192,55422,1,0,0:0:0:0:
448,192,55422,1,0,0:0:0:0:
320,192,55579,1,0,0:0:0:0:
64,192,55737,1,0,0:0:0:0:
192,192,55737,1,0,0:0:0:0:
448,192,55895,1,0,0:0:0:0:
320,192,55895,1,0,0:0:0:0:
64,192,56053,1,0,0:0:0:0:
320,192,56053,1,0,0:0:0:0:
192,192,56132,1,0,0:0:0:0:
448,192,56211,1,0,0:0:0:0:
320,192,56290,1,0,0:0:0:0:
192,192,56369,128,0,57000:0:0:0:0:
64,192,56369,128,0,56685:0:0:0:0:
320,192,56685,1,0,0:0:0:0:
448,192,56685,1,0,0:0:0:0:
64,192,57000,1,0,0:0:0:0:
320,192,57000,1,0,0:0:0:0:
448,192,57000,1,0,0:0:0:0:
320,192,57158,1,0,0:0:0:0:
64,192,57158,1,0,0:0:0:0:
192,192,57316,128,0,57395:0:0:0:0:
448,192,57316,1,0,0:0:0:0:
192,192,57474,128,0,57553:0:0:0:0:
192,192,57632,128,0,57711:0:0:0:0:
320,192,57632,1,0,0:0:0:0:
64,192,57790,128,0,57869:0:0:0:0:
448,192,57948,128,0,58027:0:0:0:0:
192,192,57948,1,0,0:0:0:0:
320,192,58106,128,0,58185:0:0:0:0:
64,192,58264,1,0,0:0:0:0:
448,192,58264,1,0,0:0:0:0:
192,192,58264,128,0,58343:0:0:0:0:
320,192,58422,128,0,58500:0:0:0:0:
64,192,58579,128,0,58658:0:0:0:0:
448,192,58737,128,0,58816:0:0:0:0:
192,192,58895,128,0,59053:0:0:0:0:
192,192,59211,128,0,59527:0:0:0:0:
448,192,59211,1,0,0:0:0:0:
64,192,59527,1,0,0:0:0:0:
448,192,59527,1,0,0:0:0:0:
320,192,59685,1,0,0:0:0:0:
192,192,59764,1,0,0:0:0:0:
64,192,59843,1,0,0:0:0:0:
448,192,59843,1,0,0:0:0:0:
320,192,60000,1,0,0:0:0:0:
192,192,60158,1,0,0:0:0:0:
64,192,60158,1,0,0:0:0:0:
320,192,60237,1,0,0:0:0:0:
448,192,60316,1,0,0:0:0:0:
320,192,60474,1,0,0:0:0:0:
192,192,60474,1,0,0:0:0:0:
64,192,60553,1,0,0:0:0:0:
448,192,60632,1,0,0:0:0:0:
64,192,60790,1,0,0:0:0:0:
192,192,60790,1,0,0:0:0:0:
320,192,60790,1,0,0:0:0:0:
448,192,60948,128,0,61264:0:0:0:0:
320,192,61027,128,0,61264:0:0:0:0:
192,192,61106,128,0,61264:0:0:0:0:
192,192,61422,1,0,0:0:0:0:
320,192,61422,1,0,0:0:0:0:
448,192,61422,1,0,0:0:0:0:
64,192,61579,128,0,61895:0:0:0:0:
192,192,61658,128,0,61895:0:0:0:0:
320,192,61737,128,0,61895:0:0:0:0:
64,192,62053,1,0,0:0:0:0:
192,192,62053,1,0,0:0:0:0:
320,192,62053,1,0,0:0:0:0:
448,192,62132,1,0,0:0:0:0:
192,192,62211,1,0,0:0:0:0:
320,192,62290,1,0,0:0:0:0:
64,192,62369,1,0,0:0:0:0:
448,192,62527,1,0,0:0:0:0:
320,192,62606,1,0,0:0:0:0:
192,192,62685,1,0,0:0:0:0:
64,192,62685,1,0,0:0:0:0:
320,192,62843,1,0,0:0:0:0:
192,192,62922,1,0,0:0:0:0:
64,192,63000,1,0,0:0:0:0:
448,192,63000,1,0,0:0:0:0:
320,192,63158,1,0,0:0:0:0:
64,192,63316,1,0,0:0:0:0:
448,192,63316,1,0,0:0:0:0:
320,192,63316,1,0,0:0:0:0:
192,192,63316,128,0,63948:0:0:0:0:
320,192,63948,128,0,64579:0:0:0:0:
64,192,64579,128,0,65053:0:0:0:0:
448,192,65053,128,0,65211:0:0:0:0:
192,192,65211,128,0,65527:0:0:0:0:
448,192,65527,128,0,65685:0:0:0:0:
320,192,65685,128,0,65843:0:0:0:0:
64,192,65843,128,0,66158:0:0:0:0:
192,192,66158,128,0,66316:0:0:0:0:
448,192,66316,128,0,66474:0:0:0:0:
320,192,66474,128,0,66632:0:0:0:0:
64,192,66632,128,0,66790:0:0:0:0:
192,192,66790,128,0,66948:0:0:0:0:
320,192,66948,128,0,67106:0:0:0:0:
448,192,67106,128,0,67422:0:0:0:0:
320,192,67422,128,0,67737:0:0:0:0:
192,192,67737,128,0,68053:0:0:0:0:
64,192,68053,128,0,68369:0:0:0:0:
448,192,68211,128,0,68369:0:0:0:0:
320,192,68369,128,0,69000:0:0:0:0:
192,192,68369,128,0,69632:0:0:0:0:
64,192,69000,128,0,70106:0:0:0:0:
448,192,69632,128,0,70264:0:0:0:0:
320,192,70106,128,0,70579:0:0:0:0:
192,192,70264,128,0,70579:0:0:0:0:
64,192,70579,128,0,70737:0:0:0:0:
448,192,70737,128,0,70895:0:0:0:0:
192,192,70895,128,0,71211:0:0:0:0:
320,192,71211,128,0,71369:0:0:0:0:
64,192,71369,128,0,71527:0:0:0:0:
448,192,71527,128,0,71685:0:0:0:0:
192,192,71685,128,0,71843:0:0:0:0:
320,192,71843,128,0,72000:0:0:0:0:
64,192,72000,128,0,72158:0:0:0:0:
192,192,72158,128,0,72948:0:0:0:0:
320,192,72948,1,0,0:0:0:0:
448,192,73106,1,0,0:0:0:0:
192,192,73106,1,0,0:0:0:0:
64,192,73106,1,0,0:0:0:0:
64,192,73422,1,0,0:0:0:0:
192,192,73422,1,0,0:0:0:0:
320,192,73422,1,0,0:0:0:0:
448,192,73422,1,0,0:0:0:0:
192,192,73737,1,0,0:0:0:0:
448,192,73737,1,0,0:0:0:0:
64,192,74053,1,0,0:0:0:0:
320,192,74053,1,0,0:0:0:0:
192,192,74211,1,0,0:0:0:0:
320,192,74369,1,0,0:0:0:0:
448,192,74369,1,0,0:0:0:0:
192,192,74685,1,0,0:0:0:0:
64,192,74685,1,0,0:0:0:0:
320,192,74843,1,0,0:0:0:0:
448,192,75000,1,0,0:0:0:0:
192,192,75000,1,0,0:0:0:0:
64,192,75158,1,0,0:0:0:0:
192,192,75237,1,0,0:0:0:0:
320,192,75316,1,0,0:0:0:0:
448,192,75316,1,0,0:0:0:0:
64,192,75474,1,0,0:0:0:0:
192,192,75474,1,0,0:0:0:0:
192,192,75632,1,0,0:0:0:0:
320,192,75632,1,0,0:0:0:0:
448,192,75790,1,0,0:0:0:0:
320,192,75790,1,0,0:0:0:0:
64,192,75948,1,0,0:0:0:0:
192,192,75948,128,0,76264:0:0:0:0:
320,192,76264,128,0,76579:0:0:0:0:
448,192,76264,1,0,0:0:0:0:
192,192,76579,1,0,0:0:0:0:
64,192,76579,128,0,76895:0:0:0:0:
320,192,76895,1,0,0:0:0:0:
448,192,76895,128,0,77211:0:0:0:0:
192,192,77211,128,0,77685:0:0:0:0:
64,192,77211,1,0,0:0:0:0:
320,192,77685,1,0,0:0:0:0:
448,192,77843,1,0,0:0:0:0:
64,192,77843,1,0,0:0:0:0:
192,192,78000,1,0,0:0:0:0:
320,192,78079,1,0,0:0:0:0:
448,192,78158,1,0,0:0:0:0:
64,192,78237,1,0,0:0:0:0:
192,192,78316,1,0,0:0:0:0:
320,192,78395,1,0,0:0:0:0:
448,192,78474,1,0,0:0:0:0:
64,192,78474,1,0,0:0:0:0:
192,192,78474,1,0,0:0:0:0:
64,192,78790,1,0,0:0:0:0:
320,192,78790,1,0,0:0:0:0:
448,192,79106,1,0,0:0:0:0:
320,192,79106,1,0,0:0:0:0:
320,192,79264,1,0,0:0:0:0:
192,192,79264,1,0,0:0:0:0:
64,192,79422,1,0,0:0:0:0:
192,192,79422,1,0,0:0:0:0:
448,192,79579,1,0,0:0:0:0:
320,192,79737,1,0,0:0:0:0:
192,192,79737,1,0,0:0:0:0:
64,192,79737,1,0,0:0:0:0:
448,192,79974,1,0,0:0:0:0:
320,192,79974,1,0,0:0:0:0:
192,192,79974,1,0,0:0:0:0:
64,192,80211,1,0,0:0:0:0:
192,192,80211,1,0,0:0:0:0:
320,192,80211,1,0,0:0:0:0:
320,192,80527,1,0,0:0:0:0:
64,192,80685,1,0,0:0:0:0:
448,192,80843,1,0,0:0:0:0:
320,192,81000,1,0,0:0:0:0:
64,192,81000,1,0,0:0:0:0:
192,192,81158,1,0,0:0:0:0:
448,192,81316,1,0,0:0:0:0:
320,192,81316,1,0,0:0:0:0:
64,192,81474,1,0,0:0:0:0:
192,192,81632,1,0,0:0:0:0:
320,192,81632,1,0,0:0:0:0:
448,192,81790,1,0,0:0:0:0:
320,192,81948,1,0,0:0:0:0:
64,192,81948,1,0,0:0:0:0:
192,192,82106,1,0,0:0:0:0:
448,192,82264,1,0,0:0:0:0:
320,192,82264,1,0,0:0:0:0:
192,192,82343,1,0,0:0:0:0:
448,192,82422,1,0,0:0:0:0:
64,192,82422,1,0,0:0:0:0:
320,192,82500,1,0,0:0:0:0:
192,192,82579,1,0,0:0:0:0:
64,192,82579,1,0,0:0:0:0:
320,192,82658,1,0,0:0:0:0:
448,192,82737,1,0,0:0:0:0:
320,192,82816,1,0,0:0:0:0:
192,192,82895,1,0,0:0:0:0:
64,192,82895,1,0,0:0:0:0:
448,192,83053,1,0,0:0:0:0:
320,192,83053,1,0,0:0:0:0:
320,192,83211,1,0,0:0:0:0:
192,192,83211,1,0,0:0:0:0:
64,192,83211,1,0,0:0:0:0:
320,192,83369,1,0,0:0:0:0:
448,192,83369,1,0,0:0:0:0:
192,192,83448,1,0,0:0:0:0:
64,192,83527,1,0,0:0:0:0:
448,192,83527,1,0,0:0:0:0:
320,192,83527,1,0,0:0:0:0:
192,192,83685,1,0,0:0:0:0:
448,192,83843,1,0,0:0:0:0:
320,192,83843,1,0,0:0:0:0:
64,192,83843,1,0,0:0:0:0:
192,192,84000,1,0,0:0:0:0:
320,192,84158,1,0,0:0:0:0:
448,192,84158,1,0,0:0:0:0:
64,192,84316,1,0,0:0:0:0:
320,192,84395,1,0,0:0:0:0:
192,192,84474,1,0,0:0:0:0:
64,192,84553,1,0,0:0:0:0:
448,192,84632,1,0,0:0:0:0:
320,192,84790,1,0,0:0:0:0:
192,192,84790,1,0,0:0:0:0:
64,192,84790,1,0,0:0:0:0:
448,192,84948,1,0,0:0:0:0:
192,192,85106,1,0,0:0:0:0:
64,192,85106,1,0,0:0:0:0:
320,192,85264,1,0,0:0:0:0:
64,192,85422,1,0,0:0:0:0:
192,192,85422,1,0,0:0:0:0:
448,192,85422,1,0,0:0:0:0:
448,192,85579,1,0,0:0:0:0:
192,192,85579,1,0,0:0:0:0:
64,192,85579,1,0,0:0:0:0:
64,192,85737,1,0,0:0:0:0:
192,192,85737,1,0,0:0:0:0:
448,192,85737,1,0,0:0:0:0:
320,192,85895,1,0,0:0:0:0:
64,192,85895,1,0,0:0:0:0:
448,192,85895,1,0,0:0:0:0:
320,192,86053,1,0,0:0:0:0:
448,192,86053,1,0,0:0:0:0:
64,192,86211,1,0,0:0:0:0:
192,192,86369,1,0,0:0:0:0:
320,192,86369,1,0,0:0:0:0:
448,192,86527,1,0,0:0:0:0:
320,192,86685,1,0,0:0:0:0:
64,192,86685,1,0,0:0:0:0:
192,192,86843,1,0,0:0:0:0:
64,192,86922,1,0,0:0:0:0:
448,192,87000,1,0,0:0:0:0:
320,192,87000,1,0,0:0:0:0:
320,192,87158,1,0,0:0:0:0:
64,192,87158,1,0,0:0:0:0:
64,192,87316,1,0,0:0:0:0:
192,192,87316,1,0,0:0:0:0:
448,192,87395,1,0,0:0:0:0:
320,192,87474,1,0,0:0:0:0:
64,192,87632,1,0,0:0:0:0:
448,192,87632,1,0,0:0:0:0:
192,192,87790,1,0,0:0:0:0:
320,192,87790,1,0,0:0:0:0:
448,192,87948,1,0,0:0:0:0:
64,192,87948,1,0,0:0:0:0:
192,192,88106,1,0,0:0:0:0:
64,192,88106,1,0,0:0:0:0:
320,192,88185,1,0,0:0:0:0:
448,192,88264,1,0,0:0:0:0:
64,192,88422,1,0,0:0:0:0:
192,192,88422,1,0,0:0:0:0:
320,192,88422,1,0,0:0:0:0:
192,192,88579,1,0,0:0:0:0:
320,192,88579,1,0,0:0:0:0:
448,192,88579,1,0,0:0:0:0:
64,192,88737,1,0,0:0:0:0:
192,192,88895,1,0,0:0:0:0:
448,192,88895,1,0,0:0:0:0:
320,192,89053,1,0,0:0:0:0:
64,192,89053,1,0,0:0:0:0:
448,192,89369,128,0,89527:0:0:0:0:
320,192,89369,128,0,89527:0:0:0:0:
192,192,89369,128,0,89527:0:0:0:0:
64,192,89369,128,0,89527:0:0:0:0:
64,192,89685,1,0,0:0:0:0:
320,192,89685,1,0,0:0:0:0:
448,192,89685,1,0,0:0:0:0:
448,192,89843,1,0,0:0:0:0:
192,192,89843,1,0,0:0:0:0:
320,192,90000,128,0,90316:0:0:0:0:
64,192,90316,1,0,0:0:0:0:
448,192,90316,1,0,0:0:0:0:
64,192,90474,1,0,0:0:0:0:
448,192,90474,1,0,0:0:0:0:
192,192,90553,1,0,0:0:0:0:
320,192,90632,1,0,0:0:0:0:
448,192,90790,1,0,0:0:0:0:
192,192,90790,1,0,0:0:0:0:
64,192,90790,1,0,0:0:0:0:
320,192,90869,1,0,0:0:0:0:
192,192,90948,1,0,0:0:0:0:
64,192,91106,1,0,0:0:0:0:
192,192,91106,1,0,0:0:0:0:
448,192,91185,1,0,0:0:0:0:
320,192,91264,1,0,0:0:0:0:
192,192,91343,1,0,0:0:0:0:
64,192,91422,1,0,0:0:0:0:
448,192,91422,1,0,0:0:0:0:
320,192,91579,1,0,0:0:0:0:
192,192,91579,1,0,0:0:0:0:
64,192,91737,1,0,0:0:0:0:
192,192,91737,1,0,0:0:0:0:
320,192,91895,1,0,0:0:0:0:
192,192,91895,1,0,0:0:0:0:
448,192,92053,128,0,92211:0:0:0:0:
64,192,92053,128,0,92211:0:0:0:0:
64,192,92369,1,0,0:0:0:0:
320,192,92369,1,0,0:0:0:0:
448,192,92527,1,0,0:0:0:0:
192,192,92527,1,0,0:0:0:0:
64,192,92685,1,0,0:0:0:0:
192,192,92764,1,0,0:0:0:0:
320,192,92843,1,0,0:0:0:0:
448,192,92922,1,0,0:0:0:0:
320,192,93000,1,0,0:0:0:0:
64,192,93000,1,0,0:0:0:0:
192,192,93079,1,0,0:0:0:0:
320,192,93158,1,0,0:0:0:0:
448,192,93237,1,0,0:0:0:0:
64,192,93316,1,0,0:0:0:0:
192,192,93395,1,0,0:0:0:0:
320,192,93474,1,0,0:0:0:0:
448,192,93474,1,0,0:0:0:0:
64,192,93632,1,0,0:0:0:0:
192,192,93632,1,0,0:0:0:0:
320,192,93632,1,0,0:0:0:0:
448,192,93632,1,0,0:0:0:0:
192,192,93785,1,0,0:0:0:0:
320,192,93939,1,0,0:0:0:0:
448,192,93939,1,0,0:0:0:0:
64,192,94093,1,0,0:0:0:0:
192,192,94247,1,0,0:0:0:0:
448,192,94247,1,0,0:0:0:0:
320,192,94401,1,0,0:0:0:0:
64,192,94555,1,0,0:0:0:0:
192,192,94555,1,0,0:0:0:0:
448,192,94555,1,0,0:0:0:0:
320,192,94708,1,0,0:0:0:0:
448,192,94862,1,0,0:0:0:0:
320,192,94862,1,0,0:0:0:0:
64,192,94862,1,0,0:0:0:0:
192,192,94862,1,0,0:0:0:0:
192,192,95016,1,0,0:0:0:0:
64,192,95170,1,0,0:0:0:0:
448,192,95170,1,0,0:0:0:0:
320,192,95324,1,0,0:0:0:0:
192,192,95478,1,0,0:0:0:0:
64,192,95478,1,0,0:0:0:0:
448,192,95632,1,0,0:0:0:0:
320,192,95785,1,0,0:0:0:0:
192,192,95785,1,0,0:0:0:0:
64,192,95785,1,0,0:0:0:0:
448,192,95939,1,0,0:0:0:0:
320,192,96093,1,0,0:0:0:0:
64,192,96093,1,0,0:0:0:0:
192,192,96174,1,0,0:0:0:0:
448,192,96249,1,0,0:0:0:0:
320,192,96324,1,0,0:0:0:0:
192,192,96399,1,0,0:0:0:0:
64,192,96399,1,0,0:0:0:0:
448,192,96549,1,0,0:0:0:0:
192,192,96549,1,0,0:0:0:0:
320,192,96624,1,0,0:0:0:0:
64,192,96699,1,0,0:0:0:0:
192,192,96774,1,0,0:0:0:0:
320,192,96849,1,0,0:0:0:0:
448,192,96924,1,0,0:0:0:0:
192,192,96999,1,0,0:0:0:0:
64,192,97074,1,0,0:0:0:0:
320,192,97149,1,0,0:0:0:0:
448,192,97149,1,0,0:0:0:0:
192,192,97224,1,0,0:0:0:0:
64,192,97299,1,0,0:0:0:0:
320,192,97374,1,0,0:0:0:0:
448,192,97449,1,0,0:0:0:0:
64,192,97524,1,0,0:0:0:0:
192,192,97599,1,0,0:0:0:0:
320,192,97599,1,0,0:0:0:0:
448,192,97749,1,0,0:0:0:0:
64,192,97749,1,0,0:0:0:0:
320,192,97824,1,0,0:0:0:0:
192,192,97899,1,0,0:0:0:0:
64,192,97899,1,0,0:0:0:0:
320,192,98049,1,0,0:0:0:0:
448,192,98049,1,0,0:0:0:0:
64,192,98199,1,0,0:0:0:0:
192,192,98199,1,0,0:0:0:0:
320,192,98199,1,0,0:0:0:0:
320,192,98349,1,0,0:0:0:0:
192,192,98349,1,0,0:0:0:0:
64,192,98349,1,0,0:0:0:0:
64,192,98499,1,0,0:0:0:0:
192,192,98499,1,0,0:0:0:0:
320,192,98499,1,0,0:0:0:0:
448,192,98499,1,0,0:0:0:0:
448,192,98638,1,0,0:0:0:0:
320,192,98638,1,0,0:0:0:0:
64,192,98778,1,0,0:0:0:0:
192,192,98778,1,0,0:0:0:0:
448,192,98917,1,0,0:0:0:0:
320,192,98917,1,0,0:0:0:0:
64,192,99057,1,0,0:0:0:0:
192,192,99057,1,0,0:0:0:0:
320,192,99196,1,0,0:0:0:0:
448,192,99196,1,0,0:0:0:0:
64,192,99336,1,0,0:0:0:0:
192,192,99336,1,0,0:0:0:0:
320,192,99336,1,0,0:0:0:0:
320,192,99475,1,0,0:0:0:0:
448,192,99475,1,0,0:0:0:0:
64,192,99615,1,0,0:0:0:0:
192,192,99615,1,0,0:0:0:0:
320,192,99615,1,0,0:0:0:0:
448,192,99615,1,0,0:0:0:0:
64,192,99754,1,0,0:0:0:0:
192,192,99754,1,0,0:0:0:0:
320,192,99894,1,0,0:0:0:0:
448,192,99894,1,0,0:0:0:0:
64,192,100033,1,0,0:0:0:0:
192,192,100033,1,0,0:0:0:0:
320,192,100173,1,0,0:0:0:0:
448,192,100173,1,0,0:0:0:0:
64,192,100312,1,0,0:0:0:0:
192,192,100312,1,0,0:0:0:0:
192,192,100452,1,0,0:0:0:0:
320,192,100452,1,0,0:0:0:0:
448,192,100452,1,0,0:0:0:0:
64,192,100592,1,0,0:0:0:0:
192,192,100592,1,0,0:0:0:0:
320,192,100731,1,0,0:0:0:0:
448,192,100731,1,0,0:0:0:0:
192,192,100801,1,0,0:0:0:0:
64,192,100801,1,0,0:0:0:0:
320,192,100871,1,0,0:0:0:0:
448,192,100871,1,0,0:0:0:0:
192,192,100940,1,0,0:0:0:0:
64,192,100940,1,0,0:0:0:0:
320,192,101010,1,0,0:0:0:0:
448,192,101010,1,0,0:0:0:0:
192,192,101080,1,0,0:0:0:0:
64,192,101080,1,0,0:0:0:0:
320,192,101150,1,0,0:0:0:0:
448,192,101150,1,0,0:0:0:0:
192,192,101219,1,0,0:0:0:0:
64,192,101219,1,0,0:0:0:0:
320,192,101289,1,0,0:0:0:0:
448,192,101289,1,0,0:0:0:0:
192,192,101359,1,0,0:0:0:0:
64,192,101359,1,0,0:0:0:0:
320,192,101429,1,0,0:0:0:0:
448,192,101429,1,0,0:0:0:0:
64,192,101568,1,0,0:0:0:0:
192,192,101568,1,0,0:0:0:0:
448,192,101568,1,0,0:0:0:0:
64,192,101847,1,0,0:0:0:0:
192,192,101847,1,0,0:0:0:0:
320,192,101847,1,0,0:0:0:0:
448,192,101847,1,0,0:0:0:0:
192,192,102119,1,0,0:0:0:0:
192,192,102392,128,0,102665:0:0:0:0:
64,192,102665,1,0,0:0:0:0:
320,192,102665,1,0,0:0:0:0:
448,192,102665,1,0,0:0:0:0:
64,192,102937,1,0,0:0:0:0:
192,192,102937,1,0,0:0:0:0:
448,192,102937,1,0,0:0:0:0:
320,192,103074,1,0,0:0:0:0:
64,192,103210,1,0,0:0:0:0:
448,192,103210,1,0,0:0:0:0:
192,192,103347,1,0,0:0:0:0:
448,192,103483,1,0,0:0:0:0:
320,192,103483,1,0,0:0:0:0:
192,192,103619,1,0,0:0:0:0:
320,192,103619,1,0,0:0:0:0:
64,192,103756,1,0,0:0:0:0:
192,192,103756,1,0,0:0:0:0:
192,192,103892,1,0,0:0:0:0:
320,192,103892,1,0,0:0:0:0:
448,192,104028,1,0,0:0:0:0:
64,192,104028,1,0,0:0:0:0:
320,192,104165,1,0,0:0:0:0:
448,192,104165,1,0,0:0:0:0:
64,192,104301,1,0,0:0:0:0:
192,192,104301,1,0,0:0:0:0:
320,192,104437,1,0,0:0:0:0:
448,192,104574,1,0,0:0:0:0:
192,192,104574,1,0,0:0:0:0:
64,192,104710,1,0,0:0:0:0:
320,192,104710,1,0,0:0:0:0:
192,192,104847,1,0,0:0:0:0:
64,192,104847,1,0,0:0:0:0:
320,192,104915,1,0,0:0:0:0:
448,192,104915,1,0,0:0:0:0:
192,192,104983,1,0,0:0:0:0:
64,192,104983,1,0,0:0:0:0:
320,192,105051,1,0,0:0:0:0:
448,192,105051,1,0,0:0:0:0:
64,192,105119,1,0,0:0:0:0:
192,192,105119,1,0,0:0:0:0:
192,192,105256,1,0,0:0:0:0:
320,192,105256,1,0,0:0:0:0:
448,192,105392,1,0,0:0:0:0:
64,192,105392,1,0,0:0:0:0:
192,192,105528,1,0,0:0:0:0:
448,192,105665,1,0,0:0:0:0:
64,192,105665,1,0,0:0:0:0:
320,192,105801,1,0,0:0:0:0:
448,192,105801,1,0,0:0:0:0:
64,192,105937,1,0,0:0:0:0:
192,192,105937,1,0,0:0:0:0:
320,192,106074,1,0,0:0:0:0:
448,192,106210,1,0,0:0:0:0:
192,192,106210,1,0,0:0:0:0:
64,192,106347,1,0,0:0:0:0:
192,192,106483,1,0,0:0:0:0:
320,192,106483,1,0,0:0:0:0:
448,192,106619,1,0,0:0:0:0:
64,192,106756,1,0,0:0:0:0:
192,192,106756,1,0,0:0:0:0:
320,192,106892,1,0,0:0:0:0:
448,192,106892,1,0,0:0:0:0:
64,192,107028,1,0,0:0:0:0:
192,192,107028,1,0,0:0:0:0:
448,192,107097,1,0,0:0:0:0:
320,192,107165,1,0,0:0:0:0:
192,192,107233,1,0,0:0:0:0:
64,192,107301,1,0,0:0:0:0:
448,192,107301,1,0,0:0:0:0:
320,192,107437,1,0,0:0:0:0:
64,192,107437,1,0,0:0:0:0:
448,192,107574,1,0,0:0:0:0:
192,192,107574,1,0,0:0:0:0:
320,192,107710,1,0,0:0:0:0:
64,192,107847,1,0,0:0:0:0:
192,192,107847,1,0,0:0:0:0:
448,192,107983,1,0,0:0:0:0:
192,192,107983,1,0,0:0:0:0:
320,192,108119,1,0,0:0:0:0:
448,192,108119,1,0,0:0:0:0:
64,192,108256,1,0,0:0:0:0:
192,192,108256,1,0,0:0:0:0:
448,192,108392,1,0,0:0:0:0:
320,192,108392,1,0,0:0:0:0:
64,192,108528,1,0,0:0:0:0:
192,192,108665,1,0,0:0:0:0:
320,192,108665,1,0,0:0:0:0:
448,192,108801,1,0,0:0:0:0:
320,192,108937,1,0,0:0:0:0:
64,192,108937,1,0,0:0:0:0:
448,192,109074,1,0,0:0:0:0:
64,192,109142,1,0,0:0:0:0:
192,192,109210,1,0,0:0:0:0:
320,192,109210,1,0,0:0:0:0:
448,192,109278,1,0,0:0:0:0:
64,192,109278,1,0,0:0:0:0:
320,192,109347,1,0,0:0:0:0:
192,192,109347,1,0,0:0:0:0:
448,192,109415,1,0,0:0:0:0:
64,192,109415,1,0,0:0:0:0:
192,192,109483,1,0,0:0:0:0:
320,192,109483,1,0,0:0:0:0:
64,192,109619,1,0,0:0:0:0:
448,192,109756,1,0,0:0:0:0:
320,192,109756,1,0,0:0:0:0:
192,192,109892,1,0,0:0:0:0:
64,192,110028,1,0,0:0:0:0:
320,192,110028,1,0,0:0:0:0:
448,192,110165,1,0,0:0:0:0:
192,192,110165,1,0,0:0:0:0:
320,192,110301,1,0,0:0:0:0:
64,192,110301,1,0,0:0:0:0:
448,192,110437,1,0,0:0:0:0:
320,192,110437,1,0,0:0:0:0:
64,192,110574,1,0,0:0:0:0:
192,192,110574,1,0,0:0:0:0:
320,192,110710,1,0,0:0:0:0:
64,192,110847,128,0,111119:0:0:0:0:
448,192,110847,128,0,111119:0:0:0:0:
320,192,111119,1,0,0:0:0:0:
192,192,111119,1,0,0:0:0:0:
320,192,111256,1,0,0:0:0:0:
448,192,111256,1,0,0:0:0:0:
192,192,111392,128,0,111665:0:0:0:0:
64,192,111392,128,0,111665:0:0:0:0:
320,192,111665,128,0,111937:0:0:0:0:
448,192,111665,1,0,0:0:0:0:
64,192,111937,1,0,0:0:0:0:
192,192,111937,1,0,0:0:0:0:
448,192,112074,1,0,0:0:0:0:
192,192,112210,1,0,0:0:0:0:
64,192,112210,1,0,0:0:0:0:
192,192,112347,1,0,0:0:0:0:
320,192,112347,1,0,0:0:0:0:
448,192,112483,1,0,0:0:0:0:
64,192,112483,1,0,0:0:0:0:
64,192,112619,1,0,0:0:0:0:
448,192,112619,1,0,0:0:0:0:
448,192,112756,1,0,0:0:0:0:
64,192,112756,1,0,0:0:0:0:
192,192,112892,1,0,0:0:0:0:
64,192,113028,1,0,0:0:0:0:
320,192,113028,1,0,0:0:0:0:
448,192,113028,1,0,0:0:0:0:
192,192,113165,1,0,0:0:0:0:
448,192,113301,1,0,0:0:0:0:
320,192,113301,1,0,0:0:0:0:
192,192,113437,1,0,0:0:0:0:
320,192,113437,1,0,0:0:0:0:
192,192,113574,1,0,0:0:0:0:
64,192,113574,1,0,0:0:0:0:
320,192,113642,1,0,0:0:0:0:
448,192,113642,1,0,0:0:0:0:
192,192,113710,1,0,0:0:0:0:
64,192,113710,1,0,0:0:0:0:
320,192,113778,1,0,0:0:0:0:
448,192,113778,1,0,0:0:0:0:
192,192,113847,1,0,0:0:0:0:
64,192,113847,1,0,0:0:0:0:
320,192,113983,1,0,0:0:0:0:
448,192,113983,1,0,0:0:0:0:
64,192,114119,1,0,0:0:0:0:
192,192,114119,128,0,114392:0:0:0:0:
448,192,114392,1,0,0:0:0:0:
320,192,114392,1,0,0:0:0:0:
64,192,114528,1,0,0:0:0:0:
192,192,114665,1,0,0:0:0:0:
320,192,114665,1,0,0:0:0:0:
448,192,114801,1,0,0:0:0:0:
320,192,114801,1,0,0:0:0:0:
64,192,114937,1,0,0:0:0:0:
192,192,114937,1,0,0:0:0:0:
320,192,115074,1,0,0:0:0:0:
448,192,115210,1,0,0:0:0:0:
192,192,115210,1,0,0:0:0:0:
64,192,115347,1,0,0:0:0:0:
192,192,115483,1,0,0:0:0:0:
320,192,115483,1,0,0:0:0:0:
320,192,115619,1,0,0:0:0:0:
192,192,115619,1,0,0:0:0:0:
192,192,115756,1,0,0:0:0:0:
320,192,115756,1,0,0:0:0:0:
64,192,115892,1,0,0:0:0:0:
192,192,115892,1,0,0:0:0:0:
320,192,115960,1,0,0:0:0:0:
448,192,115960,1,0,0:0:0:0:
64,192,116028,1,0,0:0:0:0:
192,192,116028,1,0,0:0:0:0:
320,192,116165,1,0,0:0:0:0:
192,192,116233,1,0,0:0:0:0:
64,192,116301,1,0,0:0:0:0:
448,192,116301,1,0,0:0:0:0:
320,192,116437,1,0,0:0:0:0:
192,192,116574,1,0,0:0:0:0:
64,192,116574,1,0,0:0:0:0:
448,192,116710,1,0,0:0:0:0:
320,192,116847,1,0,0:0:0:0:
192,192,116847,1,0,0:0:0:0:
64,192,116983,1,0,0:0:0:0:
192,192,116983,1,0,0:0:0:0:
320,192,117119,1,0,0:0:0:0:
448,192,117119,1,0,0:0:0:0:
192,192,117187,1,0,0:0:0:0:
64,192,117256,1,0,0:0:0:0:
192,192,117392,1,0,0:0:0:0:
320,192,117392,1,0,0:0:0:0:
448,192,117392,1,0,0:0:0:0:
192,192,117528,1,0,0:0:0:0:
320,192,117665,1,0,0:0:0:0:
448,192,117665,1,0,0:0:0:0:
64,192,117801,1,0,0:0:0:0:
192,192,117801,1,0,0:0:0:0:
320,192,117869,1,0,0:0:0:0:
448,192,117937,1,0,0:0:0:0:
64,192,117937,1,0,0:0:0:0:
192,192,118006,1,0,0:0:0:0:
320,192,118074,1,0,0:0:0:0:
448,192,118142,1,0,0:0:0:0:
64,192,118210,1,0,0:0:0:0:
192,192,118210,1,0,0:0:0:0:
448,192,118347,1,0,0:0:0:0:
192,192,118347,1,0,0:0:0:0:
448,192,118483,1,0,0:0:0:0:
320,192,118483,1,0,0:0:0:0:
64,192,118619,1,0,0:0:0:0:
320,192,118756,1,0,0:0:0:0:
192,192,118756,1,0,0:0:0:0:
448,192,118892,1,0,0:0:0:0:
64,192,118892,1,0,0:0:0:0:
320,192,119028,1,0,0:0:0:0:
64,192,119028,1,0,0:0:0:0:
192,192,119165,1,0,0:0:0:0:
448,192,119165,1,0,0:0:0:0:
320,192,119301,1,0,0:0:0:0:
448,192,119301,1,0,0:0:0:0:
448,192,119437,1,0,0:0:0:0:
320,192,119437,1,0,0:0:0:0:
192,192,119574,1,0,0:0:0:0:
64,192,119574,128,0,119847:0:0:0:0:
320,192,119847,1,0,0:0:0:0:
448,192,119847,1,0,0:0:0:0:
320,192,119983,1,0,0:0:0:0:
448,192,119983,1,0,0:0:0:0:
192,192,120119,128,0,120392:0:0:0:0:
64,192,120119,1,0,0:0:0:0:
320,192,120392,128,0,120665:0:0:0:0:
192,192,120665,128,0,121074:0:0:0:0:
448,192,121074,128,0,122437:0:0:0:0:
64,192,121074,128,0,121210:0:0:0:0:
192,192,121210,128,0,121483:0:0:0:0:
320,192,121483,1,0,0:0:0:0:
64,192,121483,1,0,0:0:0:0:
64,192,121892,1,0,0:0:0:0:
192,192,122028,1,0,0:0:0:0:
320,192,122028,1,0,0:0:0:0:
192,192,122437,1,0,0:0:0:0:
320,192,122574,1,0,0:0:0:0:
64,192,122574,1,0,0:0:0:0:
448,192,122983,1,0,0:0:0:0:
320,192,123119,1,0,0:0:0:0:
192,192,123119,1,0,0:0:0:0:
64,192,123392,1,0,0:0:0:0:
448,192,123392,1,0,0:0:0:0:
320,192,123528,1,0,0:0:0:0:
192,192,123665,1,0,0:0:0:0:
64,192,123665,1,0,0:0:0:0:
64,192,123937,1,0,0:0:0:0:
192,192,123937,1,0,0:0:0:0:
448,192,124074,1,0,0:0:0:0:
320,192,124074,1,0,0:0:0:0:
320,192,124210,1,0,0:0:0:0:
192,192,124210,1,0,0:0:0:0:
192,192,124347,1,0,0:0:0:0:
320,192,124347,1,0,0:0:0:0:
64,192,124483,1,0,0:0:0:0:
448,192,124483,1,0,0:0:0:0:
448,192,124619,1,0,0:0:0:0:
64,192,124619,1,0,0:0:0:0:
192,192,124756,1,0,0:0:0:0:
192,192,125028,1,0,0:0:0:0:
192,192,125301,1,0,0:0:0:0:
448,192,125574,128,0,125847:0:0:0:0:
64,192,125710,128,0,125847:0:0:0:0:
192,192,125847,128,0,126937:0:0:0:0:
320,192,125847,128,0,126392:0:0:0:0:
448,192,126392,128,0,127347:0:0:0:0:
64,192,126937,128,0,127483:0:0:0:0:
320,192,127347,128,0,127756:0:0:0:0:
192,192,127483,128,0,127892:0:0:0:0:
448,192,127756,128,0,128028:0:0:0:0:
64,192,127892,128,0,128437:0:0:0:0:
320,192,128028,128,0,128574:0:0:0:0:
192,192,128437,128,0,128710:0:0:0:0:
448,192,128574,128,0,128847:0:0:0:0:
64,192,128710,128,0,128983:0:0:0:0:
320,192,128847,128,0,128983:0:0:0:0:
192,192,128983,128,0,129119:0:0:0:0:
448,192,129119,128,0,129801:0:0:0:0:
64,192,129119,128,0,129801:0:0:0:0:
192,192,129801,1,0,0:0:0:0:
320,192,129801,1,0,0:0:0:0:
448,192,129937,1,0,0:0:0:0:
64,192,129937,1,0,0:0:0:0:
320,192,129937,1,0,0:0:0:0:
192,192,129937,1,0,0:0:0:0:
64,192,130210,1,0,0:0:0:0:
320,192,130210,1,0,0:0:0:0:
448,192,130210,1,0,0:0:0:0:
320,192,130483,1,0,0:0:0:0:
448,192,130483,1,0,0:0:0:0:
64,192,130756,1,0,0:0:0:0:
192,192,130756,1,0,0:0:0:0:
448,192,130892,1,0,0:0:0:0:
320,192,130892,1,0,0:0:0:0:
320,192,131028,1,0,0:0:0:0:
192,192,131028,1,0,0:0:0:0:
448,192,131301,1,0,0:0:0:0:
64,192,131301,1,0,0:0:0:0:
320,192,131437,1,0,0:0:0:0:
192,192,131437,1,0,0:0:0:0:
64,192,131574,1,0,0:0:0:0:
448,192,131574,1,0,0:0:0:0:
64,192,131847,1,0,0:0:0:0:
320,192,131847,1,0,0:0:0:0:
448,192,131983,1,0,0:0:0:0:
320,192,131983,1,0,0:0:0:0:
64,192,132119,1,0,0:0:0:0:
192,192,132119,1,0,0:0:0:0:
448,192,132256,1,0,0:0:0:0:
64,192,132256,1,0,0:0:0:0:
448,192,132392,1,0,0:0:0:0:
320,192,132392,1,0,0:0:0:0:
192,192,132392,1,0,0:0:0:0:
64,192,132665,1,0,0:0:0:0:
192,192,132665,1,0,0:0:0:0:
320,192,132665,1,0,0:0:0:0:
448,192,132937,1,0,0:0:0:0:
192,192,132937,1,0,0:0:0:0:
64,192,132937,1,0,0:0:0:0:
64,192,133210,1,0,0:0:0:0:
320,192,133210,1,0,0:0:0:0:
448,192,133210,1,0,0:0:0:0:
64,192,133483,128,0,133892:0:0:0:0:
448,192,133483,128,0,133892:0:0:0:0:
192,192,133483,1,0,0:0:0:0:
320,192,133892,1,0,0:0:0:0:
192,192,133892,1,0,0:0:0:0:
64,192,134028,1,0,0:0:0:0:
448,192,134028,1,0,0:0:0:0:
192,192,134097,1,0,0:0:0:0:
320,192,134165,1,0,0:0:0:0:
448,192,134233,1,0,0:0:0:0:
64,192,134301,1,0,0:0:0:0:
192,192,134369,1,0,0:0:0:0:
320,192,134437,1,0,0:0:0:0:
448,192,134506,1,0,0:0:0:0:
64,192,134574,1,0,0:0:0:0:
192,192,134574,1,0,0:0:0:0:
320,192,134574,1,0,0:0:0:0:
448,192,134710,1,0,0:0:0:0:
320,192,134847,1,0,0:0:0:0:
64,192,134847,1,0,0:0:0:0:
192,192,134983,1,0,0:0:0:0:
448,192,135119,1,0,0:0:0:0:
320,192,135119,1,0,0:0:0:0:
64,192,135119,1,0,0:0:0:0:
64,192,135256,1,0,0:0:0:0:
192,192,135256,1,0,0:0:0:0:
448,192,135256,1,0,0:0:0:0:
448,192,135392,1,0,0:0:0:0:
320,192,135392,1,0,0:0:0:0:
64,192,135392,1,0,0:0:0:0:
192,192,135528,1,0,0:0:0:0:
64,192,135665,1,0,0:0:0:0:
192,192,135665,1,0,0:0:0:0:
320,192,135665,1,0,0:0:0:0:
448,192,135869,1,0,0:0:0:0:
320,192,135869,1,0,0:0:0:0:
192,192,135869,1,0,0:0:0:0:
192,192,136074,1,0,0:0:0:0:
320,192,136074,1,0,0:0:0:0:
64,192,136074,1,0,0:0:0:0:
448,192,136347,1,0,0:0:0:0:
320,192,136347,1,0,0:0:0:0:
64,192,136483,1,0,0:0:0:0:
192,192,136483,1,0,0:0:0:0:
448,192,136619,1,0,0:0:0:0:
192,192,136619,1,0,0:0:0:0:
64,192,136756,1,0,0:0:0:0:
320,192,136756,1,0,0:0:0:0:
192,192,136892,1,0,0:0:0:0:
320,192,136892,1,0,0:0:0:0:
64,192,137028,1,0,0:0:0:0:
448,192,137028,1,0,0:0:0:0:
320,192,137165,1,0,0:0:0:0:
192,192,137165,1,0,0:0:0:0:
64,192,137301,1,0,0:0:0:0:
192,192,137301,1,0,0:0:0:0:
320,192,137437,1,0,0:0:0:0:
448,192,137437,1,0,0:0:0:0:
192,192,137574,1,0,0:0:0:0:
64,192,137574,1,0,0:0:0:0:
448,192,137710,1,0,0:0:0:0:
320,192,137710,1,0,0:0:0:0:
64,192,137847,1,0,0:0:0:0:
192,192,137847,1,0,0:0:0:0:
448,192,137847,1,0,0:0:0:0:
320,192,137983,1,0,0:0:0:0:
64,192,138119,1,0,0:0:0:0:
320,192,138119,1,0,0:0:0:0:
192,192,138119,1,0,0:0:0:0:
192,192,138256,1,0,0:0:0:0:
192,192,138392,1,0,0:0:0:0:
320,192,138392,1,0,0:0:0:0:
448,192,138392,1,0,0:0:0:0:
64,192,138528,1,0,0:0:0:0:
192,192,138665,1,0,0:0:0:0:
448,192,138665,1,0,0:0:0:0:
448,192,138937,1,0,0:0:0:0:
320,192,138937,1,0,0:0:0:0:
192,192,138937,1,0,0:0:0:0:
64,192,138937,1,0,0:0:0:0:
320,192,139210,1,0,0:0:0:0:
192,192,139210,1,0,0:0:0:0:
64,192,139619,1,0,0:0:0:0:
320,192,139619,1,0,0:0:0:0:
448,192,139756,1,0,0:0:0:0:
192,192,139756,1,0,0:0:0:0:
320,192,139892,1,0,0:0:0:0:
192,192,140028,1,0,0:0:0:0:
64,192,140028,1,0,0:0:0:0:
448,192,140165,1,0,0:0:0:0:
320,192,140165,1,0,0:0:0:0:
64,192,140301,1,0,0:0:0:0:
192,192,140301,1,0,0:0:0:0:
192,192,140437,1,0,0:0:0:0:
320,192,140437,1,0,0:0:0:0:
448,192,140574,1,0,0:0:0:0:
320,192,140574,1,0,0:0:0:0:
192,192,140642,1,0,0:0:0:0:
64,192,140710,1,0,0:0:0:0:
448,192,140847,1,0,0:0:0:0:
192,192,140847,1,0,0:0:0:0:
320,192,140983,1,0,0:0:0:0:
64,192,141119,128,0,141256:0:0:0:0:
192,192,141119,1,0,0:0:0:0:
448,192,141256,1,0,0:0:0:0:
320,192,141324,1,0,0:0:0:0:
192,192,141392,1,0,0:0:0:0:
448,192,141392,1,0,0:0:0:0:
64,192,141528,128,0,141801:0:0:0:0:
320,192,141528,1,0,0:0:0:0:
448,192,141665,1,0,0:0:0:0:
192,192,141801,1,0,0:0:0:0:
320,192,141937,1,0,0:0:0:0:
448,192,141937,1,0,0:0:0:0:
192,192,142074,1,0,0:0:0:0:
64,192,142210,1,0,0:0:0:0:
448,192,142210,1,0,0:0:0:0:
320,192,142347,1,0,0:0:0:0:
192,192,142347,1,0,0:0:0:0:
64,192,142483,1,0,0:0:0:0:
192,192,142483,1,0,0:0:0:0:
448,192,142619,1,0,0:0:0:0:
320,192,142687,1,0,0:0:0:0:
192,192,142756,1,0,0:0:0:0:
64,192,142756,1,0,0:0:0:0:
448,192,142892,1,0,0:0:0:0:
192,192,142892,1,0,0:0:0:0:
64,192,143028,1,0,0:0:0:0:
320,192,143028,1,0,0:0:0:0:
192,192,143165,1,0,0:0:0:0:
320,192,143301,1,0,0:0:0:0:
448,192,143301,1,0,0:0:0:0:
64,192,143437,1,0,0:0:0:0:
320,192,143574,1,0,0:0:0:0:
192,192,143710,1,0,0:0:0:0:
64,192,143710,1,0,0:0:0:0:
320,192,143847,1,0,0:0:0:0:
448,192,143847,1,0,0:0:0:0:
64,192,143983,1,0,0:0:0:0:
320,192,143983,1,0,0:0:0:0:
192,192,144119,1,0,0:0:0:0:
448,192,144119,1,0,0:0:0:0:
320,192,144256,1,0,0:0:0:0:
64,192,144256,1,0,0:0:0:0:
64,192,144392,1,0,0:0:0:0:
448,192,144392,1,0,0:0:0:0:
192,192,144528,1,0,0:0:0:0:
320,192,144665,1,0,0:0:0:0:
448,192,144665,1,0,0:0:0:0:
64,192,144801,1,0,0:0:0:0:
192,192,144801,1,0,0:0:0:0:
448,192,144937,1,0,0:0:0:0:
320,192,144937,1,0,0:0:0:0:
64,192,145006,1,0,0:0:0:0:
192,192,145074,1,0,0:0:0:0:
448,192,145210,1,0,0:0:0:0:
64,192,145210,1,0,0:0:0:0:
448,192,145347,1,0,0:0:0:0:
64,192,145347,1,0,0:0:0:0:
320,192,145483,1,0,0:0:0:0:
192,192,145483,1,0,0:0:0:0:
64,192,145619,1,0,0:0:0:0:
192,192,145619,1,0,0:0:0:0:
448,192,145756,128,0,146028:0:0:0:0:
192,192,146028,128,0,146301:0:0:0:0:
320,192,146301,128,0,146574:0:0:0:0:
64,192,146437,128,0,146574:0:0:0:0:
192,192,146574,128,0,146847:0:0:0:0:
448,192,146847,1,0,0:0:0:0:
320,192,146915,1,0,0:0:0:0:
192,192,146983,1,0,0:0:0:0:
64,192,147051,1,0,0:0:0:0:
448,192,147119,1,0,0:0:0:0:
320,192,147187,1,0,0:0:0:0:
192,192,147256,1,0,0:0:0:0:
64,192,147324,1,0,0:0:0:0:
448,192,147392,1,0,0:0:0:0:
320,192,147460,1,0,0:0:0:0:
192,192,147528,1,0,0:0:0:0:
64,192,147528,1,0,0:0:0:0:
64,192,147666,1,0,0:0:0:0:
192,192,147666,1,0,0:0:0:0:
320,192,147666,1,0,0:0:0:0:
448,192,147666,1,0,0:0:0:0:
64,192,147932,1,0,0:0:0:0:
320,192,147932,1,0,0:0:0:0:
448,192,147932,1,0,0:0:0:0:
64,192,148199,1,0,0:0:0:0:
192,192,148199,1,0,0:0:0:0:
448,192,148199,1,0,0:0:0:0:
64,192,148466,1,0,0:0:0:0:
192,192,148466,1,0,0:0:0:0:
320,192,148466,1,0,0:0:0:0:
448,192,148466,1,0,0:0:0:0:
448,192,148732,1,0,0:0:0:0:
320,192,148732,1,0,0:0:0:0:
192,192,148732,1,0,0:0:0:0:
64,192,148732,1,0,0:0:0:0:
64,192,148999,1,0,0:0:0:0:
192,192,148999,1,0,0:0:0:0:
320,192,148999,1,0,0:0:0:0:
192,192,149266,1,0,0:0:0:0:
320,192,149266,1,0,0:0:0:0:
448,192,149266,1,0,0:0:0:0:
64,192,149532,1,0,0:0:0:0:
192,192,149532,1,0,0:0:0:0:
448,192,149532,1,0,0:0:0:0:
320,192,149532,1,0,0:0:0:0:
64,192,149799,1,0,0:0:0:0:
192,192,149799,1,0,0:0:0:0:
320,192,149799,1,0,0:0:0:0:
448,192,149799,1,0,0:0:0:0:
64,192,149932,1,0,0:0:0:0:
192,192,149932,1,0,0:0:0:0:
448,192,150066,1,0,0:0:0:0:
320,192,150066,1,0,0:0:0:0:
192,192,150199,1,0,0:0:0:0:
320,192,150199,1,0,0:0:0:0:
64,192,150332,1,0,0:0:0:0:
448,192,150332,1,0,0:0:0:0:
64,192,150466,1,0,0:0:0:0:
448,192,150466,1,0,0:0:0:0:
320,192,150599,1,0,0:0:0:0:
192,192,150599,1,0,0:0:0:0:
192,192,150732,1,0,0:0:0:0:
320,192,150732,1,0,0:0:0:0:
448,192,150866,1,0,0:0:0:0:
320,192,150866,1,0,0:0:0:0:
192,192,150866,1,0,0:0:0:0:
64,192,150866,1,0,0:0:0:0:
64,192,151132,1,0,0:0:0:0:
320,192,151132,1,0,0:0:0:0:
448,192,151132,1,0,0:0:0:0:
192,192,151399,1,0,0:0:0:0:
320,192,151399,1,0,0:0:0:0:
448,192,151399,1,0,0:0:0:0:
192,192,151532,1,0,0:0:0:0:
320,192,151532,1,0,0:0:0:0:
448,192,151532,1,0,0:0:0:0:
64,192,151666,1,0,0:0:0:0:
192,192,151666,1,0,0:0:0:0:
320,192,151666,1,0,0:0:0:0:
64,192,151799,1,0,0:0:0:0:
192,192,151799,1,0,0:0:0:0:
320,192,151799,1,0,0:0:0:0:
448,192,151932,1,0,0:0:0:0:
320,192,151932,1,0,0:0:0:0:
192,192,151932,1,0,0:0:0:0:
64,192,151932,1,0,0:0:0:0:
192,192,152187,1,0,0:0:0:0:
320,192,152187,1,0,0:0:0:0:
448,192,152187,1,0,0:0:0:0:
64,192,152442,1,0,0:0:0:0:
320,192,152442,1,0,0:0:0:0:
448,192,152442,1,0,0:0:0:0:
64,192,152697,1,0,0:0:0:0:
192,192,152697,1,0,0:0:0:0:
320,192,152697,1,0,0:0:0:0:
448,192,152697,1,0,0:0:0:0:
448,192,152953,1,0,0:0:0:0:
320,192,152953,1,0,0:0:0:0:
192,192,152953,1,0,0:0:0:0:
64,192,152953,1,0,0:0:0:0:
64,192,153208,1,0,0:0:0:0:
192,192,153208,1,0,0:0:0:0:
320,192,153208,1,0,0:0:0:0:
64,192,153463,1,0,0:0:0:0:
192,192,153463,1,0,0:0:0:0:
448,192,153463,1,0,0:0:0:0:
448,192,153719,1,0,0:0:0:0:
192,192,153719,1,0,0:0:0:0:
320,192,153719,1,0,0:0:0:0:
64,192,153719,1,0,0:0:0:0:
64,192,153974,128,0,154226:0:0:0:0:
192,192,153974,128,0,154226:0:0:0:0:
448,192,154226,1,0,0:0:0:0:
320,192,154226,1,0,0:0:0:0:
64,192,154352,1,0,0:0:0:0:
192,192,154352,1,0,0:0:0:0:
320,192,154478,128,0,154730:0:0:0:0:
448,192,154478,128,0,154730:0:0:0:0:
192,192,154730,1,0,0:0:0:0:
64,192,154730,1,0,0:0:0:0:
320,192,154856,1,0,0:0:0:0:
448,192,154856,1,0,0:0:0:0:
64,192,154982,1,0,0:0:0:0:
192,192,154982,1,0,0:0:0:0:
320,192,154982,1,0,0:0:0:0:
448,192,154982,1,0,0:0:0:0:
448,192,155234,1,0,0:0:0:0:
192,192,155234,1,0,0:0:0:0:
64,192,155234,1,0,0:0:0:0:
192,192,155423,1,0,0:0:0:0:
64,192,155486,1,0,0:0:0:0:
320,192,155486,1,0,0:0:0:0:
448,192,155486,1,0,0:0:0:0:
64,192,155612,1,0,0:0:0:0:
320,192,155612,1,0,0:0:0:0:
448,192,155612,1,0,0:0:0:0:
448,192,155738,1,0,0:0:0:0:
192,192,155738,1,0,0:0:0:0:
64,192,155738,1,0,0:0:0:0:
448,192,155864,1,0,0:0:0:0:
192,192,155864,1,0,0:0:0:0:
64,192,155864,1,0,0:0:0:0:
448,192,155990,1,0,0:0:0:0:
320,192,155990,1,0,0:0:0:0:
192,192,155990,1,0,0:0:0:0:
64,192,155990,1,0,0:0:0:0:
192,192,156234,1,0,0:0:0:0:
320,192,156234,1,0,0:0:0:0:
448,192,156234,1,0,0:0:0:0:
64,192,156479,1,0,0:0:0:0:
192,192,156479,1,0,0:0:0:0:
320,192,156479,1,0,0:0:0:0:
448,192,156724,1,0,0:0:0:0:
320,192,156724,1,0,0:0:0:0:
192,192,156724,1,0,0:0:0:0:
64,192,156724,1,0,0:0:0:0:
64,192,156969,1,0,0:0:0:0:
192,192,156969,1,0,0:0:0:0:
320,192,156969,1,0,0:0:0:0:
448,192,156969,1,0,0:0:0:0:
64,192,157214,1,0,0:0:0:0:
192,192,157214,1,0,0:0:0:0:
448,192,157214,1,0,0:0:0:0:
64,192,157459,1,0,0:0:0:0:
320,192,157459,1,0,0:0:0:0:
448,192,157459,1,0,0:0:0:0:
64,192,157581,1,0,0:0:0:0:
192,192,157581,1,0,0:0:0:0:
448,192,157581,1,0,0:0:0:0:
64,192,157704,1,0,0:0:0:0:
320,192,157704,1,0,0:0:0:0:
448,192,157704,1,0,0:0:0:0:
64,192,157826,1,0,0:0:0:0:
192,192,157826,1,0,0:0:0:0:
448,192,157826,1,0,0:0:0:0:
448,192,157949,1,0,0:0:0:0:
320,192,157949,1,0,0:0:0:0:
64,192,157949,1,0,0:0:0:0:
192,192,158194,1,0,0:0:0:0:
64,192,158194,1,0,0:0:0:0:
448,192,158316,1,0,0:0:0:0:
320,192,158316,1,0,0:0:0:0:
192,192,158438,128,0,158683:0:0:0:0:
64,192,158438,128,0,158683:0:0:0:0:
320,192,158683,1,0,0:0:0:0:
448,192,158683,1,0,0:0:0:0:
320,192,158806,1,0,0:0:0:0:
192,192,158806,1,0,0:0:0:0:
64,192,158928,128,0,159173:0:0:0:0:
448,192,158928,128,0,159051:0:0:0:0:
320,192,159051,128,0,159173:0:0:0:0:
192,192,159173,128,0,159418:0:0:0:0:
448,192,159418,128,0,159663:0:0:0:0:
320,192,159418,128,0,159663:0:0:0:0:
192,192,159663,1,0,0:0:0:0:
64,192,159663,1,0,0:0:0:0:
64,192,159785,1,0,0:0:0:0:
192,192,159785,1,0,0:0:0:0:
64,192,159908,1,0,0:0:0:0:
192,192,159908,1,0,0:0:0:0:
320,192,159908,1,0,0:0:0:0:
448,192,159908,1,0,0:0:0:0:
320,192,160025,1,0,0:0:0:0:
448,192,160025,1,0,0:0:0:0:
64,192,160143,1,0,0:0:0:0:
192,192,160143,1,0,0:0:0:0:
320,192,160260,1,0,0:0:0:0:
448,192,160260,1,0,0:0:0:0:
64,192,160378,1,0,0:0:0:0:
192,192,160378,1,0,0:0:0:0:
320,192,160496,1,0,0:0:0:0:
448,192,160496,1,0,0:0:0:0:
192,192,160613,1,0,0:0:0:0:
64,192,160613,1,0,0:0:0:0:
320,192,160731,1,0,0:0:0:0:
448,192,160731,1,0,0:0:0:0:
448,192,160849,1,0,0:0:0:0:
320,192,160849,1,0,0:0:0:0:
192,192,160849,1,0,0:0:0:0:
64,192,160849,1,0,0:0:0:0:
64,192,160964,1,0,0:0:0:0:
192,192,160964,1,0,0:0:0:0:
320,192,161079,1,0,0:0:0:0:
448,192,161079,1,0,0:0:0:0:
192,192,161195,1,0,0:0:0:0:
64,192,161195,1,0,0:0:0:0:
320,192,161310,1,0,0:0:0:0:
448,192,161310,1,0,0:0:0:0:
192,192,161425,1,0,0:0:0:0:
64,192,161425,1,0,0:0:0:0:
320,192,161541,1,0,0:0:0:0:
448,192,161541,1,0,0:0:0:0:
192,192,161656,1,0,0:0:0:0:
64,192,161656,1,0,0:0:0:0:
320,192,161772,1,0,0:0:0:0:
448,192,161772,1,0,0:0:0:0:
192,192,161829,1,0,0:0:0:0:
64,192,161829,1,0,0:0:0:0:
320,192,161887,1,0,0:0:0:0:
448,192,161887,1,0,0:0:0:0:
192,192,161945,1,0,0:0:0:0:
64,192,161945,1,0,0:0:0:0:
320,192,162002,1,0,0:0:0:0:
448,192,162002,1,0,0:0:0:0:
192,192,162060,1,0,0:0:0:0:
64,192,162060,1,0,0:0:0:0:
320,192,162118,1,0,0:0:0:0:
448,192,162118,1,0,0:0:0:0:
192,192,162175,1,0,0:0:0:0:
64,192,162175,1,0,0:0:0:0:
320,192,162233,1,0,0:0:0:0:
448,192,162233,1,0,0:0:0:0:
192,192,162291,1,0,0:0:0:0:
64,192,162291,1,0,0:0:0:0:
320,192,162349,1,0,0:0:0:0:
448,192,162349,1,0,0:0:0:0:
192,192,162406,1,0,0:0:0:0:
64,192,162406,1,0,0:0:0:0:
320,192,162464,1,0,0:0:0:0:
448,192,162464,1,0,0:0:0:0:
192,192,162522,1,0,0:0:0:0:
64,192,162522,1,0,0:0:0:0:
320,192,162579,1,0,0:0:0:0:
448,192,162579,1,0,0:0:0:0:
192,192,162695,1,0,0:0:0:0:
64,192,162695,1,0,0:0:0:0:
448,192,162695,1,0,0:0:0:0:
320,192,162925,1,0,0:0:0:0:
320,192,163156,128,0,164079:0:0:0:0:
64,192,164079,1,0,0:0:0:0:
192,192,164079,1,0,0:0:0:0:
448,192,164079,1,0,0:0:0:0:
320,192,164310,1,0,0:0:0:0:
448,192,164310,1,0,0:0:0:0:
64,192,164425,1,0,0:0:0:0:
192,192,164425,1,0,0:0:0:0:
192,192,164541,1,0,0:0:0:0:
320,192,164541,1,0,0:0:0:0:
448,192,164541,1,0,0:0:0:0:
64,192,164656,1,0,0:0:0:0:
320,192,164772,128,0,164829:0:0:0:0:
320,192,164887,128,0,164945:0:0:0:0:
320,192,165002,128,0,165060:0:0:0:0:
64,192,165002,1,0,0:0:0:0:
448,192,165118,128,0,165175:0:0:0:0:
192,192,165233,128,0,165291:0:0:0:0:
64,192,165349,128,0,165406:0:0:0:0:
448,192,165464,1,0,0:0:0:0:
192,192,165464,1,0,0:0:0:0:
320,192,165579,1,0,0:0:0:0:
448,192,165695,1,0,0:0:0:0:
192,192,165695,1,0,0:0:0:0:
64,192,165810,1,0,0:0:0:0:
320,192,165925,128,0,166272:0:0:0:0:
448,192,165925,128,0,166272:0:0:0:0:
64,192,166387,1,0,0:0:0:0:
192,192,166387,1,0,0:0:0:0:
320,192,166387,1,0,0:0:0:0:
448,192,166502,1,0,0:0:0:0:
64,192,166618,128,0,166675:0:0:0:0:
320,192,166733,128,0,166791:0:0:0:0:
192,192,166849,128,0,166906:0:0:0:0:
448,192,166964,128,0,167022:0:0:0:0:
64,192,167079,128,0,167310:0:0:0:0:
320,192,167079,1,0,0:0:0:0:
192,192,167310,1,0,0:0:0:0:
448,192,167310,1,0,0:0:0:0:
320,192,167425,1,0,0:0:0:0:
64,192,167425,1,0,0:0:0:0:
448,192,167541,1,0,0:0:0:0:
192,192,167541,1,0,0:0:0:0:
192,192,167656,1,0,0:0:0:0:
448,192,167656,1,0,0:0:0:0:
320,192,167772,128,0,168002:0:0:0:0:
64,192,168002,1,0,0:0:0:0:
192,192,168002,1,0,0:0:0:0:
448,192,168118,1,0,0:0:0:0:
320,192,168233,1,0,0:0:0:0:
192,192,168233,1,0,0:0:0:0:
64,192,168233,1,0,0:0:0:0:
448,192,168349,1,0,0:0:0:0:
192,192,168464,128,0,168522:0:0:0:0:
192,192,168579,128,0,168637:0:0:0:0:
192,192,168695,128,0,168752:0:0:0:0:
320,192,168695,1,0,0:0:0:0:
192,192,168810,128,0,168868:0:0:0:0:
448,192,168925,128,0,168983:0:0:0:0:
64,192,168925,1,0,0:0:0:0:
320,192,169041,128,0,169099:0:0:0:0:
192,192,169156,1,0,0:0:0:0:
64,192,169156,1,0,0:0:0:0:
448,192,169272,1,0,0:0:0:0:
320,192,169272,1,0,0:0:0:0:
192,192,169387,1,0,0:0:0:0:
64,192,169387,1,0,0:0:0:0:
320,192,169502,1,0,0:0:0:0:
448,192,169618,1,0,0:0:0:0:
192,192,169618,128,0,169849:0:0:0:0:
64,192,169618,128,0,169849:0:0:0:0:
320,192,169849,128,0,170079:0:0:0:0:
448,192,170079,1,0,0:0:0:0:
64,192,170079,1,0,0:0:0:0:
192,192,170195,1,0,0:0:0:0:
448,192,170310,1,0,0:0:0:0:
320,192,170310,1,0,0:0:0:0:
64,192,170425,1,0,0:0:0:0:
192,192,170541,1,0,0:0:0:0:
320,192,170541,1,0,0:0:0:0:
448,192,170656,1,0,0:0:0:0:
64,192,170656,1,0,0:0:0:0:
192,192,170772,1,0,0:0:0:0:
320,192,170772,1,0,0:0:0:0:
64,192,170887,1,0,0:0:0:0:
448,192,171002,1,0,0:0:0:0:
320,192,171002,1,0,0:0:0:0:
64,192,171118,128,0,171349:0:0:0:0:
192,192,171175,128,0,171349:0:0:0:0:
320,192,171233,128,0,171349:0:0:0:0:
64,192,171464,1,0,0:0:0:0:
192,192,171464,1,0,0:0:0:0:
320,192,171464,1,0,0:0:0:0:
448,192,171579,128,0,171810:0:0:0:0:
320,192,171637,128,0,171810:0:0:0:0:
192,192,171695,128,0,171810:0:0:0:0:
192,192,171925,1,0,0:0:0:0:
320,192,171925,1,0,0:0:0:0:
448,192,171925,1,0,0:0:0:0:
64,192,172041,128,0,172156:0:0:0:0:
320,192,174695,1,0,0:0:0:0:
320,192,174810,128,0,174925:0:0:0:0:
64,192,175041,128,0,175272:0:0:0:0:
320,192,175156,1,0,0:0:0:0:
448,192,175156,1,0,0:0:0:0:
192,192,175387,1,0,0:0:0:0:
320,192,175387,1,0,0:0:0:0:
448,192,175387,1,0,0:0:0:0:
192,192,175618,1,0,0:0:0:0:
320,192,175618,1,0,0:0:0:0:
64,192,175618,1,0,0:0:0:0:
448,192,175733,1,0,0:0:0:0:
64,192,175849,128,0,175906:0:0:0:0:
192,192,175849,1,0,0:0:0:0:
64,192,175964,128,0,176022:0:0:0:0:
64,192,176079,128,0,176137:0:0:0:0:
320,192,176079,1,0,0:0:0:0:
64,192,176195,128,0,176252:0:0:0:0:
448,192,176310,128,0,176368:0:0:0:0:
320,192,176425,128,0,176483:0:0:0:0:
192,192,176541,1,0,0:0:0:0:
64,192,176541,1,0,0:0:0:0:
448,192,176656,1,0,0:0:0:0:
192,192,176772,1,0,0:0:0:0:
64,192,176772,1,0,0:0:0:0:
320,192,176887,1,0,0:0:0:0:
448,192,177002,128,0,177233:0:0:0:0:
64,192,177002,128,0,177233:0:0:0:0:
192,192,177233,1,0,0:0:0:0:
320,192,177233,1,0,0:0:0:0:
64,192,177349,1,0,0:0:0:0:
448,192,177464,1,0,0:0:0:0:
320,192,177464,1,0,0:0:0:0:
192,192,177464,1,0,0:0:0:0:
64,192,177579,1,0,0:0:0:0:
192,192,177695,1,0,0:0:0:0:
448,192,177695,1,0,0:0:0:0:
320,192,177810,1,0,0:0:0:0:
64,192,177810,1,0,0:0:0:0:
64,192,177925,1,0,0:0:0:0:
320,192,177925,1,0,0:0:0:0:
192,192,177925,1,0,0:0:0:0:
448,192,178041,1,0,0:0:0:0:
320,192,178156,1,0,0:0:0:0:
64,192,178156,1,0,0:0:0:0:
192,192,178272,1,0,0:0:0:0:
448,192,178387,1,0,0:0:0:0:
320,192,178387,1,0,0:0:0:0:
64,192,178502,128,0,178733:0:0:0:0:
192,192,178560,128,0,178733:0:0:0:0:
320,192,178618,128,0,178733:0:0:0:0:
64,192,178849,1,0,0:0:0:0:
192,192,178849,1,0,0:0:0:0:
320,192,178849,1,0,0:0:0:0:
448,192,178964,128,0,179195:0:0:0:0:
320,192,179022,128,0,179195:0:0:0:0:
192,192,179079,128,0,179195:0:0:0:0:
192,192,179310,1,0,0:0:0:0:
320,192,179310,1,0,0:0:0:0:
448,192,179310,1,0,0:0:0:0:
64,192,179541,1,0,0:0:0:0:
192,192,179599,1,0,0:0:0:0:
320,192,179656,1,0,0:0:0:0:
448,192,179714,1,0,0:0:0:0:
64,192,179772,1,0,0:0:0:0:
192,192,179829,1,0,0:0:0:0:
320,192,179887,1,0,0:0:0:0:
448,192,179945,1,0,0:0:0:0:
64,192,180002,1,0,0:0:0:0:
192,192,180060,1,0,0:0:0:0:
320,192,180118,1,0,0:0:0:0:
448,192,180233,1,0,0:0:0:0:
64,192,180233,1,0,0:0:0:0:
192,192,180233,128,0,180695:0:0:0:0:
320,192,180695,128,0,181156:0:0:0:0:
64,192,181156,128,0,181502:0:0:0:0:
448,192,181502,128,0,181618:0:0:0:0:
192,192,181618,128,0,181849:0:0:0:0:
320,192,181849,128,0,181964:0:0:0:0:
64,192,181964,128,0,182079:0:0:0:0:
448,192,182079,128,0,182310:0:0:0:0:
192,192,182310,128,0,182425:0:0:0:0:
320,192,182425,128,0,182541:0:0:0:0:
64,192,182541,128,0,182656:0:0:0:0:
448,192,182656,128,0,182772:0:0:0:0:
192,192,182772,128,0,182887:0:0:0:0:
320,192,182887,128,0,183002:0:0:0:0:
64,192,183002,128,0,183233:0:0:0:0:
192,192,183233,128,0,183464:0:0:0:0:
320,192,183464,128,0,183695:0:0:0:0:
448,192,183695,128,0,183810:0:0:0:0:
64,192,183810,128,0,183925:0:0:0:0:
192,192,183925,128,0,184849:0:0:0:0:
320,192,183925,128,0,184387:0:0:0:0:
448,192,184387,128,0,185195:0:0:0:0:
64,192,184849,128,0,185310:0:0:0:0:
320,192,185195,128,0,185656:0:0:0:0:
192,192,185310,128,0,185772:0:0:0:0:
448,192,185656,128,0,185772:0:0:0:0:
64,192,185772,128,0,186002:0:0:0:0:
448,192,186002,1,0,0:0:0:0:
192,192,186002,1,0,0:0:0:0:
320,192,186118,1,0,0:0:0:0:
64,192,186233,1,0,0:0:0:0:
192,192,186233,1,0,0:0:0:0:
320,192,186349,1,0,0:0:0:0:
448,192,186349,1,0,0:0:0:0:
64,192,186464,1,0,0:0:0:0:
192,192,186464,1,0,0:0:0:0:
448,192,186579,1,0,0:0:0:0:
64,192,186695,1,0,0:0:0:0:
320,192,186695,1,0,0:0:0:0:
192,192,186810,1,0,0:0:0:0:
448,192,186925,1,0,0:0:0:0:
320,192,186925,1,0,0:0:0:0:
64,192,187041,1,0,0:0:0:0:
192,192,187041,1,0,0:0:0:0:
320,192,187156,1,0,0:0:0:0:
448,192,187156,1,0,0:0:0:0:
64,192,187272,1,0,0:0:0:0:
192,192,187272,1,0,0:0:0:0:
320,192,187387,1,0,0:0:0:0:
448,192,187387,1,0,0:0:0:0:
192,192,187502,1,0,0:0:0:0:
64,192,187502,1,0,0:0:0:0:
64,192,187618,1,0,0:0:0:0:
320,192,187618,1,0,0:0:0:0:
448,192,187618,1,0,0:0:0:0:
192,192,187733,1,0,0:0:0:0:
320,192,187849,1,0,0:0:0:0:
448,192,187849,1,0,0:0:0:0:
64,192,187964,1,0,0:0:0:0:
192,192,188079,1,0,0:0:0:0:
320,192,188079,1,0,0:0:0:0:
448,192,188195,1,0,0:0:0:0:
64,192,188195,1,0,0:0:0:0:
192,192,188310,1,0,0:0:0:0:
320,192,188310,1,0,0:0:0:0:
448,192,188425,1,0,0:0:0:0:
192,192,188541,1,0,0:0:0:0:
64,192,188541,1,0,0:0:0:0:
320,192,188656,1,0,0:0:0:0:
448,192,188772,1,0,0:0:0:0:
64,192,188772,1,0,0:0:0:0:
192,192,188887,1,0,0:0:0:0:
320,192,189002,1,0,0:0:0:0:
448,192,189002,1,0,0:0:0:0:
64,192,189118,1,0,0:0:0:0:
192,192,189118,1,0,0:0:0:0:
320,192,189233,1,0,0:0:0:0:
448,192,189233,1,0,0:0:0:0:
192,192,189349,1,0,0:0:0:0:
64,192,189349,1,0,0:0:0:0:
448,192,189464,1,0,0:0:0:0:
320,192,189464,1,0,0:0:0:0:
64,192,189695,1,0,0:0:0:0:
320,192,189695,1,0,0:0:0:0:
448,192,189925,1,0,0:0:0:0:
192,192,189925,1,0,0:0:0:0:
192,192,190156,1,0,0:0:0:0:
320,192,190156,1,0,0:0:0:0:
448,192,190387,1,0,0:0:0:0:
64,192,190387,1,0,0:0:0:0:
192,192,190387,1,0,0:0:0:0:
320,192,190618,1,0,0:0:0:0:
64,192,190733,1,0,0:0:0:0:
192,192,190733,1,0,0:0:0:0:
320,192,190849,1,0,0:0:0:0:
448,192,190849,1,0,0:0:0:0:
64,192,190964,1,0,0:0:0:0:
192,192,191022,1,0,0:0:0:0:
320,192,191079,1,0,0:0:0:0:
448,192,191137,1,0,0:0:0:0:
64,192,191195,1,0,0:0:0:0:
192,192,191252,1,0,0:0:0:0:
320,192,191310,1,0,0:0:0:0:
448,192,191310,1,0,0:0:0:0:
64,192,191425,1,0,0:0:0:0:
192,192,191541,1,0,0:0:0:0:
448,192,191541,1,0,0:0:0:0:
64,192,191656,1,0,0:0:0:0:
192,192,191772,1,0,0:0:0:0:
320,192,191772,1,0,0:0:0:0:
448,192,191887,1,0,0:0:0:0:
64,192,191887,1,0,0:0:0:0:
192,192,192002,1,0,0:0:0:0:
320,192,192002,1,0,0:0:0:0:
64,192,192118,1,0,0:0:0:0:
192,192,192233,1,0,0:0:0:0:
320,192,192233,1,0,0:0:0:0:
448,192,192233,1,0,0:0:0:0:
64,192,192406,1,0,0:0:0:0:
192,192,192406,1,0,0:0:0:0:
320,192,192406,1,0,0:0:0:0:
320,192,192579,1,0,0:0:0:0:
192,192,192579,1,0,0:0:0:0:
448,192,192579,1,0,0:0:0:0:
64,192,192810,1,0,0:0:0:0:
192,192,192810,1,0,0:0:0:0:
320,192,192925,1,0,0:0:0:0:
448,192,192925,1,0,0:0:0:0:
320,192,193041,1,0,0:0:0:0:
192,192,193041,1,0,0:0:0:0:
64,192,193156,1,0,0:0:0:0:
448,192,193156,1,0,0:0:0:0:
320,192,193272,1,0,0:0:0:0:
192,192,193387,1,0,0:0:0:0:
64,192,193387,1,0,0:0:0:0:
320,192,193502,1,0,0:0:0:0:
448,192,193618,1,0,0:0:0:0:
192,192,193618,1,0,0:0:0:0:
64,192,193733,1,0,0:0:0:0:
320,192,193733,1,0,0:0:0:0:
448,192,193849,1,0,0:0:0:0:
192,192,193849,1,0,0:0:0:0:
320,192,193964,1,0,0:0:0:0:
64,192,194079,1,0,0:0:0:0:
192,192,194079,1,0,0:0:0:0:
320,192,194195,1,0,0:0:0:0:
448,192,194195,1,0,0:0:0:0:
192,192,194310,1,0,0:0:0:0:
64,192,194310,1,0,0:0:0:0:
320,192,194425,1,0,0:0:0:0:
448,192,194425,1,0,0:0:0:0:
192,192,194541,1,0,0:0:0:0:
64,192,194541,1,0,0:0:0:0:
64,192,194772,1,0,0:0:0:0:
192,192,194772,1,0,0:0:0:0:
448,192,194772,1,0,0:0:0:0:
320,192,195002,1,0,0:0:0:0:
64,192,195002,1,0,0:0:0:0:
192,192,195118,1,0,0:0:0:0:
448,192,195233,1,0,0:0:0:0:
320,192,195233,1,0,0:0:0:0:
64,192,195349,1,0,0:0:0:0:
192,192,195464,1,0,0:0:0:0:
320,192,195464,1,0,0:0:0:0:
448,192,195579,1,0,0:0:0:0:
320,192,195695,1,0,0:0:0:0:
64,192,195695,1,0,0:0:0:0:
192,192,195810,1,0,0:0:0:0:
448,192,195925,1,0,0:0:0:0:
64,192,195925,1,0,0:0:0:0:
320,192,196041,1,0,0:0:0:0:
192,192,196156,1,0,0:0:0:0:
64,192,196156,1,0,0:0:0:0:
448,192,196272,1,0,0:0:0:0:
320,192,196387,1,0,0:0:0:0:
192,192,196387,1,0,0:0:0:0:
64,192,196502,1,0,0:0:0:0:
320,192,196618,1,0,0:0:0:0:
448,192,196618,1,0,0:0:0:0:
192,192,196733,1,0,0:0:0:0:
64,192,196849,1,0,0:0:0:0:
320,192,196849,1,0,0:0:0:0:
448,192,196964,1,0,0:0:0:0:
320,192,197079,1,0,0:0:0:0:
192,192,197079,1,0,0:0:0:0:
64,192,197195,1,0,0:0:0:0:
320,192,197310,1,0,0:0:0:0:
448,192,197310,1,0,0:0:0:0:
192,192,197425,1,0,0:0:0:0:
64,192,197541,1,0,0:0:0:0:
448,192,197541,1,0,0:0:0:0:
320,192,197656,1,0,0:0:0:0:
192,192,197772,1,0,0:0:0:0:
64,192,197772,1,0,0:0:0:0:
448,192,197887,1,0,0:0:0:0:
320,192,198002,1,0,0:0:0:0:
64,192,198002,1,0,0:0:0:0:
192,192,198118,1,0,0:0:0:0:
320,192,198233,1,0,0:0:0:0:
448,192,198233,1,0,0:0:0:0:
64,192,198349,1,0,0:0:0:0:
192,192,198464,1,0,0:0:0:0:
320,192,198464,1,0,0:0:0:0:
448,192,198579,1,0,0:0:0:0:
64,192,198695,1,0,0:0:0:0:
192,192,198695,1,0,0:0:0:0:
320,192,198810,1,0,0:0:0:0:
448,192,198925,1,0,0:0:0:0:
192,192,198925,1,0,0:0:0:0:
320,192,199041,1,0,0:0:0:0:
64,192,199156,1,0,0:0:0:0:
448,192,199156,1,0,0:0:0:0:
192,192,199272,1,0,0:0:0:0:
448,192,199387,1,0,0:0:0:0:
64,192,199387,1,0,0:0:0:0:
320,192,199502,1,0,0:0:0:0:
192,192,199618,1,0,0:0:0:0:
64,192,199618,1,0,0:0:0:0:
448,192,199733,1,0,0:0:0:0:
320,192,199849,1,0,0:0:0:0:
192,192,199849,1,0,0:0:0:0:
64,192,199964,1,0,0:0:0:0:
192,192,200079,1,0,0:0:0:0:
448,192,200079,1,0,0:0:0:0:
320,192,200195,1,0,0:0:0:0:
192,192,200310,1,0,0:0:0:0:
64,192,200310,1,0,0:0:0:0:
448,192,200425,1,0,0:0:0:0:
320,192,200541,1,0,0:0:0:0:
192,192,200541,1,0,0:0:0:0:
64,192,200656,1,0,0:0:0:0:
192,192,200772,1,0,0:0:0:0:
448,192,200772,1,0,0:0:0:0:
320,192,200887,1,0,0:0:0:0:
192,192,201002,1,0,0:0:0:0:
64,192,201002,1,0,0:0:0:0:
448,192,201118,1,0,0:0:0:0:
320,192,201233,1,0,0:0:0:0:
64,192,201233,1,0,0:0:0:0:
192,192,201349,1,0,0:0:0:0:
448,192,201464,1,0,0:0:0:0:
320,192,201464,1,0,0:0:0:0:
64,192,201579,1,0,0:0:0:0:
192,192,201695,1,0,0:0:0:0:
320,192,201695,1,0,0:0:0:0:
448,192,201810,1,0,0:0:0:0:
320,192,201925,1,0,0:0:0:0:
64,192,201925,1,0,0:0:0:0:
192,192,202041,1,0,0:0:0:0:
448,192,202156,1,0,0:0:0:0:
320,192,202156,1,0,0:0:0:0:
192,192,202272,1,0,0:0:0:0:
64,192,202387,1,0,0:0:0:0:
192,192,202387,1,0,0:0:0:0:
320,192,202387,1,0,0:0:0:0:
448,192,202387,1,0,0:0:0:0:
448,192,202613,1,0,0:0:0:0:
320,192,202613,1,0,0:0:0:0:
64,192,202613,1,0,0:0:0:0:
64,192,202839,1,0,0:0:0:0:
192,192,202839,1,0,0:0:0:0:
448,192,202839,1,0,0:0:0:0:
448,192,203066,1,0,0:0:0:0:
320,192,203066,1,0,0:0:0:0:
192,192,203066,1,0,0:0:0:0:
64,192,203066,1,0,0:0:0:0:
64,192,203292,1,0,0:0:0:0:
192,192,203292,1,0,0:0:0:0:
320,192,203292,1,0,0:0:0:0:
448,192,203292,1,0,0:0:0:0:
64,192,203519,1,0,0:0:0:0:
192,192,203519,1,0,0:0:0:0:
320,192,203519,1,0,0:0:0:0:
448,192,203745,1,0,0:0:0:0:
320,192,203745,1,0,0:0:0:0:
192,192,203745,1,0,0:0:0:0:
64,192,203971,1,0,0:0:0:0:
192,192,203971,1,0,0:0:0:0:
320,192,203971,1,0,0:0:0:0:
448,192,203971,1,0,0:0:0:0:
64,192,204198,1,0,0:0:0:0:
448,192,204198,1,0,0:0:0:0:
192,192,204307,1,0,0:0:0:0:
448,192,204416,1,0,0:0:0:0:
320,192,204416,1,0,0:0:0:0:
64,192,204525,1,0,0:0:0:0:
192,192,204634,1,0,0:0:0:0:
320,192,204634,1,0,0:0:0:0:
448,192,204743,1,0,0:0:0:0:
192,192,204852,1,0,0:0:0:0:
64,192,204852,1,0,0:0:0:0:
448,192,205070,1,0,0:0:0:0:
64,192,205070,1,0,0:0:0:0:
192,192,205070,1,0,0:0:0:0:
320,192,205070,1,0,0:0:0:0:
448,192,205288,1,0,0:0:0:0:
192,192,205288,1,0,0:0:0:0:
64,192,205288,1,0,0:0:0:0:
64,192,205507,1,0,0:0:0:0:
320,192,205507,1,0,0:0:0:0:
448,192,205507,1,0,0:0:0:0:
448,192,205725,1,0,0:0:0:0:
320,192,205725,1,0,0:0:0:0:
192,192,205725,1,0,0:0:0:0:
64,192,205725,1,0,0:0:0:0:
448,192,205943,1,0,0:0:0:0:
320,192,205943,1,0,0:0:0:0:
192,192,205943,1,0,0:0:0:0:
64,192,205943,1,0,0:0:0:0:
448,192,206153,1,0,0:0:0:0:
320,192,206153,1,0,0:0:0:0:
192,192,206153,1,0,0:0:0:0:
64,192,206364,1,0,0:0:0:0:
192,192,206364,1,0,0:0:0:0:
320,192,206364,1,0,0:0:0:0:
448,192,206574,1,0,0:0:0:0:
192,192,206574,1,0,0:0:0:0:
320,192,206574,1,0,0:0:0:0:
64,192,206574,1,0,0:0:0:0:
64,192,206785,1,0,0:0:0:0:
192,192,206785,1,0,0:0:0:0:
320,192,206785,1,0,0:0:0:0:
448,192,206785,1,0,0:0:0:0:
448,192,206995,1,0,0:0:0:0:
192,192,206995,1,0,0:0:0:0:
64,192,206995,1,0,0:0:0:0:
64,192,207206,1,0,0:0:0:0:
320,192,207206,1,0,0:0:0:0:
448,192,207206,1,0,0:0:0:0:
448,192,207416,1,0,0:0:0:0:
320,192,207416,1,0,0:0:0:0:
192,192,207416,1,0,0:0:0:0:
64,192,207416,1,0,0:0:0:0:
64,192,207627,1,0,0:0:0:0:
192,192,207627,1,0,0:0:0:0:
320,192,207627,1,0,0:0:0:0:
448,192,207627,1,0,0:0:0:0:
448,192,207827,1,0,0:0:0:0:
320,192,207827,1,0,0:0:0:0:
192,192,207827,1,0,0:0:0:0:
64,192,207827,1,0,0:0:0:0:
448,192,208027,1,0,0:0:0:0:
320,192,208027,1,0,0:0:0:0:
64,192,208127,1,0,0:0:0:0:
192,192,208127,1,0,0:0:0:0:
320,192,208227,1,0,0:0:0:0:
448,192,208227,1,0,0:0:0:0:
192,192,208327,1,0,0:0:0:0:
64,192,208327,1,0,0:0:0:0:
448,192,208427,1,0,0:0:0:0:
320,192,208477,1,0,0:0:0:0:
192,192,208527,1,0,0:0:0:0:
64,192,208577,1,0,0:0:0:0:
448,192,208627,1,0,0:0:0:0:
320,192,208677,1,0,0:0:0:0:
192,192,208727,1,0,0:0:0:0:
64,192,208777,1,0,0:0:0:0:
448,192,208827,1,0,0:0:0:0:
320,192,208877,1,0,0:0:0:0:
192,192,208927,1,0,0:0:0:0:
64,192,208977,1,0,0:0:0:0:
448,192,209027,1,0,0:0:0:0:
320,192,209077,1,0,0:0:0:0:
192,192,209127,1,0,0:0:0:0:
64,192,209177,1,0,0:0:0:0:
320,192,209227,1,0,0:0:0:0:
320,192,209427,1,0,0:0:0:0:
320,192,209627,128,0,210427:0:0:0:0:
64,192,210427,1,0,0:0:0:0:
192,192,210427,1,0,0:0:0:0:
448,192,210427,1,0,0:0:0:0:
192,192,210627,1,0,0:0:0:0:
64,192,210627,1,0,0:0:0:0:
448,192,210727,1,0,0:0:0:0:
320,192,210827,1,0,0:0:0:0:
192,192,210827,1,0,0:0:0:0:
448,192,210827,1,0,0:0:0:0:
64,192,210927,1,0,0:0:0:0:
320,192,211027,1,0,0:0:0:0:
448,192,211027,1,0,0:0:0:0:
192,192,211127,1,0,0:0:0:0:
320,192,211227,1,0,0:0:0:0:
64,192,211227,1,0,0:0:0:0:
192,192,211327,1,0,0:0:0:0:
448,192,211427,1,0,0:0:0:0:
64,192,211427,1,0,0:0:0:0:
320,192,211477,1,0,0:0:0:0:
192,192,211527,1,0,0:0:0:0:
64,192,211577,1,0,0:0:0:0:
320,192,211627,1,0,0:0:0:0:
448,192,211627,1,0,0:0:0:0:
192,192,211727,1,0,0:0:0:0:
448,192,211827,1,0,0:0:0:0:
64,192,211827,1,0,0:0:0:0:
320,192,211927,1,0,0:0:0:0:
192,192,212027,1,0,0:0:0:0:
64,192,212027,1,0,0:0:0:0:
320,192,212127,1,0,0:0:0:0:
448,192,212227,1,0,0:0:0:0:
64,192,212227,1,0,0:0:0:0:
192,192,212277,1,0,0:0:0:0:
320,192,212327,1,0,0:0:0:0:
448,192,212377,1,0,0:0:0:0:
64,192,212427,1,0,0:0:0:0:
192,192,212427,1,0,0:0:0:0:
320,192,212527,1,0,0:0:0:0:
64,192,212627,1,0,0:0:0:0:
448,192,212627,1,0,0:0:0:0:
192,192,212727,1,0,0:0:0:0:
320,192,212827,1,0,0:0:0:0:
64,192,212827,1,0,0:0:0:0:
192,192,212927,1,0,0:0:0:0:
320,192,213027,1,0,0:0:0:0:
448,192,213027,1,0,0:0:0:0:
64,192,213127,1,0,0:0:0:0:
192,192,213177,1,0,0:0:0:0:
448,192,213227,1,0,0:0:0:0:
320,192,213227,1,0,0:0:0:0:
64,192,213327,1,0,0:0:0:0:
448,192,213427,1,0,0:0:0:0:
192,192,213427,1,0,0:0:0:0:
320,192,213527,1,0,0:0:0:0:
448,192,213627,1,0,0:0:0:0:
64,192,213627,1,0,0:0:0:0:
192,192,213727,1,0,0:0:0:0:
448,192,213827,1,0,0:0:0:0:
320,192,213877,1,0,0:0:0:0:
192,192,213927,1,0,0:0:0:0:
64,192,213977,1,0,0:0:0:0:
320,192,214027,1,0,0:0:0:0:
448,192,214027,1,0,0:0:0:0:
192,192,214127,1,0,0:0:0:0:
448,192,214227,1,0,0:0:0:0:
64,192,214227,1,0,0:0:0:0:
320,192,214327,1,0,0:0:0:0:
192,192,214427,1,0,0:0:0:0:
64,192,214427,1,0,0:0:0:0:
320,192,214527,1,0,0:0:0:0:
64,192,214627,1,0,0:0:0:0:
192,192,214677,1,0,0:0:0:0:
320,192,214727,1,0,0:0:0:0:
448,192,214727,1,0,0:0:0:0:
192,192,214827,1,0,0:0:0:0:
64,192,214827,1,0,0:0:0:0:
448,192,214927,1,0,0:0:0:0:
192,192,215027,1,0,0:0:0:0:
320,192,215027,1,0,0:0:0:0:
448,192,215127,1,0,0:0:0:0:
64,192,215227,1,0,0:0:0:0:
192,192,215227,1,0,0:0:0:0:
448,192,215327,1,0,0:0:0:0:
64,192,215427,1,0,0:0:0:0:
192,192,215477,1,0,0:0:0:0:
320,192,215527,1,0,0:0:0:0:
448,192,215577,1,0,0:0:0:0:
64,192,215627,1,0,0:0:0:0:
192,192,215627,1,0,0:0:0:0:
320,192,215727,1,0,0:0:0:0:
448,192,215827,1,0,0:0:0:0:
192,192,215827,1,0,0:0:0:0:
64,192,215927,1,0,0:0:0:0:
192,192,216027,1,0,0:0:0:0:
320,192,216027,1,0,0:0:0:0:
448,192,216127,1,0,0:0:0:0:
64,192,216227,1,0,0:0:0:0:
320,192,216227,1,0,0:0:0:0:
192,192,216327,1,0,0:0:0:0:
448,192,216427,1,0,0:0:0:0:
320,192,216427,1,0,0:0:0:0:
64,192,216527,1,0,0:0:0:0:
192,192,216577,1,0,0:0:0:0:
320,192,216627,1,0,0:0:0:0:
448,192,216627,1,0,0:0:0:0:
64,192,216727,1,0,0:0:0:0:
448,192,216827,1,0,0:0:0:0:
192,192,216827,1,0,0:0:0:0:
320,192,216927,1,0,0:0:0:0:
64,192,217027,1,0,0:0:0:0:
192,192,217077,1,0,0:0:0:0:
320,192,217127,1,0,0:0:0:0:
448,192,217177,1,0,0:0:0:0:
64,192,217227,1,0,0:0:0:0:
192,192,217277,1,0,0:0:0:0:
320,192,217327,1,0,0:0:0:0:
448,192,217377,1,0,0:0:0:0:
64,192,217427,1,0,0:0:0:0:
192,192,217477,1,0,0:0:0:0:
320,192,217527,1,0,0:0:0:0:
448,192,217577,1,0,0:0:0:0:
64,192,217627,1,0,0:0:0:0:
192,192,217677,1,0,0:0:0:0:
320,192,217727,1,0,0:0:0:0:
448,192,217777,1,0,0:0:0:0:
64,192,217827,1,0,0:0:0:0:
192,192,217877,1,0,0:0:0:0:
320,192,217927,1,0,0:0:0:0:
448,192,217977,1,0,0:0:0:0:
64,192,218027,1,0,0:0:0:0:
192,192,218077,1,0,0:0:0:0:
320,192,218127,1,0,0:0:0:0:
448,192,218177,1,0,0:0:0:0:
64,192,218227,1,0,0:0:0:0:
192,192,218277,1,0,0:0:0:0:
320,192,218327,1,0,0:0:0:0:
448,192,218377,1,0,0:0:0:0:
64,192,218427,1,0,0:0:0:0:
192,192,218477,1,0,0:0:0:0:
320,192,218527,1,0,0:0:0:0:
448,192,218577,1,0,0:0:0:0:
64,192,218627,1,0,0:0:0:0:
192,192,218677,1,0,0:0:0:0:
320,192,218727,1,0,0:0:0:0:
448,192,218777,1,0,0:0:0:0:
64,192,218827,1,0,0:0:0:0:
192,192,218852,1,0,0:0:0:0:
320,192,218877,1,0,0:0:0:0:
448,192,218902,1,0,0:0:0:0:
64,192,218927,1,0,0:0:0:0:
192,192,218952,1,0,0:0:0:0:
320,192,218977,1,0,0:0:0:0:
448,192,219002,1,0,0:0:0:0:
64,192,219027,1,0,0:0:0:0:
192,192,219052,1,0,0:0:0:0:
320,192,219077,1,0,0:0:0:0:
448,192,219102,1,0,0:0:0:0:
64,192,219127,1,0,0:0:0:0:
192,192,219152,1,0,0:0:0:0:
320,192,219177,1,0,0:0:0:0:
448,192,219202,1,0,0:0:0:0:
64,192,219227,1,0,0:0:0:0:
192,192,219252,1,0,0:0:0:0:
320,192,219277,1,0,0:0:0:0:
448,192,219302,1,0,0:0:0:0:
64,192,219327,1,0,0:0:0:0:
192,192,219352,1,0,0:0:0:0:
320,192,219377,1,0,0:0:0:0:
448,192,219402,1,0,0:0:0:0:
64,192,219427,1,0,0:0:0:0:
192,192,219452,1,0,0:0:0:0:
320,192,219477,1,0,0:0:0:0:
448,192,219502,1,0,0:0:0:0:
64,192,219527,1,0,0:0:0:0:
192,192,219552,1,0,0:0:0:0:
320,192,219577,1,0,0:0:0:0:
448,192,219602,1,0,0:0:0:0:
64,192,219627,1,0,0:0:0:0:
192,192,219652,1,0,0:0:0:0:
320,192,219677,1,0,0:0:0:0:
448,192,219702,1,0,0:0:0:0:
64,192,219727,1,0,0:0:0:0:
192,192,219752,1,0,0:0:0:0:
320,192,219777,1,0,0:0:0:0:
448,192,219802,1,0,0:0:0:0:
64,192,219827,1,0,0:0:0:0:
192,192,219852,1,0,0:0:0:0:
320,192,219877,1,0,0:0:0:0:
448,192,219902,1,0,0:0:0:0:
64,192,219927,1,0,0:0:0:0:
192,192,219952,1,0,0:0:0:0:
320,192,219977,1,0,0:0:0:0:
448,192,220002,1,0,0:0:0:0:
64,192,220027,1,0,0:0:0:0:
192,192,220052,1,0,0:0:0:0:
320,192,220077,1,0,0:0:0:0:
448,192,220102,1,0,0:0:0:0:
64,192,220127,1,0,0:0:0:0:
192,192,220152,1,0,0:0:0:0:
320,192,220177,1,0,0:0:0:0:
448,192,220202,1,0,0:0:0:0:
64,192,220227,1,0,0:0:0:0:
192,192,220252,1,0,0:0:0:0:
320,192,220277,1,0,0:0:0:0:
448,192,220302,1,0,0:0:0:0:
64,192,220327,1,0,0:0:0:0:
192,192,220352,1,0,0:0:0:0:
320,192,220377,1,0,0:0:0:0:
448,192,220402,1,0,0:0:0:0:
64,192,220427,1,0,0:0:0:0:
192,192,220427,1,0,0:0:0:0:
320,192,220627,1,0,0:0:0:0:
448,192,220627,1,0,0:0:0:0:
64,192,220727,1,0,0:0:0:0:
192,192,220727,1,0,0:0:0:0:
448,192,220827,1,0,0:0:0:0:
320,192,220877,1,0,0:0:0:0:
192,192,220927,1,0,0:0:0:0:
64,192,220977,1,0,0:0:0:0:
448,192,221027,1,0,0:0:0:0:
320,192,221077,1,0,0:0:0:0:
192,192,221127,1,0,0:0:0:0:
64,192,221177,1,0,0:0:0:0:
448,192,221227,128,0,221627:0:0:0:0:
192,192,221627,128,0,221927:0:0:0:0:
320,192,221927,128,0,222027:0:0:0:0:
448,192,222027,128,0,222327:0:0:0:0:
64,192,222327,128,0,222427:0:0:0:0:
192,192,222427,128,0,222627:0:0:0:0:
448,192,222627,128,0,222727:0:0:0:0:
320,192,222727,128,0,222827:0:0:0:0:
64,192,222827,128,0,223027:0:0:0:0:
192,192,223027,128,0,223127:0:0:0:0:
448,192,223127,128,0,223227:0:0:0:0:
320,192,223227,128,0,223327:0:0:0:0:
64,192,223327,128,0,223427:0:0:0:0:
192,192,223427,128,0,223527:0:0:0:0:
448,192,223527,128,0,223627:0:0:0:0:
320,192,223627,128,0,223827:0:0:0:0:
64,192,223827,128,0,224027:0:0:0:0:
192,192,224027,128,0,224227:0:0:0:0:
448,192,224227,128,0,224327:0:0:0:0:
320,192,224327,128,0,224427:0:0:0:0:
64,192,224427,128,0,224827:0:0:0:0:
192,192,224627,128,0,224827:0:0:0:0:
448,192,224827,128,0,225327:0:0:0:0:
192,192,225327,128,0,225627:0:0:0:0:
320,192,225627,128,0,226227:0:0:0:0:
64,192,225927,128,0,226227:0:0:0:0:
192,192,226227,128,0,226427:0:0:0:0:
448,192,226427,128,0,226627:0:0:0:0:
64,192,226627,128,0,227127:0:0:0:0:
448,192,227027,128,0,227327:0:0:0:0:
320,192,227127,128,0,227327:0:0:0:0:
192,192,227327,128,0,227427:0:0:0:0:
64,192,227427,128,0,227627:0:0:0:0:
320,192,227527,128,0,227627:0:0:0:0:
448,192,227627,128,0,227827:0:0:0:0:
64,192,227827,128,0,229627:0:0:0:0:
192,192,227927,128,0,229627:0:0:0:0:
448,192,232427,1,0,0:0:0:0:
192,192,232427,1,0,0:0:0:0:
64,192,232427,1,0,0:0:0:0:
320,192,232637,1,0,0:0:0:0:
64,192,232795,1,0,0:0:0:0:
192,192,232795,1,0,0:0:0:0:
448,192,232953,1,0,0:0:0:0:
320,192,233111,1,0,0:0:0:0:
192,192,233111,1,0,0:0:0:0:
64,192,233269,1,0,0:0:0:0:
192,192,233269,1,0,0:0:0:0:
448,192,233427,1,0,0:0:0:0:
320,192,233427,1,0,0:0:0:0:
64,192,233585,1,0,0:0:0:0:
192,192,233743,1,0,0:0:0:0:
448,192,233743,1,0,0:0:0:0:
320,192,233901,1,0,0:0:0:0:
64,192,234058,1,0,0:0:0:0:
192,192,234058,1,0,0:0:0:0:
448,192,234216,1,0,0:0:0:0:
320,192,234374,1,0,0:0:0:0:
192,192,234374,1,0,0:0:0:0:
64,192,234532,1,0,0:0:0:0:
192,192,234532,1,0,0:0:0:0:
448,192,234690,1,0,0:0:0:0:
320,192,234690,1,0,0:0:0:0:
64,192,234848,1,0,0:0:0:0:
192,192,234848,1,0,0:0:0:0:
448,192,235006,1,0,0:0:0:0:
192,192,235006,1,0,0:0:0:0:
64,192,235006,1,0,0:0:0:0:
320,192,235164,1,0,0:0:0:0:
64,192,235322,1,0,0:0:0:0:
192,192,235322,1,0,0:0:0:0:
320,192,235322,1,0,0:0:0:0:
448,192,235480,1,0,0:0:0:0:
320,192,235637,1,0,0:0:0:0:
192,192,235637,1,0,0:0:0:0:
448,192,235637,1,0,0:0:0:0:
64,192,235795,1,0,0:0:0:0:
320,192,235953,1,0,0:0:0:0:
448,192,235953,1,0,0:0:0:0:
192,192,235953,1,0,0:0:0:0:
192,192,236111,1,0,0:0:0:0:
64,192,236269,1,0,0:0:0:0:
448,192,236269,1,0,0:0:0:0:
320,192,236269,1,0,0:0:0:0:
192,192,236427,1,0,0:0:0:0:
320,192,236585,1,0,0:0:0:0:
448,192,236585,1,0,0:0:0:0:
192,192,236743,1,0,0:0:0:0:
448,192,236901,1,0,0:0:0:0:
320,192,236901,1,0,0:0:0:0:
64,192,236901,1,0,0:0:0:0:
192,192,237058,1,0,0:0:0:0:
320,192,237137,1,0,0:0:0:0:
448,192,237216,1,0,0:0:0:0:
64,192,237216,1,0,0:0:0:0:
320,192,237374,1,0,0:0:0:0:
192,192,237532,1,0,0:0:0:0:
448,192,237532,1,0,0:0:0:0:
64,192,237690,1,0,0:0:0:0:
192,192,237848,1,0,0:0:0:0:
320,192,237848,1,0,0:0:0:0:
448,192,238006,1,0,0:0:0:0:
320,192,238164,1,0,0:0:0:0:
64,192,238164,1,0,0:0:0:0:
192,192,238322,1,0,0:0:0:0:
64,192,238322,1,0,0:0:0:0:
320,192,238480,1,0,0:0:0:0:
448,192,238480,1,0,0:0:0:0:
64,192,238637,1,0,0:0:0:0:
192,192,238795,1,0,0:0:0:0:
320,192,238795,1,0,0:0:0:0:
448,192,238795,1,0,0:0:0:0:
64,192,239032,1,0,0:0:0:0:
192,192,239032,1,0,0:0:0:0:
320,192,239032,1,0,0:0:0:0:
192,192,239269,1,0,0:0:0:0:
320,192,239269,1,0,0:0:0:0:
448,192,239269,1,0,0:0:0:0:
192,192,239427,1,0,0:0:0:0:
448,192,239427,1,0,0:0:0:0:
64,192,239585,1,0,0:0:0:0:
320,192,239585,1,0,0:0:0:0:
320,192,239743,1,0,0:0:0:0:
448,192,239743,1,0,0:0:0:0:
64,192,239901,1,0,0:0:0:0:
192,192,239901,1,0,0:0:0:0:
192,192,240058,1,0,0:0:0:0:
320,192,240058,1,0,0:0:0:0:
448,192,240216,1,0,0:0:0:0:
64,192,240216,1,0,0:0:0:0:
192,192,240374,1,0,0:0:0:0:
320,192,240374,1,0,0:0:0:0:
448,192,240532,1,0,0:0:0:0:
64,192,240532,1,0,0:0:0:0:
64,192,240690,1,0,0:0:0:0:
192,192,240690,1,0,0:0:0:0:
448,192,240848,1,0,0:0:0:0:
320,192,240848,1,0,0:0:0:0:
64,192,241006,1,0,0:0:0:0:
192,192,241006,1,0,0:0:0:0:
320,192,241164,1,0,0:0:0:0:
448,192,241164,1,0,0:0:0:0:
64,192,241322,1,0,0:0:0:0:
192,192,241322,1,0,0:0:0:0:
320,192,241401,1,0,0:0:0:0:
448,192,241480,1,0,0:0:0:0:
64,192,241558,1,0,0:0:0:0:
192,192,241637,1,0,0:0:0:0:
320,192,241637,1,0,0:0:0:0:
448,192,241716,1,0,0:0:0:0:
320,192,241795,1,0,0:0:0:0:
192,192,241874,1,0,0:0:0:0:
64,192,241953,1,0,0:0:0:0:
448,192,241953,1,0,0:0:0:0:
320,192,242032,1,0,0:0:0:0:
192,192,242111,1,0,0:0:0:0:
64,192,242190,1,0,0:0:0:0:
448,192,242269,1,0,0:0:0:0:
320,192,242269,1,0,0:0:0:0:
192,192,242348,1,0,0:0:0:0:
64,192,242427,1,0,0:0:0:0:
192,192,242506,1,0,0:0:0:0:
320,192,242585,1,0,0:0:0:0:
448,192,242585,1,0,0:0:0:0:
64,192,242585,1,0,0:0:0:0:
192,192,242743,1,0,0:0:0:0:
448,192,242901,1,0,0:0:0:0:
320,192,242901,1,0,0:0:0:0:
64,192,243058,1,0,0:0:0:0:
192,192,243216,1,0,0:0:0:0:
448,192,243216,1,0,0:0:0:0:
320,192,243374,1,0,0:0:0:0:
192,192,243532,1,0,0:0:0:0:
64,192,243532,1,0,0:0:0:0:
448,192,243690,1,0,0:0:0:0:
320,192,243848,1,0,0:0:0:0:
192,192,243848,1,0,0:0:0:0:
64,192,244006,1,0,0:0:0:0:
192,192,244164,1,0,0:0:0:0:
448,192,244164,1,0,0:0:0:0:
320,192,244322,1,0,0:0:0:0:
64,192,244480,1,0,0:0:0:0:
192,192,244480,1,0,0:0:0:0:
448,192,244637,1,0,0:0:0:0:
320,192,244795,1,0,0:0:0:0:
64,192,244795,1,0,0:0:0:0:
192,192,244953,1,0,0:0:0:0:
64,192,245111,1,0,0:0:0:0:
448,192,245111,1,0,0:0:0:0:
320,192,245269,1,0,0:0:0:0:
192,192,245427,1,0,0:0:0:0:
64,192,245427,1,0,0:0:0:0:
320,192,245506,1,0,0:0:0:0:
448,192,245585,1,0,0:0:0:0:
64,192,245743,1,0,0:0:0:0:
192,192,245743,1,0,0:0:0:0:
448,192,245901,1,0,0:0:0:0:
320,192,245901,1,0,0:0:0:0:
64,192,246058,1,0,0:0:0:0:
320,192,246058,1,0,0:0:0:0:
192,192,246216,1,0,0:0:0:0:
320,192,246374,1,0,0:0:0:0:
448,192,246374,1,0,0:0:0:0:
64,192,246532,1,0,0:0:0:0:
192,192,246532,1,0,0:0:0:0:
448,192,246690,1,0,0:0:0:0:
320,192,246690,1,0,0:0:0:0:
64,192,246690,1,0,0:0:0:0:
448,192,246848,1,0,0:0:0:0:
320,192,246848,1,0,0:0:0:0:
64,192,247006,1,0,0:0:0:0:
192,192,247006,1,0,0:0:0:0:
320,192,247085,1,0,0:0:0:0:
448,192,247164,1,0,0:0:0:0:
64,192,247322,1,0,0:0:0:0:
192,192,247322,1,0,0:0:0:0:
320,192,247480,1,0,0:0:0:0:
192,192,247480,1,0,0:0:0:0:
448,192,247637,1,0,0:0:0:0:
320,192,247637,1,0,0:0:0:0:
64,192,247637,1,0,0:0:0:0:
192,192,247795,1,0,0:0:0:0:
448,192,247953,1,0,0:0:0:0:
64,192,247953,1,0,0:0:0:0:
320,192,248111,1,0,0:0:0:0:
192,192,248269,1,0,0:0:0:0:
64,192,248269,1,0,0:0:0:0:
448,192,248427,1,0,0:0:0:0:
320,192,248585,1,0,0:0:0:0:
192,192,248585,1,0,0:0:0:0:
64,192,248743,1,0,0:0:0:0:
192,192,248901,1,0,0:0:0:0:
448,192,248901,1,0,0:0:0:0:
320,192,249058,1,0,0:0:0:0:
320,192,249216,128,0,249374:0:0:0:0:
448,192,249374,1,0,0:0:0:0:
64,192,249532,1,0,0:0:0:0:
192,192,249532,1,0,0:0:0:0:
448,192,249690,1,0,0:0:0:0:
320,192,249690,1,0,0:0:0:0:
320,192,249848,1,0,0:0:0:0:
64,192,249848,1,0,0:0:0:0:
192,192,250006,1,0,0:0:0:0:
448,192,250164,1,0,0:0:0:0:
320,192,250164,1,0,0:0:0:0:
192,192,250243,1,0,0:0:0:0:
64,192,250243,1,0,0:0:0:0:
320,192,250322,1,0,0:0:0:0:
448,192,250322,1,0,0:0:0:0:
192,192,250401,1,0,0:0:0:0:
64,192,250480,1,0,0:0:0:0:
448,192,250637,1,0,0:0:0:0:
320,192,250716,1,0,0:0:0:0:
192,192,250795,1,0,0:0:0:0:
64,192,250795,1,0,0:0:0:0:
448,192,250953,1,0,0:0:0:0:
320,192,251032,1,0,0:0:0:0:
192,192,251111,1,0,0:0:0:0:
64,192,251111,1,0,0:0:0:0:
320,192,251269,1,0,0:0:0:0:
192,192,251269,1,0,0:0:0:0:
64,192,251427,1,0,0:0:0:0:
448,192,251427,1,0,0:0:0:0:
320,192,251506,1,0,0:0:0:0:
192,192,251585,1,0,0:0:0:0:
64,192,251743,1,0,0:0:0:0:
448,192,251743,1,0,0:0:0:0:
192,192,251822,1,0,0:0:0:0:
320,192,251901,1,0,0:0:0:0:
64,192,252058,1,0,0:0:0:0:
192,192,252058,1,0,0:0:0:0:
320,192,252137,1,0,0:0:0:0:
448,192,252216,1,0,0:0:0:0:
64,192,252295,1,0,0:0:0:0:
192,192,252374,1,0,0:0:0:0:
320,192,252374,1,0,0:0:0:0:
448,192,252453,1,0,0:0:0:0:
64,192,252532,1,0,0:0:0:0:
192,192,252611,1,0,0:0:0:0:
320,192,252690,1,0,0:0:0:0:
448,192,252690,1,0,0:0:0:0:
64,192,252769,1,0,0:0:0:0:
192,192,252848,1,0,0:0:0:0:
320,192,252927,1,0,0:0:0:0:
448,192,253006,1,0,0:0:0:0:
64,192,253006,1,0,0:0:0:0:
192,192,253164,1,0,0:0:0:0:
320,192,253243,1,0,0:0:0:0:
192,192,253322,1,0,0:0:0:0:
320,192,253401,1,0,0:0:0:0:
192,192,253480,1,0,0:0:0:0:
448,192,253637,1,0,0:0:0:0:
320,192,253637,1,0,0:0:0:0:
64,192,253716,1,0,0:0:0:0:
192,192,253716,1,0,0:0:0:0:
320,192,253795,1,0,0:0:0:0:
448,192,253795,1,0,0:0:0:0:
192,192,253874,1,0,0:0:0:0:
64,192,253874,1,0,0:0:0:0:
320,192,253953,128,0,261532:0:0:0:0:
448,192,253953,128,0,261532:0:0:0:0:
