osu file format v14

[General]
AudioFilename: audio.ogg
AudioLeadIn: 0
PreviewTime: 6167
Countdown: 0
SampleSet: Soft
StackLeniency: 0.7
Mode: 0
LetterboxInBreaks: 0
WidescreenStoryboard: 1

[Editor]
Bookmarks: 292,6292,18292,30292,39292
DistanceSpacing: 1.6
BeatDivisor: 6
GridSize: 16
TimelineZoom: 1.4

[Metadata]
Title:Yuki no Machi to Kuusou Time Machine (TV Size)
TitleUnicode:雪の街と空想タイムマシン (TV Size)
Artist:Nanahashi Minori (CV: Takahashi Rie)
ArtistUnicode:七橋御乃梨(CV: 高橋李依)
Creator:midorijeon
Version:Together
Source:OneRoom サードシーズン
Tags:one room season 3 カントク kantoku japanese pop jpop j-pop anime
BeatmapID:4527582
BeatmapSetID:2149214

[Difficulty]
HPDrainRate:5
CircleSize:4.2
OverallDifficulty:8
ApproachRate:9
SliderMultiplier:3.2
SliderTickRate:1

[Events]
//Background and Video events
0,0,"1.jpg",0,0
//Break Periods
//Storyboard Layer 0 (Background)
//Storyboard Layer 1 (Fail)
//Storyboard Layer 2 (Pass)
//Storyboard Layer 3 (Foreground)
//Storyboard Layer 4 (Overlay)
//Storyboard Sound Samples

[TimingPoints]
292,750,4,2,2,60,1,0
292,-125,4,2,2,60,0,0
667,-125,4,2,1,60,0,0
2542,-125,4,2,16,60,0,0
3292,-125,4,2,2,60,0,0
3667,-125,4,2,1,60,0,0
4667,-100,4,2,1,60,0,0
4792,-100,4,2,1,70,0,0
5167,-100,4,2,4,70,0,0
5417,-100,4,2,5,70,0,0
6292,750,4,2,1,80,1,0
6292,-83.3333333333333,4,2,1,80,0,0
6667,-83.3333333333333,4,2,13,80,0,0
6917,-83.3333333333333,4,2,1,80,0,0
7042,-83.3333333333333,4,2,13,80,0,0
7667,-83.3333333333333,4,2,1,80,0,0
7792,-83.3333333333333,4,2,13,80,0,0
8792,-83.3333333333333,4,2,1,80,0,0
8917,-83.3333333333333,4,2,13,80,0,0
9042,-83.3333333333333,4,2,5,80,0,0
9292,-83.3333333333333,4,2,13,80,0,0
9917,-83.3333333333333,4,2,1,80,0,0
10042,-83.3333333333333,4,2,13,80,0,0
10667,-83.3333333333333,4,2,1,80,0,0
10792,-83.3333333333333,4,2,13,80,0,0
11792,-83.3333333333333,4,2,1,80,0,0
11917,-83.3333333333333,4,2,13,80,0,0
12292,-83.3333333333333,4,2,5,80,0,0
12667,-83.3333333333333,4,2,13,80,0,0
13042,-83.3333333333333,4,2,14,80,0,0
13417,-83.3333333333333,4,2,13,80,0,0
13667,-83.3333333333333,4,2,5,80,0,0
14167,-83.3333333333333,4,2,13,80,0,0
14542,-83.3333333333333,4,2,14,80,0,0
14792,-83.3333333333333,4,2,13,80,0,0
15292,-83.3333333333333,4,2,5,80,0,0
15667,-83.3333333333333,4,2,13,80,0,0
15917,-83.3333333333333,4,2,1,80,0,0
16042,-83.3333333333333,4,2,14,80,0,0
16292,-83.3333333333333,4,2,13,80,0,0
16792,-71.4285714285714,4,2,5,80,0,0
17417,-71.4285714285714,4,2,10,80,0,0
17792,-71.4285714285714,4,2,5,80,0,0
18292,-83.3333333333333,4,2,1,80,0,0
18667,-83.3333333333333,4,2,13,80,0,0
20417,-83.3333333333333,4,2,1,80,0,0
20542,-83.3333333333333,4,2,14,80,0,0
20792,-83.3333333333333,4,2,1,80,0,0
20917,-83.3333333333333,4,2,13,80,0,0
21167,-83.3333333333333,4,2,5,80,0,0
21292,-83.3333333333333,4,2,1,80,0,0
22042,-83.3333333333333,4,2,5,80,0,0
22417,-83.3333333333333,4,2,1,80,0,0
23167,-83.3333333333333,4,2,5,80,0,0
23417,-83.3333333333333,4,2,13,80,0,0
23792,-83.3333333333333,4,2,1,80,0,0
23917,-83.3333333333333,4,2,4,80,0,0
24167,-83.3333333333333,4,2,5,80,0,0
24667,-83.3333333333333,4,2,6,80,0,0
24917,-83.3333333333333,4,2,1,80,0,0
25042,-83.3333333333333,4,2,6,80,0,0
25292,-83.3333333333333,4,2,1,80,0,0
25417,-83.3333333333333,4,2,6,80,0,0
25667,-83.3333333333333,4,2,5,80,0,0
25792,-83.3333333333333,4,2,6,80,0,0
26167,-83.3333333333333,4,2,4,80,0,0
26792,-83.3333333333333,4,2,5,80,0,0
27292,-71.4285714285714,4,2,1,80,0,0
27667,-71.4285714285714,4,2,3,80,0,0
28042,-71.4285714285714,4,2,4,80,0,0
28292,-71.4285714285714,4,2,1,80,0,0
28417,-71.4285714285714,4,2,4,80,0,0
28667,-71.4285714285714,4,2,5,80,0,0
28792,-71.4285714285714,4,2,6,80,0,0
29167,-71.4285714285714,4,2,4,80,0,0
29542,-71.4285714285714,4,2,5,80,0,0
29917,-71.4285714285714,4,2,4,80,0,0
30042,-71.4285714285714,4,2,5,80,0,0
30167,-83.3333333333333,4,2,5,80,0,0
30292,-83.3333333333333,4,2,1,80,0,0
30667,-83.3333333333333,4,2,13,80,0,0
31042,-83.3333333333333,4,2,5,80,0,0
31417,-83.3333333333333,4,2,13,80,0,0
32417,-83.3333333333333,4,2,5,80,0,0
33292,-83.3333333333333,4,2,1,80,0,0
34042,-83.3333333333333,4,2,5,80,0,0
34417,-83.3333333333333,4,2,1,80,0,0
35167,-83.3333333333333,4,2,5,80,0,0
35917,-83.3333333333333,4,2,4,80,0,0
36167,-83.3333333333333,4,2,5,80,0,0
36292,-100,4,2,1,80,0,0
37042,-125,4,2,5,80,0,0
37792,-111.111111111111,4,2,1,80,0,0
39292,-166.666666666667,4,2,2,50,0,0

[Colours]
Combo1 : 196,231,235
Combo2 : 177,114,95
Combo3 : 139,193,167
Combo4 : 62,112,97
Combo5 : 228,176,141
Combo6 : 130,159,170

[HitObjects]
132,197,292,6,0,B|166:217|166:217|212:217|246:186,1,128,2|0,0:0|0:0,0:0:0:0:
367,62,1042,2,0,P|429:61|465:112,1,128,10|2,0:0|0:0,0:0:0:0:
467,286,1667,5,2,0:0:0:0:
459,276,1792,2,0,P|417:267|377:253,1,85.3333333333333,0|2,0:0|0:0,0:0:0:0:
317,307,2167,2,0,P|275:316|235:330,1,85.3333333333333,2|2,0:0|0:0,0:0:0:0:
156,323,2542,2,0,B|147:292|177:253|174:289|206:245|193:208,1,128,10|2,0:0|0:0,0:0:0:0:
259,111,3167,5,2,0:0:0:0:
251,100,3291,2,0,P|215:78|174:81,1,85.3333333333333,2|0,0:0|0:0,0:0:0:0:
96,33,3667,2,0,P|59:53|41:91,1,85.3333333333333,2|0,0:0|0:0,0:0:0:0:
107,163,4042,2,0,B|101:215|101:215|83:229|83:229|75:281,1,127.99999609375,10|2,0:0|0:0,0:0:0:0:
14,30,4667,5,2,0:0:0:0:
25,41,4792,2,0,P|39:76|41:109,1,53.3333333333333,2|0,1:2|0:0,0:0:0:0:
107,163,5042,1,2,1:2:0:0:
118,152,5167,2,0,P|132:117|134:84,1,53.3333333333333,10|0,0:0|0:0,0:0:0:0:
219,23,5417,5,2,1:2:0:0:
231,34,5542,2,0,B|255:23|291:42|261:44|301:65|330:49,1,106.666666666667,10|10,0:0|0:0,0:0:0:0:
507,120,5917,5,10,0:0:0:0:
434,91,6042,1,8,0:0:0:0:
366,128,6167,1,8,0:0:0:0:
358,212,6292,6,0,B|323:233|323:233|277:233|243:201,1,127.99999609375,6|0,1:2|0:0,0:0:0:0:
176,125,6667,2,0,P|207:118|237:108,1,63.9999980468751,2|0,0:0|0:0,0:0:0:0:
142,209,6917,1,2,0:0:0:0:
149,227,7042,2,0,P|128:287|116:350,1,127.99999609375,10|0,0:0|0:0,0:0:0:0:
131,363,7417,2,0,P|178:358|198:342,1,63.9999980468751,2|0,0:0|0:0,0:0:0:0:
39,206,7667,6,0,P|4:155|20:95,1,127.99999609375,2|0,1:2|0:0,0:0:0:0:
79,25,8042,1,8,0:0:0:0:
93,38,8167,2,0,P|107:66|110:98,1,63.9999980468751,2|0,1:2|0:0,0:0:0:0:
207,174,8417,1,0,0:0:0:0:
223,162,8542,2,0,P|237:134|240:102,1,63.9999980468751,10|0,0:0|0:0,0:0:0:0:
193,16,8792,1,2,0:0:0:0:
193,16,8917,1,2,0:0:0:0:
188,266,9167,5,10,0:0:0:0:
201,280,9292,2,0,B|213:247|258:241|281:258|281:258|266:271|258:291,1,127.99999609375,2|0,1:2|0:0,0:0:0:0:
248,362,9667,2,0,B|268:372|268:372|286:354|311:357,1,63.9999980468751,2|0,0:0|0:0,0:0:0:0:
460,292,9917,1,2,1:2:0:0:
477,283,10042,2,0,P|506:226|509:163,1,127.99999609375,10|0,0:0|0:0,0:0:0:0:
458,90,10417,1,2,0:0:0:0:
272,180,10667,5,2,1:2:0:0:
281,163,10792,2,0,P|277:131|263:102,1,63.9999980468751,2|0,0:0|0:0,0:0:0:0:
371,144,11042,1,8,0:0:0:0:
380,161,11167,2,0,P|376:192|362:221,1,63.9999980468751,2|0,1:2|0:0,0:0:0:0:
276,325,11417,1,0,0:0:0:0:
263,312,11542,2,0,B|226:289|190:313|190:313|179:355|138:359,1,127.99999609375,10|2,0:0|1:2,0:0:0:0:
65,340,11917,2,0,B|47:361|47:361|79:344,1,63.9999980468751,10|8,0:0|0:0,0:0:0:0:
171,235,12167,5,8,0:0:0:0:
177,217,12292,2,0,B|181:185|150:148|155:184|119:145|130:106,1,127.99999609375,6|0,1:2|0:0,0:0:0:0:
238,42,12667,2,0,P|223:70|220:102,1,63.9999980468751,2|0,1:2|0:0,0:0:0:0:
139,15,12917,5,0,0:0:0:0:
139,15,13042,1,10,0:0:0:0:
353,267,13417,6,0,P|342:297|336:328,1,63.9999980468751,2|0,0:0|0:0,0:0:0:0:
433,222,13667,1,10,0:0:0:0:
450,213,13792,2,0,P|482:161|474:96,1,127.99999609375,2|10,1:3|0:0,0:0:0:0:
388,139,14167,2,0,B|353:160|353:160|307:160|273:128,1,127.99999609375,2|0,0:0|1:2,0:0:0:0:
224,63,14542,1,10,0:0:0:0:
3,240,14917,5,10,0:0:0:0:
94,366,15167,1,8,0:0:0:0:
88,348,15292,2,0,P|100:285|120:224,1,127.99999609375,2|0,1:3|0:0,0:0:0:0:
50,150,15667,2,0,P|43:118|33:88,1,63.9999980468751,2|0,1:2|0:0,0:0:0:0:
140,47,15917,5,2,0:0:0:0:
133,64,16042,2,0,P|139:95|149:125,1,63.9999980468751,10|0,0:0|0:0,0:0:0:0:
229,229,16292,1,0,1:2:0:0:
246,238,16417,2,0,B|283:215|319:239|319:239|330:281|371:285,1,127.99999609375,10|8,0:0|0:0,0:0:0:0:
479,353,16792,6,0,B|468:317|497:268|498:311|532:259|512:217,1,149.333328776042,6|2,1:2|1:2,0:0:0:0:
448,145,17167,2,0,B|421:122|421:122|440:157,1,74.6666643880209,10|0,0:0|0:0,0:0:0:0:
512,32,17417,5,2,1:2:0:0:
512,32,17792,1,2,1:2:0:0:
448,145,17917,2,0,B|407:169|407:169|353:169|313:132,1,149.333328776042,12|8,0:0|0:0,0:0:0:0:
267,8,18292,6,0,P|217:43|217:104,1,127.99999609375,6|0,1:2|0:0,0:0:0:0:
315,134,18667,2,0,B|273:110|204:135|257:146|182:176|133:140,1,191.999994140625,2|10,0:0|0:0,0:0:0:0:
7,208,19292,1,0,0:0:0:0:
21,221,19417,2,0,P|35:249|38:281,1,63.9999980468751,2|0,0:0|0:0,0:0:0:0:
87,369,19667,5,8,0:0:0:0:
104,359,19792,2,0,P|136:306|131:243,1,127.99999609375,2|8,1:2|0:0,0:0:0:0:
90,163,20167,1,2,1:2:0:0:
242,94,20417,1,2,0:0:0:0:
255,108,20542,2,0,B|296:128|296:128|331:92|382:98,1,127.99999609375,10|2,0:0|1:2,0:0:0:0:
495,95,20917,5,10,0:0:0:0:
452,157,21042,1,8,0:0:0:0:
449,234,21167,1,10,0:0:0:0:
486,301,21292,6,0,P|438:261|376:264,1,127.99999609375,6|0,1:2|0:0,0:0:0:0:
283,304,21667,2,0,B|287:330|287:330|296:337|296:337|299:363,1,63.9999980468751,2|0,0:0|0:0,0:0:0:0:
161,275,21917,5,2,1:2:0:0:
143,262,22042,2,0,P|123:203|149:147,1,127.99999609375,14|2,0:0|1:2,0:0:0:0:
294,192,22417,2,0,P|263:199|233:209,1,63.9999980468751,10|0,0:3|0:0,0:0:0:0:
19,58,22667,5,2,0:0:0:0:
94,19,22792,2,0,P|154:39|217:53,1,127.99999609375,6|0,1:2|1:2,0:0:0:0:
300,100,23167,2,0,B|318:79|318:79|286:96,1,63.9999980468751,10|0,0:0|0:0,0:0:0:0:
57,197,23417,2,0,B|94:174|130:198|130:198|141:240|182:244,1,127.99999609375,2|0,1:2|0:0,0:0:0:0:
222,364,23792,5,2,1:2:0:0:
215,347,23917,2,0,P|221:316|231:286,1,63.9999980468751,10|0,0:0|0:0,0:0:0:0:
363,276,24167,5,10,0:0:0:0:
370,294,24292,2,0,B|405:315|405:315|451:315|485:283,1,127.99999609375,6|2,1:2|0:0,0:0:0:0:
447,164,24667,2,0,P|425:186|421:217,1,63.9999980468751,2|0,0:0|0:0,0:0:0:0:
283,304,24917,1,2,0:0:0:0:
265,291,25042,2,0,P|244:231|270:175,1,127.99999609375,10|2,1:2|0:0,0:0:0:0:
346,134,25417,1,2,0:0:0:0:
152,75,25667,5,10,0:0:0:0:
139,89,25792,2,0,B|98:109|98:109|63:73|12:79,1,127.99999609375,2|8,1:2|0:0,0:0:0:0:
207,18,26167,2,1,B|236:39|234:74|234:74|248:44|283:40,1,127.99999609375,2|0,0:0|1:2,0:0:0:0:
367,32,26542,2,0,P|366:63|350:91,1,63.9999980468751,10|0,0:0|0:0,0:0:0:0:
198,192,26792,5,2,1:2:0:0:
179,188,26917,1,10,0:0:0:0:
121,241,27042,1,8,0:0:0:0:
115,319,27167,1,10,0:0:0:0:
171,374,27292,6,0,P|220:322|291:336,1,149.333328776042,6|0,1:2|0:0,0:0:0:0:
371,365,27667,2,0,P|407:368|437:347,1,74.6666643880209,2|0,0:3|0:0,0:0:0:0:
467,142,27917,1,0,1:2:0:0:
447,152,28042,2,0,B|407:150|381:122|381:122|370:163|332:175,1,149.333328776042,10|2,0:0|1:2,0:0:0:0:
256,248,28417,2,0,B|294:260|305:301|305:301|331:273|371:271,1,149.333328776042,10|10,0:0|0:0,0:0:0:0:
174,159,28792,6,0,P|201:91|174:23,1,149.333328776042,2|0,1:2|1:2,0:0:0:0:
37,72,29167,2,0,P|73:80|109:92,1,74.6666643880209,10|0,0:0|0:0,0:0:0:0:
338,54,29417,1,0,1:2:0:0:
317,63,29542,2,0,P|244:47|173:23,1,149.333328776042,14|0,0:0|1:2,0:0:0:0:
86,181,29917,2,0,P|98:216|106:253,1,74.6666643880209,10|10,0:0|0:0,0:0:0:0:
267,320,30167,5,10,0:0:0:0:
258,303,30292,2,0,B|266:251|266:251|284:237|284:237|290:185,1,127.99999609375,6|0,1:2|0:0,0:0:0:0:
297,98,30667,1,2,0:0:0:0:
499,252,30917,1,0,1:2:0:0:
483,263,31042,2,0,B|448:284|448:284|402:284|368:252,1,127.99999609375,14|0,0:0|0:0,0:0:0:0:
291,185,31417,1,2,0:0:0:0:
38,284,31667,5,8,0:0:0:0:
56,290,31792,2,0,B|87:281|128:306|92:307|136:336|173:319,1,127.99999609375,2|8,1:2|0:0,0:0:0:0:
290,184,32167,2,0,B|259:175|218:200|254:201|210:230|173:213,1,127.99999609375,2|2,1:2|0:0,0:0:0:0:
93,160,32542,1,14,0:0:0:0:
309,338,32792,5,2,1:2:0:0:
323,351,32917,1,10,0:0:0:0:
386,302,33042,1,8,0:0:0:0:
405,223,33167,1,10,0:0:0:0:
362,150,33292,6,0,B|370:98|370:98|388:84|388:84|394:32,1,127.99999609375,6|0,1:2|0:0,0:0:0:0:
498,49,33667,2,0,B|516:28|516:28|484:45,1,63.9999980468751,2|0,0:0|0:0,0:0:0:0:
243,155,33917,1,2,1:2:0:0:
234,172,34042,2,0,B|242:224|242:224|260:238|260:238|266:290,1,127.99999609375,12|2,0:0|1:2,0:0:0:0:
186,348,34417,2,0,B|168:327|168:327|200:344,1,63.9999980468751,10|4,0:3|0:3,0:0:0:0:
353,133,34667,5,6,0:3:0:0:
362,150,34792,2,1,B|391:171|389:206|389:206|403:176|438:172,1,127.99999609375,6|2,1:2|1:2,0:0:0:0:
512,206,35167,1,10,0:0:0:0:
285,68,35417,6,1,B|242:100|245:152|245:152|224:107|172:101,1,191.999994140625,6|2,1:2|1:2,0:0:0:0:
72,95,35917,1,10,0:0:0:0:
72,95,36167,5,10,0:0:0:0:
163,196,36292,2,0,B|176:242|143:295|140:245|102:331|141:397|212:369|244:315|219:258|163:264,1,266.666666666667,6|0,1:2|0:0,0:0:0:0:
4,200,37042,2,0,B|57:190|121:239|60:234|129:290|193:269,1,213.333333333333,6|0,1:2|0:0,0:0:0:0:
355,283,37792,2,1,B|386:172|483:324|565:170|475:78|407:109|384:142|384:142|383:104|336:35|217:115|268:180|305:211,1,575.999982421876,6|2,1:2|0:0,0:0:0:0:
