osu file format v14

[General]
AudioFilename: audio.ogg
AudioLeadIn: 0
PreviewTime: 6167
Countdown: 0
SampleSet: Soft
StackLeniency: 0.7
Mode: 0
LetterboxInBreaks: 0
WidescreenStoryboard: 1

[Editor]
Bookmarks: 292,6292,18292,30292,39292
DistanceSpacing: 1.4
BeatDivisor: 12
GridSize: 16
TimelineZoom: 1.4

[Metadata]
Title:Yuki no Machi to Kuusou Time Machine (TV Size)
TitleUnicode:雪の街と空想タイムマシン (TV Size)
Artist:Nanahashi Minori (CV: Takahashi Rie)
ArtistUnicode:七橋御乃梨(CV: 高橋李依)
Creator:midorijeon
Version:Normal
Source:OneRoom サードシーズン
Tags:one room season 3 カントク kantoku japanese pop jpop j-pop anime
BeatmapID:4529478
BeatmapSetID:2149214

[Difficulty]
HPDrainRate:3
CircleSize:3.5
OverallDifficulty:4
ApproachRate:5
SliderMultiplier:2.4
SliderTickRate:1

[Events]
//Background and Video events
0,0,"3.jpg",0,0
//Break Periods
//Storyboard Layer 0 (Background)
//Storyboard Layer 1 (Fail)
//Storyboard Layer 2 (Pass)
//Storyboard Layer 3 (Foreground)
//Storyboard Layer 4 (Overlay)
//Storyboard Sound Samples

[TimingPoints]
292,750,4,2,2,60,1,0
667,-100,4,2,1,60,0,0
2542,-100,4,2,16,60,0,0
3292,-100,4,2,2,60,0,0
3667,-100,4,2,1,60,0,0
4792,-100,4,2,1,70,0,0
5167,-100,4,2,4,70,0,0
5417,-100,4,2,5,70,0,0
6292,750,4,2,1,80,1,0
6667,-100,4,2,13,80,0,0
6917,-100,4,2,1,80,0,0
7042,-100,4,2,13,80,0,0
7667,-100,4,2,1,80,0,0
7792,-100,4,2,13,80,0,0
8792,-100,4,2,1,80,0,0
8917,-100,4,2,13,80,0,0
9042,-100,4,2,5,80,0,0
9292,-100,4,2,13,80,0,0
9917,-100,4,2,1,80,0,0
10042,-100,4,2,13,80,0,0
10667,-100,4,2,1,80,0,0
10792,-100,4,2,13,80,0,0
11792,-100,4,2,1,80,0,0
11917,-100,4,2,13,80,0,0
12292,-100,4,2,5,80,0,0
12667,-100,4,2,13,80,0,0
13042,-100,4,2,14,80,0,0
13417,-100,4,2,13,80,0,0
13667,-100,4,2,5,80,0,0
14167,-100,4,2,13,80,0,0
14542,-100,4,2,14,80,0,0
14792,-100,4,2,13,80,0,0
15292,-100,4,2,5,80,0,0
15667,-100,4,2,13,80,0,0
15917,-100,4,2,1,80,0,0
16042,-100,4,2,14,80,0,0
16292,-100,4,2,13,80,0,0
16792,-100,4,2,5,80,0,0
17417,-100,4,2,10,80,0,0
17792,-100,4,2,5,80,0,0
18292,-100,4,2,1,80,0,0
18667,-100,4,2,13,80,0,0
20417,-100,4,2,1,80,0,0
20542,-100,4,2,14,80,0,0
20792,-100,4,2,1,80,0,0
20917,-100,4,2,13,80,0,0
21167,-100,4,2,5,80,0,0
21292,-100,4,2,1,80,0,0
22042,-100,4,2,5,80,0,0
22417,-100,4,2,1,80,0,0
23167,-100,4,2,5,80,0,0
23417,-100,4,2,13,80,0,0
23792,-100,4,2,1,80,0,0
23917,-100,4,2,4,80,0,0
24167,-100,4,2,5,80,0,0
24667,-100,4,2,6,80,0,0
24917,-100,4,2,1,80,0,0
25042,-100,4,2,6,80,0,0
25292,-100,4,2,1,80,0,0
25417,-100,4,2,6,80,0,0
25667,-100,4,2,5,80,0,0
25792,-100,4,2,6,80,0,0
26167,-100,4,2,4,80,0,0
26792,-100,4,2,5,80,0,0
27292,-100,4,2,1,80,0,0
27667,-100,4,2,3,80,0,0
28042,-100,4,2,4,80,0,0
28292,-100,4,2,1,80,0,0
28417,-100,4,2,4,80,0,0
28667,-100,4,2,5,80,0,0
28792,-100,4,2,6,80,0,0
29167,-100,4,2,4,80,0,0
29542,-100,4,2,5,80,0,0
29917,-100,4,2,4,80,0,0
30042,-100,4,2,5,80,0,0
30292,-100,4,2,1,80,0,0
30667,-100,4,2,13,80,0,0
31042,-100,4,2,5,80,0,0
31417,-100,4,2,13,80,0,0
32417,-100,4,2,5,80,0,0
33292,-100,4,2,1,80,0,0
34042,-100,4,2,5,80,0,0
34417,-100,4,2,1,80,0,0
35167,-100,4,2,5,80,0,0
35917,-100,4,2,4,80,0,0
36167,-100,4,2,5,80,0,0
36292,-100,4,2,1,80,0,0
37042,-100,4,2,5,80,0,0
37792,-100,4,2,1,80,0,0
39292,-100,4,2,2,50,0,0

[Colours]
Combo1 : 196,231,235
Combo2 : 177,114,95
Combo3 : 139,193,167
Combo4 : 62,112,97
Combo5 : 228,176,141
Combo6 : 130,159,170

[HitObjects]
64,111,292,6,1,B|96:153|96:153|196:193|268:121,1,240,2|10,0:0|0:0,0:0:0:0:
355,38,1417,1,2,0:0:0:0:
411,94,1667,2,1,B|405:144|405:144|419:161|419:161|413:210,1,120,2|2,0:0|0:0,0:0:0:0:
409,248,2167,1,2,0:0:0:0:
394,367,2542,2,1,P|337:379|283:353,1,120,10|2,0:0|0:0,0:0:0:0:
224,248,3292,6,0,L|239:120,2,120,2|2|10,0:0|0:0|0:0,0:0:0:0:
129,321,4417,2,1,P|91:330|55:313,1,80,2|2,0:0|0:0,0:0:0:0:
29,282,4792,2,1,B|35:232|35:232|21:215|21:215|27:166,1,120,2|10,1:2|0:0,0:0:0:0:
1,50,5542,2,1,P|39:41|75:58,1,80,10|10,0:0|0:0,0:0:0:0:
107,81,5917,2,1,P|143:98|181:89,1,80,10|8,0:0|0:0,0:0:0:0:
215,68,6292,5,6,1:2:0:0:
299,152,6667,2,0,L|378:143,1,80,2|2,0:0|0:0,0:0:0:0:
418,137,7042,1,10,0:0:0:0:
431,256,7417,1,2,0:0:0:0:
375,312,7667,2,1,P|318:325|265:300,1,120,2|8,1:2|0:0,0:0:0:0:
239,268,8167,1,2,1:2:0:0:
119,281,8542,2,0,L|128:202,1,80,10|2,0:0|0:0,0:0:0:0:
103,169,8917,2,0,L|112:90,1,80,2|10,0:0|0:0,0:0:0:0:
117,50,9292,5,2,1:2:0:0:
236,63,9667,2,1,P|245:101|228:137,1,80,2|2,0:0|1:2,0:0:0:0:
248,171,10042,2,1,B|242:221|242:221|256:238|256:238|250:287,1,120,10|2,0:0|0:0,0:0:0:0:
242,365,10667,2,0,L|361:351,1,120,2|8,1:2|0:0,0:0:0:0:
401,345,11167,2,1,P|417:309|408:271,1,80,2|0,1:2|0:0,0:0:0:0:
390,235,11542,1,10,0:0:0:0:
474,150,11917,2,0,L|483:71,1,80,10|8,0:0|0:0,0:0:0:0:
488,31,12292,6,0,L|369:45,1,120,6|2,1:2|1:2,0:0:0:0:
248,59,13042,1,10,0:0:0:0:
320,155,13417,2,1,P|329:193|312:229,1,80,2|10,0:0|0:0,0:0:0:0:
277,248,13792,2,0,L|198:239,1,80,2|10,1:3|0:0,0:0:0:0:
172,206,14167,2,0,L|93:197,1,80,2|0,0:0|1:2,0:0:0:0:
52,191,14542,1,10,0:0:0:0:
37,310,14917,2,1,B|69:313|69:313|80:304|80:304|112:308,1,80,10|8,0:0|0:0,0:0:0:0:
137,339,15292,6,1,B|167:327|194:346|194:346|220:363|251:353,1,120,2|2,1:3|1:2,0:0:0:0:
348,281,16042,2,0,L|427:290,1,80,10|0,0:0|1:2,0:0:0:0:
467,295,16417,2,0,L|458:216,1,80,10|8,0:0|0:0,0:0:0:0:
425,190,16792,1,6,1:2:0:0:
412,71,17167,1,10,0:0:0:0:
363,8,17417,2,1,B|332:-3|305:15|305:15|279:32|248:22,1,120,2|2,1:2|1:2,0:0:0:0:
216,45,17917,2,0,L|137:36,1,80,12|8,0:0|0:0,0:0:0:0:
96,30,18292,5,6,1:2:0:0:
81,149,18667,2,1,B|113:152|113:152|124:143|124:143|156:147,1,80,2|0,0:0|0:0,0:0:0:0:
182,180,19042,2,0,L|301:166,1,120,10|2,0:0|0:0,0:0:0:0:
417,135,19792,2,1,P|426:173|409:209,1,80,2|8,1:2|0:0,0:0:0:0:
386,241,20167,2,1,P|369:277|378:315,1,80,2|2,1:2|0:0,0:0:0:0:
399,349,20542,5,10,0:0:0:0:
279,335,20917,2,0,L|200:326,1,80,10|10,0:0|0:0,0:0:0:0:
167,349,21292,2,1,B|118:344|118:344|101:358|101:358|53:352,1,120,6|2,1:2|0:0,0:0:0:0:
65,231,22042,2,0,L|74:152,1,80,14|2,0:0|1:2,0:0:0:0:
80,111,22417,1,10,0:3:0:0:
173,36,22792,6,1,P|211:27|246:44,1,80,6|0,1:2|1:2,0:0:0:0:
274,72,23167,1,10,0:0:0:0:
352,62,23417,2,1,B|358:112|358:112|344:129|344:129|350:178,1,120,2|2,1:2|1:2,0:0:0:0:
354,216,23917,1,10,0:0:0:0:
367,335,24292,6,1,P|331:352|293:343,1,80,6|2,1:2|0:0,0:0:0:0:
259,322,24667,2,1,P|202:309|149:334,1,120,2|10,0:0|1:2,0:0:0:0:
55,260,25417,2,0,L|64:181,1,80,2|10,0:0|0:0,0:0:0:0:
97,155,25792,2,0,L|106:76,1,80,2|8,1:2|0:0,0:0:0:0:
112,35,26167,1,2,0:0:0:0:
186,128,26542,2,1,P|224:137|260:120,1,80,10|2,0:0|1:2,0:0:0:0:
292,97,26917,2,1,P|328:80|366:89,1,80,10|10,0:0|0:0,0:0:0:0:
400,110,27292,6,1,B|394:159|394:159|408:176|408:176|402:225,1,120,6|2,1:2|0:3,0:0:0:0:
388,343,28042,1,10,0:0:0:0:
268,329,28417,2,0,L|277:250,1,80,10|10,0:0|0:0,0:0:0:0:
252,217,28792,1,2,1:2:0:0:
265,97,29167,2,1,B|249:118|249:118|199:138|162:102,1,120,10|14,0:0|0:0,0:0:0:0:
51,56,29917,2,1,P|34:92|43:130,1,80,10|10,0:0|0:0,0:0:0:0:
64,164,30292,5,6,1:2:0:0:
77,283,30667,2,0,L|156:274,1,80,2|0,0:0|1:2,0:0:0:0:
182,241,31042,2,0,L|301:227,1,120,14|2,0:0|0:0,0:0:0:0:
400,295,31792,2,0,L|409:216,1,80,2|8,1:2|0:0,0:0:0:0:
413,175,32167,1,2,1:2:0:0:
426,55,32542,2,1,P|388:46|352:63,1,80,14|2,0:0|1:2,0:0:0:0:
320,86,32917,2,1,P|284:103|246:94,1,80,10|10,0:0|0:0,0:0:0:0:
212,73,33292,6,1,P|155:60|102:85,1,120,6|2,1:2|0:0,0:0:0:0:
2,150,34042,2,1,B|-1:182|-1:182|8:193|8:193|4:225,1,80,12|2,0:0|1:2,0:0:0:0:
34,252,34417,2,0,L|114:242,1,80,10|6,0:3|0:3,0:0:0:0:
137,210,34792,2,1,B|168:199|195:217|195:217|221:234|252:224,1,120,6|10,1:2|0:0,0:0:0:0:
313,273,35417,2,0,L|432:259,1,120,6|2,1:2|1:2,0:0:0:0:
471,255,35917,1,10,0:0:0:0:
456,135,36292,5,6,1:2:0:0:
218,107,37042,1,6,1:2:0:0:
188,345,37792,2,1,B|180:294|127:284|127:284|57:304|57:304|15:287|13:245|13:245|37:88|37:88|55:123|98:132,1,480,6|2,1:2|0:0,0:0:0:0:
