osu file format v14

[General]
AudioFilename: audio.ogg
AudioLeadIn: 0
PreviewTime: 6167
Countdown: 0
SampleSet: Soft
StackLeniency: 0.7
Mode: 0
LetterboxInBreaks: 0
WidescreenStoryboard: 1

[Editor]
Bookmarks: 292,6292,18292,30292,39292
DistanceSpacing: 1.4
BeatDivisor: 12
GridSize: 16
TimelineZoom: 1.4

[Metadata]
Title:Yuki no Machi to Kuusou Time Machine (TV Size)
TitleUnicode:雪の街と空想タイムマシン (TV Size)
Artist:Nanahashi Minori (CV: Takahashi Rie)
ArtistUnicode:七橋御乃梨(CV: 高橋李依)
Creator:midorijeon
Version:Hard
Source:OneRoom サードシーズン
Tags:one room season 3 カントク kantoku japanese pop jpop j-pop anime
BeatmapID:4529477
BeatmapSetID:2149214

[Difficulty]
HPDrainRate:4
CircleSize:4
OverallDifficulty:6
ApproachRate:7.5
SliderMultiplier:3
SliderTickRate:1

[Events]
//Background and Video events
0,0,"2.jpg",0,0
//Break Periods
//Storyboard Layer 0 (Background)
//Storyboard Layer 1 (Fail)
//Storyboard Layer 2 (Pass)
//Storyboard Layer 3 (Foreground)
//Storyboard Layer 4 (Overlay)
//Storyboard Sound Samples

[TimingPoints]
292,750,4,2,2,60,1,0
292,-125,4,2,2,60,0,0
667,-125,4,2,1,60,0,0
2542,-125,4,2,16,60,0,0
3292,-125,4,2,2,60,0,0
3667,-125,4,2,1,60,0,0
4792,-125,4,2,1,70,0,0
5167,-125,4,2,4,70,0,0
5417,-125,4,2,5,70,0,0
6292,750,4,2,1,80,1,0
6292,-90.9090909090909,4,2,1,80,0,0
6667,-90.9090909090909,4,2,13,80,0,0
6917,-90.9090909090909,4,2,1,80,0,0
7042,-90.9090909090909,4,2,13,80,0,0
7667,-90.9090909090909,4,2,1,80,0,0
7792,-90.9090909090909,4,2,13,80,0,0
8792,-90.9090909090909,4,2,1,80,0,0
8917,-90.9090909090909,4,2,13,80,0,0
9042,-90.9090909090909,4,2,5,80,0,0
9292,-90.9090909090909,4,2,13,80,0,0
9917,-90.9090909090909,4,2,1,80,0,0
10042,-90.9090909090909,4,2,13,80,0,0
10667,-90.9090909090909,4,2,1,80,0,0
10792,-90.9090909090909,4,2,13,80,0,0
11792,-90.9090909090909,4,2,1,80,0,0
11917,-90.9090909090909,4,2,13,80,0,0
12292,-90.9090909090909,4,2,5,80,0,0
12667,-90.9090909090909,4,2,13,80,0,0
13042,-90.9090909090909,4,2,14,80,0,0
13417,-90.9090909090909,4,2,13,80,0,0
13667,-90.9090909090909,4,2,5,80,0,0
14167,-90.9090909090909,4,2,13,80,0,0
14542,-90.9090909090909,4,2,14,80,0,0
14792,-90.9090909090909,4,2,13,80,0,0
15292,-90.9090909090909,4,2,5,80,0,0
15667,-90.9090909090909,4,2,13,80,0,0
15917,-90.9090909090909,4,2,1,80,0,0
16042,-90.9090909090909,4,2,14,80,0,0
16292,-90.9090909090909,4,2,13,80,0,0
16792,-90.9090909090909,4,2,5,80,0,0
17417,-90.9090909090909,4,2,10,80,0,0
17792,-90.9090909090909,4,2,5,80,0,0
18292,-90.9090909090909,4,2,1,80,0,0
18667,-90.9090909090909,4,2,13,80,0,0
20417,-90.9090909090909,4,2,1,80,0,0
20542,-90.9090909090909,4,2,14,80,0,0
20792,-90.9090909090909,4,2,1,80,0,0
20917,-90.9090909090909,4,2,13,80,0,0
21167,-90.9090909090909,4,2,5,80,0,0
21292,-90.9090909090909,4,2,1,80,0,0
22042,-90.9090909090909,4,2,5,80,0,0
22417,-90.9090909090909,4,2,1,80,0,0
23167,-90.9090909090909,4,2,5,80,0,0
23417,-90.9090909090909,4,2,13,80,0,0
23792,-90.9090909090909,4,2,1,80,0,0
23917,-90.9090909090909,4,2,4,80,0,0
24167,-90.9090909090909,4,2,5,80,0,0
24667,-90.9090909090909,4,2,6,80,0,0
24917,-90.9090909090909,4,2,1,80,0,0
25042,-90.9090909090909,4,2,6,80,0,0
25292,-90.9090909090909,4,2,1,80,0,0
25417,-90.9090909090909,4,2,6,80,0,0
25667,-90.9090909090909,4,2,5,80,0,0
25792,-90.9090909090909,4,2,6,80,0,0
26167,-90.9090909090909,4,2,4,80,0,0
26792,-90.9090909090909,4,2,5,80,0,0
27292,-90.9090909090909,4,2,1,80,0,0
27667,-90.9090909090909,4,2,3,80,0,0
28042,-90.9090909090909,4,2,4,80,0,0
28292,-90.9090909090909,4,2,1,80,0,0
28417,-90.9090909090909,4,2,4,80,0,0
28667,-90.9090909090909,4,2,5,80,0,0
28792,-90.9090909090909,4,2,6,80,0,0
29167,-90.9090909090909,4,2,4,80,0,0
29542,-90.9090909090909,4,2,5,80,0,0
29917,-90.9090909090909,4,2,4,80,0,0
30042,-90.9090909090909,4,2,5,80,0,0
30292,-90.9090909090909,4,2,1,80,0,0
30667,-90.9090909090909,4,2,13,80,0,0
31042,-90.9090909090909,4,2,5,80,0,0
31417,-90.9090909090909,4,2,13,80,0,0
32417,-90.9090909090909,4,2,5,80,0,0
33292,-90.9090909090909,4,2,1,80,0,0
34042,-90.9090909090909,4,2,5,80,0,0
34417,-90.9090909090909,4,2,1,80,0,0
35167,-90.9090909090909,4,2,5,80,0,0
35917,-90.9090909090909,4,2,4,80,0,0
36167,-90.9090909090909,4,2,5,80,0,0
36292,-90.9090909090909,4,2,1,80,0,0
37042,-90.9090909090909,4,2,5,80,0,0
37792,-125,4,2,1,80,0,0
39292,-125,4,2,2,50,0,0

[Colours]
Combo1 : 196,231,235
Combo2 : 177,114,95
Combo3 : 139,193,167
Combo4 : 62,112,97
Combo5 : 228,176,141
Combo6 : 130,159,170

[HitObjects]
334,48,292,6,0,B|384:54|384:54|442:95|384:205|289:156,1,240,2|10,0:0|0:0,0:0:0:0:
169,94,1417,1,2,0:0:0:0:
75,139,1667,2,0,P|46:189|63:245,1,120,2|2,0:0|0:0,0:0:0:0:
82,264,2167,1,2,0:0:0:0:
193,250,2417,1,2,0:0:0:0:
212,269,2542,2,0,B|261:262|261:262|278:276|278:276|326:270,1,120,10|2,0:0|0:0,0:0:0:0:
488,223,3292,6,0,L|473:342,2,120,2|2|10,0:0|0:0|0:0,0:0:0:0:
507,55,4417,1,2,0:0:0:0:
419,125,4667,5,2,0:0:0:0:
399,144,4792,2,0,P|360:150|322:134,1,80,2|2,1:2|1:2,0:0:0:0:
299,120,5167,2,0,P|262:105|223:111,1,80,10|2,0:0|1:2,0:0:0:0:
203,130,5542,1,10,0:0:0:0:
114,198,5792,1,10,0:0:0:0:
101,223,5917,1,10,0:0:0:0:
103,250,6042,1,8,0:0:0:0:
119,273,6167,1,8,0:0:0:0:
145,285,6292,6,0,B|212:276|212:276|235:294|235:294|302:286,1,165.000005035401,6|2,1:2|0:0,0:0:0:0:
445,342,6917,1,2,0:0:0:0:
418,315,7042,2,0,B|431:206|431:206|406:189|397:163,1,165.000005035401,10|2,0:0|0:0,0:0:0:0:
485,36,7667,5,2,1:2:0:0:
459,63,7792,2,0,P|410:39|357:50,1,110.000003356934,2|8,0:0|0:0,0:0:0:0:
323,69,8167,2,0,P|270:79|221:56,1,110.000003356934,2|0,1:2|0:0,0:0:0:0:
194,29,8542,1,10,0:0:0:0:
85,138,8792,1,2,0:0:0:0:
85,138,8917,1,2,0:0:0:0:
90,177,9042,1,2,0:0:0:0:
95,215,9167,1,10,0:0:0:0:
100,253,9292,6,0,B|209:240|209:240|243:196,1,165.000005035401,2|2,1:2|0:0,0:0:0:0:
336,73,9917,1,2,1:2:0:0:
363,100,10042,2,0,P|415:89|464:112,1,110.000003356934,10|0,0:0|0:0,0:0:0:0:
492,140,10417,1,2,0:0:0:0:
473,292,10667,5,2,1:2:0:0:
445,319,10792,2,0,B|399:313|399:313|383:325|383:325|339:320,1,110.000003356934,2|8,0:0|0:0,0:0:0:0:
312,347,11167,2,0,L|202:333,1,110.000003356934,2|0,1:2|0:0,0:0:0:0:
165,329,11542,1,10,0:0:0:0:
11,315,11792,1,2,1:2:0:0:
15,277,11917,1,10,0:0:0:0:
115,160,12167,5,8,0:0:0:0:
119,122,12292,2,1,B|81:154|20:139|6:99|6:99|38:74,2,165.000005035401,6|2|10,1:2|1:2|0:0,0:0:0:0:
272,106,13292,1,0,0:0:0:0:
299,79,13417,2,0,B|327:68|353:86|353:86|377:101|405:92,1,110.000003356934,2|10,0:0|0:0,0:0:0:0:
438,75,13792,6,0,B|432:121|432:121|444:137|444:137|439:181,1,110.000003356934,2|10,1:3|0:0,0:0:0:0:
410,205,14167,2,0,B|416:251|416:251|404:267|404:267|409:311,1,110.000003356934,2|0,0:0|1:2,0:0:0:0:
414,348,14542,1,10,0:0:0:0:
261,329,14792,1,0,1:2:0:0:
288,302,14917,2,0,L|302:192,1,110.000003356934,10|8,0:0|0:0,0:0:0:0:
308,154,15292,6,0,B|341:150|341:150|380:123|341:50|278:82,2,165.000005035401,2|2|10,1:3|1:2|0:0,0:0:0:0:
175,85,16292,1,0,1:2:0:0:
175,85,16417,1,10,0:0:0:0:
136,80,16542,1,8,0:0:0:0:
98,75,16667,1,8,0:0:0:0:
60,70,16792,6,0,B|40:68|40:68|14:78|3:132|47:149,1,110.000003356934,6|2,1:2|1:2,0:0:0:0:
62,169,17167,1,10,0:0:0:0:
211,204,17417,2,0,B|239:201|239:201|275:215|290:291|229:315,1,165.000005035401,2|2,1:2|1:2,0:0:0:0:
204,333,17917,1,12,0:0:0:0:
356,314,18167,5,8,0:0:0:0:
383,286,18292,2,0,B|377:240|377:240|389:224|389:224|384:180,1,110.000003356934,6|0,1:2|0:0,0:0:0:0:
411,153,18667,2,0,L|397:43,1,110.000003356934,2|0,0:0|0:0,0:0:0:0:
370,16,19042,2,1,B|332:-16|271:-1|257:39|257:39|289:64,1,165.000005035401,10|2,0:0|0:0,0:0:0:0:
384,180,19667,5,8,0:0:0:0:
357,207,19792,2,0,L|247:193,1,110.000003356934,2|8,1:2|0:0,0:0:0:0:
209,193,20167,2,0,L|223:303,1,110.000003356934,2|2,1:2|0:0,0:0:0:0:
227,340,20542,1,10,0:0:0:0:
89,281,20792,1,2,1:2:0:0:
89,281,20917,2,0,L|34:287,2,55.0000016784668,10|8|10,0:0|0:0|0:0,0:0:0:0:
116,254,21292,6,0,B|110:208|110:208|122:192|122:192|117:148,1,110.000003356934,6|0,1:2|0:0,0:0:0:0:
90,122,21667,1,2,0:0:0:0:
205,20,21917,1,2,1:2:0:0:
232,46,22042,2,0,P|281:70|334:59,1,110.000003356934,14|2,0:0|1:2,0:0:0:0:
368,40,22417,2,0,P|421:30|470:53,1,110.000003356934,10|2,0:3|0:0,0:0:0:0:
481,90,22792,6,0,B|475:136|475:136|487:152|487:152|482:196,1,110.000003356934,6|0,1:2|1:2,0:0:0:0:
477,233,23167,1,10,0:0:0:0:
325,215,23417,2,0,B|297:212|297:212|261:226|246:302|307:326,1,165.000005035401,2|2,1:2|1:2,0:0:0:0:
332,344,23917,1,10,0:0:0:0:
179,325,24167,5,10,0:0:0:0:
152,352,24292,2,0,L|42:338,1,110.000003356934,6|2,1:2|0:0,0:0:0:0:
15,366,24667,2,0,B|9:320|9:320|21:304|21:304|16:260,1,110.000003356934,2|2,0:0|0:0,0:0:0:0:
42,233,25042,1,10,1:2:0:0:
31,79,25292,1,2,0:0:0:0:
69,83,25417,1,2,0:0:0:0:
186,182,25667,5,10,0:0:0:0:
224,186,25792,2,0,L|334:200,1,110.000003356934,2|8,1:2|0:0,0:0:0:0:
371,203,26167,2,0,L|357:93,1,110.000003356934,2|0,0:0|1:2,0:0:0:0:
352,55,26542,1,10,0:0:0:0:
509,44,26792,1,2,1:2:0:0:
509,44,26917,1,10,0:0:0:0:
504,83,27042,1,8,0:0:0:0:
499,121,27167,1,10,0:0:0:0:
494,159,27292,6,0,B|488:205|488:205|500:221|500:221|495:265,1,110.000003356934,6|0,1:2|0:0,0:0:0:0:
488,303,27667,2,0,B|460:292|434:310|434:310|410:325|382:316,1,110.000003356934,2|0,0:3|1:2,0:0:0:0:
346,303,28042,1,10,0:0:0:0:
194,322,28292,5,2,1:2:0:0:
221,296,28417,2,0,P|197:247|208:194,1,110.000003356934,10|10,0:0|0:0,0:0:0:0:
227,160,28792,2,0,P|237:107|214:58,1,110.000003356934,2|0,1:2|1:2,0:0:0:0:
187,31,29167,2,0,B|141:37|141:37|125:25|125:25|81:30,1,110.000003356934,10|0,0:0|1:2,0:0:0:0:
43,37,29542,1,14,0:0:0:0:
60,194,29792,1,0,1:2:0:0:
60,194,29917,2,0,L|5:200,2,55.0000016784668,10|8|10,0:0|0:0|0:0,0:0:0:0:
86,221,30292,6,1,B|54:259|69:320|109:334|109:334|134:302,1,165.000005035401,6|2,1:2|0:0,0:0:0:0:
278,346,30917,1,0,1:2:0:0:
305,318,31042,2,0,B|299:272|299:272|311:256|311:256|306:212,1,110.000003356934,14|0,0:0|0:0,0:0:0:0:
332,184,31417,2,0,B|338:138|338:138|326:122|326:122|331:78,1,110.000003356934,2|8,0:0|0:0,0:0:0:0:
336,41,31792,5,2,1:2:0:0:
238,160,32042,1,8,0:0:0:0:
211,187,32167,2,0,L|101:173,1,110.000003356934,2|2,1:2|0:0,0:0:0:0:
64,169,32542,1,14,0:0:0:0:
76,322,32792,1,2,1:2:0:0:
76,322,32917,1,10,0:0:0:0:
115,317,33042,1,8,0:0:0:0:
153,312,33167,1,10,0:0:0:0:
191,307,33292,6,0,B|259:298|259:298|283:316|283:316|349:308,1,165.000005035401,6|2,1:2|0:0,0:0:0:0:
501,285,33917,1,2,1:2:0:0:
474,258,34042,2,0,L|488:148,1,110.000003356934,12|2,0:0|1:2,0:0:0:0:
491,111,34417,2,0,L|381:125,1,110.000003356934,10|6,0:3|0:3,0:0:0:0:
354,152,34792,6,0,B|360:106|360:106|348:90|348:90|353:46,1,110.000003356934,6|2,1:2|1:2,0:0:0:0:
325,19,35167,1,10,0:0:0:0:
216,128,35417,2,0,B|183:124|183:124|139:141|159:221|228:205,1,165.000005035401,6|2,1:2|1:2,0:0:0:0:
255,196,35917,1,10,0:0:0:0:
364,305,36167,5,10,0:0:0:0:
336,332,36292,2,0,B|222:317|222:317|182:347|182:347|73:334,1,275.000008392334,6|0,1:2|0:0,0:0:0:0:
40,354,37042,2,0,B|18:173|18:173|71:152|74:101,1,275.000008392334,6|0,1:2|0:0,0:0:0:0:
79,77,37792,2,1,B|130:82|143:134|143:134|127:205|127:205|145:246|188:246|188:246|343:214|343:214|307:198|296:155,1,480,6|2,1:2|0:0,0:0:0:0:
