osu file format v14

[General]
AudioFilename: audio.ogg
AudioLeadIn: 0
PreviewTime: 6167
Countdown: 0
SampleSet: Soft
StackLeniency: 0.7
Mode: 0
LetterboxInBreaks: 0
WidescreenStoryboard: 1

[Editor]
Bookmarks: 292,6292,18292,30292,39292
DistanceSpacing: 1.6
BeatDivisor: 6
GridSize: 16
TimelineZoom: 1.4

[Metadata]
Title:Yuki no Machi to Kuusou Time Machine (TV Size)
TitleUnicode:雪の街と空想タイムマシン (TV Size)
Artist:Nanahashi Minori (CV: Takahashi Rie)
ArtistUnicode:七橋御乃梨(CV: 高橋李依)
Creator:midorijeon
Version:Easy
Source:OneRoom サードシーズン
Tags:one room season 3 カントク kantoku japanese pop jpop j-pop anime
BeatmapID:4529476
BeatmapSetID:2149214

[Difficulty]
HPDrainRate:2
CircleSize:3
OverallDifficulty:2
ApproachRate:2
SliderMultiplier:2
SliderTickRate:1

[Events]
//Background and Video events
0,0,"4.jpg",0,0
//Break Periods
//Storyboard Layer 0 (Background)
//Storyboard Layer 1 (Fail)
//Storyboard Layer 2 (Pass)
//Storyboard Layer 3 (Foreground)
//Storyboard Layer 4 (Overlay)
//Storyboard Sound Samples

[TimingPoints]
292,750,4,2,2,60,1,0
667,-100,4,2,1,60,0,0
2542,-100,4,2,16,60,0,0
3292,-100,4,2,2,60,0,0
3667,-100,4,2,1,60,0,0
4792,-100,4,2,1,70,0,0
5167,-100,4,2,4,70,0,0
5417,-100,4,2,5,70,0,0
6292,750,4,2,1,80,1,0
6667,-100,4,2,13,80,0,0
6917,-100,4,2,1,80,0,0
7042,-100,4,2,13,80,0,0
7667,-100,4,2,1,80,0,0
7792,-100,4,2,13,80,0,0
8792,-100,4,2,1,80,0,0
8917,-100,4,2,13,80,0,0
9042,-100,4,2,5,80,0,0
9292,-100,4,2,13,80,0,0
9917,-100,4,2,1,80,0,0
10042,-100,4,2,13,80,0,0
10667,-100,4,2,1,80,0,0
10792,-100,4,2,13,80,0,0
11792,-100,4,2,1,80,0,0
11917,-100,4,2,13,80,0,0
12292,-100,4,2,5,80,0,0
12667,-100,4,2,13,80,0,0
13042,-100,4,2,14,80,0,0
13417,-100,4,2,13,80,0,0
13667,-100,4,2,5,80,0,0
14167,-100,4,2,13,80,0,0
14542,-100,4,2,14,80,0,0
14792,-100,4,2,13,80,0,0
15292,-100,4,2,5,80,0,0
15667,-100,4,2,13,80,0,0
15917,-100,4,2,1,80,0,0
16042,-100,4,2,14,80,0,0
16292,-100,4,2,13,80,0,0
16792,-100,4,2,5,80,0,0
17417,-100,4,2,10,80,0,0
17792,-100,4,2,5,80,0,0
18292,-100,4,2,1,80,0,0
18667,-100,4,2,13,80,0,0
20417,-100,4,2,1,80,0,0
20542,-100,4,2,14,80,0,0
20792,-100,4,2,1,80,0,0
20917,-100,4,2,13,80,0,0
21167,-100,4,2,5,80,0,0
21292,-100,4,2,1,80,0,0
22042,-100,4,2,5,80,0,0
22417,-100,4,2,1,80,0,0
23167,-100,4,2,5,80,0,0
23417,-100,4,2,13,80,0,0
23792,-100,4,2,1,80,0,0
23917,-100,4,2,4,80,0,0
24167,-100,4,2,5,80,0,0
24667,-100,4,2,6,80,0,0
24917,-100,4,2,1,80,0,0
25042,-100,4,2,6,80,0,0
25292,-100,4,2,1,80,0,0
25417,-100,4,2,6,80,0,0
25667,-100,4,2,5,80,0,0
25792,-100,4,2,6,80,0,0
26167,-100,4,2,4,80,0,0
26792,-100,4,2,5,80,0,0
27292,-100,4,2,1,80,0,0
27667,-100,4,2,3,80,0,0
28042,-100,4,2,4,80,0,0
28292,-100,4,2,1,80,0,0
28417,-100,4,2,4,80,0,0
28667,-100,4,2,5,80,0,0
28792,-100,4,2,6,80,0,0
29167,-100,4,2,4,80,0,0
29542,-100,4,2,5,80,0,0
29917,-100,4,2,4,80,0,0
30042,-100,4,2,5,80,0,0
30292,-100,4,2,1,80,0,0
30667,-100,4,2,13,80,0,0
31042,-100,4,2,5,80,0,0
31417,-100,4,2,13,80,0,0
32417,-100,4,2,5,80,0,0
33292,-100,4,2,1,80,0,0
34042,-100,4,2,5,80,0,0
34417,-100,4,2,1,80,0,0
35167,-100,4,2,5,80,0,0
35917,-100,4,2,4,80,0,0
36167,-100,4,2,5,80,0,0
36292,-100,4,2,1,80,0,0
37042,-100,4,2,5,80,0,0
37792,-100,4,2,1,80,0,0
39292,-100,4,2,2,50,0,0

[Colours]
Combo1 : 196,231,235
Combo2 : 177,114,95
Combo3 : 139,193,167
Combo4 : 62,112,97
Combo5 : 228,176,141
Combo6 : 130,159,170

[HitObjects]
80,192,292,6,0,B|39:196|39:196|-7:229|39:318|116:279,1,200,2|10,0:0|0:0,0:0:0:0:
186,342,1417,2,0,L|384:317,1,200,2|2,0:0|0:0,0:0:0:0:
483,304,2542,1,10,0:0:0:0:
457,105,3292,2,0,P|408:96|364:117,1,100,2|2,0:0|0:0,0:0:0:0:
290,185,4042,1,10,0:0:0:0:
96,154,4792,2,0,L|108:55,1,100,2|10,1:2|0:0,0:0:0:0:
207,41,5542,1,10,0:0:0:0:
305,27,5917,1,10,0:0:0:0:
291,126,6292,6,1,B|286:165|286:165|297:179|297:179|292:220,1,100,6|2,1:2|0:0,0:0:0:0:
370,284,7042,2,0,L|187:260,1,166.666666666667,10|2,0:0|1:2,0:0:0:0:
85,321,8167,1,2,1:2:0:0:
29,239,8542,2,0,P|20:190|41:146,1,100,10|2,0:0|0:0,0:0:0:0:
109,72,9292,6,0,B|240:56|240:56|260:86|291:97,1,200,2|10,1:2|0:0,0:0:0:0:
391,109,10417,1,2,0:0:0:0:
489,95,10792,2,0,L|477:193,1,100,2|2,0:0|1:2,0:0:0:0:
463,293,11542,1,10,0:0:0:0:
363,280,11917,1,10,0:0:0:0:
262,267,12292,6,1,B|267:224|267:224|256:210|256:210|261:171,1,100,6|2,1:2|1:2,0:0:0:0:
353,131,13042,2,0,L|155:106,1,200,10|2,0:0|1:3,0:0:0:0:
92,25,14167,1,2,0:0:0:0:
12,86,14542,2,0,P|-8:130|0:178,1,100,10|10,0:0|0:0,0:0:0:0:
64,256,15292,6,1,B|149:245|149:245|177:267|177:267|255:257,1,200,2|10,1:3|0:0,0:0:0:0:
455,230,16792,2,0,P|483:167|431:82,1,166.666666666667,6|2,1:2|1:2,0:0:0:0:
346,49,17792,1,2,1:2:0:0:
213,65,18292,6,0,L|201:163,1,100,6|2,1:2|0:0,0:0:0:0:
187,263,19042,1,10,0:0:0:0:
88,250,19417,1,2,0:0:0:0:
100,150,19792,2,0,L|112:50,1,100,2|2,1:2|1:2,0:0:0:0:
213,65,20542,2,0,L|312:77,1,100,10|10,0:0|0:0,0:0:0:0:
393,18,21292,6,1,B|404:103|404:103|382:131|382:131|392:209,1,200,6|14,1:2|0:0,0:0:0:0:
471,270,22417,1,10,0:3:0:0:
408,348,22792,2,0,L|242:327,1,166.666666666667,6|2,1:2|1:2,0:0:0:0:
109,310,23917,1,10,0:0:0:0:
47,231,24292,6,0,P|38:182|58:137,1,100,6|2,1:2|0:0,0:0:0:0:
138,197,25042,2,0,L|237:185,1,100,10|2,1:2|0:0,0:0:0:0:
315,245,25792,1,2,1:2:0:0:
414,232,26167,1,2,0:0:0:0:
427,133,26542,2,1,B|432:90|432:90|421:76|421:76|426:37,1,100,10|10,0:0|0:0,0:0:0:0:
336,81,27292,6,0,L|138:56,1,200,6|10,1:2|0:0,0:0:0:0:
0,196,28792,2,0,P|-9:244|10:289,1,100,2|10,1:2|0:0,0:0:0:0:
71,367,29542,2,0,L|169:355,1,100,14|10,0:0|0:0,0:0:0:0:
270,343,30292,6,0,B|286:212|286:212|256:192|245:161,1,200,6|14,1:2|0:0,0:0:0:0:
268,62,31417,1,2,0:0:0:0:
348,122,31792,2,0,L|447:134,1,100,2|2,1:2|1:2,0:0:0:0:
459,34,32542,1,14,0:0:0:0:
359,22,32917,1,10,0:0:0:0:
268,62,33292,6,1,B|183:51|183:51|155:73|155:73|77:63,1,200,6|12,1:2|0:0,0:0:0:0:
0,124,34417,1,10,0:3:0:0:
78,187,34792,2,0,L|57:353,1,166.666666666667,6|6,1:2|1:2,0:0:0:0:
189,335,35917,1,10,0:0:0:0:
288,322,36292,6,0,L|486:297,1,200,6|6,1:2|1:2,0:0:0:0:
316,192,37792,2,1,B|274:185|266:140|266:140|284:82|284:82|270:47|235:45|235:45|104:63|104:63|133:78|140:114,1,400,6|2,1:2|0:0,0:0:0:0:
