osu file format v14

[General]
AudioFilename: 08. SOUND HOLIC - The Party We Have Never Seen.mp3
AudioLeadIn: 0
PreviewTime: 45582
Countdown: 0
SampleSet: Soft
StackLeniency: 0.5
Mode: 0
LetterboxInBreaks: 0
WidescreenStoryboard: 1

[Editor]
Bookmarks: 1520,16520,31520,46520,61520,76520,91520,106520,121520
DistanceSpacing: 0.7
BeatDivisor: 4
GridSize: 4
TimelineZoom: 1.5

[Metadata]
Title:The Party We Have Never Seen
TitleUnicode:The Party We Have Never Seen
Artist:Nana Takahashi
ArtistUnicode:Nana Takahashi
Creator:jonathanlfj
Version:Lunatic
Source:東方紺珠伝 ~ Legacy of Lunatic Kingdom.
Tags:東方Project Camellia かめりあ Nwolf Trust Touhou SOUND HOLIC 紺 -KAN- Hecatia Lapislazuli ヘカーティア・ラピスラズリ パンデモニックプラネット Pandemonic Planet 見た事も無い悪夢の世界 A Never-Before-Seen World of Nightmares Extra Stage Boss Theme comiket 89 c89 EDM
BeatmapID:906489
BeatmapSetID:405516

[Difficulty]
HPDrainRate:6
CircleSize:4
OverallDifficulty:7
ApproachRate:7.5
SliderMultiplier:1.7
SliderTickRate:1

[Events]
//Background and Video events
0,0,"52369022_p0.jpg",0,0
//Break Periods
//Storyboard Layer 0 (Background)
//Storyboard Layer 1 (Fail)
//Storyboard Layer 2 (Pass)
//Storyboard Layer 3 (Foreground)
//Storyboard Sound Samples

[TimingPoints]
1520,468.75,4,2,1,40,1,0
1520,-125,4,2,1,40,0,0
11832,-125,4,2,1,50,0,0
12770,-125,4,2,1,30,0,0
15582,-125,4,2,1,40,0,0
16520,-111.111111111111,4,2,1,50,0,0
27770,-111.111111111111,4,2,1,40,0,0
29645,-111.111111111111,4,2,1,50,0,0
30582,-111.111111111111,4,1,1,60,0,0
31520,-111.111111111111,4,3,1,60,0,0
44645,-111.111111111111,4,2,1,65,0,0
45582,-111.111111111111,4,1,1,65,0,0
46520,-100,4,3,1,70,0,0
76520,-100,4,1,1,75,0,0
87770,-125,4,2,1,50,0,0
91051,-66.6666666666667,4,2,1,70,0,0
91402,-66.6666666666667,4,2,1,5,0,0
91520,-90.9090909090909,4,2,1,80,0,1
104645,-90.9090909090909,4,2,1,50,0,1
106051,-66.6666666666667,4,2,1,50,0,1
106402,-66.6666666666667,4,2,1,5,0,1
106520,-86.9565217391304,4,2,1,80,0,1
119645,-86.9565217391304,4,1,1,80,0,1
121520,-100,4,2,1,70,0,0

[Colours]
Combo1 : 254,187,48
Combo2 : 254,114,194
Combo3 : 172,81,255
Combo4 : 95,154,254

[HitObjects]
130,205,1520,5,0,0:0:0:0:
224,152,1754,1,2,0:0:0:0:
224,260,1988,1,0,0:0:0:0:
116,272,2223,1,0,0:0:0:0:
116,272,2341,1,0,0:0:0:0:
116,272,2457,2,0,L|132:196,1,68,0|2,0:0|0:0,0:0:0:0:
140,161,2809,2,0,L|128:53,1,102
20,196,3395,5,0,0:0:0:0:
116,272,3629,1,2,0:0:0:0:
212,196,3863,1,0,0:0:0:0:
108,132,4098,1,0,0:0:0:0:
108,132,4215,1,0,0:0:0:0:
108,132,4332,2,0,L|115:250,1,102
116,272,4801,1,2,0:0:0:0:
279,246,5035,1,0,0:0:0:0:
248,332,5270,5,0,0:0:0:0:
220,176,5504,1,2,0:0:0:0:
369,230,5738,1,0,0:0:0:0:
279,246,5973,1,0,0:0:0:0:
279,246,6090,1,0,0:0:0:0:
279,246,6207,2,0,L|229:185,1,68,0|2,0:0|0:0,0:0:0:0:
220,176,6559,2,0,P|284:178|329:145,1,102,0|0,0:0|0:0,0:0:0:0:
255,91,7145,5,0,0:0:0:0:
127,169,7379,1,2,0:0:0:0:
127,169,7496,2,0,L|117:283,1,102,0|0,0:0|0:0,0:0:0:0:
258,346,8082,1,0,0:0:0:0:
258,346,8199,2,0,L|266:263,1,68,2|0,0:0|0:0,0:0:0:0:
268,244,8551,1,2,0:0:0:0:
118,270,8785,1,0,0:0:0:0:
198,169,9020,5,0,0:0:0:0:
264,278,9254,1,2,0:0:0:0:
383,233,9488,1,0,0:0:0:0:
198,169,9723,1,0,0:0:0:0:
198,169,9840,1,0,0:0:0:0:
198,169,9957,2,0,L|275:162,1,68,0|2,0:0|0:0,0:0:0:0:
298,174,10309,2,0,P|287:120|287:68,1,102,0|0,0:0|0:0,0:0:0:0:
387,205,10895,5,0,0:0:0:0:
272,264,11129,1,2,0:0:0:0:
448,340,11363,2,0,P|456:308|456:268,1,68,2|0,0:0|0:0,0:0:0:0:
298,174,11832,1,2,0:0:0:0:
364,296,12066,1,0,0:0:0:0:
228,260,12301,1,2,0:0:0:0:
396,168,12535,1,2,0:0:0:0:
204,104,12770,5,2,0:0:0:0:
204,104,13707,1,2,0:0:0:0:
204,104,14645,5,0,0:0:0:0:
224,192,14879,1,0,0:0:0:0:
312,208,15113,1,2,0:0:0:0:
360,132,15347,1,2,0:0:0:0:
224,192,15582,6,0,L|212:236,1,34,2|0,0:0|0:0,0:0:0:0:
312,208,15816,2,0,L|324:164,1,34,2|0,0:0|0:0,0:0:0:0:
276,292,16051,2,0,L|264:336,1,34,2|0,0:3|0:0,0:0:0:0:
364,308,16285,2,0,L|376:264,1,34,2|0,0:3|0:0,0:0:0:0:
312,208,16520,5,4,1:2:0:0:
188,228,16754,1,2,0:0:0:0:
267,324,16988,1,0,1:0:0:0:
312,208,17223,1,0,0:0:0:0:
312,208,17340,1,0,0:0:0:0:
312,208,17457,2,0,L|304:120,1,76.4999976654053,0|2,1:0|0:0,0:0:0:0:
420,84,17926,2,0,L|413:160,1,76.4999976654053,0|0,1:0|0:0,0:0:0:0:
240,224,18395,5,0,1:0:0:0:
305,131,18629,1,2,0:0:0:0:
220,56,18863,2,0,P|183:45|132:44,1,76.4999976654053,0|0,1:0|0:0,0:0:0:0:
120,48,19215,1,0,0:0:0:0:
96,56,19332,1,0,1:0:0:0:
160,152,19566,1,0,0:0:0:0:
144,172,19684,1,0,0:0:0:0:
136,196,19801,2,0,P|136:244|148:280,1,76.4999976654053,0|0,1:0|0:0,0:0:0:0:
292,308,20270,5,0,1:0:0:0:
236,224,20504,1,2,0:0:0:0:
200,356,20738,1,0,1:0:0:0:
367,319,20973,1,0,0:0:0:0:
367,319,21090,1,0,0:0:0:0:
367,319,21207,2,0,L|291:307,1,76.4999976654053,0|0,1:0|0:0,0:0:0:0:
424,220,21676,2,0,L|348:208,1,76.4999976654053,0|0,1:0|0:0,0:0:0:0:
488,284,22145,5,0,1:0:0:0:
416,132,22379,1,2,0:0:0:0:
416,132,22496,2,0,P|424:72|452:20,1,114.749996498108,0|0,0:0|0:0,0:0:0:0:
324,136,23082,5,0,1:0:0:0:
324,136,23199,2,0,P|285:123|244:120,1,76.4999976654053,2|0,0:0|0:0,0:0:0:0:
212,132,23551,2,0,L|204:208,1,76.4999976654053,0|2,1:0|0:0,0:0:0:0:
256,340,24020,5,0,1:0:0:0:
200,232,24254,1,2,0:0:0:0:
88,276,24488,1,0,1:0:0:0:
203,208,24723,1,0,0:0:0:0:
203,208,24841,1,0,0:0:0:0:
204,208,24957,2,0,P|248:201|300:208,1,76.4999976654053,0|2,1:0|0:0,0:0:0:0:
432,276,25426,2,0,P|393:277|356:271,1,76.4999976654053,0|0,1:0|0:0,0:0:0:0:
304,112,25895,5,0,1:0:0:0:
400,188,26129,1,2,0:0:0:0:
279,203,26363,1,2,1:2:0:0:
392,72,26598,1,2,0:0:0:0:
236,40,26832,2,0,L|188:44,2,38.2499988327027,0|0|2,1:0|0:0|0:0,0:0:0:0:
304,112,27301,1,2,1:2:0:0:
148,168,27535,1,0,0:0:0:0:
348,196,27770,5,4,1:2:0:0:
304,112,28707,1,4,1:2:0:0:
212,96,29645,5,0,1:0:0:0:
148,168,29879,1,0,1:0:0:0:
348,196,30113,1,2,1:2:0:0:
304,112,30348,1,2,1:2:0:0:
192,252,30582,6,0,L|180:292,1,38.2499988327027,2|0,1:2|0:0,0:0:0:0:
296,304,30816,2,0,L|296:266,1,38.2499988327027,2|0,1:2|0:0,0:0:0:0:
242,160,31051,2,0,L|202:148,1,38.2499988327027,2|0,1:3|0:0,0:0:0:0:
181,288,31285,2,0,L|219:288,1,38.2499988327027,2|2,1:3|0:3,0:0:0:0:
320,220,31520,6,0,P|384:204|420:200,1,76.4999976654053,4|0,1:2|0:0,0:0:0:0:
242,160,31988,2,0,P|282:116|314:96,1,76.4999976654053,8|0,0:1|0:0,0:0:0:0:
230,252,32457,1,0,0:0:0:0:
152,196,32691,1,0,0:0:0:0:
176,104,32926,1,8,0:1:0:0:
180,92,33043,1,0,2:0:0:0:
184,80,33160,1,0,0:0:0:0:
84,128,33395,5,0,0:0:0:0:
188,68,33629,1,0,0:0:0:0:
280,148,33863,1,8,0:1:0:0:
192,56,34098,1,0,0:0:0:0:
84,140,34332,2,0,B|88:180|88:180|104:212,1,76.4999976654053,0|0,0:0|0:0,0:0:0:0:
308,228,34801,2,0,B|304:188|304:188|288:156,1,76.4999976654053,8|0,0:1|0:0,0:0:0:0:
164,284,35270,6,0,P|216:296|248:292,1,76.4999976654053,0|0,0:0|0:0,0:0:0:0:
440,312,35738,2,0,P|388:300|356:304,1,76.4999976654053,8|0,0:1|0:0,0:0:0:0:
296,368,36207,1,0,0:0:0:0:
308,228,36441,1,0,0:0:0:0:
206,302,36676,1,8,0:1:0:0:
222,298,36793,1,0,2:0:0:0:
238,294,36910,1,0,0:0:0:0:
188,192,37145,5,0,0:0:0:0:
192,308,37379,1,0,0:0:0:0:
304,356,37613,1,8,0:1:0:0:
176,312,37848,1,0,0:0:0:0:
204,188,38082,2,0,B|240:180|240:180|288:180,1,76.4999976654053,0|0,0:0|0:0,0:0:0:0:
396,348,38551,2,0,B|360:356|360:356|312:356,1,76.4999976654053,8|0,0:1|0:0,0:0:0:0:
396,164,39020,6,0,L|380:256,1,76.4999976654053,0|0,0:0|0:0,0:0:0:0:
192,360,39488,2,0,L|176:268,1,76.4999976654053,8|0,0:1|0:0,0:0:0:0:
212,156,39957,1,0,0:0:0:0:
262,236,40191,1,0,0:0:0:0:
128,204,40426,1,8,0:1:0:0:
108,200,40543,1,0,2:0:0:0:
88,196,40660,1,0,0:0:0:0:
84,328,40895,5,0,0:0:0:0:
68,192,41129,1,0,0:0:0:0:
180,292,41363,1,8,0:1:0:0:
48,188,41598,1,0,0:0:0:0:
200,188,41832,2,0,L|180:100,1,76.4999976654053,0|0,0:0|0:0,0:0:0:0:
304,248,42301,2,0,P|311:215|324:172,1,76.4999976654053,8|0,0:1|0:0,0:0:0:0:
212,312,42770,6,0,P|160:296|120:292,1,76.4999976654053
304,248,43238,1,2,0:2:0:0:
308,360,43473,1,0,0:0:0:0:
204,200,43707,1,2,2:0:0:0:
396,188,43941,1,2,2:0:0:0:
212,312,44176,1,2,2:2:0:0:
188,308,44293,1,0,2:0:0:0:
164,304,44410,1,0,2:0:0:0:
304,248,44645,6,0,B|340:240|340:240|400:244,1,76.4999976654053,2|0,0:0|0:0,0:0:0:0:
244,160,45113,2,0,B|208:168|208:168|148:164,1,76.4999976654053,2|0,0:0|0:0,0:0:0:0:
144,160,45465,1,0,1:0:0:0:
144,160,45582,6,0,L|132:196,1,38.2499988327027,2|0,0:3|0:0,0:0:0:0:
200,84,45816,2,0,L|203:45,1,38.2499988327027,8|0,0:3|0:0,0:0:0:0:
268,152,46051,2,0,L|280:196,1,38.2499988327027,2|0,0:3|0:0,0:0:0:0:
320,72,46285,1,8,0:3:0:0:
464,164,46520,6,0,B|424:164|424:164|376:152,1,85,4|0,1:2|0:0,0:0:0:0:
194,199,46988,2,0,B|237:188|237:188|277:188,1,85,0|0,1:0|0:0,0:0:0:0:
420,260,47457,1,0,1:0:0:0:
356,340,47691,2,0,P|336:316|316:264,1,85,0|0,0:0|1:0,0:0:0:0:
352,164,48160,6,0,P|296:228|188:212,1,170,0|0,0:0|0:0,0:0:0:0:
132,296,48863,2,0,P|116:248|112:192,1,85,0|0,1:0|0:0,0:0:0:0:
276,56,49332,2,0,P|268:108|252:152,1,85,0|0,1:0|0:0,0:0:0:0:
116,196,49801,1,0,1:0:0:0:
176,76,50035,1,0,0:0:0:0:
212,232,50270,6,0,B|188:268|188:268|152:296,1,85,0|0,1:0|0:0,0:0:0:0:
16,164,50738,2,0,B|40:128|40:128|72:102,1,85,0|0,1:0|0:0,0:0:0:0:
264,132,51207,1,0,1:0:0:0:
192,204,51441,2,0,P|172:172|164:116,1,85,0|0,0:0|1:0,0:0:0:0:
352,184,51910,6,0,B|360:228|340:268|340:268|320:308|328:352,1,170,0|0,0:0|0:0,0:0:0:0:
256,212,52613,2,0,P|216:204|160:212,1,85,0|0,1:0|0:0,0:0:0:0:
212,304,53082,1,0,1:0:0:0:
280,116,53316,1,0,0:0:0:0:
432,244,53551,1,0,1:0:0:0:
256,212,53785,1,0,0:0:0:0:
376,84,54020,6,0,L|364:176,1,85,0|0,1:0|0:0,0:0:0:0:
248,32,54488,2,0,L|264:124,1,85,0|0,1:0|0:0,0:0:0:0:
120,16,54957,1,0,1:0:0:0:
156,108,55191,2,0,L|144:208,1,85,0|0,0:0|1:0,0:0:0:0:
40,308,55660,6,0,B|48:256|48:256|40:196|40:196|48:140,1,170,0|0,0:0|0:0,0:0:0:0:
224,260,56363,2,0,B|188:284|188:284|136:296,1,85,0|0,1:0|0:0,0:0:0:0:
280,180,56832,2,0,B|324:184|324:184|360:204,1,85,0|0,1:0|0:0,0:0:0:0:
145,192,57301,1,0,1:0:0:0:
145,192,57535,1,0,0:0:0:0:
220,32,57770,6,0,L|208:124,1,85,0|0,1:0|0:0,0:0:0:0:
244,208,58238,1,0,1:0:0:0:
244,208,58473,1,0,0:0:0:0:
64,216,58707,2,0,L|145:192,1,85,0|0,1:0|0:0,0:0:0:0:
209,116,59176,1,0,1:0:0:0:
176,284,59410,1,0,0:0:0:0:
244,208,59645,5,0,1:0:0:0:
108,100,59879,2,0,B|144:76|144:76|288:92,1,170,0|0,0:0|0:0,0:0:0:0:
356,144,60582,1,8,1:2:0:0:
168,176,60816,1,0,0:0:0:0:
296,276,61051,1,0,1:0:0:0:
269,89,61285,1,0,0:0:0:0:
360,184,61520,6,0,L|252:184,1,85,4|0,1:2|0:0,0:0:0:0:
240,184,61871,1,0,1:0:0:0:
240,184,61988,2,0,P|204:164|172:124,1,85,0|0,1:0|0:0,0:0:0:0:
269,89,62457,1,0,1:0:0:0:
336,224,62691,2,0,P|336:280|324:316,1,85,0|0,0:0|1:0,0:0:0:0:
148,292,63160,5,0,0:0:0:0:
168,192,63395,1,0,1:0:0:0:
244,260,63629,1,0,0:0:0:0:
244,260,63746,1,0,1:0:0:0:
244,260,63863,2,0,L|232:360,1,85,0|0,1:0|0:0,0:0:0:0:
384,224,64332,2,0,L|376:132,1,85,0|0,1:0|0:0,0:0:0:0:
224,88,64801,1,0,1:0:0:0:
220,108,64918,1,0,1:0:0:0:
216,128,65035,1,0,1:0:0:0:
348,44,65270,6,0,P|388:44|440:60,1,85,0|0,1:0|0:0,0:0:0:0:
456,80,65621,1,0,1:0:0:0:
456,80,65738,2,0,L|464:164,1,85,0|0,1:0|0:0,0:0:0:0:
332,276,66207,1,0,1:0:0:0:
280,184,66441,2,0,L|364:176,1,85,0|0,0:0|1:0,0:0:0:0:
476,316,66910,5,0,0:0:0:0:
332,276,67145,1,0,1:0:0:0:
464,204,67379,1,0,0:0:0:0:
464,204,67496,1,0,1:0:0:0:
464,204,67613,2,0,L|476:112,1,85,0|0,1:0|0:0,0:0:0:0:
352,152,68082,1,0,1:0:0:0:
480,92,68316,1,8,1:2:0:0:
280,36,68551,1,8,1:2:0:0:
360,172,68785,1,0,0:0:0:0:
172,104,69020,6,0,P|156:64|152:16,1,85,0|0,1:0|0:0,0:0:0:0:
151,22,69371,1,0,1:0:0:0:
151,22,69488,2,0,L|58:33,1,85,0|0,1:0|0:0,0:0:0:0:
256,40,69957,1,0,1:0:0:0:
180,200,70191,2,0,L|188:112,1,85,0|0,0:0|1:0,0:0:0:0:
344,92,70660,5,0,0:0:0:0:
276,168,70895,1,0,1:0:0:0:
256,40,71129,1,0,0:0:0:0:
256,40,71246,1,0,1:0:0:0:
256,40,71363,1,0,1:0:0:0:
376,88,71598,1,0,0:0:0:0:
240,152,71832,2,0,L|188:156,2,42.5,0|0|0,1:0|2:0|0:0,0:0:0:0:
388,204,72301,2,0,L|440:208,2,42.5,0|0|0,1:0|1:0|1:0,0:0:0:0:
224,264,72770,6,0,L|132:276,1,85,0|2,1:0|0:2,0:0:0:0:
139,274,73121,1,0,1:0:0:0:
139,274,73238,1,0,1:0:0:0:
284,184,73473,1,2,0:2:0:0:
356,256,73707,2,0,P|360:296|352:340,1,85,0|2,1:0|0:2,0:0:0:0:
284,184,74176,1,0,1:0:0:0:
384,156,74410,1,2,0:2:0:0:
184,152,74645,6,0,P|184:200|200:244,1,85,0|2,1:0|0:2,0:0:0:0:
195,234,74996,1,0,1:0:0:0:
195,234,75113,1,2,0:2:0:0:
264,84,75348,1,2,1:3:0:0:
99,144,75582,2,0,L|195:152,1,85,2|2,0:2|1:3,0:0:0:0:
352,224,76051,2,0,L|276:236,1,42.5,0|2,1:0|1:3,0:0:0:0:
220,248,76285,1,0,1:0:0:0:
316,144,76520,5,4,1:2:0:0:
348,308,76754,1,0,0:0:0:0:
348,308,76871,1,0,0:0:0:0:
348,308,76988,2,0,L|252:328,1,85,0|2,0:0|0:2,0:0:0:0:
392,220,77457,1,2,0:2:0:0:
276,116,77691,5,0,0:2:0:0:
280,236,77926,1,0,1:0:0:0:
380,172,78160,1,2,1:2:0:0:
272,32,78395,5,2,1:2:0:0:
160,152,78629,1,0,0:0:0:0:
160,152,78746,1,0,0:0:0:0:
160,152,78863,2,0,P|200:148|244:128,1,85,0|2,0:0|0:2,0:0:0:0:
172,52,79332,1,2,0:2:0:0:
220,228,79566,5,0,0:0:0:0:
328,144,79801,1,2,0:2:0:0:
300,140,79918,1,0,0:0:0:0:
272,136,80035,1,0,0:0:0:0:
412,80,80270,6,0,P|432:140|432:180,1,85,2|0,0:2|0:0,0:0:0:0:
428,192,80621,1,0,0:0:0:0:
416,220,80738,2,0,P|412:260|420:304,1,85,0|2,0:0|0:2,0:0:0:0:
288,352,81207,1,2,0:2:0:0:
296,320,81324,1,0,0:0:0:0:
296,288,81441,5,0,0:0:0:0:
196,312,81676,1,0,0:0:0:0:
372,360,81910,1,2,0:2:0:0:
284,203,82145,6,0,L|295:287,1,85,2|0,0:2|0:0,0:0:0:0:
295,287,82496,1,0,0:0:0:0:
295,287,82613,1,0,0:0:0:0:
384,236,82848,1,2,0:2:0:0:
188,244,83082,1,2,0:2:0:0:
184,216,83199,1,0,0:0:0:0:
180,188,83316,1,2,0:3:0:0:
284,204,83551,5,8,0:2:0:0:
280,164,83668,1,0,0:0:0:0:
276,124,83785,1,2,0:2:0:0:
144,80,84020,6,0,P|118:92|92:112,3,42.5,2|0|0|0,0:2|0:0|0:0|0:0,0:0:0:0:
72,164,84488,1,2,0:2:0:0:
92,188,84605,1,0,0:0:0:0:
104,216,84723,1,2,0:2:0:0:
108,244,84840,1,0,0:0:0:0:
104,272,84957,6,0,P|128:276|152:284,3,42.5,2|0|0|0,0:2|0:0|0:0|0:0,0:0:0:0:
204,328,85426,1,2,0:2:0:0:
228,312,85543,1,0,0:0:0:0:
256,304,85660,1,2,0:2:0:0:
284,304,85777,1,0,0:0:0:0:
312,312,85895,6,0,P|336:316|364:316,3,42.5,2|0|0|0,0:2|0:0|0:0|0:0,0:0:0:0:
424,292,86363,1,2,0:2:0:0:
412,264,86480,1,0,0:0:0:0:
412,236,86598,1,2,0:2:0:0:
424,208,86715,1,0,0:0:0:0:
444,188,86832,6,0,L|468:184,6,21.25,2|0|0|0|0|0|0,0:2|0:0|0:0|0:0|0:0|0:0|0:0,0:0:0:0:
440,112,87301,2,0,L|464:108,6,21.25,2|0|0|0|0|0|0,0:2|0:0|0:0|0:0|0:0|0:0|0:0,0:0:0:0:
440,36,87770,6,0,L|364:52,1,68,2|0,0:0|0:0,0:0:0:0:
296,120,88238,2,0,L|216:112,1,68,2|0,0:0|0:0,0:0:0:0:
272,32,88707,1,0,0:0:0:0:
408,132,88941,1,2,0:0:0:0:
252,200,89176,1,2,0:0:0:0:
272,32,89645,5,8,1:2:0:0:
372,136,89879,1,0,0:0:0:0:
264,56,90113,1,8,1:2:0:0:
304,216,90348,1,0,0:0:0:0:
256,80,90582,2,0,L|236:40,1,34,8|0,1:2|0:0,0:0:0:0:
344,96,90816,2,0,L|328:144,1,34,0|0,1:0|0:0,0:0:0:0:
232,164,91051,6,0,P|216:240|304:216,1,191.250007295609,10|0,1:3|0:0,0:0:0:0:
333,128,91520,5,4,1:2:0:0:
192,60,91754,1,0,0:0:0:0:
192,60,91871,1,0,1:0:0:0:
192,60,91988,1,0,1:0:0:0:
232,164,92223,1,2,0:0:0:0:
92,108,92457,2,0,P|84:60|92:8,1,93.5000028533936,2|0,1:2|0:0,0:0:0:0:
192,60,92926,1,0,1:0:0:0:
140,204,93160,1,2,0:0:0:0:
324,175,93395,6,0,L|232:164,1,93.5000028533936,2|0,1:2|1:0,0:0:0:0:
232,164,93746,1,0,1:0:0:0:
232,164,93863,1,0,1:0:0:0:
264,268,94098,1,2,0:0:0:0:
348,180,94332,1,2,1:2:0:0:
372,336,94566,1,0,0:0:0:0:
460,200,94801,2,0,L|460:140,2,46.7500014266968,0|0|2,1:0|1:0|0:0,0:0:0:0:
288,264,95270,6,0,P|248:244|192:240,1,93.5000028533936,2|0,1:2|1:0,0:0:0:0:
164,248,95621,1,0,1:0:0:0:
132,268,95738,1,0,1:0:0:0:
228,148,95973,1,2,0:0:0:0:
212,340,96207,5,2,1:2:0:0:
212,340,96324,1,0,0:0:0:0:
212,340,96441,1,0,0:0:0:0:
112,300,96676,1,0,1:0:0:0:
199,239,96910,1,2,0:0:0:0:
104,184,97145,6,0,L|96:284,1,93.5000028533936,2|0,1:2|1:0,0:0:0:0:
97,278,97496,1,0,1:0:0:0:
97,278,97613,1,0,1:0:0:0:
212,220,97848,1,2,0:0:0:0:
164,100,98082,1,2,1:2:0:0:
133,86,98199,1,0,0:0:0:0:
100,80,98316,1,2,0:3:0:0:
224,24,98551,5,8,1:2:0:0:
264,8,98668,1,0,0:0:0:0:
308,8,98785,1,2,0:2:0:0:
444,120,99020,6,0,P|400:120|340:100,1,93.5000028533936,8|0,1:0|1:0,0:0:0:0:
352,106,99371,1,0,1:0:0:0:
352,106,99488,1,8,1:0:0:0:
412,20,99723,1,2,0:0:0:0:
384,204,99957,2,0,P|320:216|280:212,1,93.5000028533936,8|0,1:0|0:0,0:0:0:0:
188,80,100425,1,8,1:0:0:0:
332,116,100660,1,2,0:0:0:0:
184,180,100895,6,0,P|184:228|200:280,1,93.5000028533936,8|0,1:0|1:0,0:0:0:0:
224,296,101246,1,0,1:0:0:0:
256,312,101363,2,0,L|360:296,1,93.5000028533936,8|2,1:0|0:0,0:0:0:0:
460,224,101832,1,8,1:0:0:0:
292,212,102066,1,0,0:0:0:0:
388,112,102301,1,8,1:0:0:0:
384,144,102418,1,0,1:0:0:0:
380,176,102535,1,2,0:0:0:0:
204,136,102770,6,0,L|192:36,1,93.5000028533936,8|0,1:0|1:0,0:0:0:0:
192,43,103121,1,0,1:0:0:0:
192,43,103238,1,8,1:0:0:0:
100,104,103473,1,2,0:0:0:0:
224,152,103707,1,8,1:0:0:0:
80,216,103941,1,2,0:0:0:0:
256,260,104176,2,0,L|364:248,1,93.5000028533936,8|0,1:0|0:0,0:0:0:0:
160,220,104645,6,0,B|156:268|156:268|168:312,1,93.5000028533936,2|0,1:3|0:0,0:0:0:0:
368,156,105113,2,0,B|372:108|372:108|360:64,1,93.5000028533936,2|0,1:3|0:0,0:0:0:0:
256,236,105582,2,0,L|316:228,1,46.7500014266968,2|2,1:3|1:3,0:0:0:0:
272,140,105816,2,0,L|212:148,1,46.7500014266968,2|2,1:3|1:3,0:0:0:0:
160,220,106051,6,0,P|181:288|256:236,1,191.250007295609,8|0,1:2|0:0,0:0:0:0:
225,146,106520,5,4,1:2:0:0:
68,186,106754,1,0,1:0:0:0:
68,186,106871,1,0,1:0:0:0:
68,186,106988,2,0,P|60:239|65:283,1,97.7500018644333,8|2,1:0|0:0,0:0:0:0:
216,360,107457,1,8,1:0:0:0:
164,240,107691,5,0,0:0:0:0:
285,227,107926,1,8,1:0:0:0:
236,338,108160,1,2,0:0:0:0:
172,212,108395,5,8,1:0:0:0:
288,136,108629,1,0,1:0:0:0:
288,136,108746,1,0,1:0:0:0:
288,136,108863,2,0,L|400:128,1,97.7500018644333,8|2,1:0|0:0,0:0:0:0:
344,224,109332,1,8,1:0:0:0:
328,40,109566,5,2,0:0:0:0:
456,126,109801,1,8,1:0:0:0:
420,128,109918,1,0,1:0:0:0:
385,129,110035,1,2,0:0:0:0:
230,45,110270,6,0,L|333:39,1,97.7500018644333,8|0,1:0|1:0,0:0:0:0:
328,40,110621,1,0,1:0:0:0:
328,40,110738,1,8,1:0:0:0:
180,136,110973,1,2,0:0:0:0:
296,192,111207,1,8,1:0:0:0:
292,164,111324,1,0,0:0:0:0:
288,136,111441,5,0,0:0:0:0:
308,280,111676,1,8,1:0:0:0:
384,192,111910,1,2,0:0:0:0:
204,216,112145,6,0,P|160:212|104:184,1,97.7500018644333,8|0,1:0|1:0,0:0:0:0:
111,189,112496,1,0,1:0:0:0:
111,189,112613,1,8,1:0:0:0:
184,112,112848,1,2,0:0:0:0:
236,212,113082,1,2,1:2:0:0:
240,248,113199,1,0,0:0:0:0:
244,284,113316,1,2,0:3:0:0:
344,204,113551,5,8,1:2:0:0:
324,164,113668,1,0,0:0:0:0:
304,124,113785,1,2,0:2:0:0:
348,24,114020,6,0,L|432:88,1,97.7500018644333,10|0,1:0|1:0,0:0:0:0:
460,108,114371,1,0,1:0:0:0:
460,108,114488,2,0,P|472:161|468:212,1,97.7500018644333,8|2,1:0|0:1,0:0:0:0:
340,288,114957,1,10,1:0:0:0:
372,168,115191,5,0,0:0:0:0:
464,304,115426,1,8,1:0:0:0:
300,316,115660,1,2,0:1:0:0:
380,260,115895,5,10,1:0:0:0:
228,244,116129,1,0,1:0:0:0:
228,244,116246,1,0,1:0:0:0:
228,244,116363,2,0,B|208:288|208:288|204:340,1,97.7500018644333,8|2,1:0|0:1,0:0:0:0:
300,316,116832,1,10,1:0:0:0:
140,228,117066,5,0,0:0:0:0:
264,212,117301,1,8,1:0:0:0:
264,212,117418,1,0,1:0:0:0:
264,212,117535,1,2,0:1:0:0:
204,337,117770,5,10,1:0:0:0:
324,332,118004,1,2,0:0:0:0:
188,236,118238,5,10,1:0:0:0:
332,248,118473,1,0,0:0:0:0:
172,136,118707,5,2,1:0:0:0:
348,164,118941,1,2,0:0:0:0:
160,36,119176,5,10,1:0:0:0:
368,80,119410,1,0,0:0:0:0:
172,136,119645,6,0,L|168:191,3,48.8750009322167,2|0|0|0,0:0|0:0|0:0|0:0,0:0:0:0:
212,247,120113,2,0,L|208:302,3,48.8750009322167,2|0|2|0,0:2|0:0|0:2|0:0,0:0:0:0:
252,359,120582,6,0,L|288:355,6,24.4375004661083,2|0|0|0|0|0|0,0:0|0:0|0:0|0:0|0:0|0:0|0:0,0:0:0:0:
332,303,121051,2,0,L|368:299,6,24.4375004661083,2|0|0|0|2|0|2,0:1|0:0|0:0|0:0|0:2|0:0|0:2,0:0:0:0:
420,343,121520,5,4,1:3:0:0:
