osu file format v14

[General]
AudioFilename: 08. SOUND HOLIC - The Party We Have Never Seen.mp3
AudioLeadIn: 0
PreviewTime: 45582
Countdown: 0
SampleSet: Soft
StackLeniency: 0.5
Mode: 0
LetterboxInBreaks: 0
WidescreenStoryboard: 1

[Editor]
Bookmarks: 1520,16520,31520,46520,61520,76520,91520,106520,121520
DistanceSpacing: 1.2
BeatDivisor: 4
GridSize: 4
TimelineZoom: 1.5

[Metadata]
Title:The Party We Have Never Seen
TitleUnicode:The Party We Have Never Seen
Artist:Nana Takahashi
ArtistUnicode:Nana Takahashi
Creator:jonathanlfj
Version:Hard
Source:東方紺珠伝 ~ Legacy of Lunatic Kingdom.
Tags:東方Project Camellia かめりあ Nwolf Trust Touhou SOUND HOLIC 紺 -KAN- Hecatia Lapislazuli ヘカーティア・ラピスラズリ パンデモニックプラネット Pandemonic Planet 見た事も無い悪夢の世界 A Never-Before-Seen World of Nightmares Extra Stage Boss Theme comiket 89 c89 EDM
BeatmapID:926748
BeatmapSetID:405516

[Difficulty]
HPDrainRate:5
CircleSize:3.8
OverallDifficulty:6
ApproachRate:6.7
SliderMultiplier:1.4
SliderTickRate:1

[Events]
//Background and Video events
0,0,"52369022_p0.jpg",0,0
//Break Periods
//Storyboard Layer 0 (Background)
//Storyboard Layer 1 (Fail)
//Storyboard Layer 2 (Pass)
//Storyboard Layer 3 (Foreground)
//Storyboard Sound Samples

[TimingPoints]
1520,468.75,4,2,1,40,1,0
1520,-125,4,2,1,40,0,0
11832,-125,4,2,1,50,0,0
12770,-125,4,2,1,30,0,0
15582,-125,4,2,1,40,0,0
16520,-111.111111111111,4,2,1,50,0,0
27770,-111.111111111111,4,2,1,40,0,0
29645,-111.111111111111,4,2,1,50,0,0
30582,-111.111111111111,4,1,1,60,0,0
31520,-111.111111111111,4,3,1,60,0,0
44645,-111.111111111111,4,2,1,65,0,0
45582,-111.111111111111,4,1,1,65,0,0
46520,-100,4,3,1,70,0,0
76520,-100,4,1,1,75,0,0
87770,-125,4,2,1,50,0,0
91051,-66.6666666666667,4,2,1,70,0,0
91402,-66.6666666666667,4,2,1,5,0,0
91520,-90.9090909090909,4,2,1,80,0,1
104645,-90.9090909090909,4,2,1,50,0,1
106051,-66.6666666666667,4,2,1,50,0,1
106402,-66.6666666666667,4,2,1,5,0,1
106520,-86.9565217391304,4,2,1,80,0,1
119645,-86.9565217391304,4,1,1,80,0,1
121520,-100,4,2,1,70,0,0

[Colours]
Combo1 : 254,187,48
Combo2 : 254,114,194
Combo3 : 172,81,255
Combo4 : 95,154,254

[HitObjects]
112,240,1520,6,0,L|180:232,1,56,0|2,0:0|0:0,0:0:0:0:
236,256,1988,1,0,0:0:0:0:
296,216,2223,1,0,0:0:0:0:
348,268,2457,2,0,P|368:220|360:180,2,84,0|0|0,0:0|0:0|0:0,0:0:0:0:
296,216,3395,6,0,P|280:156|280:136,1,56,0|2,0:0|0:0,0:0:0:0:
300,92,3863,1,0,0:0:0:0:
240,52,4098,1,0,0:0:0:0:
180,92,4332,2,0,L|88:100,2,84,0|0|0,0:0|0:0|0:0,0:0:0:0:
240,52,5270,6,0,B|264:60|264:60|296:60,1,56,0|2,0:0|0:0,0:0:0:0:
364,36,5738,1,0,0:0:0:0:
412,92,5973,1,0,0:0:0:0:
416,96,6090,1,0,0:0:0:0:
420,100,6207,2,0,P|432:132|424:180,2,84
360,144,7145,6,0,L|288:152,1,56,0|2,0:0|0:0,0:0:0:0:
284,164,7496,2,0,P|272:206|284:254,1,84
247,311,8082,2,0,P|287:318|341:289,2,84
174,297,9020,6,0,L|160:235,1,56,0|2,0:0|0:0,0:0:0:0:
204,184,9488,1,0,0:0:0:0:
180,116,9723,1,0,0:0:0:0:
180,116,9840,1,0,0:0:0:0:
180,116,9957,2,0,P|176:72|198:23,2,84
204,184,10895,6,0,P|240:182|284:188,1,56,0|2,0:0|0:0,0:0:0:0:
324,220,11363,1,2,0:0:0:0:
376,168,11598,1,0,0:0:0:0:
376,168,11715,1,0,0:0:0:0:
376,168,11832,2,0,L|384:104,1,56,2|0,0:0|0:0,0:0:0:0:
324,220,12301,2,0,L|332:284,1,56,2|2,0:0|0:0,0:0:0:0:
259,183,12770,5,2,0:0:0:0:
192,212,13707,1,2,0:0:0:0:
128,176,14645,5,0,0:0:0:0:
192,212,14879,1,0,0:0:0:0:
248,164,15113,1,2,0:0:0:0:
216,96,15348,1,2,0:0:0:0:
144,104,15582,6,0,L|76:112,1,56,2|2,0:0|0:0,0:0:0:0:
192,212,16051,2,0,L|184:256,2,28,2|2|2,0:3|0:3|0:3,0:0:0:0:
264,112,16520,6,0,P|260:72|252:48,1,62.9999980773926,4|2,1:2|0:0,0:0:0:0:
184,96,16988,1,0,1:0:0:0:
208,176,17223,1,0,0:0:0:0:
208,176,17340,1,0,0:0:0:0:
208,176,17457,2,0,P|256:192|312:184,1,94.499997116089,0|0,1:0|0:0,0:0:0:0:
320,180,17926,2,0,L|324:255,1,62.9999980773926,0|0,1:0|0:0,0:0:0:0:
224,280,18395,6,0,L|212:356,1,62.9999980773926,0|2,1:0|0:0,0:0:0:0:
136,368,18863,1,0,1:0:0:0:
68,320,19098,1,0,0:0:0:0:
68,320,19215,1,0,0:0:0:0:
68,320,19332,2,0,P|52:272|52:244,1,62.9999980773926,0|0,1:0|0:0,0:0:0:0:
56,236,19684,2,0,P|84:196|92:152,1,94.499997116089
68,48,20270,6,0,P|112:56|156:52,1,62.9999980773926,0|2,1:0|0:0,0:0:0:0:
208,28,20738,1,0,1:0:0:0:
256,96,20973,1,0,0:0:0:0:
256,96,21090,1,0,0:0:0:0:
256,96,21207,2,0,B|260:144|260:144|248:200,1,94.499997116089,0|2,1:0|0:0,0:0:0:0:
244,212,21676,2,0,L|252:280,1,62.9999980773926,0|0,1:0|0:0,0:0:0:0:
348,332,22145,6,0,L|416:312,1,62.9999980773926,0|2,1:0|0:0,0:0:0:0:
432,320,22496,2,0,P|416:280|420:212,1,94.499997116089
480,180,23082,2,0,P|484:132|468:84,1,94.499997116089,0|0,1:0|0:0,0:0:0:0:
448,80,23551,2,0,L|384:84,1,62.9999980773926,0|2,1:0|0:0,0:0:0:0:
272,156,24020,6,0,L|334:152,1,62.9999980773926,0|2,1:0|0:0,0:0:0:0:
385,83,24488,1,0,1:0:0:0:
324,28,24723,1,0,0:0:0:0:
324,28,24840,1,0,0:0:0:0:
324,28,24957,2,0,P|276:16|208:24,1,94.499997116089,0|0,1:0|0:0,0:0:0:0:
208,28,25426,2,0,P|168:36|140:36,1,62.9999980773926,0|0,1:0|0:0,0:0:0:0:
84,100,25895,6,0,P|110:130|124:154,1,62.9999980773926,0|2,1:0|0:0,0:0:0:0:
208,168,26363,2,0,P|221:129|235:105,1,62.9999980773926,2|2,1:2|0:0,0:0:0:0:
316,88,26832,1,0,1:0:0:0:
296,172,27066,1,2,0:0:0:0:
380,192,27301,1,2,1:2:0:0:
400,108,27535,1,0,0:0:0:0:
296,172,27770,5,4,1:2:0:0:
364,232,28707,1,4,1:2:0:0:
440,184,29645,5,0,1:0:0:0:
364,232,29879,1,0,1:0:0:0:
296,172,30113,1,2,1:2:0:0:
332,88,30348,1,2,1:2:0:0:
420,96,30582,2,0,L|472:100,2,31.4999990386963,2|0|2,1:2|0:0|1:2,0:0:0:0:
440,184,31051,2,0,L|492:188,2,31.4999990386963,2|0|2,1:3|0:0|1:3,0:0:0:0:
364,232,31520,6,0,P|352:284|352:316,1,62.9999980773926,4|0,1:2|0:0,0:0:0:0:
296,352,31988,2,0,P|256:315|229:299,1,62.9999980773926,8|0,0:1|0:0,0:0:0:0:
224,232,32457,2,0,P|275:216|302:200,1,62.9999980773926,0|0,0:0|0:0,0:0:0:0:
324,140,32926,1,8,0:1:0:0:
324,140,33043,1,0,2:0:0:0:
324,140,33160,1,0,0:0:0:0:
272,76,33395,6,0,B|260:52|260:52|256:12,1,62.9999980773926,0|0,0:0|0:0,0:0:0:0:
180,48,33863,2,0,B|168:72|168:72|164:112,1,62.9999980773926,8|0,0:1|0:0,0:0:0:0:
212,176,34332,2,0,P|136:148|88:160,1,125.999996154785,0|8,0:0|0:1,0:0:0:0:
40,220,35035,1,0,0:0:0:0:
92,284,35270,6,0,P|124:292|168:292,1,62.9999980773926,0|0,0:0|0:0,0:0:0:0:
200,360,35738,2,0,P|228:324|236:304,1,62.9999980773926,8|0,0:1|0:0,0:0:0:0:
316,300,36207,2,0,P|296:256|276:236,1,62.9999980773926,0|0,0:0|0:0,0:0:0:0:
205,229,36676,1,8,0:1:0:0:
205,229,36793,1,0,2:0:0:0:
205,229,36910,1,0,0:0:0:0:
129,261,37145,6,0,B|122:230|122:230|129:193,1,62.9999980773926
191,148,37613,2,0,B|223:150|223:150|254:140,1,62.9999980773926,8|0,0:1|0:0,0:0:0:0:
289,67,38082,2,0,P|297:150|330:188,1,125.999996154785,0|8,0:0|0:1,0:0:0:0:
404,176,38785,1,0,0:0:0:0:
448,244,39020,6,0,P|456:292|452:328,1,62.9999980773926,0|0,0:0|0:0,0:0:0:0:
376,284,39488,2,0,P|360:328|344:352,1,62.9999980773926,8|0,0:1|0:0,0:0:0:0:
292,284,39957,2,0,P|248:312|232:316,1,62.9999980773926,0|0,0:0|0:0,0:0:0:0:
228,232,40426,1,8,0:1:0:0:
228,232,40543,1,0,2:0:0:0:
228,232,40660,1,0,0:0:0:0:
304,204,40895,6,0,L|376:212,1,62.9999980773926,0|0,0:0|0:0,0:0:0:0:
272,128,41363,2,0,L|200:140,1,62.9999980773926,8|0,0:1|0:0,0:0:0:0:
308,52,41832,2,0,B|328:62|340:80|340:80|377:68|424:72,1,125.999996154785,0|8,0:0|0:1,0:0:0:0:
492,116,42535,1,0,0:0:0:0:
448,184,42770,6,0,P|440:220|440:252,1,62.9999980773926,0|0,0:0|0:0,0:0:0:0:
468,324,43238,2,0,P|428:328|400:320,1,62.9999980773926,2|0,0:2|0:0,0:0:0:0:
356,256,43707,1,2,2:0:0:0:
288,304,43941,1,2,2:0:0:0:
228,248,44176,2,0,L|220:200,2,31.4999990386963,2|0|0,2:2|2:0|2:0,0:0:0:0:
180,316,44645,6,0,L|112:324,2,62.9999980773926,2|0|2,0:0|0:0|0:0,0:0:0:0:
228,248,45348,1,0,0:0:0:0:
228,248,45465,1,0,1:0:0:0:
228,248,45582,2,0,L|304:240,1,62.9999980773926,2|8,0:3|0:3,0:0:0:0:
172,188,46051,2,0,L|99:196,1,62.9999980773926,2|8,0:3|0:3,0:0:0:0:
232,128,46520,6,0,P|238:87|233:43,1,70,4|0,1:2|0:0,0:0:0:0:
165,14,46988,2,0,P|129:23|98:44,1,70,0|0,1:0|0:0,0:0:0:0:
70,119,47457,1,0,1:0:0:0:
109,194,47691,2,0,P|109:237|99:270,1,70,0|0,0:0|1:0,0:0:0:0:
193,181,48160,6,0,P|253:182|320:231,1,140
384,176,48863,2,0,P|364:128|364:96,1,70,0|0,1:0|0:0,0:0:0:0:
448,120,49332,2,0,P|468:168|468:200,1,70,0|0,1:0|0:0,0:0:0:0:
420,256,49801,1,0,1:0:0:0:
420,256,50035,1,0,0:0:0:0:
348,300,50270,6,0,B|340:266|340:266|340:220,1,70,0|0,1:0|0:0,0:0:0:0:
252,184,50738,2,0,B|262:219|262:219|262:263,1,70,0|0,1:0|0:0,0:0:0:0:
180,232,51207,1,0,1:0:0:0:
176,148,51441,2,0,B|196:120|196:120|240:100,1,70,0|0,0:0|1:0,0:0:0:0:
180,232,51910,6,0,B|132:236|132:236|88:224|88:224|40:228,1,140,0|0,0:0|0:0,0:0:0:0:
12,308,52613,2,0,L|88:300,1,70,0|0,1:0|0:0,0:0:0:0:
148,352,53082,1,0,1:0:0:0:
148,352,53316,1,0,0:0:0:0:
212,296,53551,1,0,1:0:0:0:
212,296,53785,1,0,0:0:0:0:
276,352,54020,6,0,P|292:316|296:280,1,70,0|0,1:0|0:0,0:0:0:0:
244,220,54488,2,0,P|240:184|248:144,1,70,0|0,1:0|0:0,0:0:0:0:
316,104,54957,1,0,1:0:0:0:
368,172,55191,2,0,P|404:184|444:184,1,70,0|0,0:0|1:0,0:0:0:0:
316,104,55660,6,0,P|252:68|184:92,1,140,0|0,0:0|0:0,0:0:0:0:
144,156,56363,2,0,L|132:236,2,70,0|0|0,1:0|0:0|1:0,0:0:0:0:
191,85,57066,1,0,0:0:0:0:
108,80,57301,2,0,P|76:72|36:48,1,70,0|0,1:0|0:0,0:0:0:0:
144,156,57770,6,0,P|208:168|272:108,1,140,0|0,1:0|1:0,0:0:0:0:
340,164,58473,1,0,0:0:0:0:
385,95,58707,2,0,P|321:83|257:143,1,140,0|0,1:0|1:0,0:0:0:0:
268,208,59410,1,0,0:0:0:0:
340,164,59645,5,0,1:0:0:0:
192,172,59879,2,0,B|144:176|144:176|104:192|104:192|56:196,1,140,0|0,0:0|0:0,0:0:0:0:
84,116,60582,2,0,P|88:80|80:32,1,70,8|0,1:2|0:0,0:0:0:0:
160,8,61051,2,0,P|189:29|234:46,1,70,0|0,1:0|0:0,0:0:0:0:
304,32,61520,6,0,B|316:52|316:52|304:140,1,105,4|0,1:2|1:0,0:0:0:0:
304,132,61988,2,0,L|384:124,1,70,0|0,1:0|0:0,0:0:0:0:
264,208,62457,1,0,1:0:0:0:
220,136,62691,2,0,P|192:128|144:128,1,70,0|0,0:0|1:0,0:0:0:0:
88,184,63160,6,0,P|110:229|88:316,1,140,0|0,0:0|0:0,0:0:0:0:
90,313,63746,1,0,1:0:0:0:
90,313,63863,2,0,L|164:324,1,70,0|0,1:0|0:0,0:0:0:0:
236,288,64332,2,0,L|320:280,1,70,0|0,1:0|0:0,0:0:0:0:
380,320,64801,2,0,L|384:360,2,35,0|0|0,1:0|1:0|1:0,0:0:0:0:
432,256,65270,6,0,P|440:208|420:144,1,105,0|0,1:0|1:0,0:0:0:0:
425,154,65738,2,0,P|464:152|504:148,1,70,0|0,1:0|0:0,0:0:0:0:
388,80,66207,1,0,1:0:0:0:
340,148,66441,2,0,P|352:196|376:228,1,70,0|0,0:0|1:0,0:0:0:0:
304,272,66910,6,0,P|208:256|152:288,1,140,0|0,0:0|0:0,0:0:0:0:
171,271,67496,1,0,1:0:0:0:
171,271,67613,2,0,L|168:184,1,70,0|0,1:0|0:0,0:0:0:0:
168,116,68082,1,0,1:0:0:0:
84,200,68316,1,8,1:2:0:0:
84,116,68551,2,0,L|56:88,2,35,8|0|0,1:2|0:0|0:0,0:0:0:0:
168,202,69020,6,0,L|288:192,1,105,0|0,1:0|1:0,0:0:0:0:
272,193,69488,2,0,B|292:224|292:224|296:268,1,70,0|0,1:0|0:0,0:0:0:0:
280,340,69957,1,0,1:0:0:0:
376,280,70191,2,0,B|412:272|412:272|464:280,1,70,0|0,0:0|1:0,0:0:0:0:
416,356,70660,6,0,L|404:204,1,140,0|0,0:0|0:0,0:0:0:0:
404,216,71246,1,0,1:0:0:0:
404,216,71363,2,0,L|488:204,1,70,0|0,1:0|0:0,0:0:0:0:
328,176,71832,2,0,L|248:164,1,70,0|0,1:0|0:0,0:0:0:0:
388,112,72301,2,0,L|436:104,2,35,0|0|0,1:0|1:0|1:0,0:0:0:0:
328,176,72770,5,0,1:0:0:0:
404,216,73004,1,2,0:2:0:0:
404,216,73121,1,0,1:0:0:0:
404,216,73238,2,0,L|424:296,1,70,0|2,1:0|0:2,0:0:0:0:
352,332,73707,2,0,P|304:320|268:320,1,70,0|2,1:0|0:2,0:0:0:0:
208,352,74176,1,0,1:0:0:0:
144,296,74410,1,2,0:2:0:0:
176,220,74645,6,0,P|188:146|184:80,1,140,0|2,1:0|0:2,0:0:0:0:
256,36,75348,1,2,1:3:0:0:
327,81,75582,2,0,P|323:117|324:151,1,70,2|2,0:2|1:3,0:0:0:0:
388,204,76051,2,0,L|436:200,2,35,0|2|0,1:0|1:3|1:0,0:0:0:0:
308,236,76520,6,0,P|274:227|232:228,1,70,4|0,1:2|0:0,0:0:0:0:
216,232,76871,1,0,0:0:0:0:
216,232,76988,2,0,L|204:312,1,70,0|2,0:0|0:2,0:0:0:0:
136,200,77457,2,0,L|132:124,1,70,2|0,0:2|0:2,0:0:0:0:
192,68,77926,1,0,1:0:0:0:
264,112,78160,1,2,1:2:0:0:
328,56,78395,6,0,P|344:96|344:144,1,70,2|0,1:2|0:0,0:0:0:0:
344,148,78746,1,0,0:0:0:0:
344,148,78863,2,0,L|416:140,1,70,0|2,0:0|0:2,0:0:0:0:
504,228,79332,2,0,L|424:220,1,70,2|0,0:2|0:0,0:0:0:0:
368,272,79801,2,0,L|376:324,2,35,2|0|0,0:2|0:0|0:0,0:0:0:0:
292,236,80270,6,0,P|277:203|272:160,1,70,2|0,0:2|0:0,0:0:0:0:
272,144,80621,1,0,0:0:0:0:
272,144,80738,2,0,L|192:136,1,70,0|2,0:0|0:2,0:0:0:0:
132,184,81207,2,0,L|136:232,2,35,2|0|0,0:2|0:0|0:0,0:0:0:0:
64,132,81676,1,0,0:0:0:0:
92,52,81910,1,2,0:2:0:0:
176,56,82145,6,0,P|215:51|260:32,1,70,2|0,0:2|0:0,0:0:0:0:
264,28,82496,1,0,0:0:0:0:
264,28,82613,2,0,P|280:64|284:104,1,70,0|2,0:0|0:2,0:0:0:0:
232,160,83082,2,0,L|180:168,2,35,2|0|2,0:2|0:0|0:3,0:0:0:0:
304,204,83551,1,8,0:2:0:0:
320,208,83668,1,0,0:0:0:0:
336,212,83785,1,2,0:2:0:0:
256,192,84020,12,2,87770,0:0:0:0:
212,88,89645,6,0,L|204:168,1,56,8|0,1:2|0:0,0:0:0:0:
300,184,90113,2,0,L|308:248,1,56,8|0,1:2|0:0,0:0:0:0:
212,300,90582,1,8,1:2:0:0:
312,352,90816,1,0,1:0:0:0:
306,239,91051,6,0,P|240:196|136:208,1,157.500006008148,10|0,1:3|0:0,0:0:0:0:
120,212,91520,6,0,P|120:172|112:132,1,77.0000023498536,4|0,1:2|0:0,0:0:0:0:
113,135,91871,1,0,1:0:0:0:
113,135,91988,2,0,L|20:140,1,77.0000023498536,0|2,1:0|0:0,0:0:0:0:
160,56,92457,2,0,L|264:64,1,77.0000023498536,2|0,1:2|0:0,0:0:0:0:
276,144,92926,1,0,1:0:0:0:
212,212,93160,1,2,0:0:0:0:
284,272,93395,6,0,B|316:284|316:284|408:272,1,115.50000352478,2|0,1:2|1:0,0:0:0:0:
424,268,93863,2,0,B|440:304|440:304|448:356,1,77.0000023498536,0|2,1:0|0:0,0:0:0:0:
480,192,94332,2,0,B|444:180|444:180|384:176,1,77.0000023498536,2|0,1:2|0:0,0:0:0:0:
324,224,94801,1,0,1:0:0:0:
324,224,94918,1,0,1:0:0:0:
324,224,95035,1,2,0:0:0:0:
264,152,95270,6,0,P|256:112|256:68,1,77.0000023498536,2|0,1:2|1:0,0:0:0:0:
260,52,95621,1,0,1:0:0:0:
260,52,95738,2,0,L|352:40,1,77.0000023498536,0|2,1:0|0:0,0:0:0:0:
400,108,96207,2,0,L|440:112,2,38.5000011749268,2|0|0,1:2|0:0|0:0,0:0:0:0:
332,172,96676,1,0,1:0:0:0:
384,248,96910,1,2,0:0:0:0:
312,308,97145,6,0,P|240:324|188:300,1,115.50000352478,2|0,1:2|1:0,0:0:0:0:
180,296,97613,2,0,L|164:376,1,77.0000023498536,0|2,1:0|0:0,0:0:0:0:
112,236,98082,2,0,L|60:228,2,38.5000011749268,2|0|2,1:2|0:0|0:3,0:0:0:0:
188,184,98551,1,8,1:2:0:0:
208,180,98668,1,0,0:0:0:0:
228,176,98785,1,2,0:2:0:0:
188,92,99020,6,0,P|128:112|108:132,1,77.0000023498536,8|0,1:0|1:0,0:0:0:0:
104,144,99371,1,0,1:0:0:0:
104,144,99488,2,0,L|20:132,1,77.0000023498536,8|2,1:0|0:0,0:0:0:0:
112,236,99957,2,0,L|196:224,1,77.0000023498536,8|0,1:0|0:0,0:0:0:0:
260,284,100426,1,8,1:0:0:0:
332,228,100660,1,2,0:0:0:0:
400,288,100895,6,0,P|420:212|400:168,1,115.50000352478,8|0,1:0|1:0,0:0:0:0:
392,156,101363,2,0,P|440:148|472:132,1,77.0000023498536,8|2,1:0|0:0,0:0:0:0:
312,108,101832,2,0,P|304:140|308:196,1,77.0000023498536,8|0,1:0|0:0,0:0:0:0:
352,264,102301,1,8,1:0:0:0:
352,264,102418,1,0,1:0:0:0:
352,264,102535,1,2,0:0:0:0:
276,316,102770,6,0,L|184:312,1,77.0000023498536,8|0,1:0|1:0,0:0:0:0:
199,312,103121,1,0,1:0:0:0:
199,312,103238,2,0,B|188:276|188:276|192:220,1,77.0000023498536,8|2,1:0|0:0,0:0:0:0:
252,168,103707,1,8,1:0:0:0:
160,148,103941,1,2,0:0:0:0:
100,220,104176,2,0,B|64:228|64:228|4:224,1,77.0000023498536,8|0,1:0|0:0,0:0:0:0:
160,148,104645,6,0,L|168:56,1,77.0000023498536,2|0,1:3|0:0,0:0:0:0:
252,168,105113,2,0,L|260:76,1,77.0000023498536,2|0,1:3|0:0,0:0:0:0:
344,188,105582,2,0,L|348:136,3,38.5000011749268,2|2|2|2,1:3|1:3|1:3|1:3,0:0:0:0:
344,188,106051,6,0,P|416:192|416:100,1,157.500006008148,8|0,1:2|0:0,0:0:0:0:
408,80,106520,6,0,L|328:52,1,80.5000015354157,4|0,1:2|1:0,0:0:0:0:
332,53,106871,1,0,1:0:0:0:
332,53,106988,1,8,1:0:0:0:
256,112,107223,1,2,0:0:0:0:
176,56,107457,2,0,P|160:112|164:144,1,80.5000015354157,8|0,1:0|0:0,0:0:0:0:
228,204,107926,1,8,1:0:0:0:
256,112,108160,1,2,0:0:0:0:
132,224,108395,6,0,L|144:360,1,120.750002303124,8|0,1:0|1:0,0:0:0:0:
144,372,108863,2,0,L|236:352,1,80.5000015354157,8|2,1:0|0:0,0:0:0:0:
320,280,109332,2,0,L|240:256,1,80.5000015354157,8|2,1:0|0:0,0:0:0:0:
196,172,109801,1,8,1:0:0:0:
196,172,109918,1,0,1:0:0:0:
196,172,110035,1,2,0:0:0:0:
280,124,110270,6,0,P|328:116|372:120,1,80.5000015354157,8|0,1:0|1:0,0:0:0:0:
384,132,110621,1,0,1:0:0:0:
384,132,110738,2,0,P|432:140|476:136,1,80.5000015354157,8|2,1:0|0:0,0:0:0:0:
428,48,111207,2,0,L|432:8,2,40.2500007677078,8|0|0,1:0|0:0|0:0,0:0:0:0:
359,117,111676,1,8,1:0:0:0:
336,24,111910,1,2,0:0:0:0:
452,140,112145,6,0,P|416:192|352:212,1,120.750002303124,8|0,1:0|1:0,0:0:0:0:
336,208,112613,2,0,P|296:204|248:208,1,80.5000015354157,8|2,1:0|0:0,0:0:0:0:
180,268,113082,2,0,L|188:320,2,40.2500007677078,2|0|2,1:2|0:0|0:3,0:0:0:0:
108,204,113551,1,8,1:2:0:0:
112,184,113668,1,0,0:0:0:0:
116,164,113785,1,2,0:2:0:0:
20,168,114020,6,0,P|16:224|28:260,1,80.5000015354157,10|0,1:0|1:0,0:0:0:0:
40,268,114371,1,0,1:0:0:0:
40,268,114488,2,0,L|136:260,1,80.5000015354157,8|2,1:0|0:1,0:0:0:0:
180,336,114957,2,0,L|260:329,1,80.5000015354157,10|0,1:0|0:0,0:0:0:0:
332,264,115426,1,8,1:0:0:0:
408,320,115660,1,2,0:1:0:0:
332,264,115895,6,0,P|320:212|324:172,1,80.5000015354157,10|0,1:0|1:0,0:0:0:0:
332,160,116246,1,0,1:0:0:0:
332,160,116363,2,0,P|284:168|244:164,1,80.5000015354157,8|2,1:0|0:1,0:0:0:0:
196,88,116832,2,0,P|201:48|221:2,1,80.5000015354157,10|0,1:0|0:0,0:0:0:0:
288,74,117301,1,8,1:0:0:0:
288,74,117418,1,0,1:0:0:0:
288,74,117535,1,2,0:1:0:0:
252,165,117770,6,0,B|212:176|212:176|164:177,1,80.5000015354157,10|2,1:0|0:0,0:0:0:0:
304,256,118238,2,0,B|344:245|344:245|392:244,1,80.5000015354157,10|0,1:0|0:0,0:0:0:0:
204,316,118707,2,0,B|164:327|164:327|116:328,1,80.5000015354157,2|2,1:0|0:0,0:0:0:0:
320,368,119175,2,0,B|360:357|360:357|408:356,1,80.5000015354157,10|0,1:0|0:0,0:0:0:0:
256,192,119645,12,4,121520,1:3:0:0:
