osu file format v14

[General]
AudioFilename: audio.mp3
AudioLeadIn: 0
PreviewTime: 180766
Countdown: 1
SampleSet: Soft
StackLeniency: 0.7
Mode: 0
LetterboxInBreaks: 0
WidescreenStoryboard: 0

[Editor]
DistanceSpacing: 1
BeatDivisor: 4
GridSize: 4
TimelineZoom: 2.899999

[Metadata]
Title:The Party We Have Never Seen
TitleUnicode:The Party We Have Never Seen
Artist:Nana Takahashi
ArtistUnicode:Nana Takahashi
Creator:Linada
Version:Lapis
Source:東方紺珠伝 ~ Legacy of Lunatic Kingdom.
Tags:東方Project Camellia かめりあ Touhou SOUND HOLIC 紺 -KAN- Hecatia Lapislazuli ヘカーティア・ラピスラズリ パンデモニックプラネット Pandemonic Planet 見た事も無い悪夢の世界 A Never-Before-Seen World of Nightmares Extra Stage Boss Theme comiket 89 c89 EDM
BeatmapID:1135462
BeatmapSetID:536131

[Difficulty]
HPDrainRate:6
CircleSize:3.9
OverallDifficulty:7.3
ApproachRate:8.3
SliderMultiplier:1.9
SliderTickRate:1

[Events]
//Background and Video events
0,0,"BG.jpg",0,0
//Break Periods
2,121670,135766
//Storyboard Layer 0 (Background)
//Storyboard Layer 1 (Fail)
//Storyboard Layer 2 (Pass)
//Storyboard Layer 3 (Foreground)
//Storyboard Sound Samples

[TimingPoints]
1470,468.75,4,2,1,40,1,0
1470,-125,4,2,1,40,0,0
11782,-125,4,2,1,50,0,0
12720,-125,4,2,1,30,0,0
15532,-125,4,2,1,40,0,0
16470,-111.111111111111,4,2,1,50,0,0
27720,-111.111111111111,4,2,1,40,0,0
29595,-111.111111111111,4,2,1,50,0,0
30532,-111.111111111111,4,2,1,60,0,0
31470,-111.111111111111,4,2,1,60,0,0
44595,-111.111111111111,4,2,1,65,0,0
45532,-111.111111111111,4,2,1,65,0,0
46470,-100,4,2,1,70,0,0
76470,-100,4,2,1,75,0,0
87720,-125,4,2,1,50,0,0
91001,-71.4285714285714,4,2,1,70,0,0
91352,-62.5,4,2,1,5,0,0
91470,-90.9090909090909,4,2,1,80,0,1
104595,-90.9090909090909,4,2,1,50,0,1
106001,-71.4285714285714,4,2,1,80,0,1
106352,-62.5,4,2,1,5,0,1
106470,-83.3333333333333,4,2,1,80,0,1
119595,-83.3333333333333,4,2,1,80,0,1
121470,-100,4,2,1,70,0,0
136470,-100,4,2,1,40,0,0
146782,-125,4,2,1,50,0,0
147720,-125,4,2,1,30,0,0
150532,-125,4,2,1,40,0,0
151470,-111.111111111111,4,2,1,50,0,0
162720,-111.111111111111,4,2,1,40,0,0
164595,-111.111111111111,4,2,1,50,0,0
165532,-111.111111111111,4,2,1,60,0,0
166470,-111.111111111111,4,2,1,60,0,0
179595,-111.111111111111,4,2,1,65,0,0
180532,-111.111111111111,4,2,1,65,0,0
181470,-100,4,2,1,70,0,0
211470,-100,4,2,1,75,0,0
222720,-125,4,2,1,50,0,0
226001,-71.4285714285714,4,2,1,70,0,0
226352,-62.5,4,2,1,5,0,0
226470,-90.9090909090909,4,2,1,80,0,1
239595,-90.9090909090909,4,2,1,60,0,1
241001,-62.5,4,2,1,80,0,1
241352,-62.5,4,2,1,5,0,1
241470,-83.3333333333333,4,2,1,90,0,1
254595,-83.3333333333333,4,2,1,90,0,1
256470,-100,4,2,1,70,0,0

[Colours]
Combo1 : 254,187,48
Combo2 : 254,114,194
Combo3 : 172,81,255
Combo4 : 95,154,254

[HitObjects]
85,265,1470,6,0,P|75:228|79:190,1,76,0|2,0:0|0:0,0:0:0:0:
179,42,1938,2,0,P|183:79|173:116,1,76,0|0,0:0|0:0,0:0:0:0:
167,146,2290,1,0,0:0:0:0:
167,146,2407,2,0,P|203:137|241:141,1,76,0|2,0:0|0:0,0:0:0:0:
286,222,2759,2,0,P|249:230|211:226,1,76,0|0,0:0|0:0,0:0:0:0:
241,141,3110,1,0,0:0:0:0:
368,190,3345,6,0,P|371:227|361:264,1,76,0|2,0:0|0:0,0:0:0:0:
278,347,3813,1,0,0:0:0:0:
272,339,3930,1,2,0:0:0:0:
266,331,4048,1,0,0:0:0:0:
202,225,4282,5,0,0:0:0:0:
185,227,4399,2,0,L|142:290,1,76,2|0,0:0|0:0,0:0:0:0:
60,315,4751,1,2,0:0:0:0:
43,185,4985,1,0,0:0:0:0:
178,132,5220,6,0,L|182:208,1,76,0|2,0:0|0:0,0:0:0:0:
110,71,5688,1,0,0:0:0:0:
272,59,5923,2,0,L|234:54,1,38,0|0,0:0|0:0,0:0:0:0:
125,79,6157,2,0,P|88:90|51:86,1,76,0|2,0:0|0:0,0:0:0:0:
13,157,6509,2,0,P|8:194|19:230,1,76,0|0,0:0|0:0,0:0:0:0:
91,187,6860,1,0,0:0:0:0:
71,328,7095,6,0,L|146:321,1,76,0|2,0:0|0:0,0:0:0:0:
316,238,7563,2,0,L|240:231,1,76,0|0,0:0|0:0,0:0:0:0:
381,338,8032,2,0,L|388:300,1,38,0|2,0:0|0:0,0:0:0:0:
444,212,8266,2,0,L|481:208,1,38,0|0,0:0|0:0,0:0:0:0:
320,220,8501,1,0,0:0:0:0:
400,104,8735,1,0,0:0:0:0:
321,202,8970,5,0,0:0:0:0:
212,82,9204,1,2,0:0:0:0:
221,196,9438,1,0,0:0:0:0:
304,84,9673,1,0,0:0:0:0:
308,73,9790,1,0,0:0:0:0:
312,62,9907,2,0,L|236:57,1,76,0|2,0:0|0:0,0:0:0:0:
153,189,10259,2,0,L|228:184,1,76,0|0,0:0|0:0,0:0:0:0:
325,182,10610,1,0,0:0:0:0:
191,272,10845,6,0,L|266:277,1,76,0|2,0:0|0:0,0:0:0:0:
406,325,11313,2,0,L|408:287,1,38,2|0,0:0|0:0,0:0:0:0:
416,184,11548,1,0,0:0:0:0:
299,283,11782,5,2,0:0:0:0:
299,283,11899,1,0,0:0:0:0:
299,283,12016,1,0,0:0:0:0:
405,202,12251,1,2,0:0:0:0:
228,183,12485,1,2,0:0:0:0:
417,181,12720,5,2,0:0:0:0:
429,161,13657,1,2,0:0:0:0:
443,139,14595,5,0,0:0:0:0:
307,91,14829,1,0,0:0:0:0:
459,59,15063,1,2,0:0:0:0:
323,107,15297,1,2,0:0:0:0:
233,31,15532,5,2,0:0:0:0:
275,199,15766,1,2,0:0:0:0:
347,125,16001,2,0,L|384:118,1,38,2|0,0:3|0:0,0:0:0:0:
254,55,16235,2,0,L|216:48,1,38,2|0,0:3|0:0,0:0:0:0:
154,141,16470,6,0,L|69:150,1,85.4999973907472,4|2,1:2|0:0,0:0:0:0:
0,264,16938,2,0,L|85:273,1,85.4999973907472,0|0,1:0|0:0,0:0:0:0:
162,319,17290,1,0,0:0:0:0:
172,308,17407,2,0,L|257:299,1,85.4999973907472,0|2,1:0|0:0,0:0:0:0:
367,251,17876,1,0,1:0:0:0:
336,366,18110,1,0,0:0:0:0:
388,244,18345,6,0,P|430:240|470:253,1,85.4999973907472,0|2,1:0|0:0,0:0:0:0:
447,156,18813,2,0,P|434:115|437:73,1,85.4999973907472,0|0,1:0|0:0,0:0:0:0:
360,29,19165,1,0,0:0:0:0:
347,41,19282,2,0,P|306:51|265:41,1,85.4999973907472,0|0,1:0|0:0,0:0:0:0:
239,38,19634,1,0,0:0:0:0:
236,57,19751,2,0,L|231:99,1,42.7499986953736,0|0,1:0|0:0,0:0:0:0:
196,204,19985,1,0,0:0:0:0:
140,45,20220,6,0,L|34:41,1,85.4999973907472,0|2,1:0|0:0,0:0:0:0:
103,233,20688,2,0,P|145:234|183:217,1,85.4999973907472,0|0,1:0|0:0,0:0:0:0:
123,152,21040,1,0,0:0:0:0:
99,150,21157,2,0,P|59:165|31:197,1,85.4999973907472,0|0,1:0|0:0,0:0:0:0:
117,352,21626,1,0,1:0:0:0:
103,233,21860,1,0,0:0:0:0:
219,348,22095,6,0,L|133:340,1,85.4999973907472,0|2,1:0|0:0,0:0:0:0:
204,221,22563,2,0,L|289:213,1,85.4999973907472,0|0,0:0|0:0,0:0:0:0:
153,88,23032,2,0,L|110:84,1,42.7499986953736,0|2,1:0|0:0,0:0:0:0:
279,28,23266,2,0,L|321:24,1,42.7499986953736,0|0,0:0|0:0,0:0:0:0:
166,111,23501,1,0,1:0:0:0:
299,190,23735,1,2,0:0:0:0:
418,43,23970,6,0,P|376:49|336:38,1,85.4999973907472,0|2,1:0|0:0,0:0:0:0:
324,182,24438,2,0,P|364:170|406:176,1,85.4999973907472,0|0,1:0|0:0,0:0:0:0:
453,252,24790,1,0,0:0:0:0:
459,269,24907,2,0,L|458:366,1,85.4999973907472,0|2,1:0|0:0,0:0:0:0:
304,334,25376,1,0,1:0:0:0:
430,349,25610,1,0,0:0:0:0:
339,259,25845,6,0,P|297:249|257:262,1,85.4999973907472,0|2,1:0|0:0,0:0:0:0:
116,358,26313,2,0,L|117:272,1,85.4999973907472,2|2,1:2|0:0,0:0:0:0:
83,190,26665,1,0,0:0:0:0:
76,176,26782,2,0,L|73:133,1,42.7499986953736,0|0,1:0|0:0,0:0:0:0:
207,17,27016,2,0,L|204:59,1,42.7499986953736,2|0,0:0|0:0,0:0:0:0:
196,191,27251,5,2,1:2:0:0:
106,39,27485,1,0,0:0:0:0:
292,37,27720,5,4,1:2:0:0:
183,205,28657,5,4,1:2:0:0:
395,206,29595,5,0,1:0:0:0:
211,196,29829,1,0,1:0:0:0:
336,280,30063,5,2,1:2:0:0:
284,124,30298,1,2,1:2:0:0:
237,302,30532,6,0,L|195:312,1,42.7499986953736,2|0,1:2|0:0,0:0:0:0:
117,276,30766,2,0,L|75:265,1,42.7499986953736,2|0,1:2|0:0,0:0:0:0:
95,181,31001,5,2,1:3:0:0:
105,139,31118,1,0,0:0:0:0:
133,108,31235,1,2,1:3:0:0:
173,93,31352,1,2,1:3:0:0:
214,98,31470,6,0,P|257:102|295:85,1,85.4999973907472,4|0,1:2|0:0,0:0:0:0:
452,80,31938,2,0,P|413:62|371:66,1,85.4999973907472,8|0,0:1|0:0,0:0:0:0:
414,219,32407,2,0,P|396:180|400:138,1,85.4999973907472,0|0,0:0|0:0,0:0:0:0:
479,170,32876,1,8,0:1:0:0:
412,303,33110,1,0,0:0:0:0:
280,171,33345,6,0,L|365:175,1,85.4999973907472,0|0,0:0|0:0,0:0:0:0:
200,280,33813,2,0,L|285:275,1,85.4999973907472,8|0,0:1|0:0,0:0:0:0:
78,238,34282,1,0,0:0:0:0:
102,89,34516,1,0,0:0:0:0:
98,254,34751,1,8,0:1:0:0:
84,104,34985,1,0,0:0:0:0:
117,271,35220,6,0,P|157:283|199:279,1,85.4999973907472,0|0,0:0|0:0,0:0:0:0:
255,156,35688,2,0,P|212:151|172:164,1,85.4999973907472,8|0,0:1|0:0,0:0:0:0:
229,303,36157,2,0,L|314:309,1,85.4999973907472,0|0,0:0|0:0,0:0:0:0:
406,165,36626,2,0,L|363:167,1,42.7499986953736,8|0,0:1|2:0,0:0:0:0:
284,174,36860,1,0,0:0:0:0:
433,245,37095,5,0,0:0:0:0:
450,88,37329,1,0,0:0:0:0:
363,167,37563,1,8,0:1:0:0:
505,189,37798,1,0,0:0:0:0:
338,149,38032,2,0,P|295:144|254:155,1,85.4999973907472,0|0,0:0|0:0,0:0:0:0:
310,312,38501,2,0,P|314:269|303:228,1,85.4999973907472,8|0,0:1|0:0,0:0:0:0:
142,218,38970,5,0,0:0:0:0:
228,272,39204,1,0,0:0:0:0:
127,203,39438,2,0,L|41:195,1,85.4999973907472,8|0,0:1|0:0,0:0:0:0:
99,64,39907,1,0,0:0:0:0:
13,118,40141,1,0,0:0:0:0:
114,49,40375,2,0,L|199:41,1,85.4999973907472,8|0,0:1|0:0,0:0:0:0:
330,147,40845,5,0,0:0:0:0:
163,139,41079,1,0,0:0:0:0:
342,130,41313,1,8,0:1:0:0:
182,152,41548,1,0,0:0:0:0:
358,113,41782,6,0,B|396:106|396:106|442:111,1,85.4999973907472,0|0,0:0|0:0,0:0:0:0:
385,273,42251,1,8,0:1:0:0:
479,216,42485,1,0,0:0:0:0:
416,353,42720,6,0,P|373:357|334:342,1,85.4999973907472,0|0,0:0|0:0,0:0:0:0:
159,203,43188,2,0,P|198:187|240:192,1,85.4999973907472,2|0,0:2|0:0,0:0:0:0:
201,351,43657,2,0,L|210:266,1,85.4999973907472,2|2,2:0|2:0,0:0:0:0:
306,87,44126,2,0,L|311:129,1,42.7499986953736,2|0,2:2|2:0,0:0:0:0:
318,208,44360,1,0,2:0:0:0:
173,95,44595,5,2,0:0:0:0:
142,234,44829,1,0,0:0:0:0:
62,135,45063,5,2,0:0:0:0:
92,316,45298,1,0,0:0:0:0:
93,331,45415,1,0,1:0:0:0:
93,346,45532,6,0,L|135:349,1,42.7499986953736,2|0,0:3|0:0,0:0:0:0:
232,241,45766,2,0,L|189:245,1,42.7499986953736,8|8,0:3|0:3,0:0:0:0:
76,151,46001,2,0,L|118:154,1,42.7499986953736,2|0,0:3|0:0,0:0:0:0:
215,46,46235,2,0,L|172:50,1,42.7499986953736,8|0,0:3|0:0,0:0:0:0:
156,249,46470,6,0,L|250:240,1,95,4|0,1:2|0:0,0:0:0:0:
427,121,46938,2,0,L|332:112,1,95,0|0,1:0|0:0,0:0:0:0:
319,289,47407,1,0,1:0:0:0:
236,161,47641,1,0,0:0:0:0:
380,216,47876,1,0,1:0:0:0:
224,261,48110,6,0,L|130:270,1,95,0|0,0:0|0:0,0:0:0:0:
41,188,48579,1,0,0:0:0:0:
204,139,48813,2,0,P|223:182|216:229,1,95,0|0,1:0|0:0,0:0:0:0:
142,194,49282,1,0,1:0:0:0:
296,152,49516,1,0,0:0:0:0:
227,272,49751,1,0,1:0:0:0:
308,139,49985,1,0,0:0:0:0:
201,60,50220,6,0,P|154:56|110:73,1,95,0|0,1:0|0:0,0:0:0:0:
34,220,50688,2,0,P|80:223|124:206,1,95,0|0,1:0|0:0,0:0:0:0:
188,316,51157,1,0,1:0:0:0:
143,223,51391,1,0,0:0:0:0:
292,195,51626,1,0,1:0:0:0:
201,328,51860,1,0,0:0:0:0:
344,347,52095,6,0,L|350:252,1,95,0|0,0:0|0:0,0:0:0:0:
432,66,52563,2,0,L|438:160,1,95,0|0,1:0|0:0,0:0:0:0:
311,97,53032,6,0,L|264:85,1,47.5,0|0,1:0|0:0,0:0:0:0:
145,210,53266,2,0,L|191:198,1,47.5,8|0,1:2|0:0,0:0:0:0:
279,172,53501,1,8,1:2:0:0:
161,47,53735,1,0,0:0:0:0:
52,202,53970,6,0,P|62:248|94:283,1,95,0|0,1:0|0:0,0:0:0:0:
260,241,54438,2,0,P|215:227|169:239,1,95,0|0,1:0|0:0,0:0:0:0:
275,334,54907,1,0,1:0:0:0:
394,240,55141,1,0,0:0:0:0:
282,238,55376,1,0,1:0:0:0:
399,343,55610,6,0,P|414:298|407:252,1,95,0|0,0:0|0:0,0:0:0:0:
321,153,56079,2,0,L|274:144,1,47.5,0|0,0:0|0:0,0:0:0:0:
163,135,56313,2,0,L|257:123,1,95,0|0,1:0|0:0,0:0:0:0:
419,61,56782,2,0,L|324:49,1,95,0|0,1:0|0:0,0:0:0:0:
180,120,57251,5,0,1:0:0:0:
326,176,57485,1,0,0:0:0:0:
228,52,57720,2,0,P|182:41|135:50,1,95,0|0,1:0|0:0,0:0:0:0:
72,196,58188,5,0,1:0:0:0:
16,50,58422,1,0,0:0:0:0:
140,148,58657,2,0,P|150:193|141:240,1,95,0|0,1:0|0:0,0:0:0:0:
86,337,59126,5,0,1:0:0:0:
247,308,59360,1,0,0:0:0:0:
147,254,59595,5,0,1:0:0:0:
300,364,59829,2,0,P|319:322|308:270,1,95
322,150,60298,1,0,0:0:0:0:
425,291,60532,6,0,L|431:243,1,47.5,8|0,1:2|0:0,0:0:0:0:
497,193,60766,2,0,L|490:145,1,47.5,0|0,0:0|0:0,0:0:0:0:
400,65,61001,2,0,L|352:58,1,47.5,0|0,1:0|0:0,0:0:0:0:
282,138,61235,2,0,L|234:144,1,47.5,0|0,0:0|0:0,0:0:0:0:
79,69,61470,5,4,1:2:0:0:
129,197,61704,1,0,0:0:0:0:
132,173,61821,1,0,1:0:0:0:
136,150,61938,1,0,1:0:0:0:
14,201,62173,1,0,0:0:0:0:
70,321,62407,1,0,1:0:0:0:
186,266,62641,2,0,B|225:255|225:255|278:269,1,95,0|0,0:0|1:0,0:0:0:0:
401,344,63110,6,0,L|406:249,1,95,0|0,0:0|1:0,0:0:0:0:
447,109,63579,1,0,0:0:0:0:
450,133,63696,1,0,1:0:0:0:
454,156,63813,1,0,1:0:0:0:
349,73,64048,1,0,0:0:0:0:
322,203,64282,1,0,1:0:0:0:
220,124,64516,1,0,0:0:0:0:
148,246,64751,1,0,1:0:0:0:
193,260,64868,1,0,1:0:0:0:
240,252,64985,1,0,1:0:0:0:
102,167,65220,6,0,P|116:122|105:77,1,95,0|0,1:0|0:0,0:0:0:0:
28,120,65571,1,0,1:0:0:0:
20,129,65688,2,0,P|8:174|23:218,1,95,0|0,1:0|0:0,0:0:0:0:
209,177,66157,1,0,1:0:0:0:
90,307,66391,1,0,0:0:0:0:
115,212,66626,1,0,1:0:0:0:
205,313,66860,6,0,P|250:329|296:322,1,95,0|0,0:0|1:0,0:0:0:0:
424,198,67329,1,0,0:0:0:0:
421,222,67446,1,0,1:0:0:0:
417,245,67563,1,0,1:0:0:0:
436,127,67798,1,0,0:0:0:0:
411,280,68032,6,0,L|364:285,1,47.5,0|0,1:0|0:0,0:0:0:0:
187,278,68266,2,0,L|234:283,1,47.5,8|0,1:2|0:0,0:0:0:0:
349,198,68501,2,0,L|302:203,1,47.5,8|0,1:2|0:0,0:0:0:0:
177,298,68735,1,0,0:0:0:0:
289,191,68970,6,0,B|301:152|301:152|299:98,1,95,0|0,1:0|0:0,0:0:0:0:
233,21,69321,1,0,1:0:0:0:
225,28,69438,2,0,B|212:66|212:66|214:120,1,95,0|0,1:0|0:0,0:0:0:0:
309,219,69907,1,0,1:0:0:0:
144,199,70141,1,0,0:0:0:0:
258,136,70376,1,0,1:0:0:0:
164,307,70610,6,0,L|158:212,1,95,0|0,0:0|1:0,0:0:0:0:
66,105,71079,1,0,0:0:0:0:
90,108,71196,1,0,1:0:0:0:
113,112,71313,1,0,1:0:0:0:
36,180,71548,1,0,0:0:0:0:
104,37,71782,1,0,1:0:0:0:
157,190,72016,1,0,0:0:0:0:
223,48,72251,2,0,L|221:95,1,47.5,0|0,1:0|1:0,0:0:0:0:
170,209,72485,1,0,1:0:0:0:
259,101,72720,6,0,P|301:78|348:81,1,95,0|2,1:0|0:2,0:0:0:0:
377,97,73071,1,0,1:0:0:0:
405,114,73188,1,0,1:0:0:0:
405,245,73423,1,2,0:2:0:0:
320,155,73657,6,0,L|318:255,1,95,0|2,1:0|0:2,0:0:0:0:
299,277,74009,1,0,0:0:0:0:
282,305,74126,1,0,1:0:0:0:
150,311,74360,1,2,0:2:0:0:
210,178,74595,5,0,1:0:0:0:
140,322,74829,2,0,L|136:274,1,47.5,2|0,0:2|1:0,0:0:0:0:
124,142,75063,1,2,0:2:0:0:
218,267,75298,1,2,1:3:0:0:
285,117,75532,5,2,0:2:0:0:
230,280,75766,1,2,1:3:0:0:
324,197,76001,5,0,1:0:0:0:
366,177,76118,1,2,1:3:0:0:
414,177,76235,1,0,1:0:0:0:
456,197,76352,1,0,0:0:0:0:
487,232,76470,6,0,L|490:137,1,95,4|0,1:2|0:0,0:0:0:0:
388,249,76938,1,0,0:0:0:0:
389,104,77173,1,2,0:2:0:0:
386,269,77407,6,0,L|383:364,1,95,2|0,0:2|0:2,0:0:0:0:
193,253,77876,1,0,1:0:0:0:
323,194,78111,1,2,1:2:0:0:
163,145,78345,6,0,P|160:191|180:234,1,95,2|0,1:2|0:0,0:0:0:0:
193,253,78696,1,0,0:0:0:0:
211,268,78813,1,0,0:0:0:0:
89,245,79048,1,2,0:2:0:0:
244,180,79282,5,2,0:2:0:0:
75,138,79516,1,0,0:0:0:0:
196,34,79751,1,2,0:2:0:0:
188,80,79868,1,0,0:0:0:0:
181,127,79985,1,0,0:0:0:0:
49,33,80220,6,0,L|143:33,1,95,2|0,0:2|0:0,0:0:0:0:
170,34,80571,1,0,0:0:0:0:
196,34,80688,1,0,0:0:0:0:
260,169,80923,1,2,0:2:0:0:
330,45,81157,6,0,L|325:92,1,47.5,2|0,0:2|0:0,0:0:0:0:
266,194,81391,1,0,0:0:0:0:
416,88,81626,1,0,0:0:0:0:
238,74,81860,1,2,0:2:0:0:
369,212,82095,6,0,L|360:306,1,95,2|0,0:2|0:0,0:0:0:0:
345,336,82446,1,0,0:0:0:0:
328,365,82563,1,0,0:0:0:0:
256,223,82798,1,2,0:2:0:0:
190,333,83032,5,2,0:2:0:0:
190,333,83149,1,0,0:0:0:0:
190,333,83266,2,0,L|142:337,1,47.5,2|0,0:3|0:0,0:0:0:0:
61,224,83501,1,8,0:2:0:0:
53,270,83618,1,0,0:0:0:0:
46,317,83735,1,2,0:2:0:0:
76,140,83970,5,2,0:2:0:0:
170,250,84204,1,0,0:0:0:0:
214,114,84438,1,2,0:2:0:0:
82,170,84673,1,2,0:2:0:0:
262,213,84907,5,2,0:2:0:0:
137,92,85141,1,0,0:0:0:0:
306,63,85376,1,2,0:2:0:0:
162,184,85610,1,2,0:2:0:0:
283,214,85845,5,2,0:2:0:0:
315,228,85962,1,0,0:0:0:0:
350,232,86079,1,0,0:0:0:0:
385,224,86196,1,0,0:0:0:0:
415,206,86313,5,2,0:2:0:0:
444,172,86430,1,0,0:0:0:0:
466,130,86547,1,2,0:2:0:0:
463,83,86664,1,0,0:0:0:0:
437,44,86782,5,2,0:2:0:0:
392,81,86899,1,0,0:0:0:0:
334,92,87016,1,0,0:0:0:0:
278,72,87133,1,0,0:0:0:0:
228,95,87251,5,2,0:2:0:0:
183,57,87368,1,0,0:0:0:0:
125,46,87485,1,0,0:0:0:0:
69,66,87602,1,0,0:0:0:0:
44,110,87720,6,0,L|32:185,1,76,2|0,0:0|0:0,0:0:0:0:
136,310,88188,2,0,L|124:235,1,76,2|0,0:0|0:0,0:0:0:0:
206,156,88657,5,0,0:0:0:0:
257,311,88891,1,2,0:0:0:0:
392,255,89126,1,2,0:0:0:0:
412,269,89595,5,8,1:2:0:0:
272,285,89829,1,0,0:0:0:0:
429,166,90063,5,8,1:2:0:0:
272,188,90298,1,0,0:0:0:0:
390,85,90532,6,0,L|398:47,1,38,8|0,1:2|0:0,0:0:0:0:
266,132,90766,2,0,L|274:169,1,38,0|0,1:0|0:0,0:0:0:0:
172,48,91001,6,0,B|123:14|51:57|51:57|98:52|136:72,1,199.499993911743,10|0,1:3|0:0,0:0:0:0:
72,149,91470,6,0,P|68:200|87:248,1,104.500003189087,4|0,1:2|0:0,0:0:0:0:
103,269,91821,1,0,1:0:0:0:
122,286,91938,1,0,1:0:0:0:
256,176,92173,1,2,0:0:0:0:
242,345,92407,5,2,1:2:0:0:
159,195,92641,1,0,0:0:0:0:
159,195,92759,1,0,0:0:0:0:
159,195,92876,1,0,1:0:0:0:
242,345,93110,1,2,0:0:0:0:
404,175,93345,6,0,L|299:179,1,104.500003189087,2|0,1:2|2:0,0:0:0:0:
275,183,93696,1,0,1:0:0:0:
250,185,93813,1,0,1:0:0:0:
361,289,94048,1,2,0:0:0:0:
381,96,94282,5,2,1:2:0:0:
346,279,94516,1,0,0:0:0:0:
237,109,94751,1,0,1:0:0:0:
186,97,94868,1,0,1:0:0:0:
136,111,94985,1,2,0:0:0:0:
180,270,95220,6,0,P|199:222|189:171,1,104.500003189087,2|0,1:2|2:0,0:0:0:0:
136,111,95571,1,0,1:0:0:0:
136,111,95688,1,0,1:0:0:0:
248,316,95923,1,2,0:0:0:0:
65,220,96157,6,0,L|116:213,1,52.2500015945435,2|0,1:2|0:0,0:0:0:0:
270,194,96391,1,0,0:0:0:0:
162,290,96626,1,0,1:0:0:0:
186,97,96860,1,2,0:0:0:0:
114,207,97095,5,2,1:2:0:0:
276,221,97329,2,0,P|286:246|287:272,1,52.2500015945435,0|0,2:0|1:0,0:0:0:0:
267,375,97563,1,0,1:0:0:0:
381,278,97798,1,2,0:0:0:0:
311,137,98032,5,2,1:2:0:0:
264,129,98149,1,0,0:0:0:0:
212,143,98266,1,2,0:3:0:0:
61,49,98501,5,8,1:2:0:0:
133,67,98618,1,0,0:0:0:0:
201,37,98735,1,2,0:2:0:0:
263,205,98970,6,0,P|213:217|163:205,1,104.500003189087,8|0,1:0|2:0,0:0:0:0:
140,191,99321,1,0,1:0:0:0:
120,175,99438,1,8,1:0:0:0:
162,317,99673,1,2,0:0:0:0:
215,129,99907,5,8,1:0:0:0:
187,315,100141,1,0,0:0:0:0:
290,193,100376,1,8,1:0:0:0:
120,175,100610,1,2,0:0:0:0:
276,300,100845,6,0,B|321:307|321:307|378:296,1,104.500003189087,8|0,1:0|2:0,0:0:0:0:
404,289,101196,1,0,1:0:0:0:
429,285,101313,1,8,1:0:0:0:
273,184,101548,1,2,0:0:0:0:
421,85,101782,6,0,L|417:189,1,104.500003189087,8|0,1:0|0:0,0:0:0:0:
224,78,102251,1,8,1:0:0:0:
276,74,102368,1,0,1:0:0:0:
328,70,102485,1,2,0:0:0:0:
213,253,102720,6,0,P|190:206|194:154,1,104.500003189087,8|0,1:0|2:0,0:0:0:0:
207,121,103071,1,0,1:0:0:0:
225,91,103188,1,8,1:0:0:0:
347,184,103423,1,2,0:0:0:0:
311,198,103540,1,0,0:0:0:0:
272,192,103657,1,8,1:0:0:0:
316,30,103891,1,2,0:0:0:0:
440,154,104126,2,0,P|447:205|432:255,1,104.500003189087,8|0,1:0|0:0,0:0:0:0:
229,296,104595,5,2,1:3:0:0:
387,332,104829,1,0,0:0:0:0:
387,332,104946,1,0,0:0:0:0:
387,332,105063,1,2,1:3:0:0:
311,198,105298,1,0,0:0:0:0:
311,198,105415,1,0,0:0:0:0:
311,198,105532,6,0,L|258:202,1,52.2500015945435,2|2,1:3|1:3,0:0:0:0:
104,282,105766,2,0,L|156:286,1,52.2500015945435,2|2,1:3|1:3,0:0:0:0:
188,116,106001,6,0,B|139:82|67:125|67:125|114:120|152:140,1,199.499993911743,8|0,1:2|0:0,0:0:0:0:
258,202,106470,5,4,1:2:0:0:
94,209,106704,1,0,2:0:0:0:
94,209,106821,1,0,1:0:0:0:
94,209,106938,1,8,1:0:0:0:
44,46,107173,1,2,0:0:0:0:
80,221,107407,2,0,L|63:333,1,113.999996520996,8|0,1:0|2:0,0:0:0:0:
183,250,107876,1,8,1:0:0:0:
28,149,108110,1,2,2:0:0:0:
213,125,108345,6,0,P|222:180|203:233,1,113.999996520996,8|0,1:0|2:0,0:0:0:0:
140,172,108696,1,0,1:0:0:0:
140,172,108813,1,8,1:0:0:0:
278,57,109048,1,2,0:0:0:0:
329,240,109282,6,0,P|273:249|220:230,1,113.999996520996,8|2,1:0|0:0,0:0:0:0:
278,57,109751,1,8,1:0:0:0:
300,108,109868,1,0,1:0:0:0:
287,162,109985,1,2,0:0:0:0:
88,133,110220,6,0,P|140:113|196:123,1,113.999996520996,8|0,1:0|2:0,0:0:0:0:
150,198,110571,1,0,1:0:0:0:
150,198,110688,1,8,1:0:0:0:
211,344,110923,1,2,0:0:0:0:
26,252,111157,6,0,L|82:246,1,56.9999982604981,8|0,1:0|0:0,0:0:0:0:
220,230,111391,1,0,0:0:0:0:
86,357,111626,1,8,1:0:0:0:
234,247,111860,1,2,0:0:0:0:
104,110,112095,6,0,L|93:223,1,113.999996520996,8|0,1:0|2:0,0:0:0:0:
109,322,112446,1,0,1:0:0:0:
109,322,112563,1,8,1:0:0:0:
258,264,112798,1,2,0:0:0:0:
135,114,113032,6,0,L|128:170,1,56.9999982604981,10|0,1:0|0:0,0:0:0:0:
113,297,113266,1,2,0:3:0:0:
230,38,113501,5,8,1:2:0:0:
233,111,113618,1,0,0:0:0:0:
234,184,113735,1,2,0:2:0:0:
416,72,113970,6,0,L|303:67,1,113.999996520996,10|0,1:0|2:0,0:0:0:0:
221,34,114321,1,0,1:0:0:0:
221,34,114438,1,8,1:0:0:0:
246,202,114673,1,2,0:1:0:0:
88,119,114907,6,0,L|201:114,1,113.999996520996,10|0,1:0|2:0,0:0:0:0:
372,184,115376,1,8,1:0:0:0:
213,206,115610,1,2,0:1:0:0:
348,109,115845,6,0,P|404:111|446:148,1,113.999996520996,10|0,1:0|2:0,0:0:0:0:
456,244,116196,1,0,1:0:0:0:
456,244,116313,1,8,1:0:0:0:
241,204,116548,1,2,0:1:0:0:
361,319,116782,6,0,L|366:206,1,113.999996520996,10|0,1:0|0:0,0:0:0:0:
215,69,117251,1,8,1:0:0:0:
217,125,117368,1,0,1:0:0:0:
219,182,117485,1,2,0:1:0:0:
402,67,117720,5,10,1:0:0:0:
210,47,117954,1,2,0:0:0:0:
400,204,118188,5,10,1:0:0:0:
215,69,118423,1,0,0:0:0:0:
425,75,118657,5,2,1:0:0:0:
230,200,118891,1,2,0:0:0:0:
429,199,119126,5,10,1:0:0:0:
218,97,119360,1,0,0:0:0:0:
305,205,119595,5,2,0:0:0:0:
306,240,119712,1,0,0:0:0:0:
307,276,119829,1,0,0:0:0:0:
307,312,119946,1,0,0:0:0:0:
308,347,120063,5,2,0:2:0:0:
265,331,120180,1,0,0:0:0:0:
220,343,120298,1,2,0:2:0:0:
177,327,120415,1,0,0:0:0:0:
141,298,120532,6,0,L|177:286,1,28.4999991302491,2|0,0:0|0:0,0:0:0:0:
127,281,120649,2,0,L|170:276,1,28.4999991302491,0|0,0:0|0:0,0:0:0:0:
119,261,120766,2,0,L|169:263,1,28.4999991302491,0|0,0:0|0:0,0:0:0:0:
115,240,120884,2,0,L|158:242,1,28.4999991302491,0|0,0:0|0:0,0:0:0:0:
117,219,121001,2,0,L|164:226,1,28.4999991302491,2|0,0:1|0:0,0:0:0:0:
124,199,121118,2,0,L|160:210,1,28.4999991302491,0|0,0:0|0:0,0:0:0:0:
137,182,121235,2,0,L|173:201,1,28.4999991302491,2|0,0:2|0:0,0:0:0:0:
153,168,121352,2,0,L|179:189,1,28.4999991302491,2|0,0:2|0:0,0:0:0:0:
172,158,121470,5,4,1:3:0:0:
82,293,136470,6,0,L|176:299,1,95,0|2,1:0|0:0,0:0:0:0:
282,145,136938,2,0,P|237:129|192:143,1,95,0|0,1:0|0:0,0:0:0:0:
167,166,137290,1,0,0:0:0:0:
152,187,137407,2,0,L|156:92,1,95,0|2,1:0|0:0,0:0:0:0:
290,43,137759,2,0,L|296:137,1,95,0|0,0:0|0:0,0:0:0:0:
237,203,138110,1,0,0:0:0:0:
407,148,138345,6,0,P|364:131|318:139,1,95,0|2,1:0|0:0,0:0:0:0:
233,228,138813,1,0,1:0:0:0:
332,348,139048,2,0,L|339:301,1,47.5,0|0,0:0|0:0,0:0:0:0:
353,206,139282,1,0,1:0:0:0:
224,256,139516,1,0,0:0:0:0:
224,256,139634,1,0,0:0:0:0:
224,255,139751,2,0,P|177:263|134:245,1,95,2|0,1:2|0:0,0:0:0:0:
175,92,140220,6,0,P|193:135|185:181,1,95,0|2,1:0|0:0,0:0:0:0:
115,147,140688,1,0,1:0:0:0:
177,57,140923,2,0,P|200:48|223:46,1,47.5,0|0,0:0|0:0,0:0:0:0:
310,122,141157,2,0,P|264:133|220:120,1,95,0|2,1:0|0:0,0:0:0:0:
266,51,141509,2,0,P|311:39|356:53,1,95,0|0,0:0|0:0,0:0:0:0:
415,107,141860,1,0,0:0:0:0:
332,226,142095,5,0,1:0:0:0:
431,318,142329,1,2,0:0:0:0:
431,318,142446,2,0,L|383:323,1,47.5,0|0,0:0|1:0,0:0:0:0:
243,335,142798,1,0,0:0:0:0:
325,208,143032,5,0,1:0:0:0:
325,208,143149,1,2,0:0:0:0:
191,197,143384,1,0,0:0:0:0:
191,197,143501,1,0,1:0:0:0:
247,319,143735,1,0,0:0:0:0:
341,186,143970,6,0,P|350:139|339:93,1,95,0|2,1:0|0:0,0:0:0:0:
211,205,144438,1,0,1:0:0:0:
158,88,144673,1,0,0:0:0:0:
158,88,144790,1,0,0:0:0:0:
158,88,144907,2,0,L|168:182,1,95,0|2,1:0|0:0,0:0:0:0:
224,242,145259,2,0,L|213:336,1,95,0|0,0:0|0:0,0:0:0:0:
147,382,145610,1,0,0:0:0:0:
59,212,145845,6,0,P|104:199|150:210,1,95,0|2,1:0|0:0,0:0:0:0:
253,310,146313,2,0,P|298:322|344:311,1,95,2|0,1:2|0:0,0:0:0:0:
409,262,146665,1,0,0:0:0:0:
409,262,146782,6,0,L|412:224,1,38,2|0,1:2|0:0,0:0:0:0:
427,126,147016,1,0,0:0:0:0:
299,242,147251,5,2,1:2:0:0:
505,274,147485,1,2,0:0:0:0:
428,110,147720,5,2,0:0:0:0:
430,89,148657,5,2,0:0:0:0:
433,63,149595,5,0,0:0:0:0:
265,52,149829,1,0,0:0:0:0:
425,162,150063,5,2,0:0:0:0:
263,84,150298,1,2,0:0:0:0:
312,240,150532,6,0,L|302:276,1,38,2|0,1:2|0:0,0:0:0:0:
224,326,150766,2,0,L|195:349,1,38,2|0,1:2|0:0,0:0:0:0:
133,293,151001,5,2,1:3:0:0:
103,261,151118,1,2,1:3:0:0:
92,221,151235,1,2,1:3:0:0:
101,179,151352,1,2,1:3:0:0:
119,140,151470,6,0,P|129:98|120:57,1,85.4999973907472,4|2,1:2|0:0,0:0:0:0:
48,103,151938,1,0,1:0:0:0:
181,223,152173,1,0,0:0:0:0:
222,232,152290,1,0,0:0:0:0:
262,223,152407,2,0,P|303:211|345:218,1,85.4999973907472,0|2,1:0|0:0,0:0:0:0:
383,237,152759,1,0,0:0:0:0:
411,269,152876,1,0,1:0:0:0:
463,171,153110,1,0,0:0:0:0:
392,75,153345,6,0,B|364:59|364:59|310:58,1,85.4999973907472,0|2,1:0|0:0,0:0:0:0:
222,155,153813,1,0,1:0:0:0:
369,157,154048,2,0,L|332:138,1,42.7499986953736,0|0,0:0|0:0,0:0:0:0:
198,50,154282,2,0,L|205:135,1,85.4999973907472,0|0,1:0|0:0,0:0:0:0:
159,209,154634,1,0,0:0:0:0:
143,229,154751,2,0,L|139:271,1,42.7499986953736,0|0,1:0|0:0,0:0:0:0:
79,153,154985,1,0,0:0:0:0:
170,291,155220,6,0,P|211:305|253:301,1,85.4999973907472,0|2,1:0|0:0,0:0:0:0:
324,136,155688,2,0,P|310:176|314:218,1,85.4999973907472,0|0,1:0|0:0,0:0:0:0:
326,243,156040,1,0,0:0:0:0:
326,243,156157,2,0,P|368:239|408:252,1,85.4999973907472,0|0,1:0|0:0,0:0:0:0:
431,257,156509,1,0,0:0:0:0:
453,260,156626,1,0,1:0:0:0:
499,151,156860,1,0,0:0:0:0:
381,69,157095,6,0,P|341:53|298:54,1,85.4999973907472,0|2,1:0|0:0,0:0:0:0:
276,67,157446,1,0,0:0:0:0:
252,76,157563,2,0,P|209:77|169:61,1,85.4999973907472,0|0,0:0|0:0,0:0:0:0:
55,186,158032,2,0,L|97:189,1,42.7499986953736,0|2,1:0|0:0,0:0:0:0:
220,269,158266,2,0,L|177:272,1,42.7499986953736,0|0,0:0|0:0,0:0:0:0:
63,291,158501,1,0,1:0:0:0:
177,175,158735,1,2,0:0:0:0:
268,307,158970,6,0,L|183:295,1,85.4999973907472,0|2,1:0|0:0,0:0:0:0:
364,161,159438,2,0,L|279:172,1,85.4999973907472,0|0,1:0|0:0,0:0:0:0:
250,179,159790,1,0,0:0:0:0:
250,179,159907,2,0,L|256:93,1,85.4999973907472,0|2,1:0|0:0,0:0:0:0:
246,71,160259,1,0,0:0:0:0:
246,71,160376,2,0,L|203:76,1,42.7499986953736,0|0,1:0|0:0,0:0:0:0:
133,132,160610,2,0,L|90:126,1,42.7499986953736,0|0,0:0|0:0,0:0:0:0:
165,215,160845,6,0,P|175:255|167:297,1,85.4999973907472,0|2,1:0|0:0,0:0:0:0:
344,297,161313,2,0,P|336:255|347:215,1,85.4999973907472,2|2,1:2|0:0,0:0:0:0:
359,198,161665,1,0,0:0:0:0:
375,181,161782,2,0,L|379:138,1,42.7499986953736,0|0,1:0|0:0,0:0:0:0:
410,259,162016,2,0,L|449:275,1,42.7499986953736,2|0,0:0|0:0,0:0:0:0:
278,190,162251,5,2,1:2:0:0:
371,18,162485,1,0,0:0:0:0:
483,190,162720,5,4,1:2:0:0:
270,192,163657,5,4,1:2:0:0:
141,366,164595,5,0,1:0:0:0:
277,240,164829,1,0,1:0:0:0:
82,244,165063,5,2,1:2:0:0:
229,338,165298,1,2,1:2:0:0:
164,146,165532,6,0,L|158:103,1,42.7499986953736,2|0,1:2|0:0,0:0:0:0:
255,101,165766,2,0,L|260:58,1,42.7499986953736,2|0,1:2|0:0,0:0:0:0:
352,113,166001,5,2,1:3:0:0:
389,132,166118,1,0,0:0:0:0:
431,130,166235,1,2,1:3:0:0:
467,107,166352,1,2,1:3:0:0:
487,70,166470,6,0,L|487:155,1,85.4999973907472,4|0,1:2|0:0,0:0:0:0:
389,295,166938,2,0,L|388:209,1,85.4999973907472,8|0,0:1|0:0,0:0:0:0:
240,105,167407,1,0,0:0:0:0:
352,113,167641,1,0,0:0:0:0:
263,239,167876,2,0,L|255:196,2,42.7499986953736,8|0|0,0:1|0:0|0:0,0:0:0:0:
227,97,168345,5,0,0:0:0:0:
113,164,168579,1,0,0:0:0:0:
226,76,168813,1,8,0:1:0:0:
114,185,169047,1,0,0:0:0:0:
226,51,169282,6,0,L|311:43,1,85.4999973907472,0|0,0:0|0:0,0:0:0:0:
433,143,169751,2,0,L|347:135,1,85.4999973907472,8|0,0:1|0:0,0:0:0:0:
481,51,170220,5,0,0:0:0:0:
481,51,170454,1,0,0:0:0:0:
340,160,170688,2,0,L|425:167,1,85.4999973907472,8|0,0:1|0:0,0:0:0:0:
333,317,171157,1,0,0:0:0:0:
333,317,171391,1,0,0:0:0:0:
425,195,171625,2,0,L|382:192,1,42.7499986953736,8|0,0:1|2:0,0:0:0:0:
275,181,171860,1,0,0:0:0:0:
168,304,172095,5,0,0:0:0:0:
274,205,172329,1,0,0:0:0:0:
151,309,172563,1,8,0:1:0:0:
273,225,172798,1,0,0:0:0:0:
130,313,173032,2,0,P|87:315|47:301,1,85.4999973907472,0|0,0:0|0:0,0:0:0:0:
41,118,173501,1,8,0:1:0:0:
103,236,173735,1,0,0:0:0:0:
145,92,173970,6,0,L|60:97,1,85.4999973907472,0|0,0:0|0:0,0:0:0:0:
215,226,174438,2,0,L|130:222,1,85.4999973907472,8|0,0:1|0:0,0:0:0:0:
259,89,174907,1,0,0:0:0:0:
319,245,175141,1,0,0:0:0:0:
414,120,175376,2,0,L|371:117,1,42.7499986953736,8|0,0:1|0:0,0:0:0:0:
242,112,175610,1,0,0:0:0:0:
314,259,175845,5,0,0:0:0:0:
418,143,176079,1,0,0:0:0:0:
252,139,176313,1,8,0:1:0:0:
391,238,176548,1,0,0:0:0:0:
321,90,176782,6,0,P|278:91|241:111,1,85.4999973907472,0|0,0:0|0:0,0:0:0:0:
171,221,177251,2,0,P|152:182|118:157,1,85.4999973907472,8|0,0:1|0:0,0:0:0:0:
64,317,177720,6,0,L|148:328,1,85.4999973907472,0|0,0:0|0:0,0:0:0:0:
282,222,178188,2,0,L|197:233,1,85.4999973907472,2|0,0:2|0:0,0:0:0:0:
319,347,178657,1,2,2:0:0:0:
405,230,178891,1,2,2:0:0:0:
251,235,179126,1,2,2:2:0:0:
251,235,179243,1,0,2:0:0:0:
251,235,179360,1,0,2:0:0:0:
324,334,179595,5,2,0:0:0:0:
418,213,179829,1,0,0:0:0:0:
247,212,180063,5,2,0:0:0:0:
432,194,180298,1,0,0:0:0:0:
432,194,180415,1,0,1:0:0:0:
431,194,180532,6,0,P|434:172|434:151,1,42.7499986953736,2|0,0:3|0:0,0:0:0:0:
338,25,180766,1,8,0:3:0:0:
314,44,180884,1,8,0:3:0:0:
299,71,181001,2,0,P|296:92|296:113,1,42.7499986953736,2|0,0:3|0:0,0:0:0:0:
452,205,181236,2,0,P|454:183|454:162,1,42.7499986953736,8|0,0:3|0:0,0:0:0:0:
275,53,181470,6,0,P|228:45|182:55,1,95,4|0,1:2|0:0,0:0:0:0:
95,172,181938,2,0,P|103:125|93:79,1,95,0|0,1:0|0:0,0:0:0:0:
78,193,182407,1,0,1:0:0:0:
145,291,182641,2,0,P|192:299|238:289,1,95,0|0,0:0|1:0,0:0:0:0:
340,195,183110,6,0,L|334:289,1,95,0|0,0:0|0:0,0:0:0:0:
189,212,183579,1,0,0:0:0:0:
314,86,183813,2,0,L|319:180,1,95,0|0,1:0|0:0,0:0:0:0:
228,314,184282,1,0,1:0:0:0:
275,310,184399,1,0,0:0:0:0:
322,307,184516,1,0,0:0:0:0:
203,220,184751,1,0,1:0:0:0:
349,310,184985,1,0,0:0:0:0:
231,113,185220,6,0,P|217:158|224:204,1,95,0|0,1:0|0:0,0:0:0:0:
388,172,185688,2,0,P|342:158|296:165,1,95,0|0,1:0|0:0,0:0:0:0:
335,243,186157,1,0,1:0:0:0:
418,64,186391,2,0,L|412:158,1,95,0|0,0:0|1:0,0:0:0:0:
229,298,186860,6,0,B|221:268|221:268|223:203,1,95,0|0,0:0|0:0,0:0:0:0:
234,109,187329,1,0,0:0:0:0:
131,244,187563,2,0,P|175:259|222:252,1,95,0|0,1:0|0:0,0:0:0:0:
126,160,188032,1,0,1:0:0:0:
80,171,188149,1,0,0:0:0:0:
53,209,188266,1,8,1:2:0:0:
106,347,188501,1,8,1:2:0:0:
222,252,188735,1,0,0:0:0:0:
153,123,188970,6,0,P|106:113|59:119,1,95,0|0,1:0|0:0,0:0:0:0:
210,34,189438,2,0,P|256:24|303:30,1,95,0|0,1:0|0:0,0:0:0:0:
383,81,189907,1,0,1:0:0:0:
271,196,190141,2,0,P|255:151|260:104,1,95,0|0,0:0|1:0,0:0:0:0:
406,4,190610,6,0,L|399:98,1,95,0|0,0:0|0:0,0:0:0:0:
398,193,191079,1,0,0:0:0:0:
270,275,191313,2,0,P|256:230|265:184,1,95,0|0,1:0|0:0,0:0:0:0:
362,99,191782,1,0,1:0:0:0:
330,227,192016,1,0,0:0:0:0:
249,96,192251,5,0,1:0:0:0:
392,176,192485,1,0,0:0:0:0:
276,289,192720,2,0,P|231:303|185:291,1,95,0|0,1:0|0:0,0:0:0:0:
249,120,193188,5,0,1:0:0:0:
392,200,193422,1,0,0:0:0:0:
276,313,193657,2,0,P|231:327|185:315,1,95,0|0,1:0|0:0,0:0:0:0:
96,197,194126,5,0,1:0:0:0:
114,338,194360,1,0,0:0:0:0:
232,224,194595,5,0,1:0:0:0:
36,373,194829,2,0,P|29:326|45:282,1,95
224,207,195298,1,0,0:0:0:0:
93,122,195532,6,0,L|141:116,1,47.5,8|0,1:2|0:0,0:0:0:0:
218,48,195766,2,0,L|266:55,1,47.5,0|0,0:0|0:0,0:0:0:0:
351,87,196001,2,0,L|358:135,1,47.5,0|0,1:0|0:0,0:0:0:0:
257,231,196235,2,0,L|263:183,1,47.5,0|0,0:0|0:0,0:0:0:0:
377,49,196470,6,0,L|392:142,1,95,4|0,1:2|0:0,0:0:0:0:
355,221,196821,1,0,1:0:0:0:
355,221,196938,2,0,L|339:314,1,95,0|0,1:0|0:0,0:0:0:0:
246,243,197407,1,0,1:0:0:0:
89,322,197641,2,0,P|134:333|177:314,1,95,0|0,0:0|1:0,0:0:0:0:
217,135,198110,1,0,0:0:0:0:
127,259,198345,6,0,L|119:164,1,95,0|0,1:0|0:0,0:0:0:0:
205,111,198696,1,0,1:0:0:0:
205,111,198813,2,0,L|212:16,1,95,0|0,1:0|0:0,0:0:0:0:
303,65,199282,1,0,1:0:0:0:
326,66,199399,1,0,0:0:0:0:
350,68,199516,1,0,0:0:0:0:
450,164,199751,1,0,1:0:0:0:
402,166,199868,1,0,1:0:0:0:
353,169,199985,1,0,1:0:0:0:
419,338,200220,6,0,P|423:291|410:245,1,95,0|0,1:0|0:0,0:0:0:0:
340,297,200571,1,0,1:0:0:0:
340,297,200688,2,0,P|293:301|247:288,1,95,0|0,1:0|0:0,0:0:0:0:
160,160,201157,1,0,1:0:0:0:
132,314,201391,1,0,0:0:0:0:
140,169,201626,1,0,1:0:0:0:
236,308,201860,6,0,L|245:213,1,95,0|0,0:0|1:0,0:0:0:0:
295,82,202329,2,0,L|342:82,1,47.5,0|0,0:0|1:0,0:0:0:0:
440,116,202563,1,0,1:0:0:0:
279,66,202798,1,0,0:0:0:0:
457,55,203032,6,0,L|455:103,1,47.5,0|0,1:0|0:0,0:0:0:0:
400,239,203266,2,0,L|398:192,1,47.5,8|0,1:2|0:0,0:0:0:0:
437,41,203501,2,0,L|435:89,1,47.5,8|0,1:2|0:0,0:0:0:0:
380,225,203735,1,0,0:0:0:0:
261,81,203970,6,0,P|214:74|170:92,1,95,0|0,1:0|0:0,0:0:0:0:
100,147,204321,1,0,1:0:0:0:
100,147,204438,2,0,P|53:153|9:135,1,95,0|0,1:0|0:0,0:0:0:0:
67,57,204907,1,0,1:0:0:0:
170,92,205141,2,0,P|187:135|181:182,1,95,0|0,0:0|1:0,0:0:0:0:
60,286,205610,6,0,L|154:280,1,95,0|0,0:0|1:0,0:0:0:0:
272,188,206079,1,0,0:0:0:0:
268,223,206196,1,0,1:0:0:0:
264,258,206313,1,0,1:0:0:0:
259,158,206548,1,0,0:0:0:0:
281,290,206782,1,0,1:0:0:0:
371,162,207016,1,0,0:0:0:0:
376,310,207251,1,0,1:0:0:0:
341,314,207368,1,0,1:0:0:0:
306,318,207485,1,0,1:0:0:0:
166,224,207720,5,0,1:0:0:0:
329,230,207954,1,2,0:2:0:0:
329,230,208071,1,0,1:0:0:0:
329,230,208188,1,0,1:0:0:0:
216,318,208423,1,2,0:2:0:0:
179,137,208657,5,0,1:0:0:0:
118,288,208891,1,2,0:2:0:0:
118,288,209008,1,0,0:0:0:0:
118,288,209125,1,0,1:0:0:0:
244,220,209360,1,2,0:2:0:0:
161,121,209595,5,0,1:0:0:0:
305,51,209829,2,0,L|257:47,1,47.5,2|0,0:2|1:0,0:0:0:0:
125,35,210063,1,2,0:2:0:0:
250,129,210298,1,2,1:3:0:0:
100,196,210532,5,2,0:2:0:0:
263,141,210766,1,2,1:3:0:0:
219,325,211001,5,0,1:0:0:0:
216,301,211118,1,2,1:3:0:0:
214,277,211235,1,0,1:0:0:0:
211,254,211352,1,0,0:0:0:0:
208,229,211470,6,0,P|252:243|299:240,1,95,4|0,1:2|1:0,0:0:0:0:
389,100,211938,1,0,1:0:0:0:
423,273,212173,1,2,1:2:0:0:
497,112,212407,6,0,P|449:108|404:122,1,95,2|0,1:2|1:2,0:0:0:0:
314,264,212876,1,0,1:0:0:0:
459,192,213110,1,2,1:2:0:0:
310,77,213345,6,0,P|305:124|319:169,1,95,2|0,1:2|1:0,0:0:0:0:
386,235,213696,1,0,0:0:0:0:
386,235,213813,1,0,1:0:0:0:
430,98,214048,1,2,1:2:0:0:
289,55,214282,6,0,P|241:50|196:64,1,95,2|0,1:2|1:0,0:0:0:0:
61,165,214751,1,2,1:2:0:0:
108,168,214868,1,0,1:0:0:0:
155,171,214985,1,0,1:0:0:0:
96,83,215220,5,2,1:2:0:0:
120,272,215454,1,0,1:0:0:0:
120,272,215571,1,0,0:0:0:0:
120,272,215688,1,0,1:0:0:0:
45,181,215923,1,2,1:2:0:0:
219,264,216157,2,0,L|213:216,1,47.5,2|0,1:2|0:0,0:0:0:0:
198,95,216391,1,0,1:0:0:0:
113,239,216626,1,0,1:0:0:0:
291,214,216860,1,2,1:2:0:0:
180,353,217095,5,2,1:2:0:0:
190,189,217329,1,0,1:0:0:0:
190,189,217446,1,0,0:0:0:0:
190,189,217563,1,0,1:0:0:0:
318,332,217798,1,2,1:2:0:0:
419,149,218032,2,0,L|371:155,1,47.5,2|0,1:2|0:0,0:0:0:0:
280,232,218266,1,2,1:3:0:0:
450,125,218501,5,8,1:2:0:0:
396,122,218618,1,0,1:0:0:0:
342,119,218735,1,2,1:2:0:0:
204,78,218970,5,2,1:2:0:0:
176,115,219087,1,0,1:0:0:0:
132,133,219204,1,0,1:0:0:0:
86,127,219321,1,0,1:0:0:0:
49,97,219438,2,0,P|41:80|36:34,3,47.5,2|0|2|0,1:2|1:0|1:2|1:0,1:1:0:0:
123,61,219907,5,2,1:2:0:0:
129,112,220024,1,0,1:0:0:0:
117,163,220141,1,0,1:0:0:0:
109,214,220258,1,0,1:0:0:0:
121,264,220376,2,0,L|101:307,3,47.5,2|0|2|0,1:2|1:0|1:2|1:0,1:1:0:0:
203,294,220845,5,2,1:2:0:0:
237,261,220962,1,0,1:0:0:0:
281,245,221079,1,0,1:0:0:0:
328,250,221196,1,0,1:0:0:0:
369,273,221313,1,2,1:2:0:0:
415,268,221430,1,0,1:0:0:0:
447,234,221547,1,2,1:2:0:0:
451,188,221664,1,0,1:0:0:0:
439,151,221782,6,0,L|402:167,1,23.75,2|0,1:2|1:0,1:1:0:0:
426,130,221899,2,0,L|400:142,1,23.75,0|0,1:0|1:0,1:1:0:0:
409,114,222016,2,0,L|381:132,1,23.75,2|0,1:2|1:0,1:1:0:0:
389,102,222134,2,0,L|373:126,1,23.75,0|0,1:0|1:0,1:1:0:0:
366,94,222251,2,0,L|359:122,1,23.75,2|0,1:2|1:0,1:1:0:0:
343,93,222368,2,0,L|337:125,1,23.75,0|0,1:2|1:0,1:1:0:0:
319,96,222485,2,0,L|317:136,1,23.75,2|0,1:2|1:0,1:1:0:0:
297,105,222602,2,0,L|296:140,1,23.75,0|0,1:0|1:0,1:1:0:0:
278,118,222720,6,0,P|241:128|204:124,1,76,2|0,0:0|0:0,0:0:0:0:
35,113,223188,2,0,P|71:103|108:107,1,76,2|0,0:0|0:0,0:0:0:0:
75,178,223657,1,0,0:0:0:0:
238,52,223891,1,2,0:0:0:0:
94,94,224126,1,2,0:0:0:0:
278,118,224595,5,8,1:2:0:0:
101,183,224829,1,0,0:0:0:0:
272,199,225063,5,8,1:2:0:0:
97,208,225298,1,0,0:0:0:0:
255,287,225532,6,0,P|274:289|293:289,1,38,8|0,1:2|1:0,0:0:0:0:
89,238,225766,2,0,P|70:236|51:236,1,38,0|0,1:0|1:0,0:0:0:0:
220,354,226001,6,0,P|302:352|253:287,1,199.499993911743,10|0,1:3|0:0,0:0:0:0:
146,306,226470,5,4,1:2:0:0:
370,259,226704,1,0,0:0:0:0:
370,259,226821,1,0,1:0:0:0:
370,259,226938,1,0,1:0:0:0:
253,119,227173,1,2,0:0:0:0:
428,73,227407,2,0,P|440:123|426:172,1,104.500003189087,2|0,1:2|0:0,0:0:0:0:
205,215,227876,1,0,1:0:0:0:
362,124,228110,1,2,0:0:0:0:
132,169,228345,6,0,P|119:219|133:268,1,104.500003189087,2|0,1:2|2:0,0:0:0:0:
189,335,228696,1,0,1:0:0:0:
189,335,228813,1,0,1:0:0:0:
340,235,229048,1,2,0:0:0:0:
203,94,229282,5,2,1:2:0:0:
385,103,229516,1,0,0:0:0:0:
185,37,229751,1,0,1:0:0:0:
192,88,229868,1,0,1:0:0:0:
200,140,229985,1,2,0:0:0:0:
343,108,230220,6,0,L|446:96,1,104.500003189087,2|0,1:2|2:0,0:0:0:0:
512,152,230571,1,0,1:0:0:0:
512,152,230688,1,0,1:0:0:0:
393,283,230923,1,2,0:0:0:0:
512,239,231157,6,0,L|460:231,1,52.2500015945435,2|0,1:2|0:0,0:0:0:0:
270,278,231391,2,0,L|374:295,1,104.500003189087,0|0,0:0|1:0,0:0:0:0:
225,358,231860,1,2,0:0:0:0:
251,153,232095,6,0,P|268:201|258:252,1,104.500003189087,2|0,1:2|2:0,0:0:0:0:
189,209,232446,1,0,1:0:0:0:
189,209,232563,1,0,1:0:0:0:
315,76,232798,1,2,0:0:0:0:
357,254,233032,5,2,1:2:0:0:
310,262,233149,1,0,0:0:0:0:
258,252,233266,1,2,0:3:0:0:
116,115,233501,5,8,1:2:0:0:
190,111,233618,1,0,0:0:0:0:
251,153,233735,1,2,0:2:0:0:
154,317,233970,6,0,L|161:212,1,104.500003189087,8|0,1:0|2:0,0:0:0:0:
281,56,234438,1,8,1:0:0:0:
102,121,234673,1,2,0:0:0:0:
286,274,234907,2,0,L|279:170,1,104.500003189087,8|0,1:0|0:0,0:0:0:0:
194,60,235376,1,8,1:0:0:0:
395,57,235610,1,2,0:0:0:0:
285,240,235845,6,0,P|336:233|385:249,1,104.500003189087,8|0,1:0|2:0,0:0:0:0:
446,313,236196,1,0,1:0:0:0:
446,313,236313,1,8,1:0:0:0:
438,163,236548,1,2,0:0:0:0:
327,352,236782,5,8,1:0:0:0:
271,153,237016,1,0,0:0:0:0:
112,257,237251,1,8,1:0:0:0:
163,264,237368,1,0,1:0:0:0:
215,272,237485,1,2,0:0:0:0:
105,128,237720,5,8,1:0:0:0:
133,340,237954,1,0,2:0:0:0:
133,340,238071,1,0,1:0:0:0:
133,340,238188,1,8,1:0:0:0:
215,202,238423,1,2,0:0:0:0:
39,241,238657,1,8,1:0:0:0:
227,289,238891,1,2,0:0:0:0:
118,117,239126,2,0,L|125:221,1,104.500003189087,8|0,1:0|0:0,0:0:0:0:
275,357,239595,5,2,1:3:0:0:
369,200,239829,1,0,0:0:0:0:
271,250,240063,5,2,1:3:0:0:
464,307,240297,1,0,0:0:0:0:
369,200,240532,6,0,P|360:175|358:149,1,52.2500015945435,2|2,1:3|1:3,0:0:0:0:
435,12,240766,2,0,P|443:36|445:62,1,52.2500015945435,2|2,1:3|1:3,0:0:0:0:
352,224,241001,6,0,P|263:236|313:161,1,228,8|0,1:2|0:0,0:0:0:0:
439,160,241470,5,4,1:2:0:0:
270,34,241704,2,0,L|268:90,1,56.9999982604981,0|0,2:0|1:0,0:0:0:0:
261,229,241938,1,8,1:0:0:0:
374,54,242173,1,2,0:0:0:0:
249,241,242407,6,0,P|193:246|143:219,1,113.999996520996,8|0,1:0|2:0,0:0:0:0:
86,132,242759,1,0,0:0:0:0:
86,132,242876,1,8,1:0:0:0:
179,320,243110,1,2,2:0:0:0:
216,140,243345,5,8,1:0:0:0:
65,257,243579,1,0,2:0:0:0:
65,257,243696,1,0,1:0:0:0:
65,257,243813,1,8,1:0:0:0:
222,332,244048,1,2,0:0:0:0:
110,179,244282,6,0,P|105:123|122:69,1,113.999996520996,8|2,1:0|0:0,0:0:0:0:
307,131,244751,1,8,1:0:0:0:
256,153,244868,1,0,1:0:0:0:
202,140,244985,1,2,0:0:0:0:
386,60,245220,6,0,P|402:114|397:170,1,113.999996520996,8|0,1:0|2:0,0:0:0:0:
376,248,245571,1,0,1:0:0:0:
376,248,245688,1,8,1:0:0:0:
493,154,245923,1,2,0:0:0:0:
307,131,246157,6,0,L|313:187,1,56.9999982604981,8|0,1:0|0:0,0:0:0:0:
342,338,246391,1,0,0:0:0:0:
403,128,246626,1,8,1:0:0:0:
243,259,246860,1,2,0:0:0:0:
442,335,247095,6,0,L|328:331,1,113.999996520996,8|0,1:0|2:0,0:0:0:0:
253,276,247446,1,0,1:0:0:0:
253,276,247563,1,8,1:0:0:0:
404,151,247798,1,2,0:0:0:0:
182,61,248032,5,10,1:0:0:0:
189,117,248149,1,0,0:0:0:0:
196,174,248266,1,2,0:3:0:0:
195,38,248501,5,8,1:2:0:0:
203,114,248618,1,0,0:0:0:0:
213,191,248735,1,2,0:2:0:0:
145,352,248970,5,10,1:0:0:0:
348,257,249204,1,0,2:0:0:0:
348,257,249321,1,0,1:0:0:0:
348,257,249438,1,8,1:0:0:0:
111,189,249673,1,2,0:1:0:0:
252,374,249907,5,10,1:0:0:0:
288,161,250141,1,0,2:0:0:0:
288,161,250259,1,0,0:0:0:0:
288,161,250376,1,8,1:0:0:0:
117,274,250610,1,2,0:1:0:0:
172,44,250845,5,10,1:0:0:0:
418,93,251079,1,0,2:0:0:0:
418,93,251196,1,0,1:0:0:0:
418,93,251313,1,8,1:0:0:0:
211,32,251548,1,2,0:1:0:0:
299,248,251782,5,10,1:0:0:0:
318,38,252016,1,0,0:0:0:0:
142,162,252251,1,8,1:0:0:0:
205,157,252368,1,0,1:0:0:0:
269,153,252485,1,2,0:1:0:0:
165,267,252720,5,10,1:0:0:0:
379,232,252954,1,2,0:0:0:0:
142,162,253188,5,10,1:0:0:0:
370,254,253423,1,0,0:0:0:0:
173,59,253657,5,2,1:0:0:0:
186,278,253891,1,2,0:0:0:0:
285,50,254125,5,10,1:0:0:0:
210,287,254360,1,0,0:0:0:0:
302,171,254595,5,2,0:0:0:0:
347,137,254712,1,0,0:0:0:0:
403,132,254829,1,0,0:0:0:0:
453,158,254946,1,0,0:0:0:0:
482,206,255063,2,0,L|476:263,1,56.9999982604981,2|0,0:2|0:0,0:0:0:0:
377,311,255298,2,0,L|383:367,1,56.9999982604981,2|0,0:2|0:0,0:0:0:0:
260,328,255532,6,0,L|261:290,1,28.4999991302491,2|0,0:0|0:0,0:0:0:0:
233,339,255649,2,0,L|236:301,1,28.4999991302491,0|0,0:0|0:0,0:0:0:0:
205,343,255766,2,0,L|213:301,1,28.4999991302491,0|0,0:0|0:0,0:0:0:0:
177,341,255884,2,0,L|186:307,1,28.4999991302491,0|0,0:0|0:0,0:0:0:0:
150,333,256001,2,0,L|167:300,1,28.4999991302491,2|0,0:1|0:0,0:0:0:0:
126,318,256118,2,0,L|146:294,1,28.4999991302491,0|0,0:0|0:0,0:0:0:0:
106,298,256235,2,0,L|140:274,1,28.4999991302491,2|0,0:2|0:0,0:0:0:0:
91,273,256352,2,0,L|132:258,1,28.4999991302491,2|0,0:2|0:0,0:0:0:0:
82,246,256469,5,4,1:3:0:0:
