osu file format v14

[General]
AudioFilename: audio.mp3
AudioLeadIn: 0
PreviewTime: 254987
Countdown: 0
SampleSet: Soft
StackLeniency: 0.2
Mode: 0
LetterboxInBreaks: 0
WidescreenStoryboard: 0

[Editor]
DistanceSpacing: 1
BeatDivisor: 4
GridSize: 32
TimelineZoom: 1

[Metadata]
Title:DUAL EDGE OF FAITH
TitleUnicode:DUAL EDGE OF FAITH
Artist:Nana Takahashi
ArtistUnicode:高橋菜々
Creator:GalenTori
Version:legend of FAITH
Source:東方妖々夢 ~ Perfect Cherry Blossom
Tags:Mystic Oriental Dream ~ Ancient Temple, Konpaku Youmu , 魂魄妖夢, 魂魄 , SOUND HOLIC , MasKaleido, GUCCI, Comic Market 93, コミックマーケット93
BeatmapID:1651195
BeatmapSetID:786626

[Difficulty]
HPDrainRate:7
CircleSize:4.5
OverallDifficulty:8
ApproachRate:9
SliderMultiplier:1.8
SliderTickRate:1

[Events]
//Background and Video events
0,0,"65002165_p0.jpg",0,0
//Break Periods
//Storyboard Layer 0 (Background)
//Storyboard Layer 1 (Fail)
//Storyboard Layer 2 (Pass)
//Storyboard Layer 3 (Foreground)
//Storyboard Sound Samples

[TimingPoints]
881,419.58041958042,4,2,10,60,1,0
881,-200,4,2,10,50,0,0
14307,416.666666666667,4,2,1,60,1,0
14307,-133.333333333333,4,2,1,60,0,0
17640,408.163265306122,4,2,1,60,1,0
17640,-133.333333333333,4,2,1,60,0,0
20905,389.61038961039,4,2,1,60,1,0
20905,-133.333333333333,4,2,1,60,0,0
24021,382.165605095541,4,2,1,60,1,0
24021,-133.333333333333,4,2,1,60,0,0
27078,363.636363636364,4,2,1,60,1,0
27078,-200,4,2,1,60,0,0
32896,-117.647058823529,4,2,1,60,0,0
79441,-100,4,2,1,60,0,1
102714,-117.647058823529,4,2,1,60,0,0
150714,-100,4,2,1,60,0,1
173987,-133.333333333333,4,2,1,60,0,0
185623,-117.647058823529,4,2,1,60,0,0
232168,-100,4,2,1,60,0,1
255441,-117.647058823529,4,2,1,60,0,0

[HitObjects]
156,307,881,6,0,B|120:205|170:225|140:116|140:116|164:156|200:169,1,270,6|0,0:0|0:0,0:0:0:0:
80,56,2559,6,0,P|132:32|178:32,1,90,2|8,0:0|0:0,0:0:0:0:
252,47,3398,2,0,P|298:47|344:24,1,90,0|8,0:0|0:0,0:0:0:0:
174,205,4237,6,0,B|219:295|295:269|335:257|335:257|288:246|273:214,1,270,2|0,0:0|0:0,0:0:0:0:
394,324,5915,6,0,P|415:276|415:239,1,90,2|8,0:0|0:0,0:0:0:0:
395,150,6755,2,0,P|395:106|419:68,1,90,0|8,0:0|0:0,0:0:0:0:
190,231,7594,6,0,B|167:243|137:239|137:239|71:276|8:172|72:114|126:132,1,270,2|0,0:0|0:0,0:0:0:0:
273,200,9272,6,0,P|277:245|258:286,1,90,2|8,0:0|0:0,0:0:0:0:
185,140,10111,2,0,P|181:91|203:44,1,90,0|8,0:0|0:0,0:0:0:0:
449,153,10950,6,0,B|372:102|269:106|269:106|313:121|337:169,1,270,2|0,0:0|0:0,0:0:0:0:
251,282,12629,6,0,P|239:223|253:180,1,90,2|8,0:0|0:0,0:0:0:0:
405,277,13468,2,0,P|415:319|405:364,1,90,0|8,0:0|0:0,0:0:0:0:
223,225,14307,6,0,P|171:209|140:206,1,67.5000025749208,4|0,0:0|0:0,0:0:0:0:
282,157,14723,1,0,0:0:0:0:
199,94,14932,1,0,0:0:0:0:
333,286,15140,2,0,P|341:243|334:210,1,67.5000025749208
233,301,15557,2,0,P|225:338|234:371,1,67.5000025749208
429,262,15973,6,0,P|473:258|511:269,1,67.5000025749208
347,160,16390,2,0,P|308:151|270:162,1,67.5000025749208
479,92,16807,2,0,P|487:55|479:16,1,67.5000025749208
348,159,17223,2,0,P|342:197|358:235,1,67.5000025749208
223,91,17640,6,0,P|180:76|144:75,1,67.5000025749208
65,6,18048,1,0,0:0:0:0:
174,157,18252,1,0,0:0:0:0:
292,65,18456,2,0,P|287:24|268:-3,1,67.5000025749208
270,170,18864,2,0,P|307:173|343:156,1,67.5000025749208
100,107,19272,6,0,P|88:152|97:190,1,67.5000025749208
56,21,19680,1,0,0:0:0:0:
186,114,19884,1,0,0:0:0:0:
186,114,19986,1,0,0:0:0:0:
186,114,20088,1,0,0:0:0:0:
264,28,20293,1,0,0:0:0:0:
229,187,20497,2,0,P|220:238|216:271,1,67.5000025749208
108,362,20905,6,0,P|162:351|198:347,1,67.5000025749208
135,263,21294,1,0,0:0:0:0:
246,364,21489,1,0,0:0:0:0:
310,242,21684,2,0,P|323:198|320:169,1,67.5000025749208
204,83,22073,2,0,P|191:121|200:158,1,67.5000025749208
412,138,22463,6,0,P|362:126|334:122,1,67.5000025749208
197,38,22852,2,0,P|248:29|283:27,1,67.5000025749208
110,152,23242,2,0,P|104:112|103:75,1,67.5000025749208
252,153,23631,2,0,P|249:197|244:228,1,67.5000025749208
54,342,24021,6,0,P|102:326|143:323,1,67.5000025749208
79,241,24403,1,0,0:0:0:0:
202,350,24594,1,0,0:0:0:0:
337,295,24785,2,0,P|385:285|429:295,1,67.5000025749208
257,144,25167,2,0,P|245:182|258:224,1,67.5000025749208
433,88,25549,6,0,P|376:72|351:71,1,67.5000025749208
214,4,25931,1,0,0:0:0:0:
330,153,26122,1,0,0:0:0:0:
330,153,26218,1,0,0:0:0:0:
330,153,26313,1,0,0:0:0:0:
235,91,26505,1,0,0:0:0:0:
417,26,26696,1,0,0:0:0:0:
321,246,26887,1,0,0:0:0:0:
161,34,27078,6,0,B|138:90|156:117|215:191|148:245|87:225|70:153|133:139,1,270
243,269,28532,5,0,0:0:0:0:
407,111,29987,5,0,0:0:0:0:
256,192,31441,12,0,32532,0:0:0:0:
122,94,32896,6,0,L|62:86,1,38.2500007295609
213,46,33078,1,0,0:0:0:0:
213,46,33168,1,0,0:0:0:0:
213,46,33259,2,0,L|263:40,1,38.2500007295609
204,175,33441,2,0,L|198:133,1,38.2500007295609
311,203,33623,1,0,0:0:0:0:
328,196,33713,1,0,0:0:0:0:
347,195,33804,1,0,0:0:0:0:
366,200,33895,1,0,0:0:0:0:
382,211,33987,2,0,P|391:157|398:126,1,76.5000014591217
