osu file format v14

[General]
AudioFilename: audio.ogg
AudioLeadIn: 0
PreviewTime: 70694
Countdown: 0
SampleSet: Soft
StackLeniency: 0.7
Mode: 0
LetterboxInBreaks: 0
WidescreenStoryboard: 1

[Editor]
Bookmarks: 96430
DistanceSpacing: 1.1
BeatDivisor: 4
GridSize: 32
TimelineZoom: 1

[Metadata]
Title:Vitalization (TV Size)
TitleUnicode:Vitalization (TV Size)
Artist:Nana Mizuki
ArtistUnicode:水樹奈々
Creator:xHappy-
Version:Xahlt's Hard
Source:戦姫絶唱シンフォギアG
Tags:anime op opening rock japanese jrock j-rock Senki Zesshou Symphogear G THE MUSEUM Ⅲ III p_kung freezinganimenz [_lost_] conner c_o_n_n_e_r Sarawatlism Xahlt Gweon Sua gweon_sua Kuon-
BeatmapID:4145509
BeatmapSetID:1986582

[Difficulty]
HPDrainRate:5
CircleSize:3.8
OverallDifficulty:6
ApproachRate:8
SliderMultiplier:1.4
SliderTickRate:1

[Events]
//Background and Video events
0,0,"bg.jpg",0,0
Video,-290,"video.mp4"
//Break Periods
2,4025,12864
//Storyboard Layer 0 (Background)
//Storyboard Layer 1 (Fail)
//Storyboard Layer 2 (Pass)
//Storyboard Layer 3 (Foreground)
//Storyboard Layer 4 (Overlay)
//Storyboard Sound Samples

[TimingPoints]
1299,315.789473684211,4,2,1,60,1,0
1299,-100,4,2,1,60,0,0
3825,315.789473684211,4,2,1,40,1,0
3825,-100,4,2,1,40,0,0
13930,-100,4,2,1,50,0,0
19141,-100,4,2,1,30,0,0
19298,-100,4,2,1,40,0,0
19614,-100,4,2,1,50,0,0
19930,-100,4,2,1,60,0,0
20246,-100,4,2,1,40,0,0
31614,315.789473684211,4,2,1,40,1,0
31614,-100,4,2,1,40,0,0
34140,-100,4,2,1,50,0,0
36035,-100,4,2,1,60,0,0
36350,-100,4,2,1,70,0,0
36666,-111.111111111111,4,2,1,50,0,0
44245,-111.111111111111,4,2,1,60,0,0
57508,-125,4,2,1,50,0,0
61929,-125,4,2,1,70,0,0
62482,-125,4,2,1,5,0,0
62561,-125,4,2,1,50,0,0
65719,315.789473684211,4,2,1,60,1,0
65719,-125,4,2,1,60,0,0
69245,-125,4,2,1,40,0,0
70771,-90.9090909090909,4,2,1,80,0,0
78074,-90.9090909090909,4,2,1,40,0,0
78350,-90.9090909090909,4,2,1,80,0,0
90982,-125,4,2,1,80,0,0
91297,-125,4,2,1,60,0,0
93508,-125,4,2,1,70,0,0
95403,-125,4,2,1,60,0,0

[Colours]
Combo1 : 252,101,206
Combo2 : 238,225,72
Combo3 : 96,232,30
Combo4 : 123,37,169

[HitObjects]
59,100,1299,6,0,P|50:66|36:10,2,70,8|0|2,0:0|1:0|1:2,0:0:0:0:
22,168,1772,2,0,P|64:131|154:155,1,140,8|0,0:0|1:0,0:0:0:0:
208,183,2246,1,0,1:0:0:0:
357,144,2562,6,0,P|409:120|455:93,2,105,0|0|0,1:0|1:0|1:0,0:0:0:0:
285,113,3193,1,0,1:0:0:0:
405,208,3509,1,8,0:0:0:0:
306,326,3825,5,4,1:0:0:0:
486,32,13614,6,0,P|455:46|422:58,1,70,4|2,1:2|0:0,0:0:0:0:
361,116,13930,5,4,1:0:0:0:
361,116,14088,2,0,B|271:94|309:82|201:54,1,140,0|0,1:0|1:0,0:0:0:0:
163,13,14561,1,0,1:0:0:0:
36,123,14877,1,0,1:0:0:0:
36,123,15035,2,0,P|47:197|58:275,1,140,0|0,1:0|1:0,0:0:0:0:
14,334,15509,1,0,1:0:0:0:
153,240,15825,1,0,1:0:0:0:
266,364,16140,1,0,1:0:0:0:
430,328,16456,5,0,1:0:0:0:
430,328,16614,2,0,P|461:270|421:217,1,140,0|0,1:0|1:0,0:0:0:0:
348,175,17088,1,0,1:0:0:0:
211,273,17403,1,0,1:0:0:0:
211,273,17561,2,0,B|134:260|159:247|60:228,1,140,0|0,1:0|1:0,0:0:0:0:
3,272,18035,1,0,1:0:0:0:
128,160,18351,1,0,1:0:0:0:
1,49,18667,1,0,1:0:0:0:
161,3,18982,6,0,P|230:25|307:50,1,140,4|0,1:0|1:0,0:0:0:0:
376,27,19456,2,0,P|331:41|328:140,1,140,0|0,1:0|1:0,0:0:0:0:
386,167,19930,1,0,1:0:0:0:
386,167,20088,2,0,P|427:217|393:294,1,140,0|0,1:0|1:0,0:0:0:0:
333,326,20561,2,0,P|301:313|254:300,1,70,0|0,1:0|1:0,0:0:0:0:
214,236,20877,2,0,P|185:254|145:273,1,70,0|0,1:0|1:0,0:0:0:0:
95,331,21193,2,0,P|76:323|49:314,3,35,0|0|0|0,1:0|1:0|1:0|1:0,0:0:0:0:
51,304,21509,5,4,1:0:0:0:
7,142,21825,1,2,3:3:0:0:
7,142,21982,2,0,P|73:125|146:87,1,140,0|2,1:0|0:0,0:0:0:0:
199,36,22456,1,4,1:2:0:0:
267,84,22614,6,0,B|311:123|311:123|277:212,1,140,4|2,1:2|3:0,0:0:0:0:
198,205,23088,2,0,P|211:236|224:278,1,70,0|0,1:0|1:0,0:0:0:0:
172,340,23403,1,2,0:0:0:0:
172,340,23561,1,0,1:0:0:0:
248,374,23719,2,0,P|279:364|332:353,1,70,2|0,0:0|1:0,0:0:0:0:
397,374,24035,5,4,1:0:0:0:
493,236,24351,1,2,3:0:0:0:
493,236,24509,2,0,B|469:161|502:171|470:91,1,140,0|2,1:0|0:0,0:0:0:0:
510,23,24982,1,0,1:0:0:0:
428,2,25140,6,0,P|363:18|289:44,1,140,4|2,1:2|0:0,0:0:0:0:
211,25,25614,2,0,P|174:18|136:2,1,70,2|0,0:0|3:0,0:0:0:0:
73,49,25930,1,2,0:0:0:0:
73,49,26088,1,0,1:0:0:0:
122,117,26246,2,0,P|112:150|105:184,1,70,2|0,1:2|1:0,0:0:0:0:
43,242,26561,6,0,P|81:218|166:281,1,140,6|2,1:2|3:0,0:0:0:0:
225,309,27035,2,0,P|273:306|316:222,1,140,0|2,1:0|0:0,0:0:0:0:
266,165,27509,1,0,1:0:0:0:
321,100,27667,6,0,B|371:59|371:59|453:95,1,140,4|2,1:2|3:3,0:0:0:0:
507,140,28140,2,0,P|498:173|488:218,1,70,2|2,0:2|0:0,0:0:0:0:
508,290,28456,1,2,0:2:0:0:
508,290,28614,1,2,3:2:0:0:
432,327,28772,2,0,P|397:315|346:301,1,70,2|2,0:2|3:2,0:0:0:0:
300,252,29088,5,6,1:0:0:0:
165,352,29403,1,8,0:0:0:0:
58,221,29719,1,2,1:0:0:0:
193,121,30035,1,8,0:0:0:0:
300,252,30351,6,0,P|367:221|446:194,1,140,6|0,1:2|1:0,0:0:0:0:
479,131,30825,1,0,1:0:0:0:
407,87,30982,2,0,P|408:54|413:12,1,70,0|0,1:0|1:0,0:0:0:0:
328,2,31298,1,2,3:2:0:0:
278,69,31456,2,0,B|199:71|210:88|128:89,1,140,4|0,1:2|0:0,0:0:0:0:
94,151,31929,6,0,P|59:123|12:195,1,140,4|0,1:0|1:0,0:0:0:0:
13,257,32403,1,0,3:0:0:0:
87,274,32561,2,0,P|119:271|174:270,1,70,0|0,1:0|3:0,0:0:0:0:
198,204,32877,1,0,1:0:0:0:
327,287,33192,1,0,1:0:0:0:
434,177,33508,2,0,P|424:142|413:88,1,70,0|0,1:0|3:0,0:0:0:0:
334,126,33824,2,0,P|343:160|355:215,1,70,0|0,1:0|3:0,0:0:0:0:
327,287,34140,6,0,B|243:296|267:319|168:328,1,140,2|0,1:1|1:0,0:1:0:0:
135,273,34614,1,0,3:0:0:0:
69,313,34771,2,0,P|74:345|78:383,2,70,0|0|2,1:0|3:0|1:1,0:0:0:0:
135,273,35245,1,0,3:1:0:0:
89,210,35403,6,0,P|54:213|2:220,1,70,0|0,1:0|3:0,0:0:0:0:
14,139,35719,2,0,P|49:136|101:129,1,70,0|0,1:0|3:0,0:0:0:0:
143,72,36035,1,0,1:0:0:0:
143,72,36192,1,0,3:0:0:0:
212,104,36350,2,0,P|229:133|226:167,1,70,0|0,1:0|3:0,0:0:0:0:
196,239,36666,6,0,P|259:253|346:272,1,125.999996154785,4|0,1:0|1:0,0:0:0:0:
391,303,37140,1,0,0:0:0:0:
391,303,37298,2,0,P|422:291|461:272,1,62.9999980773926,0|0,1:0|0:0,0:0:0:0:
498,221,37614,1,0,1:0:0:0:
498,221,37771,1,0,0:0:0:0:
411,104,38087,5,0,0:0:0:0:
411,104,38245,2,0,P|350:107|314:157,1,125.999996154785,0|0,1:0|1:0,0:0:0:0:
358,219,38719,1,0,0:0:0:0:
306,274,38877,2,0,P|277:286|241:300,1,62.9999980773926,0|0,1:0|0:0,0:0:0:0:
155,183,39350,5,2,0:2:0:0:
155,183,39508,2,0,P|145:153|140:122,1,62.9999980773926,0|0,1:0|0:0,0:0:0:0:
66,139,39824,2,0,P|75:168|81:200,1,62.9999980773926,0|0,1:0|0:0,0:0:0:0:
52,272,40140,1,0,1:0:0:0:
52,272,40298,1,0,0:0:0:0:
102,328,40456,6,0,P|136:331|179:346,1,62.9999980773926,0|0,1:0|0:0,0:0:0:0:
180,348,40692,2,0,P|210:350|257:325,1,62.9999980773926
250,324,40929,1,0,0:0:0:0:
309,278,41087,2,0,P|335:288|369:296,1,62.9999980773926,0|0,1:0|0:0,0:0:0:0:
424,346,41403,1,0,1:0:0:0:
479,294,41561,2,0,P|502:241|481:178,1,125.999996154785
426,125,42035,5,0,1:0:0:0:
293,197,42350,1,0,1:0:0:0:
293,197,42508,2,0,P|231:187|161:172,1,125.999996154785
113,225,42982,1,8,0:0:0:0:
48,88,43298,2,0,P|53:61|57:4,1,62.9999980773926,0|8,1:0|0:0,0:0:0:0:
131,36,43614,2,0,P|126:63|122:120,1,62.9999980773926,0|0,1:0|1:0,0:0:0:0:
197,111,43929,2,0,P|199:92|204:63,3,31.4999990386963,0|0|0|0,1:0|1:0|1:0|1:0,0:0:0:0:
211,67,44245,5,4,1:2:0:0:
272,23,44403,2,0,P|302:31|355:42,1,62.9999980773926,2|0,1:0|0:0,0:0:0:0:
404,10,44719,1,0,1:0:0:0:
453,66,44877,2,0,P|445:98|435:154,1,62.9999980773926,2|0,1:0|0:0,0:0:0:0:
487,186,45192,1,0,1:0:0:0:
426,231,45350,2,0,P|395:223|350:213,1,62.9999980773926,2|0,1:0|0:0,0:0:0:0:
314,159,45666,1,0,1:0:0:0:
248,197,45824,2,0,P|243:227|231:281,1,62.9999980773926,2|0,1:0|1:0,0:0:0:0:
271,326,46140,6,0,B|317:314|317:314|366:349,2,94.499997116089,0|0|0,1:0|1:0|1:0,0:0:0:0:
128,378,46929,1,0,1:0:0:0:
120,373,47008,1,0,1:0:0:0:
110,366,47087,2,0,P|78:371|47:376,1,62.9999980773926,4|0,1:0|0:0,0:0:0:0:
36,301,47403,6,0,P|67:295|98:290,1,62.9999980773926,4|0,1:2|0:0,0:0:0:0:
136,224,47719,1,0,1:0:0:0:
70,186,47877,2,0,P|39:131|73:66,1,125.999996154785
119,28,48350,2,0,P|146:36|198:51,1,62.9999980773926,0|0,1:0|0:0,0:0:0:0:
228,102,48666,2,0,P|254:94|309:82,1,62.9999980773926,2|0,1:2|0:0,0:0:0:0:
339,28,48982,1,2,1:2:0:0:
399,73,49140,6,0,B|436:112|436:112|402:194,1,125.999996154785
333,190,49614,2,0,P|347:221|369:270,1,62.9999980773926,0|0,1:0|0:0,0:0:0:0:
419,293,49929,1,0,1:0:0:0:
291,373,50245,1,0,1:0:0:0:
148,321,50561,6,0,P|102:333|57:347,2,94.499997116089,2|0|0,1:2|0:0|0:0,0:0:0:0:
188,256,51192,2,0,P|190:224|163:181,1,62.9999980773926,2|0,1:2|0:0,0:0:0:0:
113,156,51508,1,0,1:0:0:0:
150,91,51666,2,0,B|217:81|204:106|295:93,1,125.999996154785,4|0,1:0|0:0,0:0:0:0:
330,147,52140,2,0,P|347:154|365:162,3,31.4999990386963,2|2|2|2,0:0|0:0|0:0|0:0,0:0:0:0:
394,174,52456,5,2,1:2:0:0:
394,174,52614,1,0,1:0:0:0:
452,126,52771,1,8,0:0:0:0:
420,57,52929,2,0,P|362:43|287:15,1,125.999996154785,4|0,1:2|1:0,0:0:0:0:
224,15,53403,2,0,P|206:18|179:24,3,31.4999990386963,2|2|2|2,2:0|2:0|2:0|2:0,0:0:0:0:
159,32,53719,1,2,1:2:0:0:
159,32,53877,1,0,1:0:0:0:
88,5,54035,1,8,0:0:0:0:
37,61,54192,6,0,B|0:98|0:98|27:172,1,125.999996154785,4|0,1:2|1:0,0:0:0:0:
89,207,54666,2,0,P|76:237|61:281,1,62.9999980773926,8|0,0:0|3:0,0:0:0:0:
10,317,54982,1,2,1:2:0:0:
10,317,55140,1,2,1:2:0:0:
150,371,55456,1,0,1:0:0:0:
256,192,55614,12,4,56877,1:0:0:0:
490,30,57508,6,0,P|378:41|251:57,1,224,6|0,1:2|3:0,0:0:0:0:
167,3,58456,1,0,1:0:0:0:
86,80,58771,2,0,B|110:209|35:165|73:308,1,224,2|0,0:0|3:0,0:0:0:0:
161,363,59719,2,0,P|172:339|183:296,1,56,2|2,1:2|0:0,0:0:0:0:
167,238,60035,6,0,P|202:270|297:167,1,224,0|2,3:0|0:0,0:0:0:0:
473,31,61298,1,2,1:0:0:0:
473,31,61929,2,0,P|418:49|353:85,1,112,0|0,3:3|0:0,0:0:0:0:
300,174,62561,6,0,B|168:164|234:100|81:85,1,224,6|0,1:2|3:0,0:0:0:0:
17,164,63508,1,2,1:2:0:0:
75,259,63824,2,0,P|181:293|284:338,1,224,0|0,3:0|1:0,0:0:0:0:
391,305,64771,1,0,3:0:0:0:
350,213,65087,6,0,P|361:190|379:143,1,56,2|2,3:0|3:0,0:0:0:0:
441,132,65403,2,0,P|430:105|422:75,1,56,0|0,3:0|3:0,0:0:0:0:
361,39,65719,2,0,B|404:48|404:48|440:13,2,84,4|0|0,1:0|1:0|1:0,0:0:0:0:
291,16,66350,1,2,0:0:0:0:
203,132,66666,1,0,1:0:0:0:
290,248,66982,6,0,P|282:275|273:315,1,56,2|0,0:0|3:0,0:0:0:0:
213,348,67297,1,0,1:0:0:0:
213,348,67455,2,0,P|183:338|147:330,1,56,0|2,3:0|0:0,0:0:0:0:
27,246,67929,1,0,3:0:0:0:
91,198,68087,6,0,P|143:212|211:228,1,112,4|0,1:0|1:0,0:0:0:0:
267,182,68561,1,0,1:0:0:0:
267,182,68719,1,0,1:0:0:0:
331,233,68876,1,0,1:0:0:0:
331,233,69034,1,0,1:0:0:0:
400,197,69192,1,0,1:0:0:0:
400,197,69350,1,4,1:2:0:0:
30,33,70771,6,0,P|66:35|104:66,1,77.0000023498536,4|0,1:0|0:0,0:0:0:0:
187,120,71087,2,0,P|224:126|271:83,1,77.0000023498536,8|0,0:0|0:0,0:0:0:0:
309,12,71403,2,0,P|350:26|427:63,1,115.50000352478,0|0,1:0|0:0,0:0:0:0:
430,65,71719,2,0,P|412:99|388:164,1,77.0000023498536,8|0,0:0|3:0,0:0:0:0:
462,220,72034,6,0,P|474:252|494:310,1,77.0000023498536,2|0,1:3|0:0,0:0:0:0:
500,299,72271,1,2,0:3:0:0:
512,305,72350,2,0,P|469:319|420:334,1,77.0000023498536,8|2,0:0|0:3,0:0:0:0:
343,380,72666,2,0,B|286:367|301:347|223:337,1,115.50000352478,0|0,1:0|0:0,0:0:0:0:
231,324,72982,2,0,P|196:336|142:359,1,77.0000023498536,8|2,0:0|0:0,0:0:0:0:
55,383,73297,6,0,P|34:310|3:226,1,154.000004699707,0|8,1:0|0:0,0:0:0:0:
66,145,73771,1,0,0:0:0:0:
161,194,73929,2,0,P|198:194|246:161,1,77.0000023498536,0|0,1:0|0:0,0:0:0:0:
308,97,74245,2,0,P|343:102|383:147,1,77.0000023498536,8|0,0:0|3:3,0:0:0:0:
462,190,74561,6,0,P|472:157|487:110,1,77.0000023498536,2|0,1:3|0:0,0:0:0:0:
497,106,74797,1,0,0:0:0:0:
512,94,74876,2,0,P|471:81|420:60,1,77.0000023498536,8|2,0:0|0:3,0:0:0:0:
352,3,75192,2,0,B|292:11|302:25|218:31,1,115.50000352478,0|0,1:1|0:0,0:0:0:0:
222,38,75508,2,0,P|188:20|149:19,1,77.0000023498536,8|2,0:0|0:0,0:0:0:0:
47,54,75824,6,0,P|54:92|60:131,1,77.0000023498536,4|0,1:2|0:0,0:0:0:0:
70,137,76061,1,2,0:3:0:0:
80,143,76140,2,0,P|37:154|-21:165,1,77.0000023498536,8|2,0:0|0:3,0:0:0:0:
0,268,76455,2,0,P|72:251|175:232,1,154.000004699707,0|8,1:0|0:0,0:0:0:0:
218,151,76929,5,2,0:0:0:0:
229,156,77008,1,2,0:0:0:0:
240,161,77087,2,0,P|247:199|253:238,1,77.0000023498536,4|0,1:2|0:0,0:0:0:0:
249,246,77324,1,2,0:3:0:0:
243,257,77403,2,0,P|282:253|347:246,1,77.0000023498536,8|2,0:0|0:3,0:0:0:0:
367,346,77719,2,0,P|290:351|213:358,1,154.000004699707,0|8,1:0|0:0,0:0:0:0:
106,374,78192,1,0,1:0:0:0:
34,293,78350,6,0,P|58:270|56:209,1,77.0000023498536,4|0,1:0|0:0,0:0:0:0:
18,129,78666,2,0,P|29:95|47:49,1,77.0000023498536,2|0,0:0|0:0,0:0:0:0:
141,104,78982,2,0,P|156:158|179:249,2,115.50000352478,2|0|0,1:3|1:0|1:0,0:0:0:0:
231,45,79613,6,0,P|266:45|307:20,1,77.0000023498536,2|0,1:1|1:0,0:0:0:0:
414,0,79929,1,8,0:0:0:0:
414,0,80087,1,0,1:0:0:0:
474,89,80245,2,0,P|464:126|452:183,1,77.0000023498536,2|2,1:1|0:0,0:0:0:0:
348,181,80561,2,0,P|357:201|366:232,3,38.5000011749268,8|0|0|0,0:2|1:2|1:2|1:2,0:0:0:0:
353,227,80876,6,0,P|315:236|275:265,1,77.0000023498536,4|0,1:0|0:0,0:0:0:0:
176,273,81192,2,0,P|137:271|101:232,1,77.0000023498536,8|0,0:0|0:0,0:0:0:0:
54,153,81508,2,0,P|28:191|-10:280,1,115.50000352478,0|0,1:0|0:0,0:0:0:0:
0,263,81824,2,0,P|11:296|21:341,1,77.0000023498536,8|2,0:0|0:0,0:0:0:0:
120,380,82140,6,0,P|157:371|217:365,1,77.0000023498536,2|0,1:3|0:3,0:0:0:0:
205,355,82376,1,2,0:3:0:0:
216,347,82455,2,0,P|253:338|313:332,1,77.0000023498536,8|2,0:0|0:3,0:0:0:0:
394,367,82771,2,0,P|433:376|485:316,1,115.50000352478,0|0,1:0|0:0,0:0:0:0:
476,314,83087,2,0,P|466:276|455:216,1,77.0000023498536,8|2,0:0|0:0,0:0:0:0:
469,131,83403,6,0,P|410:168|335:106,1,154.000004699707,0|8,1:2|0:0,0:0:0:0:
250,74,83876,1,0,0:0:0:0:
207,173,84034,2,0,P|212:211|223:267,1,77.0000023498536,0|0,1:0|0:0,0:0:0:0:
112,272,84350,2,0,P|106:233|96:178,1,77.0000023498536,8|0,0:0|3:0,0:0:0:0:
24,117,84666,6,0,P|8:88|30:26,1,77.0000023498536,2|0,1:3|0:0,0:0:0:0:
21,31,84903,1,2,0:3:0:0:
32,19,84982,2,0,P|69:26|129:37,1,77.0000023498536,8|2,0:0|0:3,0:0:0:0:
196,95,85297,2,0,B|257:83|231:62|333:42,1,115.50000352478,0|0,1:0|0:0,0:0:0:0:
315,42,85613,2,0,P|350:53|409:64,1,77.0000023498536,8|2,0:0|0:0,0:0:0:0:
470,133,85929,6,0,P|463:169|457:227,1,77.0000023498536,4|0,1:2|0:0,0:0:0:0:
466,220,86166,1,2,0:3:0:0:
475,228,86245,2,0,P|434:226|379:219,1,77.0000023498536,8|2,0:0|0:3,0:0:0:0:
304,277,86561,2,0,P|235:269|151:260,1,154.000004699707,0|8,1:0|0:0,0:0:0:0:
51,218,87034,5,2,0:0:0:0:
41,221,87113,1,2,0:0:0:0:
31,225,87192,2,0,P|25:266|20:311,1,77.0000023498536,4|0,1:2|1:0,0:0:0:0:
12,313,87429,1,0,1:0:0:0:
5,320,87508,2,0,P|43:324|96:332,1,77.0000023498536,0|0,1:0|1:0,0:0:0:0:
176,381,87824,2,0,P|252:382|338:384,1,154.000004699707,0|0,1:0|1:0,0:0:0:0:
408,309,88297,1,0,1:0:0:0:
318,248,88455,6,0,P|277:211|327:118,1,154.000004699707,4|2,1:0|0:3,0:0:0:0:
377,82,88929,2,0,B|291:69|313:49|225:35,1,154.000004699707,0|0,1:0|0:0,0:0:0:0:
156,4,89403,1,4,1:2:0:0:
156,4,89561,1,4,1:2:0:0:
82,52,89719,6,0,B|53:81|27:106|27:106|55:177|95:262,1,231.000007049561,2|0,0:0|3:0,0:0:0:0:
156,296,90350,2,0,P|167:260|176:209,1,77.0000023498536,2|0,3:0|0:0,0:0:0:0:
246,176,90666,1,2,0:0:0:0:
246,176,90824,1,0,0:0:0:0:
305,235,90982,6,0,P|425:225|484:147,1,224,4|0,1:2|0:0,0:0:0:0:
483,147,92245,2,0,P|363:157|304:235,1,224,4|12,1:2|3:3,0:0:0:0:
267,351,93192,1,4,1:0:0:0:
150,311,93508,5,8,0:0:0:0:
150,311,93666,1,2,1:0:0:0:
202,199,93982,1,8,0:0:0:0:
202,199,94140,1,2,1:0:0:0:
114,120,94455,1,8,0:0:0:0:
114,120,94613,1,2,1:0:0:0:
189,22,94929,1,8,0:0:0:0:
189,22,95087,1,2,1:0:0:0:
283,101,95403,6,0,P|307:94|340:87,1,56,4|4,1:3|1:3,0:0:0:0:
391,34,95719,1,4,1:3:0:0:
391,34,95876,1,4,1:3:0:0:
