osu file format v14

[General]
AudioFilename: audio.ogg
AudioLeadIn: 0
PreviewTime: 70694
Countdown: 0
SampleSet: Soft
StackLeniency: 0.7
Mode: 0
LetterboxInBreaks: 0
WidescreenStoryboard: 1

[Editor]
DistanceSpacing: 1.2
BeatDivisor: 4
GridSize: 32
TimelineZoom: 1

[Metadata]
Title:Vitalization (TV Size)
TitleUnicode:Vitalization (TV Size)
Artist:Nana Mizuki
ArtistUnicode:水樹奈々
Creator:xHappy-
Version:Lost's Insane
Source:戦姫絶唱シンフォギアG
Tags:anime op opening rock japanese jrock j-rock Senki Zesshou Symphogear G THE MUSEUM Ⅲ III p_kung freezinganimenz [_lost_] conner c_o_n_n_e_r Sarawatlism Xahlt Gweon Sua gweon_sua Kuon-
BeatmapID:4130331
BeatmapSetID:1986582

[Difficulty]
HPDrainRate:5
CircleSize:4
OverallDifficulty:8
ApproachRate:9
SliderMultiplier:1.87
SliderTickRate:1

[Events]
//Background and Video events
0,0,"bg.jpg",0,0
Video,-290,"video.mp4"
//Break Periods
//Storyboard Layer 0 (Background)
//Storyboard Layer 1 (Fail)
//Storyboard Layer 2 (Pass)
//Storyboard Layer 3 (Foreground)
//Storyboard Layer 4 (Overlay)
//Storyboard Sound Samples

[TimingPoints]
1299,315.789473684211,4,2,1,60,1,0
1299,-90.9090909090909,4,2,1,60,0,0
3509,-66.6666666666667,4,2,1,60,0,0
3825,315.789473684211,4,2,1,40,1,0
3825,-333.333333333333,4,2,1,40,0,0
11088,-83.3333333333333,4,2,1,40,0,0
11403,-166.666666666667,4,2,1,40,0,0
12667,-125,4,2,1,40,0,0
12903,-125,4,2,1,5,0,0
12982,-125,4,2,1,40,0,0
13298,-142.857142857143,4,2,1,40,0,0
13614,-83.3333333333333,4,2,1,40,0,0
13930,-83.3333333333333,4,2,1,50,0,0
14088,-90.9090909090909,4,2,1,50,0,0
16377,-90.9090909090909,4,2,1,5,0,0
16456,-90.9090909090909,4,2,1,50,0,0
18667,-76.9230769230769,4,2,1,50,0,0
19140,-76.9230769230769,4,2,1,30,0,0
19298,-76.9230769230769,4,2,1,40,0,0
19614,-90.9090909090909,4,2,1,50,0,0
19930,-90.9090909090909,4,2,1,60,0,0
20246,-90.9090909090909,4,2,1,40,0,0
21509,-90.9090909090909,4,2,1,70,0,0
22851,-90.9090909090909,4,2,1,5,0,0
22930,-90.9090909090909,4,2,1,70,0,0
25377,-90.9090909090909,4,2,1,5,0,0
25456,-90.9090909090909,4,2,1,70,0,0
27903,-90.9090909090909,4,2,1,5,0,0
27982,-90.9090909090909,4,2,1,70,0,0
31456,-76.9230769230769,4,2,1,70,0,0
31614,315.789473684211,4,2,1,70,1,0
31614,-76.9230769230769,4,2,1,70,0,0
31693,-76.9230769230769,4,2,1,5,0,0
31771,-76.9230769230769,4,2,1,70,0,0
31929,-111.111111111111,4,2,1,40,0,0
34140,-111.111111111111,4,2,1,50,0,0
35719,-100,4,2,1,60,0,0
36035,-90.9090909090909,4,2,1,60,0,0
36350,-83.3333333333333,4,2,1,70,0,0
36666,-125,4,2,1,50,0,0
38166,-125,4,2,1,5,0,0
38245,-125,4,2,1,50,0,0
40692,-125,4,2,1,5,0,0
40771,-125,4,2,1,50,0,0
43614,-90.9090909090909,4,2,1,50,0,0
44245,-90.9090909090909,4,2,1,60,0,0
46140,-76.9230769230769,4,2,1,60,0,0
47087,-83.3333333333333,4,2,1,60,0,0
47403,-100,4,2,1,60,0,0
47640,-100,4,2,1,5,0,0
47719,-100,4,2,1,60,0,0
50166,-100,4,2,1,5,0,0
50245,-100,4,2,1,60,0,0
50798,-100,4,2,1,5,0,0
50877,-100,4,2,1,60,0,0
51666,-83.3333333333333,4,2,1,70,0,0
51903,-83.3333333333333,4,2,1,5,0,0
51982,-83.3333333333333,4,2,1,70,0,0
52456,-111.111111111111,4,2,1,70,0,0
52929,-83.3333333333333,4,2,1,70,0,0
53166,-83.3333333333333,4,2,1,5,0,0
53245,-83.3333333333333,4,2,1,70,0,0
53719,-111.111111111111,4,2,1,70,0,0
54192,-83.3333333333333,4,2,1,70,0,0
54429,-83.3333333333333,4,2,1,5,0,0
54508,-83.3333333333333,4,2,1,70,0,0
55719,-83.3333333333333,4,2,1,35,0,0
55824,-83.3333333333333,4,2,1,70,0,0
55929,-83.3333333333333,4,2,1,35,0,0
56035,-83.3333333333333,4,2,1,70,0,0
56140,-83.3333333333333,4,2,1,35,0,0
56245,-111.111111111111,4,2,1,70,0,0
56350,-111.111111111111,4,2,1,35,0,0
56456,-111.111111111111,4,2,1,70,0,0
56561,-111.111111111111,4,2,1,35,0,0
56666,-111.111111111111,4,2,1,70,0,0
56771,-111.111111111111,4,2,1,35,0,0
56877,-142.857142857143,4,2,1,70,0,0
57508,-142.857142857143,4,2,1,50,0,0
60824,-142.857142857143,4,2,1,5,0,0
60903,-142.857142857143,4,2,1,50,0,0
61061,-142.857142857143,4,2,1,5,0,0
61140,-142.857142857143,4,2,1,50,0,0
61219,-142.857142857143,4,2,1,5,0,0
61298,-142.857142857143,4,2,1,50,0,0
61929,-200,4,2,1,70,0,0
62561,-142.857142857143,4,2,1,50,0,0
65719,315.789473684211,4,2,1,60,1,0
65719,-90.9090909090909,4,2,1,60,0,0
65876,-90.9090909090909,4,2,1,5,0,0
65955,-90.9090909090909,4,2,1,60,0,0
66113,-90.9090909090909,4,2,1,5,0,0
66192,-90.9090909090909,4,2,1,60,0,0
66271,-90.9090909090909,4,2,1,5,0,0
66350,-142.857142857143,4,2,1,60,0,0
67850,-142.857142857143,4,2,1,5,0,0
67929,-142.857142857143,4,2,1,60,0,0
68087,-83.3333333333333,4,2,1,60,0,0
68324,-83.3333333333333,4,2,1,5,0,0
68403,-83.3333333333333,4,2,1,60,0,0
69245,-83.3333333333333,4,2,1,40,0,0
69666,-166.666666666667,4,2,1,40,0,0
70771,-83.3333333333334,4,2,1,80,0,0
71008,-83.3333333333334,4,2,1,5,0,0
71087,-83.3333333333334,4,2,1,80,0,0
73534,-83.3333333333334,4,2,1,5,0,0
73613,-83.3333333333334,4,2,1,80,0,0
74797,-83.3333333333334,4,2,1,5,0,0
74876,-83.3333333333334,4,2,1,80,0,0
78074,-83.3333333333334,4,2,1,40,0,0
78350,-83.3333333333334,4,2,1,80,0,0
78587,-83.3333333333334,4,2,1,5,0,0
78666,-83.3333333333334,4,2,1,80,0,0
78982,-76.9230769230769,4,2,1,80,0,0
79140,-76.9230769230769,4,2,1,5,0,0
79219,-76.9230769230769,4,2,1,80,0,0
79376,-76.9230769230769,4,2,1,5,0,0
79455,-76.9230769230769,4,2,1,80,0,0
80245,-80,4,2,1,80,0,0
80876,-83.3333333333333,4,2,1,80,0,0
81113,-83.3333333333333,4,2,1,5,0,0
81192,-83.3333333333333,4,2,1,80,0,0
83640,-83.3333333333333,4,2,1,5,0,0
83719,-83.3333333333333,4,2,1,80,0,0
86797,-83.3333333333333,4,2,1,5,0,0
86876,-83.3333333333333,4,2,1,80,0,0
88179,-83.3333333333333,4,2,1,40,0,0
88455,-100,4,2,1,80,0,0
88692,-100,4,2,1,5,0,0
88771,-100,4,2,1,80,0,0
88929,-111.111111111111,4,2,1,80,0,0
89166,-111.111111111111,4,2,1,5,0,0
89245,-111.111111111111,4,2,1,80,0,0
89403,-125,4,2,1,80,0,0
89719,-142.857142857143,4,2,1,80,0,0
90982,-250,4,2,1,80,0,0
91297,-250,4,2,1,60,0,0
93508,-250,4,2,1,70,0,0
93666,-83.3333333333334,4,2,1,70,0,0
95403,-83.3333333333334,4,2,1,60,0,0

[Colours]
Combo1 : 252,101,206
Combo2 : 238,225,72
Combo3 : 96,232,30
Combo4 : 123,37,169

[HitObjects]
220,125,1299,5,8,0:0:0:0:
306,175,1456,1,0,1:0:0:0:
166,202,1614,1,2,1:2:0:0:
305,73,1772,1,8,0:0:0:0:
166,202,1930,2,0,P|117:189|65:177,1,102.850003138733,2|0,1:2|1:0,0:0:0:0:
284,287,2246,5,0,1:0:0:0:
289,285,2325,1,0,1:0:0:0:
294,283,2404,1,0,1:0:0:0:
299,281,2483,1,0,1:0:0:0:
304,279,2562,2,0,P|335:234|317:189,1,102.850003138733,0|0,1:0|3:0,0:0:0:0:
306,175,2799,1,0,1:0:0:0:
306,175,2877,2,0,P|364:161|430:146,1,102.850003138733,0|0,0:0|1:0,0:0:0:0:
172,312,3193,6,0,P|114:298|55:286,1,102.850003138733,0|0,1:0|1:0,0:0:0:0:
55,268,3430,1,0,1:0:0:0:
55,268,3509,6,0,P|128:286|205:305,1,140.250005350113,8|0,0:0|0:0,0:0:0:0:
210,118,3825,6,0,B|165:99|129:141|148:141|123:185|62:169,1,168.299994863892,4|0,1:0|0:0,0:0:0:0:
366,27,5088,6,0,P|433:58|383:79,1,168.299994863892,2|0,0:0|0:0,0:0:0:0:
303,290,6351,6,0,B|265:254|285:203|285:203|320:180|317:140,1,168.299994863892,2|0,0:0|0:0,0:0:0:0:
101,11,7614,6,0,P|110:62|115:95,1,84.1499974319459,2|2,0:0|0:0,0:0:0:0:
104,163,8246,2,0,P|109:135|117:108,1,56.0999982879639,0|2,0:0|0:0,0:0:0:0:
41,340,8877,6,0,P|4:297|40:260,1,112.199996575928,4|2,1:0|0:0,0:0:0:0:
121,375,9825,1,0,0:0:0:0:
215,256,10140,6,0,B|168:270|168:270|157:280|157:280|104:296,1,112.199996575928,2|0,0:0|0:0,0:0:0:0:
110,293,11088,6,0,B|157:280|157:280|168:270|168:270|215:256,1,112.199996575928,4|0,1:0|0:0,0:0:0:0:
402,346,11403,6,0,B|299:320|299:320|281:287|313:251,1,168.299994863892,4|0,1:0|0:0,0:0:0:0:
371,205,12035,6,0,P|412:217|452:227,2,84.1499974319459,2|0|0,0:0|0:0|0:0,0:0:0:0:
275,111,12667,6,2,P|225:98|177:155,1,112.2,6|0,1:2|0:0,0:1:0:0:
167,132,12982,2,0,P|185:103|224:84,1,74.8,2|0,0:0|0:0,0:0:0:0:
90,160,13298,6,0,P|85:127|102:90,1,65.4499980026246,2|2,0:0|0:0,0:0:0:0:
60,267,13614,6,0,P|21:232|2:168,1,112.199996575928,4|2,1:2|0:0,0:0:0:0:
161,233,13930,1,4,1:0:0:0:
2,176,14088,6,0,P|18:226|56:261,1,102.850003138733,0|0,1:0|0:0,0:0:0:0:
241,193,14403,1,0,1:0:0:0:
187,133,14561,6,0,P|127:142|64:153,1,102.850003138733,0|0,1:0|0:0,0:0:0:0:
241,193,14877,1,0,1:0:0:0:
78,141,15035,6,0,P|128:132|179:124,1,102.850003138733,0|0,1:0|0:0,0:0:0:0:
316,245,15351,1,0,1:0:0:0:
217,313,15509,2,0,L|239:206,1,102.850003138733,0|0,1:0|0:0,0:0:0:0:
416,177,15825,2,0,L|394:284,1,102.850003138733,0|0,1:0|0:0,0:0:0:0:
295,355,16140,6,0,L|326:202,1,154.2750047081,0|0,1:0|0:0,0:0:0:0:
332,175,16456,5,0,1:0:0:0:
459,301,16614,2,0,B|420:327|420:327|394:277,1,102.850003138733,0|0,1:0|0:0,0:0:0:0:
332,175,16930,5,0,1:0:0:0:
391,286,17088,2,0,B|417:336|417:336|455:309,1,102.850003138733,0|0,1:0|0:0,0:0:0:0:
332,175,17403,5,0,1:0:0:0:
217,313,17561,2,0,L|109:292,1,102.850003138733,0|0,1:0|0:0,0:0:0:0:
78,193,17877,5,0,1:0:0:0:
114,283,18035,2,0,L|214:302,1,102.850003138733,0|0,1:0|0:0,0:0:0:0:
332,175,18351,2,0,L|231:155,1,102.850003138733,0|0,1:0|3:0,0:0:0:0:
220,135,18588,1,0,3:0:0:0:
219,136,18667,6,0,L|353:164,1,121.549994435883,0|0,1:0|0:0,0:0:0:0:
210,51,18982,5,4,1:0:0:0:
125,117,19140,1,0,1:0:0:0:
289,72,19298,1,0,1:0:0:0:
132,0,19456,1,0,1:0:0:0:
289,72,19614,2,0,P|339:63|377:22,1,102.850003138733,0|0,1:0|1:0,0:0:0:0:
504,153,19930,2,0,P|468:116|418:108,1,102.850003138733,0|0,1:0|1:0,0:0:0:0:
252,252,20246,5,4,1:2:0:0:
258,226,20325,1,0,1:0:0:0:
274,206,20403,1,0,1:0:0:0:
295,192,20482,1,0,1:0:0:0:
319,186,20561,1,0,1:0:0:0:
344,186,20640,1,0,1:0:0:0:
367,196,20719,1,0,1:0:0:0:
386,212,20798,1,0,1:0:0:0:
401,232,20877,6,0,P|395:264|392:298,3,51.4250015693665,0|0|0|0,1:0|1:0|1:0|1:0,0:0:0:0:
358,359,21193,2,0,P|325:353|292:350,3,51.4250015693665,0|0|0|0,1:0|1:0|1:0|1:0,0:0:0:0:
249,274,21509,6,0,B|187:263|155:320|169:320|135:364|48:354,1,205.700006277466,4|2,1:0|3:3,0:0:0:0:
182,201,21982,1,0,1:0:0:0:
64,163,22140,2,0,P|85:238|93:280,1,102.850003138733,2|2,0:0|0:0,0:0:0:0:
268,153,22456,1,4,1:2:0:0:
182,12,22614,6,0,L|182:180,1,154.2750047081,4|0,1:2|0:0,0:0:0:0:
182,201,22930,1,2,3:0:0:0:
358,135,23088,2,0,P|295:118|256:104,1,102.850003138733,0|0,1:0|1:0,0:0:0:0:
414,213,23403,2,0,P|462:196|512:183,1,102.850003138733,2|0,0:0|1:0,0:0:0:0:
352,281,23719,2,0,P|303:264|253:251,1,102.850003138733,2|0,0:0|1:0,0:0:0:0:
140,357,24035,6,0,B|257:331|257:331|286:291|245:240,1,205.700006277466,4|2,1:0|3:0,0:0:0:0:
74,291,24509,1,0,1:0:0:0:
129,181,24667,2,0,P|174:218|176:267,1,102.850003138733,2|2,0:0|0:0,0:0:0:0:
45,191,24982,1,0,1:0:0:0:
98,79,25140,6,0,B|169:95|169:95|179:107|179:107|264:126,1,154.2750047081,4|0,1:2|0:0,0:0:0:0:
267,131,25456,1,2,0:0:0:0:
339,12,25614,2,0,P|281:27|230:41,1,102.850003138733,2|0,0:0|3:0,0:0:0:0:
452,122,25930,1,2,0:0:0:0:
349,189,26088,1,0,1:0:0:0:
349,189,26167,1,0,1:0:0:0:
349,189,26246,2,0,P|364:128|374:86,1,102.850003138733,2|0,1:2|1:0,0:0:0:0:
464,4,26561,6,0,L|464:228,1,205.700006277466,6|2,1:2|3:0,0:0:0:0:
493,330,27035,1,0,1:0:0:0:
337,321,27193,2,0,P|378:279|432:286,1,102.850003138733,2|2,0:0|0:0,0:0:0:0:
246,223,27509,1,0,1:0:0:0:
149,343,27667,6,0,B|47:316|47:316|32:288|51:263,1,154.2750047081,4|0,1:2|0:0,0:0:0:0:
61,252,27982,1,2,3:3:0:0:
158,359,28140,2,0,P|215:345|265:333,1,102.850003138733,2|2,0:2|0:0,0:0:0:0:
262,210,28456,2,0,P|205:224|155:236,1,102.850003138733,2|2,0:2|3:2,0:0:0:0:
337,321,28772,2,0,P|364:269|344:226,1,102.850003138733,2|2,0:2|3:2,0:0:0:0:
232,111,29088,6,0,P|254:179|263:215,1,102.850003138733,6|0,1:0|0:0,0:0:0:0:
303,44,29403,2,0,P|233:29|197:18,1,102.850003138733,8|0,0:0|0:0,0:0:0:0:
336,139,29719,2,0,P|383:85|410:60,1,102.850003138733,2|0,1:0|0:0,0:0:0:0:
261,209,30035,2,0,P|211:195|160:185,1,102.850003138733,8|0,0:0|0:0,0:0:0:0:
303,44,30351,5,6,1:2:0:0:
415,169,30509,1,0,1:0:0:0:
232,111,30667,1,0,1:0:0:0:
405,63,30825,1,0,1:0:0:0:
261,209,30982,2,0,P|221:168|234:116,1,102.850003138733,0|0,1:0|1:0,0:0:0:0:
415,169,31298,1,2,3:2:0:0:
336,0,31456,6,0,L|336:199,1,182.324991653824,4|0,1:2|0:0,0:0:0:0:
335,205,31771,1,0,3:0:0:0:
494,137,31929,6,0,P|483:86|475:45,1,84.1499974319459,4|0,1:0|3:0,0:0:0:0:
464,42,32245,2,0,P|472:83|481:124,1,84.1499974319459,0|0,1:0|3:0,0:0:0:0:
476,219,32561,2,0,P|484:177|493:136,1,84.1499974319459,0|0,1:0|3:0,0:0:0:0:
335,205,32877,6,0,P|326:246|317:287,1,84.1499974319459,0|0,1:0|3:0,0:0:0:0:
320,366,33192,2,0,P|311:324|302:283,1,84.1499974319459,0|0,1:0|3:0,0:0:0:0:
254,187,33508,1,0,1:0:0:0:
254,187,33666,1,0,3:0:0:0:
393,314,33824,1,0,1:0:0:0:
393,314,33982,1,0,3:0:0:0:
254,187,34140,6,0,P|212:195|168:207,1,84.1499974319459,2|0,1:0|3:0,0:0:0:0:
161,197,34456,2,0,P|201:187|242:178,1,84.1499974319459,0|0,1:0|3:0,0:0:0:0:
335,205,34771,2,0,P|293:196|253:186,1,84.1499974319459,0|0,1:0|3:0,0:0:0:0:
253,37,35087,2,0,P|283:74|281:111,1,84.1499974319459,2|0,1:0|3:0,0:0:0:0:
146,201,35403,6,0,P|154:159|163:118,1,84.1499974319459,0|0,1:0|3:0,0:0:0:0:
79,2,35719,6,0,P|70:43|60:96,1,93.5,0|0,1:0|3:0,0:0:0:0:
263,97,36035,6,0,P|212:107|162:118,1,102.850003138733,0|0,1:0|3:0,0:0:0:0:
106,290,36350,6,0,P|161:279|215:267,1,112.199996575928,0|0,1:0|3:0,0:0:0:0:
335,205,36666,6,0,P|272:191|244:183,1,74.8,4|0,1:0|0:0,0:0:0:0:
403,260,36982,2,0,P|439:250|475:243,1,74.8,0|0,1:0|0:0,0:0:0:0:
472,152,37298,2,0,B|432:133|395:151|395:151|379:185|337:196,1,149.6,0|0,1:0|1:0,0:0:0:0:
320,106,37771,1,0,0:0:0:0:
217,130,37929,6,0,P|246:93|316:105,1,112.2,0|0,1:0|0:0,0:0:0:0:
320,106,38245,2,0,P|324:64|329:22,1,74.8,0|0,1:0|0:0,0:0:0:0:
197,133,38561,2,0,P|193:91|188:49,1,74.8,0|0,1:0|0:0,0:0:0:0:
319,196,38877,2,0,P|323:154|328:112,1,74.8,0|0,1:0|0:0,0:0:0:0:
248,261,39192,6,0,P|205:238|165:239,1,74.8,2|2,1:2|0:2,0:0:0:0:
128,157,39508,2,0,P|164:152|196:132,1,74.8,0|0,1:0|0:0,0:0:0:0:
111,284,39824,2,0,B|10:261|10:261|44:256|75:232,1,149.6,0|0,1:0|1:0,0:0:0:0:
128,157,40298,1,0,0:0:0:0:
128,295,40456,6,0,P|186:283|267:269,1,112.2,0|0,1:0|0:0,0:0:0:0:
248,261,40771,2,0,P|209:268|172:276,1,74.8,0|0,1:0|0:0,0:0:0:0:
344,360,41087,2,0,P|305:352|268:345,1,74.8,0|0,1:0|0:0,0:0:0:0:
406,260,41403,2,0,P|367:267|330:275,1,74.8,0|0,1:0|0:0,0:0:0:0:
467,369,41719,6,0,P|511:335|484:253,1,149.6,2|0,1:2|1:0,0:0:0:0:
437,179,42192,1,0,0:0:0:0:
332,274,42350,2,0,P|343:238|356:203,1,74.8,0|0,1:0|0:0,0:0:0:0:
332,132,42666,2,0,P|346:171|358:207,1,74.8,0|0,1:0|0:0,0:0:0:0:
279,66,42982,5,8,0:0:0:0:
437,179,43140,1,0,1:0:0:0:
224,137,43298,1,0,1:0:0:0:
400,31,43456,1,8,0:0:0:0:
260,231,43614,2,0,P|227:222|204:216,3,51.4250015693665,0|0|0|0,1:0|1:0|1:0|1:0,0:0:0:0:
150,165,43929,2,0,P|117:173|94:180,3,51.4250015693665,0|0|0|0,1:0|1:0|1:0|1:0,0:0:0:0:
49,236,44245,5,4,1:2:0:0:
224,137,44403,1,2,1:0:0:0:
40,252,44719,5,0,1:0:0:0:
237,139,44877,1,2,1:0:0:0:
308,331,45192,5,0,1:0:0:0:
179,242,45350,1,2,1:0:0:0:
322,340,45666,5,0,1:0:0:0:
171,225,45824,1,2,1:0:0:0:
322,340,45982,1,0,1:0:0:0:
339,219,46140,6,0,B|290:231|290:231|258:261|272:270|233:305|233:305|178:323,2,182.324991653824,0|0|0,1:0|1:0|1:0,0:0:0:0:
385,284,46771,1,2,0:1:0:0:
512,168,46929,1,0,1:0:0:0:
512,168,47008,1,0,1:0:0:0:
512,168,47087,6,0,P|451:171|419:212,1,112.199996575928,4|0,1:0|0:0,0:0:0:0:
200,139,47403,6,0,B|260:165|260:165|272:184|272:184|341:218,1,140.25,4|0,1:2|0:0,0:0:0:0:
339,219,47719,2,0,P|325:164|319:126,1,93.5,0|0,1:0|0:0,0:0:0:0:
249,38,48035,1,0,1:0:0:0:
200,139,48192,1,0,0:0:0:0:
175,0,48350,1,0,1:0:0:0:
321,114,48508,1,0,0:0:0:0:
111,158,48666,6,0,P|120:116|128:63,1,93.5,2|0,1:2|0:0,0:0:0:0:
118,267,48982,2,0,P|75:249|25:237,1,93.5,2|0,1:2|0:0,0:0:0:0:
214,311,49298,6,0,P|259:299|302:281,1,93.5,6|0,1:2|0:0,0:0:0:0:
152,375,49614,2,0,P|108:356|63:345,1,93.5,0|0,1:0|0:0,0:0:0:0:
181,220,49929,2,0,B|225:214|250:248|241:250|276:288|325:282,1,140.25,0|0,1:0|0:0,0:0:0:0:
337,268,50245,2,0,P|361:217|346:170,1,93.5,0|0,1:0|0:0,0:0:0:0:
231,12,50561,6,0,P|249:88|261:153,1,140.25,2|0,1:2|0:0,0:0:0:0:
249,225,50877,2,0,P|257:181|276:126,1,93.5,0|0,1:0|0:0,0:0:0:0:
389,77,51192,2,0,P|381:121|362:176,1,93.5,2|0,1:2|0:0,0:0:0:0:
188,131,51508,1,0,1:0:0:0:
320,14,51666,6,0,B|382:27|382:27|406:55|406:55|482:75,1,168.299994863892,4|0,1:0|0:0,0:0:0:0:
505,67,51982,1,0,3:0:0:0:
380,203,52140,1,2,0:0:0:0:
377,194,52219,1,2,0:0:0:0:
373,185,52298,1,2,0:0:0:0:
369,176,52377,1,2,0:0:0:0:
365,167,52456,6,0,P|428:187|472:199,1,84.1499974319459,2|0,1:2|1:0,0:0:0:0:
281,96,52771,1,8,0:0:0:0:
307,349,52929,6,0,B|345:301|318:253|318:253|274:230|267:188,1,168.299994863892,4|0,1:2|0:0,0:0:0:0:
277,183,53245,1,0,1:0:0:0:
175,284,53403,1,2,2:0:0:0:
172,293,53482,1,2,2:0:0:0:
168,302,53561,1,2,2:0:0:0:
164,311,53640,1,2,2:0:0:0:
160,320,53719,6,0,P|223:300|273:288,1,84.1499974319459,2|0,1:2|1:0,0:0:0:0:
153,142,54035,1,8,0:0:0:0:
23,185,54192,6,0,B|81:171|110:205|98:211|136:250|185:225,1,168.299994863892,4|0,1:2|0:0,0:0:0:0:
202,217,54508,1,0,1:0:0:0:
62,360,54666,2,0,P|32:301|60:250,1,112.199996575928,8|0,0:0|3:0,0:0:0:0:
202,217,54982,5,2,1:2:0:0:
276,104,55140,2,0,P|225:118|166:133,1,112.199996575928,2|0,1:2|0:0,0:0:0:0:
330,238,55456,1,0,1:0:0:0:
167,132,55614,6,0,P|235:111|276:169,2,149.59999543457,2|2|2,0:0|0:0|0:0,0:0:0:0:
46,260,56245,6,0,P|59:210|62:196,1,56.0999982879639,2|0,0:0|0:0,0:0:0:0:
60,206,56456,6,0,P|52:178|46:151,1,56.0999982879639,2|0,0:2|0:3,0:3:0:0:
46,151,56666,6,0,P|53:123|59:96,1,56.0999982879639,2|0,0:3|0:3,0:3:0:0:
9,26,56877,6,0,B|-13:82|35:130|37:113|79:157|57:213,1,196.349994007874,4|0,1:0|0:0,0:1:0:0:
0,262,57508,6,0,B|14:188|14:188|45:153|45:153|66:71,1,196.349994007874,6|0,1:2|0:0,0:0:0:0:
345,136,58298,1,0,3:0:0:0:
345,136,58456,2,0,P|302:122|268:107,1,65.4499980026246,0|0,1:0|3:0,0:0:0:0:
322,214,58771,6,0,P|360:132|453:171,1,196.349994007874,2|0,0:0|0:0,0:0:0:0:
488,223,59403,2,0,P|479:264|475:292,2,65.4499980026246,0|0|2,3:0|0:0|1:2,0:0:0:0:
411,349,59877,1,2,0:0:0:0:
325,301,60035,6,0,B|363:286|397:297|397:297|426:316|419:321|443:332|443:332|472:346|516:329,1,196.349994007874,0|0,3:0|0:0,0:0:0:0:
385,198,60666,6,0,L|321:213,1,65.4499980026246,2|0,0:0|0:0,0:0:0:0:
311,216,60903,6,0,L|241:201,1,65.4499980026246,0|0,1:0|0:0,0:0:0:0:
237,202,61140,6,0,L|205:209,1,32.7249990013123,0|0,1:0|0:0,0:0:0:0:
163,330,61298,6,0,B|172:281|172:281|192:258|192:258|208:197,1,130.899996005249,2|0,1:0|1:0,0:0:0:0:
118,121,61771,1,0,1:0:0:0:
118,121,61850,1,0,3:0:0:0:
118,121,61929,6,0,B|98:107|98:107|74:107|74:107|56:126|56:126|59:150|59:150|74:167|74:167|104:166,1,140.25,0|0,3:3|0:0,0:0:0:0:
204,91,62561,6,0,B|255:70|266:22|266:22|296:60|365:61,1,196.349994007874,6|0,1:2|0:0,0:0:0:0:
445,254,63350,1,0,0:0:0:0:
445,254,63508,2,0,P|456:209|461:176,1,65.4499980026246,2|2,1:2|0:0,0:0:0:0:
508,320,63824,6,0,P|473:277|384:293,1,130.899996005249,0|0,3:0|3:0,0:0:0:0:
345,332,64298,1,0,0:0:0:0:
277,292,64456,6,0,P|236:309|214:317,2,65.4499980026246,0|0|0,1:0|0:0|3:0,0:0:0:0:
158,263,64929,1,0,1:0:0:0:
195,194,65087,1,2,3:0:0:0:
199,189,65166,1,2,3:0:0:0:
203,184,65245,1,2,3:0:0:0:
207,179,65324,1,2,3:0:0:0:
211,174,65403,2,0,L|197:131,3,32.7249990013123,0|0|0|0,3:0|3:0|3:0|3:0,0:0:0:0:
175,76,65719,6,0,L|290:102,1,102.850003138733,4|0,1:0|0:0,1:0:0:0:
285,100,65955,6,0,L|387:74,1,102.850003138733,0|0,1:0|0:0,0:0:0:0:
394,77,66192,6,0,L|444:88,1,51.4250015693665,0|0,1:0|0:0,0:0:0:0:
409,210,66350,6,0,B|400:173|427:143|433:153|455:120|442:73,1,130.899996005249,2|0,0:0|1:0,0:0:0:0:
326,173,66824,1,0,1:0:0:0:
359,27,66982,6,0,P|363:62|370:97,2,65.4499980026246,2|0|0,0:0|3:0|1:0,0:0:0:0:
199,133,67455,1,0,3:0:0:0:
275,0,67613,2,0,L|276:111,1,98.1749970039369,2|0,0:0|0:0,0:0:0:0:
275,115,67929,1,0,3:0:0:0:
57,164,68087,6,0,P|85:98|184:122,1,168.299994863892,4|0,1:0|0:0,0:0:0:0:
199,133,68403,1,0,1:0:0:0:
48,29,68561,1,0,1:0:0:0:
172,213,68719,1,0,1:0:0:0:
217,13,68876,1,0,1:0:0:0:
94,283,69034,1,0,1:0:0:0:
396,197,69192,6,0,L|338:178,1,56.0999982879639,0|0,1:0|1:0,0:0:0:0:
199,133,69350,1,4,1:2:0:0:
199,133,69666,6,0,L|235:145,1,28.049999143982,2|0,0:0|0:0,0:0:0:0:
271,157,69824,1,2,0:0:0:0:
271,157,70140,6,0,L|237:145,1,28.049999143982,2|0,0:0|0:0,0:0:0:0:
199,133,70297,1,2,0:0:0:0:
199,133,70613,5,2,0:0:0:0:
390,0,70771,6,0,L|390:177,1,168.299994863892,4|0,1:0|0:0,0:0:0:0:
364,211,71087,2,0,P|406:173|471:186,1,112.199996575928,8|0,0:0|0:0,0:0:0:0:
290,273,71403,1,0,1:0:0:0:
409,352,71561,1,0,3:0:0:0:
409,352,71640,1,0,3:0:0:0:
409,352,71719,2,0,P|444:297|431:252,1,112.199996575928,8|0,0:0|3:0,0:0:0:0:
305,157,72034,6,0,B|252:149|223:187|230:190|199:229|141:216,1,168.299994863892,2|2,1:3|0:3,0:0:0:0:
118,202,72350,2,0,P|84:151|103:91,1,112.199996575928,8|2,0:0|0:3,0:0:0:0:
305,157,72666,1,0,1:0:0:0:
191,15,72824,1,0,3:0:0:0:
191,15,72903,1,0,3:0:0:0:
191,15,72982,2,0,P|182:73|171:136,1,112.199996575928,8|2,0:0|0:0,0:0:0:0:
7,0,73297,6,0,L|7:177,1,168.299994863892,0|0,1:0|0:0,0:0:0:0:
0,189,73613,2,0,P|44:133|104:136,1,112.199996575928,8|0,0:0|0:0,0:0:0:0:
244,234,73929,1,0,1:0:0:0:
133,310,74087,1,0,3:0:0:0:
133,310,74166,1,0,3:0:0:0:
133,310,74245,2,0,B|102:259|102:259|119:201,1,112.199996575928,8|0,0:0|3:3,0:0:0:0:
199,120,74561,6,0,B|267:137|267:137|287:160|287:160|370:179,1,168.299994863892,2|0,1:3|0:0,0:0:0:0:
371,158,74876,2,0,L|258:127,1,112.199996575928,8|2,0:0|0:3,0:0:0:0:
450,230,75192,1,0,1:1:0:0:
280,302,75350,1,0,3:0:0:0:
280,302,75429,1,0,3:0:0:0:
280,302,75508,2,0,P|331:254|386:267,1,112.199996575928,8|2,0:0|0:0,0:0:0:0:
478,352,75824,6,0,P|417:296|473:222,1,168.299994863892,4|2,1:2|0:3,0:0:0:0:
479,204,76140,2,0,P|503:145|472:89,1,112.199996575928,8|2,0:0|0:3,0:0:0:0:
290,51,76455,1,0,1:0:0:0:
371,158,76613,1,0,0:0:0:0:
223,111,76771,1,8,0:0:0:0:
388,0,76929,1,2,0:0:0:0:
388,0,77008,1,2,0:0:0:0:
388,0,77087,6,0,B|388:182,1,168.299994863892,4|2,1:2|0:3,0:0:0:0:
399,198,77403,2,0,P|354:155|294:173,1,112.199996575928,8|2,0:0|0:3,0:0:0:0:
389,319,77719,1,0,1:0:0:0:
479,204,77876,1,0,1:0:0:0:
301,250,78034,6,0,L|274:245,6,28.049999143982,8|0|0|0|0|0|0,0:0|1:0|1:0|1:0|1:0|1:0|1:0,0:0:0:0:
240,206,78350,6,0,B|184:195|160:237|173:235|152:279|89:272,1,168.299994863892,4|0,1:0|0:0,0:0:0:0:
52,242,78666,2,0,P|19:188|51:137,1,112.199996575928,2|0,0:0|0:0,0:0:0:0:
220,0,78982,6,0,L|196:122,1,121.549994435883,2|0,1:3|0:0,0:0:0:0:
207,135,79219,6,0,L|230:11,1,121.549994435883,2|0,1:3|0:0,0:0:0:0:
220,0,79455,5,0,1:0:0:0:
116,159,79613,5,2,1:1:0:0:
298,80,79771,1,0,1:0:0:0:
116,159,79929,1,8,0:0:0:0:
320,209,80087,1,0,1:0:0:0:
134,57,80245,6,0,P|79:60|35:111,1,116.875,2|2,1:1|0:0,0:0:0:0:
24,131,80482,1,2,0:0:0:0:
24,131,80561,6,0,P|-7:100|6:12,1,116.875,8|0,0:0|1:0,0:0:0:0:
220,0,80876,6,0,L|220:182,1,168.299994863892,4|0,1:0|0:0,0:0:0:0:
208,196,81192,2,0,P|250:148|311:158,1,112.199996575928,8|0,0:0|0:0,0:0:0:0:
184,281,81508,1,0,1:0:0:0:
364,279,81666,1,0,3:0:0:0:
364,279,81745,1,0,3:0:0:0:
364,279,81824,2,0,P|314:245|261:254,1,112.199996575928,8|2,0:0|0:0,0:0:0:0:
145,362,82140,6,0,P|209:312|170:222,1,168.299994863892,2|2,1:3|0:3,0:0:0:0:
158,222,82455,2,0,P|95:241|39:254,1,112.199996575928,8|2,0:0|0:3,0:0:0:0:
178,116,82771,1,0,1:0:0:0:
276,220,82929,1,0,3:0:0:0:
276,220,83008,1,0,3:0:0:0:
276,220,83087,2,0,P|345:204|363:153,1,112.199996575928,8|2,0:0|0:0,0:0:0:0:
445,0,83403,6,0,L|445:185,1,168.299994863892,0|0,1:2|0:0,0:0:0:0:
458,203,83719,2,0,P|406:165|348:179,1,112.199996575928,8|0,0:0|0:0,0:0:0:0:
504,287,84034,1,0,1:0:0:0:
368,363,84192,1,0,3:0:0:0:
368,363,84271,1,0,3:0:0:0:
368,363,84350,2,0,P|385:292|397:238,1,112.199996575928,8|0,0:0|3:0,0:0:0:0:
251,88,84666,6,0,B|228:103|214:128|214:128|245:242,1,168.299994863892,2|2,1:3|0:3,0:0:0:0:
265,243,84982,2,0,L|230:132,1,112.199996575928,8|2,0:0|0:3,0:0:0:0:
63,291,85297,2,0,B|132:256|178:309|165:312|214:356|277:333,1,224.399993151856,0|8,1:0|0:0,0:0:0:0:
415,179,85771,1,2,0:0:0:0:
415,179,85850,1,2,0:0:0:0:
415,179,85929,6,0,B|350:196|350:196|328:223|328:223|248:247,1,168.299994863892,4|2,1:2|0:3,0:0:0:0:
238,249,86245,1,8,0:0:0:0:
347,113,86403,1,2,0:3:0:0:
89,90,86561,6,0,B|154:107|154:107|176:134|176:134|256:158,1,168.299994863892,0|0,1:0|0:0,0:0:0:0:
266,160,86876,1,8,0:0:0:0:
174,22,87034,1,2,0:0:0:0:
174,22,87113,1,2,0:0:0:0:
174,22,87192,5,4,1:2:0:0:
266,160,87350,1,0,1:0:0:0:
89,90,87508,1,0,1:0:0:0:
285,16,87666,1,0,1:0:0:0:
194,217,87824,6,0,P|162:202|126:191,3,56.0999982879639,0|0|0|0,1:0|1:0|1:0|1:0,0:0:0:0:
266,160,88140,2,0,P|291:171|317:181,3,56.0999982879639,0|0|0|0,1:0|1:0|1:0|1:0,0:0:0:0:
382,245,88455,6,0,P|413:197|494:215,1,140.25,4|0,1:0|0:0,0:0:0:0:
510,230,88771,1,2,0:3:0:0:
348,346,88929,6,0,B|263:322|263:322|250:293|271:268,1,126.224996147919,0|0,1:0|0:0,0:0:0:0:
281,263,89245,1,2,0:0:0:0:
361,357,89403,6,0,P|397:347|433:338,1,74.8,4|4,1:2|1:2,0:0:0:0:
508,209,89719,6,0,P|444:226|381:244,1,130.899996005249,2|0,0:0|0:0,0:0:0:0:
319,190,90192,1,0,3:0:0:0:
319,190,90350,2,0,P|280:126|322:86,1,130.899996005249,2|2,3:0|0:0,0:0:0:0:
45,0,90982,6,0,B|20:77|72:106|77:94|124:142|94:210,1,224.4,4|2,1:2|0:0,0:0:0:0:
222,384,92245,6,0,B|240:347|237:298|237:298|271:266|271:266|265:212|293:167,1,224.4,4|4,1:2|1:0,0:0:0:0:
143,51,93508,5,8,0:0:0:0:
175,158,93666,2,0,L|139:38,1,112.199996575928,2|0,1:0|0:0,0:0:0:0:
350,50,93982,5,8,0:0:0:0:
318,157,94140,2,0,L|354:37,1,112.199996575928,2|0,1:0|0:0,0:0:0:0:
64,212,94455,5,8,0:0:0:0:
159,254,94613,2,0,P|110:214|49:215,1,112.199996575928,2|0,1:0|0:0,0:0:0:0:
448,212,94929,5,8,0:0:0:0:
353,254,95087,2,0,P|402:214|463:215,1,112.199996575928,2|0,1:0|1:0,0:0:0:0:
249,112,95403,5,4,1:3:0:0:
252,301,95561,1,4,1:3:0:0:
249,112,95719,1,4,1:3:0:0:
252,301,95876,1,4,1:3:0:0:
