osu file format v14

[General]
AudioFilename: audio.ogg
AudioLeadIn: 0
PreviewTime: 70694
Countdown: 0
SampleSet: Soft
StackLeniency: 0.7
Mode: 0
LetterboxInBreaks: 0
WidescreenStoryboard: 1

[Editor]
DistanceSpacing: 1
BeatDivisor: 4
GridSize: 32
TimelineZoom: 1.4

[Metadata]
Title:Vitalization (TV Size)
TitleUnicode:Vitalization (TV Size)
Artist:Nana Mizuki
ArtistUnicode:水樹奈々
Creator:xHappy-
Version:Insane
Source:戦姫絶唱シンフォギアG
Tags:anime op opening rock japanese jrock j-rock Senki Zesshou Symphogear G THE MUSEUM Ⅲ III p_kung freezinganimenz [_lost_] conner c_o_n_n_e_r Sarawatlism Xahlt Gweon Sua gweon_sua Kuon-
BeatmapID:4145548
BeatmapSetID:1986582

[Difficulty]
HPDrainRate:5
CircleSize:4
OverallDifficulty:7
ApproachRate:8.5
SliderMultiplier:1.6
SliderTickRate:1

[Events]
//Background and Video events
0,0,"bg.jpg",0,0
Video,-290,"video.mp4"
//Break Periods
2,4025,12939
//Storyboard Layer 0 (Background)
//Storyboard Layer 1 (Fail)
//Storyboard Layer 2 (Pass)
//Storyboard Layer 3 (Foreground)
//Storyboard Layer 4 (Overlay)
//Storyboard Sound Samples

[TimingPoints]
1299,315.789473684211,4,2,1,60,1,0
3825,315.789473684211,4,2,1,40,1,0
3825,-200,4,2,1,40,0,0
13930,-142.857142857143,4,2,1,50,0,0
19140,-142.857142857143,4,2,1,30,0,0
19298,-142.857142857143,4,2,1,40,0,0
19614,-142.857142857143,4,2,1,50,0,0
19930,-142.857142857143,4,2,1,60,0,0
20246,-142.857142857143,4,2,1,40,0,0
21509,-100,4,2,1,70,0,0
31614,315.789473684211,4,2,1,40,1,0
31614,-111.111111111111,4,2,1,40,0,0
34140,-111.111111111111,4,2,1,50,0,0
36035,-111.111111111111,4,2,1,60,0,0
36350,-111.111111111111,4,2,1,70,0,0
36666,-125,4,2,1,50,0,0
44245,-100,4,2,1,60,0,0
46771,-250,4,2,1,60,0,0
47087,-125,4,2,1,60,0,0
51666,-100,4,2,1,70,0,0
56245,-83.3333333333333,4,2,1,70,0,0
57508,-166.666666666667,4,2,1,50,0,0
61929,-111.111111111111,4,2,1,70,0,0
62482,-111.111111111111,4,2,1,5,0,0
62561,-166.666666666667,4,2,1,50,0,0
65719,315.789473684211,4,2,1,60,1,0
65719,-111.111111111111,4,2,1,60,0,0
69245,-111.111111111111,4,2,1,40,0,0
70771,-83.3333333333333,4,2,1,80,0,1
78074,-83.3333333333333,4,2,1,40,0,1
78350,-90.9090909090909,4,2,1,80,0,1
80876,-83.3333333333333,4,2,1,80,0,1
88179,-83.3333333333333,4,2,1,40,0,1
88455,-90.9090909090909,4,2,1,80,0,1
90982,-125,4,2,1,80,0,1
91297,-125,4,2,1,60,0,1
93508,-100,4,2,1,70,0,0
95403,-100,4,2,1,60,0,0

[Colours]
Combo1 : 252,101,206
Combo2 : 238,225,72
Combo3 : 96,232,30
Combo4 : 123,37,169

[HitObjects]
62,332,1299,6,0,L|77:231,1,80,8|0,0:0|1:0,0:0:0:0:
92,166,1614,1,2,1:2:0:0:
163,217,1772,1,8,0:0:0:0:
66,147,1930,2,0,P|27:145|-4:167,1,80,2|0,1:2|1:0,0:0:0:0:
31,19,2246,1,0,1:0:0:0:
51,38,2325,1,0,1:0:0:0:
75,51,2404,1,0,1:0:0:0:
102,59,2483,1,0,1:0:0:0:
132,59,2562,6,0,L|270:43,2,120,0|0|0,1:0|1:0|1:0,0:0:0:0:
209,143,3193,2,0,L|248:148,3,40,0|0|0|0,1:0|1:0|1:0|1:0,0:0:0:0:
187,143,3509,2,0,P|165:176|162:216,1,80,8|0,0:0|0:0,0:0:0:0:
224,352,3825,5,4,1:0:0:0:
135,235,13614,6,0,L|129:274,1,40,4|0,1:2|0:0,0:0:0:0:
208,312,13930,5,4,1:0:0:0:
208,312,14088,2,0,P|263:303|319:299,1,111.999996582031,0|0,1:0|1:0,0:0:0:0:
392,340,14561,1,0,1:0:0:0:
512,191,14877,5,0,1:0:0:0:
512,191,15035,2,0,P|456:182|400:178,1,111.999996582031,0|0,1:0|1:0,0:0:0:0:
328,219,15509,1,0,1:0:0:0:
209,135,15825,1,0,1:0:0:0:
120,250,16140,1,0,1:0:0:0:
25,137,16456,5,0,1:0:0:0:
25,137,16614,2,0,P|19:82|38:30,1,111.999996582031,0|0,1:0|1:0,0:0:0:0:
118,3,17088,1,0,1:0:0:0:
281,58,17403,5,0,1:0:0:0:
281,58,17561,2,0,P|287:113|268:165,1,111.999996582031,0|0,1:0|1:0,0:0:0:0:
189,193,18035,1,0,1:0:0:0:
116,344,18351,1,0,1:0:0:0:
282,364,18667,1,0,1:0:0:0:
414,260,18982,6,0,L|407:186,1,55.9999982910157,4|0,1:0|1:0,0:0:0:0:
357,137,19298,1,0,1:0:0:0:
279,170,19456,2,0,L|272:244,1,55.9999982910157,0|0,1:0|1:0,0:0:0:0:
260,309,19772,1,0,1:0:0:0:
197,364,19930,1,0,1:0:0:0:
116,344,20088,1,0,1:0:0:0:
55,231,20246,6,0,L|93:225,3,27.9999991455078,4|0|0|0,1:2|1:0|1:0|1:0,0:0:0:0:
129,166,20561,1,0,1:0:0:0:
126,146,20640,1,0,1:0:0:0:
124,127,20719,1,0,1:0:0:0:
122,107,20798,1,0,1:0:0:0:
121,88,20877,2,0,L|36:75,2,83.9999974365235,0|0|0,1:0|1:0|1:0,0:0:0:0:
225,20,21509,6,0,B|274:11|313:35|287:44|327:67|373:58,1,160,4|2,1:0|3:3,0:0:0:0:
460,16,21982,1,0,1:0:0:0:
374,57,22140,2,0,L|359:140,1,80,2|2,0:0|0:0,0:0:0:0:
335,255,22456,1,4,1:2:0:0:
438,316,22614,6,0,P|495:275|448:222,1,160,4|2,1:2|3:0,0:0:0:0:
335,255,23088,2,0,P|346:297|347:336,1,80,0|0,1:0|1:0,0:0:0:0:
226,382,23403,1,2,0:0:0:0:
186,243,23561,1,0,1:0:0:0:
126,374,23719,1,2,0:0:0:0:
252,305,23877,1,0,1:0:0:0:
108,290,24035,6,0,P|53:236|60:159,1,160,4|2,1:0|3:0,0:0:0:0:
120,82,24509,1,0,1:0:0:0:
211,110,24667,2,0,L|300:98,1,80,2|2,0:0|0:0,0:0:0:0:
393,35,24982,1,0,1:0:0:0:
459,135,25140,6,0,P|386:124|366:195,1,160,4|2,1:2|0:0,0:0:0:0:
430,297,25614,2,0,P|443:259|448:219,1,80,2|0,0:0|3:0,0:0:0:0:
361,354,25930,1,2,0:0:0:0:
309,280,26088,1,0,1:0:0:0:
309,280,26167,1,0,1:0:0:0:
309,280,26246,2,0,P|269:272|230:266,1,80,2|0,1:2|1:0,0:0:0:0:
97,356,26561,6,0,P|41:305|54:229,1,160,6|2,1:2|3:0,0:0:0:0:
160,170,27035,1,0,1:0:0:0:
87,107,27193,2,0,L|102:25,1,80,2|2,0:0|0:0,0:0:0:0:
193,0,27509,1,0,1:0:0:0:
265,94,27667,6,0,P|342:98|396:42,1,160,4|2,1:2|3:3,0:0:0:0:
486,7,28140,2,0,L|496:86,1,80,2|2,0:2|0:0,0:0:0:0:
501,207,28456,1,2,0:2:0:0:
387,167,28614,1,2,3:2:0:0:
491,225,28772,1,2,0:2:0:0:
440,334,28930,1,2,3:2:0:0:
335,276,29088,6,0,L|236:286,1,80,6|0,1:0|0:0,0:0:0:0:
199,363,29403,2,0,L|100:373,1,80,8|0,0:0|0:0,0:0:0:0:
21,300,29719,6,0,L|31:201,1,80,2|0,1:0|0:0,0:0:0:0:
108,164,30035,2,0,L|118:65,1,80,8|0,0:0|0:0,0:0:0:0:
224,30,30351,5,6,1:2:0:0:
305,80,30509,1,0,1:0:0:0:
212,161,30667,1,0,1:0:0:0:
116,84,30825,1,0,1:0:0:0:
211,161,30982,2,0,P|195:197|194:236,1,80,0|0,1:0|1:0,0:0:0:0:
257,339,31298,1,2,3:2:0:0:
369,249,31456,1,4,1:2:0:0:
280,255,31614,5,2,1:3:0:0:
279,254,31929,2,0,P|283:219|302:189,1,71.9999978027344,4|0,1:0|3:0,0:0:0:0:
364,158,32245,2,0,P|336:180|301:188,1,71.9999978027344,0|0,1:0|3:0,0:0:0:0:
249,143,32561,2,0,P|280:159|301:188,1,71.9999978027344,0|0,1:0|3:0,0:0:0:0:
376,279,32877,5,0,1:0:0:0:
371,307,33035,1,0,3:0:0:0:
445,250,33192,1,0,1:0:0:0:
468,267,33350,1,0,3:0:0:0:
443,176,33508,1,0,1:0:0:0:
469,166,33666,1,0,3:0:0:0:
381,133,33824,1,0,1:0:0:0:
393,108,33982,1,0,3:0:0:0:
327,39,34140,6,2,P|292:33|256:35,1,71.9999978027344,2|0,1:1|3:1,0:1:0:0:
215,128,34456,2,0,P|251:129|287:124,1,71.9999978027344,0|0,1:0|3:0,0:0:0:0:
171,37,34771,2,0,P|136:31|100:33,1,71.9999978027344,0|0,1:0|3:0,0:0:0:0:
50,150,35087,2,2,P|85:151|121:145,1,71.9999978027344,2|0,1:1|3:1,0:1:0:0:
191,234,35403,5,0,1:0:0:0:
182,206,35561,1,0,3:0:0:0:
136,301,35719,5,0,1:0:0:0:
92,309,35877,1,0,3:0:0:0:
214,329,36035,5,0,1:0:0:0:
224,384,36192,1,0,3:0:0:0:
272,269,36350,5,0,1:0:0:0:
342,259,36508,1,0,3:0:0:0:
426,332,36666,5,4,1:0:0:0:
426,332,36824,2,0,L|512:325,2,64,0|0|0,0:0|1:0|0:0,0:0:0:0:
366,280,37298,2,0,P|356:220|397:173,1,128,0|0,1:0|1:0,0:0:0:0:
451,229,37771,6,0,L|425:103,1,128
447,28,38245,2,0,P|416:24|386:34,1,64,0|0,1:0|0:0,0:0:0:0:
333,90,38561,1,0,1:0:0:0:
256,99,38719,1,0,0:0:0:0:
207,37,38877,1,0,1:0:0:0:
148,105,39035,1,0,0:0:0:0:
48,131,39192,5,2,1:2:0:0:
48,131,39350,2,0,P|47:85|62:49,2,64,2|0|0,0:2|1:0|0:0,0:0:0:0:
100,187,39824,2,0,L|85:330,1,128,0|0,1:0|1:0,0:0:0:0:
141,368,40298,1,0,0:0:0:0:
198,283,40456,6,0,P|204:236|176:199,2,96,0|0|0,1:0|0:0|0:0,0:0:0:0:
244,344,41087,2,0,P|275:337|307:334,1,64,0|0,1:0|0:0,0:0:0:0:
360,278,41403,1,0,1:0:0:0:
449,328,41561,6,0,P|412:278|432:220,1,128
493,172,42035,2,0,P|480:142|472:111,1,64,0|0,1:0|0:0,0:0:0:0:
480,34,42350,1,0,1:0:0:0:
408,61,42508,2,0,P|376:60|344:56,1,64,0|0,0:0|1:0,0:0:0:0:
268,46,42824,2,0,P|207:29|152:59,1,128,0|0,0:0|1:0,0:0:0:0:
74,104,43298,2,0,P|64:74|63:42,1,64,0|8,1:0|0:0,0:0:0:0:
153,146,43614,1,0,1:0:0:0:
94,214,43771,1,0,1:0:0:0:
94,214,43850,1,0,1:0:0:0:
94,214,43929,2,0,L|45:207,3,32,0|0|0|0,1:0|1:0|1:0|1:0,0:0:0:0:
24,206,44245,5,4,1:2:0:0:
36,301,44403,1,2,1:0:0:0:
192,332,44719,5,0,1:0:0:0:
179,227,44877,1,2,1:0:0:0:
337,40,45192,5,0,1:0:0:0:
322,155,45350,1,2,1:0:0:0:
463,228,45666,5,0,1:0:0:0:
480,101,45824,1,2,1:0:0:0:
408,164,45982,1,0,1:0:0:0:
333,134,46140,2,0,P|274:135|234:181,2,120,0|0|0,1:0|1:0|1:0,0:0:0:0:
309,209,46771,6,0,B|307:226|307:226|310:240,1,32,2|0,0:1|1:0,0:0:0:0:
319,254,47008,1,0,1:0:0:0:
326,267,47087,2,0,P|345:291|343:323,1,64,4|0,1:0|0:0,0:0:0:0:
278,365,47403,2,0,P|216:352|152:347,1,128,4|0,1:2|1:0,0:0:0:0:
80,375,47877,2,0,P|63:347|62:316,1,64,0|0,0:0|1:0,0:0:0:0:
111,256,48192,2,0,P|142:251|174:245,2,64,0|0|0,0:0|1:0|0:0,0:0:0:0:
44,217,48666,1,2,1:2:0:0:
33,140,48824,1,0,0:0:0:0:
117,110,48982,1,2,1:2:0:0:
135,22,49140,1,0,0:0:0:0:
233,49,49298,6,0,P|264:51|296:49,1,64,6|0,1:2|0:0,0:0:0:0:
356,0,49614,1,0,1:0:0:0:
421,40,49771,1,0,0:0:0:0:
497,33,49929,2,0,P|495:64|478:91,1,64,0|0,1:0|0:0,0:0:0:0:
420,141,50245,2,0,P|421:172|438:199,1,64,0|0,1:0|0:0,0:0:0:0:
505,277,50561,6,0,L|494:372,2,96,2|0|0,1:2|0:0|0:0,0:0:0:0:
427,276,51192,2,0,P|398:290|366:291,1,64,2|0,1:2|0:0,0:0:0:0:
304,245,51508,1,0,1:0:0:0:
217,314,51666,6,0,P|170:251|93:251,1,160,4|0,1:0|0:0,0:0:0:0:
42,369,52140,1,2,0:0:0:0:
61,362,52219,1,2,0:0:0:0:
80,356,52298,1,2,0:0:0:0:
99,350,52377,1,2,0:0:0:0:
118,343,52456,1,2,1:2:0:0:
14,294,52614,2,0,P|3:256|8:217,1,80,0|8,1:0|0:0,0:0:0:0:
45,110,52929,6,0,P|124:118|204:125,1,160,4|0,1:2|1:0,0:0:0:0:
300,27,53403,1,2,2:0:0:0:
280,23,53482,1,2,2:0:0:0:
260,25,53561,1,2,2:0:0:0:
242,33,53640,1,2,2:0:0:0:
228,47,53719,1,2,1:2:0:0:
272,185,53877,2,0,L|291:103,1,80,0|8,1:0|0:0,0:0:0:0:
392,30,54192,6,0,P|459:63|455:139,1,160,4|0,1:2|1:0,0:0:0:0:
401,218,54666,2,0,P|440:220|480:225,1,80,8|0,0:0|3:0,0:0:0:0:
490,322,54982,1,2,1:2:0:0:
394,314,55140,1,2,1:2:0:0:
211,375,55456,1,0,1:0:0:0:
259,290,55614,6,0,L|272:180,2,106.666666666667,2|2|2,0:0|0:0|0:0,0:0:0:0:
144,188,56245,2,0,B|138:154|138:154|139:103|139:103|134:60,2,127.99999609375,2|2|2,0:0|0:2|0:3,0:0:0:0:
156,292,56877,5,4,1:0:0:0:
130,36,57508,6,0,P|84:28|50:61,2,95.9999970703126,6|0|0,1:2|3:0|3:0,0:0:0:0:
196,84,58298,1,0,3:0:0:0:
196,84,58456,2,0,L|251:75,1,47.9999985351563,0|0,1:0|3:0,0:0:0:0:
306,31,58771,2,0,P|353:39|400:46,1,95.9999970703126,2|0,0:0|3:0,0:0:0:0:
449,112,59245,1,0,0:0:0:0:
449,112,59403,2,0,P|466:95|475:73,2,47.9999985351563,0|0|2,3:0|0:0|1:2,0:0:0:0:
379,146,59877,1,2,0:0:0:0:
418,211,60035,6,0,L|426:315,1,95.9999970703126,0|0,3:0|3:0,0:0:0:0:
362,352,60508,1,0,0:0:0:0:
301,305,60666,2,0,L|309:212,2,71.9999978027344,2|0|0,0:0|1:0|1:0,0:0:0:0:
240,353,61298,2,0,P|216:354|192:351,1,47.9999985351563,2|0,1:0|3:0,0:0:0:0:
178,346,61535,1,0,3:0:0:0:
164,340,61614,2,0,L|127:345,2,23.9999992675781,0|0|0,1:0|3:0|1:0,0:0:0:0:
224,267,61929,6,0,B|182:268|156:231|161:195|161:195|75:177|75:177|93:198|90:228,1,251.999992309571,0|0,3:3|0:0,0:0:0:0:
84,251,62561,6,0,P|57:289|11:298,2,95.9999970703126,6|0|0,1:2|3:0|3:0,0:0:0:0:
71,173,63350,1,0,3:0:0:0:
71,173,63508,2,0,P|60:153|56:129,1,47.9999985351563,2|2,1:2|0:0,0:0:0:0:
1,75,63824,2,0,P|43:53|90:59,1,95.9999970703126,2|0,0:0|3:0,0:0:0:0:
158,94,64298,1,0,3:0:0:0:
225,57,64456,2,0,L|219:9,2,47.9999985351563,0|0|0,1:0|0:0|3:0,0:0:0:0:
293,93,64929,1,0,1:0:0:0:
365,68,65087,6,0,L|409:72,3,23.9999992675781,2|2|2|2,3:0|3:0|3:0|3:0,0:0:0:0:
411,61,65403,1,0,3:0:0:0:
435,62,65482,1,0,3:0:0:0:
458,68,65561,1,0,3:0:0:0:
478,81,65640,1,0,3:0:0:0:
493,99,65719,6,0,L|473:216,2,107.999996704102,4|0|0,1:0|1:0|1:0,0:0:0:0:
402,158,66350,2,0,P|344:196|277:167,1,143.999995605469,2|0,0:0|1:0,0:0:0:0:
202,132,66824,1,0,1:0:0:0:
124,170,66982,6,0,L|143:320,1,143.999995605469,2|0,0:0|1:0,0:0:0:0:
77,370,67455,1,0,3:0:0:0:
9,315,67613,2,0,L|0:243,1,71.9999978027344,2|0,0:0|0:0,0:0:0:0:
32,163,67929,1,0,3:0:0:0:
0,52,68087,6,0,B|39:46|82:64|52:78|94:96|132:89,1,143.999995605469,4|0,1:0|1:0,0:0:0:0:
199,32,68561,2,0,P|233:23|268:32,1,71.9999978027344,0|0,1:0|1:0,0:0:0:0:
341,102,68876,1,0,1:0:0:0:
305,211,69034,1,0,1:0:0:0:
227,125,69192,2,0,L|231:95,4,17.9999994506836,0|0|0|0|4,1:0|1:0|1:0|1:0|1:2,0:0:0:0:
11,351,70771,6,0,L|154:335,1,143.999995605469,4|0,1:0|0:0,0:0:0:0:
202,331,71087,2,0,P|248:324|292:341,1,95.9999970703126,8|0,0:0|0:0,0:0:0:0:
358,223,71403,2,0,L|260:236,1,95.9999970703126,0|0,1:0|0:0,0:0:0:0:
164,142,71719,1,8,0:0:0:0:
301,22,71876,5,0,3:0:0:0:
301,22,71955,1,0,3:0:0:0:
301,22,72034,2,0,P|365:37|376:108,1,143.999995605469,2|2,1:3|0:3,0:0:0:0:
341,139,72350,2,0,L|243:151,1,95.9999970703126,8|2,0:0|0:3,0:0:0:0:
136,45,72666,2,0,L|38:33,1,95.9999970703126,0|0,1:0|0:0,0:0:0:0:
0,121,72982,1,8,0:0:0:0:
71,240,73140,5,2,0:0:0:0:
71,240,73219,1,2,0:0:0:0:
71,239,73297,2,0,P|119:189|187:200,1,143.999995605469,0|0,1:0|0:0,0:0:0:0:
227,228,73613,2,0,L|214:325,1,95.9999970703126,8|0,0:0|0:0,0:0:0:0:
341,368,73929,2,0,L|328:272,1,95.9999970703126,0|0,1:0|0:0,0:0:0:0:
306,139,74245,1,8,0:0:0:0:
455,204,74403,5,0,3:3:0:0:
455,204,74482,1,0,3:3:0:0:
455,204,74561,2,0,P|493:158|418:42,1,191.999994140625,2|8,1:3|0:0,0:0:0:0:
312,28,75034,1,2,0:3:0:0:
211,122,75192,2,0,L|305:138,1,95.9999970703126,0|2,1:1|0:3,0:0:0:0:
348,225,75508,1,8,0:0:0:0:
188,203,75666,5,2,0:0:0:0:
188,203,75745,1,2,0:0:0:0:
188,203,75824,2,0,L|46:223,1,143.999995605469,4|2,1:2|0:3,0:0:0:0:
4,194,76140,2,0,P|3:147|29:108,1,95.9999970703126,8|2,0:0|0:3,0:0:0:0:
154,22,76455,2,0,L|168:116,1,95.9999970703126,0|0,1:0|0:0,0:0:0:0:
269,210,76771,1,8,0:0:0:0:
162,336,76929,5,2,0:0:0:0:
162,336,77008,1,2,0:0:0:0:
162,336,77087,2,0,L|314:355,1,143.999995605469,4|2,1:2|0:3,0:0:0:0:
353,357,77403,2,0,P|400:354|438:326,1,95.9999970703126,8|2,0:0|0:3,0:0:0:0:
478,207,77719,1,0,1:0:0:0:
422,129,77876,1,0,1:0:0:0:
339,177,78034,2,0,L|334:217,6,23.9999992675781,8|0|0|0|0|0|0,0:0|1:0|1:0|1:0|1:0|1:0|1:0,0:0:0:0:
309,210,78350,6,0,B|269:200|207:222|261:248|196:274|151:261,1,176.000005371094,4|2,1:1|0:0,0:0:0:0:
1,135,78982,2,0,P|66:127|131:116,2,132.00000402832,2|0|0,1:3|1:0|1:0,0:0:0:0:
65,33,79613,6,0,P|103:13|147:12,1,88.000002685547,2|0,1:1|1:0,0:0:0:0:
298,106,79929,2,0,P|254:105|215:85,1,88.000002685547,8|0,0:0|1:0,0:0:0:0:
382,25,80245,1,2,1:1:0:0:
466,88,80403,1,2,0:0:0:0:
466,88,80482,1,2,0:0:0:0:
466,88,80561,1,8,0:0:0:0:
422,184,80719,1,0,1:0:0:0:
288,188,80876,6,0,L|299:331,1,143.999995605469,4|0,1:0|0:0,0:0:0:0:
334,365,81192,2,0,P|381:367|427:352,1,95.9999970703126,8|0,0:0|0:0,0:0:0:0:
494,235,81508,2,0,L|398:217,1,95.9999970703126,0|0,1:0|0:0,0:0:0:0:
329,101,81824,1,8,0:0:0:0:
187,187,81982,5,2,0:0:0:0:
187,187,82061,1,2,0:0:0:0:
187,187,82140,2,0,L|175:337,1,143.999995605469,2|2,1:3|0:3,0:0:0:0:
142,365,82455,2,0,P|97:350|50:354,1,95.9999970703126,8|2,0:0|0:3,0:0:0:0:
0,234,82771,2,0,P|9:186|17:139,1,95.9999970703126,0|0,1:0|0:0,0:0:0:0:
0,13,83087,1,8,0:0:0:0:
175,44,83245,5,2,0:0:0:0:
175,44,83324,1,2,0:0:0:0:
175,44,83403,2,0,P|231:86|301:80,1,143.999995605469,0|0,1:2|0:0,0:0:0:0:
343,56,83719,2,0,L|467:72,1,95.9999970703126,8|0,0:0|0:0,0:0:0:0:
490,186,84034,2,0,P|446:167|398:172,1,95.9999970703126,0|0,1:0|0:0,0:0:0:0:
293,249,84350,1,8,0:0:0:0:
385,373,84508,5,0,3:0:0:0:
385,373,84587,1,0,3:0:0:0:
385,373,84666,2,0,P|443:340|424:276,1,143.999995605469,2|2,1:3|0:3,0:0:0:0:
387,266,84982,2,0,L|286:247,1,95.9999970703126,8|2,0:0|0:3,0:0:0:0:
248,358,85297,1,0,1:0:0:0:
192,228,85455,1,2,0:0:0:0:
111,365,85613,1,10,0:0:0:0:
0,268,85771,5,2,0:0:0:0:
0,268,85850,1,2,0:0:0:0:
0,268,85929,2,0,P|69:267|113:212,1,143.999995605469,4|2,1:2|0:3,0:0:0:0:
100,165,86245,2,0,L|3:152,1,95.9999970703126,8|2,0:0|0:3,0:0:0:0:
0,27,86561,2,0,P|46:21|87:45,1,95.9999970703126,0|0,1:0|0:0,0:0:0:0:
177,130,86876,1,8,0:0:0:0:
254,27,87034,5,2,0:0:0:0:
254,27,87113,1,2,0:0:0:0:
254,27,87192,1,4,1:2:0:0:
310,140,87350,1,0,1:0:0:0:
239,291,87508,2,0,L|224:188,1,95.9999970703126,0|0,1:0|1:0,0:0:0:0:
331,61,87824,1,0,1:0:0:0:
364,60,87903,1,0,1:0:0:0:
395,72,87982,1,0,1:0:0:0:
419,96,88061,1,0,1:0:0:0:
431,127,88140,2,0,L|417:228,1,95.9999970703126,0|0,1:0|1:0,0:0:0:0:
497,304,88455,6,0,B|452:292|397:310|435:329|380:349|330:336,1,176.000005371094,4|2,1:0|0:3,0:0:0:0:
259,280,88929,2,0,L|84:305,1,176.000005371094,0|0,1:0|0:0,0:0:0:0:
32,228,89403,1,4,1:2:0:0:
0,365,89561,1,4,1:2:0:0:
85,305,89719,6,0,P|121:228|86:150,1,176.000005371094,2|0,0:0|0:0,0:0:0:0:
27,85,90192,1,0,3:0:0:0:
96,31,90350,2,0,L|298:50,1,176.000005371094,2|2,3:0|0:0,0:0:0:0:
352,11,90824,1,0,0:0:0:0:
429,52,90982,6,0,B|456:114|429:163|429:163|441:186|441:186|416:231|439:297,1,256,4|0,1:2|0:0,0:0:0:0:
334,370,91929,1,2,0:0:0:0:
234,289,92245,6,0,P|238:257|243:226,2,64,4|0|2,1:2|0:0|0:0,0:0:0:0:
180,344,92719,1,0,0:0:0:0:
126,290,92876,2,0,P|120:226|111:163,1,128,12|4,3:3|1:0,0:0:0:0:
252,31,93508,5,8,0:0:0:0:
223,105,93666,1,2,1:0:0:0:
383,109,93982,5,8,0:0:0:0:
297,147,94140,1,2,1:0:0:0:
406,262,94455,5,8,0:0:0:0:
310,225,94613,1,2,1:0:0:0:
290,383,94929,5,8,0:0:0:0:
243,279,95087,2,0,L|161:296,1,80,2|0,1:0|1:0,0:0:0:0:
85,310,95403,5,4,1:3:0:0:
68,231,95561,1,4,1:3:0:0:
146,215,95719,1,4,1:3:0:0:
133,136,95876,1,4,1:3:0:0:
