osu file format v14

[General]
AudioFilename: audio.ogg
AudioLeadIn: 0
PreviewTime: 70694
Countdown: 0
SampleSet: Soft
StackLeniency: 0.7
Mode: 0
LetterboxInBreaks: 0
WidescreenStoryboard: 1

[Editor]
Bookmarks: 96430
DistanceSpacing: 1
BeatDivisor: 4
GridSize: 32
TimelineZoom: 1

[Metadata]
Title:Vitalization (TV Size)
TitleUnicode:Vitalization (TV Size)
Artist:Nana Mizuki
ArtistUnicode:水樹奈々
Creator:xHappy-
Version:Freezing's Normal
Source:戦姫絶唱シンフォギアG
Tags:anime op opening rock japanese jrock j-rock Senki Zesshou Symphogear G THE MUSEUM Ⅲ III p_kung freezinganimenz [_lost_] conner c_o_n_n_e_r Sarawatlism Xahlt Gweon Sua gweon_sua Kuon-
BeatmapID:4130330
BeatmapSetID:1986582

[Difficulty]
HPDrainRate:3
CircleSize:3.5
OverallDifficulty:4
ApproachRate:6
SliderMultiplier:1.1
SliderTickRate:1

[Events]
//Background and Video events
0,0,"bg.jpg",0,0
Video,-290,"video.mp4"
//Break Periods
2,4025,12415
//Storyboard Layer 0 (Background)
//Storyboard Layer 1 (Fail)
//Storyboard Layer 2 (Pass)
//Storyboard Layer 3 (Foreground)
//Storyboard Layer 4 (Overlay)
//Storyboard Sound Samples

[TimingPoints]
1299,315.789473684211,4,2,1,70,1,0
1299,-100,4,2,1,60,0,0
3825,315.789473684211,4,2,1,40,1,0
3825,-111.111111111111,4,2,1,40,0,0
13930,-111.111111111111,4,2,1,50,0,0
19298,-111.111111111111,4,2,1,40,0,0
19772,-111.111111111111,4,2,1,50,0,0
19930,-111.111111111111,4,2,1,60,0,0
20246,-111.111111111111,4,2,1,40,0,0
21509,-100,4,2,1,40,0,0
31614,315.789473684211,4,2,1,40,1,0
31929,-111.111111111111,4,2,1,40,0,0
34140,-111.111111111111,4,2,1,50,0,0
36035,-111.111111111111,4,2,1,60,0,0
36350,-111.111111111111,4,2,1,70,0,0
36666,-111.111111111111,4,2,1,50,0,0
44245,-100,4,2,1,60,0,0
47087,-111.111111111111,4,2,1,60,0,0
51666,-111.111111111111,4,2,1,70,0,0
54192,-100,4,2,1,70,0,0
56877,-111.111111111111,4,2,1,70,0,0
57508,-111.111111111111,4,2,1,50,0,0
65719,315.789473684211,4,2,1,60,1,0
65719,-100,4,2,1,60,0,0
69350,-100,4,2,1,40,0,0
70771,-100,4,2,1,80,0,1
91297,-100,4,2,1,60,0,1
91455,-100,4,2,1,80,0,1
92245,-100,4,2,1,60,0,1
93034,-100,4,2,1,80,0,1
93192,-100,4,2,1,60,0,1
93508,-100,4,2,1,70,0,0
95403,-100,4,2,1,60,0,0

[Colours]
Combo1 : 252,101,206
Combo2 : 238,225,72
Combo3 : 96,232,30
Combo4 : 123,37,169

[HitObjects]
130,347,1299,6,0,P|76:344|40:304,1,110,8|2,0:0|1:2,0:0:0:0:
31,249,1772,1,8,0:0:0:0:
31,249,1930,1,2,1:2:0:0:
104,166,2246,1,0,1:0:0:0:
77,59,2562,2,0,P|36:53|0:70,2,82.5,0|0|0,1:0|1:0|1:0,0:0:0:0:
117,21,3193,2,0,L|238:32,1,110,0|8,1:0|0:0,0:0:0:0:
324,43,3825,1,4,1:0:0:0:
461,65,13614,6,0,L|391:53,1,49.4999984893799,4|2,1:2|0:0,0:0:0:0:
372,36,13930,5,4,1:0:0:0:
372,36,14088,1,0,1:0:0:0:
282,73,14403,1,0,1:0:0:0:
282,73,14561,2,0,L|170:58,1,98.9999969787599,0|0,1:0|1:0,0:0:0:0:
136,76,15035,2,0,P|109:127|144:169,1,98.9999969787599,0|0,1:0|1:0,0:0:0:0:
138,207,15509,1,0,1:0:0:0:
224,255,15825,1,0,1:0:0:0:
322,265,16140,1,0,1:0:0:0:
424,257,16456,5,0,1:0:0:0:
424,257,16614,2,0,L|437:150,1,98.9999969787599,0|0,1:0|1:0,0:0:0:0:
438,109,17088,1,0,1:0:0:0:
362,53,17403,1,0,1:0:0:0:
362,53,17561,2,0,L|261:61,1,98.9999969787599,0|0,1:0|1:0,0:0:0:0:
213,63,18035,1,0,1:0:0:0:
140,130,18351,1,0,1:0:0:0:
151,228,18667,1,0,1:0:0:0:
249,242,18982,6,0,L|364:229,1,98.9999969787599,4|0,1:0|1:0,0:0:0:0:
392,252,19456,2,0,P|411:318|390:347,1,98.9999969787599,0|0,1:0|1:0,0:0:0:0:
352,360,19930,2,0,L|292:355,1,49.4999984893799,0|0,1:0|1:0,0:0:0:0:
252,357,20246,2,0,P|219:319|160:326,1,98.9999969787599,4|0,1:2|1:0,0:0:0:0:
87,268,20877,2,0,L|2:262,2,74.2499977340699,0|0|0,1:0|1:0|1:0,0:0:0:0:
126,229,21509,6,0,P|188:204|229:221,1,110,4|2,1:0|3:3,0:0:0:0:
332,243,22140,2,0,L|402:230,1,55,2|2,0:0|0:0,0:0:0:0:
439,211,22456,1,4,1:2:0:0:
439,211,22614,2,0,P|442:155|389:114,1,110,4|2,1:2|3:0,0:0:0:0:
382,76,23088,1,0,1:0:0:0:
276,45,23403,2,0,L|204:45,1,55,2|0,0:0|1:0,0:0:0:0:
165,48,23719,1,2,0:0:0:0:
88,127,24035,6,0,L|108:254,1,110,4|2,1:0|3:0,0:0:0:0:
92,345,24667,2,0,L|162:331,1,55,2|2,0:0|0:0,0:0:0:0:
205,336,24982,1,0,1:0:0:0:
205,336,25140,2,0,P|257:316|313:339,1,110,4|2,1:2|0:0,0:0:0:0:
360,342,25614,1,2,0:0:0:0:
434,261,25930,2,0,L|438:195,1,55,2|0,0:0|1:0,0:0:0:0:
422,152,26246,1,2,1:2:0:0:
364,58,26561,6,0,P|313:84|255:64,1,110,6|2,1:2|3:0,0:0:0:0:
171,131,27193,2,0,L|108:127,2,55,2|2|0,0:0|0:0|1:0,0:0:0:0:
207,172,27667,2,0,P|238:219|219:275,1,110,4|2,1:2|3:3,0:0:0:0:
211,321,28140,1,2,0:2:0:0:
302,382,28456,2,0,L|356:375,1,55,2|2,0:2|3:2,0:0:0:0:
402,344,28772,2,0,L|456:351,1,55,2|2,0:2|3:2,0:0:0:0:
502,320,29088,6,0,P|519:271|485:220,1,110,6|8,1:0|0:0,0:0:0:0:
385,208,29719,1,2,1:0:0:0:
285,256,30035,1,8,0:0:0:0:
175,247,30351,2,0,L|163:192,1,55,6|0,1:2|1:0,0:0:0:0:
192,146,30667,2,0,L|204:91,1,55,0|0,1:0|1:0,0:0:0:0:
228,42,30982,2,0,P|279:26|332:53,1,110,0|2,1:0|3:2,0:0:0:0:
370,84,31456,1,4,1:2:0:0:
342,246,31929,6,0,L|352:361,2,98.9999969787599,4|0|0,1:0|1:0|1:0,0:0:0:0:
269,178,32877,1,0,1:0:0:0:
175,211,33192,2,0,L|60:196,2,98.9999969787599,0|0|0,1:0|1:0|1:0,0:0:0:0:
269,178,34140,1,2,1:0:0:0:
320,93,34456,6,0,L|435:78,2,98.9999969787599,0|0|2,1:0|1:0|1:0,0:0:0:0:
230,50,35403,1,0,1:0:0:0:
148,106,35719,2,0,L|33:91,2,98.9999969787599,0|0|0,1:0|1:0|1:0,0:0:0:0:
207,203,36666,5,4,1:0:0:0:
120,250,36982,1,0,1:0:0:0:
135,347,37298,2,0,P|190:324|239:342,1,98.9999969787599,0|0,1:0|1:0,0:0:0:0:
270,352,37771,2,0,P|318:366|364:352,1,98.9999969787599
400,317,38245,1,0,1:0:0:0:
404,218,38561,2,0,P|348:191|305:203,1,98.9999969787599,0|0,1:0|1:0,0:0:0:0:
264,206,39035,1,0,0:0:0:0:
176,160,39350,6,0,P|164:104|198:62,1,98.9999969787599,2|0,0:2|0:0,0:0:0:0:
224,40,39824,2,0,L|343:48,1,98.9999969787599,0|0,1:0|1:0,0:0:0:0:
381,126,40456,2,0,L|468:119,2,74.2499977340699,0|0|0,1:0|0:0|0:0,0:0:0:0:
335,144,41087,2,0,P|262:180|236:164,1,98.9999969787599,0|0,1:0|1:0,0:0:0:0:
206,158,41561,1,0,0:0:0:0:
65,207,42035,6,0,L|82:323,1,98.9999969787599,0|0,1:0|1:0,0:0:0:0:
83,354,42508,1,0,0:0:0:0:
181,362,42824,2,0,P|237:339|287:361,1,98.9999969787599,2|0,0:0|1:0,0:0:0:0:
321,356,43298,1,0,1:0:0:0:
393,288,43614,1,0,1:0:0:0:
341,203,43929,1,0,1:0:0:0:
257,165,44245,5,4,1:2:0:0:
257,165,44403,2,0,L|140:173,1,110,2|0,1:0|1:0,0:0:0:0:
94,154,44877,1,2,1:0:0:0:
54,56,45192,1,0,1:0:0:0:
54,56,45350,2,0,L|169:53,1,110,2|0,1:0|1:0,0:0:0:0:
219,51,45824,1,2,1:0:0:0:
310,112,46140,2,0,L|402:113,2,82.5,0|0|0,1:0|1:0|1:0,0:0:0:0:
181,210,47087,5,4,1:0:0:0:
158,306,47403,1,4,1:2:0:0:
244,364,47719,1,0,1:0:0:0:
243,363,47877,2,0,P|288:381|331:359,1,98.9999969787599
373,332,48350,1,0,1:0:0:0:
423,247,48666,2,0,L|483:256,2,49.4999984893799,2|0|2,1:2|0:0|1:2,0:0:0:0:
390,209,49140,1,0,0:0:0:0:
400,114,49456,5,0,0:0:0:0:
400,114,49614,2,0,L|328:104,1,49.4999984893799,0|0,1:0|0:0,0:0:0:0:
301,99,49929,1,0,1:0:0:0:
214,147,50245,1,0,1:0:0:0:
132,203,50561,2,0,L|47:207,2,74.2499977340699,2|0|0,1:2|0:0|0:0,0:0:0:0:
174,228,51192,2,0,P|205:275|188:322,1,98.9999969787599,2|0,1:2|1:0,0:0:0:0:
163,351,51666,5,4,1:0:0:0:
309,376,52140,1,2,0:0:0:0:
379,306,52456,2,0,L|384:200,1,98.9999969787599,2|8,1:2|0:0,0:0:0:0:
353,167,52929,2,0,P|308:141|258:161,1,98.9999969787599,4|0,1:2|1:0,0:0:0:0:
220,175,53403,1,2,2:0:0:0:
179,84,53719,2,0,L|120:90,2,49.4999984893799,2|0|8,1:2|1:0|0:0,0:0:0:0:
226,56,54192,6,0,P|280:37|336:71,1,110,4|0,1:2|1:0,0:0:0:0:
370,89,54666,1,8,0:0:0:0:
349,200,54982,1,2,1:2:0:0:
349,200,55140,2,0,L|228:191,1,110,2|0,1:2|1:0,0:0:0:0:
183,189,55614,2,0,P|79:177|25:266,1,220,2|2,0:0|0:0,0:0:0:0:
196,366,56877,5,4,1:0:0:0:
276,185,57508,1,6,1:2:0:0:
510,367,58456,1,0,1:0:0:0:
479,272,58771,2,0,L|486:158,1,98.9999969787599,2|0,0:0|3:0,0:0:0:0:
493,124,59245,1,0,0:0:0:0:
492,124,59403,2,0,P|443:120|398:100,1,98.9999969787599,0|2,3:0|1:2,0:0:0:0:
353,79,59877,1,2,0:0:0:0:
204,84,60350,1,0,3:0:0:0:
240,175,60666,6,0,L|320:177,2,74.2499977340699,2|0|0,0:0|1:0|1:0,0:0:0:0:
192,190,61298,2,0,P|138:217|85:206,1,98.9999969787599,2|0,1:0|1:0,0:0:0:0:
51,216,61771,1,0,1:0:0:0:
249,364,62561,6,0,P|295:335|350:346,1,98.9999969787599,6|0,1:2|3:0,0:0:0:0:
434,318,63192,1,0,3:0:0:0:
400,224,63508,2,0,L|405:165,1,49.4999984893799,2|2,1:2|0:0,0:0:0:0:
384,128,63824,2,0,P|339:110|287:134,1,98.9999969787599,0|0,3:0|3:0,0:0:0:0:
251,154,64298,1,0,3:0:0:0:
251,154,64456,2,0,L|146:141,1,98.9999969787599,0|0,1:0|3:0,0:0:0:0:
109,165,64929,1,0,1:0:0:0:
132,366,65561,5,0,3:0:0:0:
132,366,65719,2,0,L|28:373,2,82.5,4|0|0,1:0|1:0|1:0,0:0:0:0:
176,333,66350,2,0,L|307:319,1,110,2|0,0:0|1:0,0:0:0:0:
373,254,66982,1,2,0:0:0:0:
285,196,67297,2,0,L|232:212,1,55,0|0,1:0|3:0,0:0:0:0:
179,228,67613,2,0,P|124:218|111:159,1,110,2|0,0:0|3:0,0:0:0:0:
110,116,68087,6,0,L|244:97,1,110,4|0,1:0|1:0,0:0:0:0:
270,79,68561,1,0,1:0:0:0:
376,106,68876,2,0,L|375:179,1,55,0|0,1:0|1:0,0:0:0:0:
402,215,69192,1,0,1:0:0:0:
402,215,69350,1,4,1:2:0:0:
0,2,70771,6,0,L|109:13,1,110,4|8,1:0|0:0,0:0:0:0:
145,118,71403,1,0,1:0:0:0:
228,46,71719,1,8,0:0:0:0:
308,121,72034,2,0,P|348:120|381:144,2,82.5,2|2|2,1:3|0:3|0:3,0:0:0:0:
259,147,72666,1,0,1:0:0:0:
161,197,72982,1,8,0:0:0:0:
239,273,73297,6,0,P|194:304|140:305,1,110,0|8,1:0|0:0,0:0:0:0:
37,265,73929,1,0,1:0:0:0:
10,158,74245,1,8,0:0:0:0:
83,76,74561,2,0,P|137:64|198:101,1,110,2|8,1:3|0:0,0:0:0:0:
242,103,75034,1,2,0:3:0:0:
242,103,75192,1,0,1:1:0:0:
351,93,75508,1,8,0:0:0:0:
418,179,75824,6,0,P|467:166|501:189,2,82.5,4|2|2,1:2|0:3|0:3,0:0:0:0:
368,204,76455,1,0,1:0:0:0:
261,232,76771,1,8,0:0:0:0:
182,308,77087,2,0,P|132:295|98:318,2,82.5,4|2|2,1:2|0:3|0:3,0:0:0:0:
222,346,77719,2,0,L|289:339,1,55,0|0,1:0|1:0,0:0:0:0:
332,342,78034,1,8,0:0:0:0:
399,250,78350,6,0,P|413:190|376:139,1,110,4|2,1:0|0:0,0:0:0:0:
298,89,78982,2,0,L|209:100,2,82.5,2|0|0,1:3|1:0|1:0,0:0:0:0:
339,52,79613,2,0,P|388:29|452:61,1,110,2|8,1:1|0:0,0:0:0:0:
481,88,80087,1,0,1:0:0:0:
481,88,80245,2,0,L|475:159,1,55,2|2,1:1|0:0,0:0:0:0:
444,188,80561,2,0,L|450:259,1,55,8|2,0:0|0:0,0:0:0:0:
485,283,80876,6,0,P|455:326|402:325,1,110,4|8,1:0|0:0,0:0:0:0:
301,281,81508,1,0,1:0:0:0:
349,181,81824,1,8,0:0:0:0:
261,113,82140,2,0,L|178:123,2,82.5,2|2|2,1:3|0:3|0:3,0:0:0:0:
299,73,82771,1,0,1:0:0:0:
405,72,83087,1,8,0:0:0:0:
510,103,83403,6,0,P|491:153|443:177,1,110,0|8,1:2|0:0,0:0:0:0:
333,183,84034,1,0,1:0:0:0:
362,289,84350,1,8,0:0:0:0:
252,297,84666,2,0,L|235:386,2,82.5,2|2|2,1:3|0:3|0:3,0:0:0:0:
260,242,85297,1,0,1:0:0:0:
195,152,85613,1,8,0:0:0:0:
85,165,85929,6,0,P|37:180|-8:163,2,82.5,4|2|2,1:2|0:3|0:3,0:0:0:0:
113,117,86561,1,0,1:0:0:0:
210,66,86876,1,8,0:0:0:0:
302,126,87192,2,0,L|396:118,2,82.5,4|2|0,1:2|3:0|1:0,0:0:0:0:
271,172,87824,2,0,L|275:226,1,55,0|0,1:0|1:0,0:0:0:0:
281,281,88140,1,0,1:0:0:0:
197,352,88455,6,0,P|144:368|96:339,1,110,4|2,1:0|0:3,0:0:0:0:
63,300,88929,2,0,L|51:190,1,110,0|0,1:0|0:0,0:0:0:0:
44,135,89403,2,0,L|101:138,1,55,4|4,1:2|1:2,0:0:0:0:
154,142,89719,2,0,P|131:93|170:43,1,110,2|0,0:0|0:0,0:0:0:0:
259,7,90350,1,2,3:0:0:0:
355,60,90666,1,2,0:0:0:0:
328,166,90982,2,0,L|302:286,1,110,4|2,1:2|0:0,0:0:0:0:
296,331,91455,1,0,0:0:0:0:
296,331,91613,1,0,0:0:0:0:
392,383,91929,1,2,0:0:0:0:
490,334,92245,6,0,L|501:265,1,55,4|0,1:2|0:0,0:0:0:0:
458,241,92561,2,0,L|447:172,1,55,2|0,0:0|0:0,0:0:0:0:
424,137,92876,2,0,L|429:72,2,55,12|0|4,3:3|0:0|1:0,0:0:0:0:
317,147,93508,5,8,0:0:0:0:
317,147,93666,2,0,L|210:117,1,110,2|8,1:0|0:0,0:0:0:0:
161,91,94140,1,2,1:0:0:0:
106,187,94455,1,8,0:0:0:0:
106,187,94613,2,0,P|93:254|134:287,1,110,2|8,1:0|0:0,0:0:0:0:
168,303,95087,1,2,1:0:0:0:
261,244,95403,2,0,L|319:248,2,55,4|4|4,1:3|1:3|1:3,0:0:0:0:
236,194,95876,1,4,1:3:0:0:
