osu file format v14

[General]
AudioFilename: audio.ogg
AudioLeadIn: 0
PreviewTime: 70694
Countdown: 0
SampleSet: Soft
StackLeniency: 0.7
Mode: 0
LetterboxInBreaks: 0
WidescreenStoryboard: 0

[Editor]
DistanceSpacing: 2.5
BeatDivisor: 4
GridSize: 32
TimelineZoom: 1.4

[Metadata]
Title:Vitalization (TV Size)
TitleUnicode:Vitalization (TV Size)
Artist:Nana Mizuki
ArtistUnicode:水樹奈々
Creator:xHappy-
Version:Expert
Source:戦姫絶唱シンフォギアG
Tags:anime op opening rock japanese jrock j-rock Senki Zesshou Symphogear G THE MUSEUM Ⅲ III p_kung freezinganimenz [_lost_] conner c_o_n_n_e_r Sarawatlism Xahlt Gweon Sua gweon_sua Kuon-
BeatmapID:4126616
BeatmapSetID:1986582

[Difficulty]
HPDrainRate:6
CircleSize:4
OverallDifficulty:8.5
ApproachRate:9.2
SliderMultiplier:1.8
SliderTickRate:1

[Events]
//Background and Video events
Video,-290,"video.mp4"
0,0,"bg.jpg",0,0
//Break Periods
//Storyboard Layer 0 (Background)
//Storyboard Layer 1 (Fail)
//Storyboard Layer 2 (Pass)
//Storyboard Layer 3 (Foreground)
//Storyboard Layer 4 (Overlay)
//Storyboard Sound Samples

[TimingPoints]
1299,315.789473684211,4,2,1,60,1,0
3825,315.789473684211,4,2,1,40,1,0
3825,-200,4,2,1,40,0,0
13930,-142.857142857143,4,2,1,50,0,0
19140,-142.857142857143,4,2,1,30,0,0
19298,-142.857142857143,4,2,1,40,0,0
19614,-142.857142857143,4,2,1,50,0,0
19930,-142.857142857143,4,2,1,60,0,0
20246,-142.857142857143,4,2,1,40,0,0
21509,-100,4,2,1,70,0,0
31614,315.789473684211,4,2,1,40,1,0
31614,-111.111111111111,4,2,1,40,0,0
34140,-111.111111111111,4,2,1,50,0,0
36035,-111.111111111111,4,2,1,60,0,0
36350,-111.111111111111,4,2,1,70,0,0
36666,-125,4,2,1,50,0,0
44245,-100,4,2,1,60,0,0
46771,-250,4,2,1,60,0,0
47087,-125,4,2,1,60,0,0
51666,-100,4,2,1,70,0,0
55719,-100,4,2,1,35,0,0
55824,-100,4,2,1,70,0,0
55929,-100,4,2,1,35,0,0
56035,-100,4,2,1,70,0,0
56140,-100,4,2,1,35,0,0
56245,-83.3333333333333,4,2,1,70,0,0
56350,-83.3333333333333,4,2,1,35,0,0
56456,-83.3333333333333,4,2,1,70,0,0
56561,-83.3333333333333,4,2,1,35,0,0
56666,-83.3333333333333,4,2,1,70,0,0
56771,-83.3333333333333,4,2,1,35,0,0
56877,-250,6,2,1,70,0,0
57508,-166.666666666667,6,2,1,50,0,0
61929,-100,6,2,1,70,0,0
62482,-100,6,2,1,5,0,0
62561,-166.666666666667,6,2,1,50,0,0
65719,315.789473684211,4,2,1,60,1,0
65719,-111.111111111111,4,2,1,60,0,0
69245,-111.111111111111,4,2,1,40,0,0
70771,-83.3333333333333,4,2,1,80,0,1
78074,-83.3333333333333,4,2,1,40,0,1
78350,-90.9090909090909,4,2,1,80,0,1
80876,-83.3333333333333,4,2,1,80,0,1
88179,-83.3333333333333,4,2,1,40,0,1
88455,-90.9090909090909,4,2,1,80,0,1
91297,-125,4,2,1,60,0,1
93508,-100,4,2,1,70,0,0
95403,-100,4,2,1,60,0,0

[Colours]
Combo1 : 252,101,206
Combo2 : 238,225,72
Combo3 : 96,232,30
Combo4 : 123,37,169

[HitObjects]
478,107,1299,5,8,0:0:0:0:
347,73,1456,1,0,1:0:0:0:
387,182,1614,1,2,1:2:0:0:
434,17,1772,1,8,0:0:0:0:
380,205,1930,2,0,L|355:291,1,90,2|0,1:2|1:0,0:0:0:0:
57,355,2246,5,0,1:0:0:0:
33,334,2325,1,0,1:0:0:0:
22,305,2404,1,0,1:0:0:0:
28,274,2483,1,0,1:0:0:0:
49,251,2562,2,0,P|93:256|138:260,1,90,0|0,1:0|0:0,0:0:0:0:
188,326,2799,2,0,P|232:321|277:316,1,90,0|0,1:0|0:0,0:0:0:0:
355,291,3035,1,0,1:0:0:0:
312,150,3193,1,0,1:0:0:0:
296,177,3272,1,0,1:0:0:0:
271,197,3351,1,0,1:0:0:0:
242,207,3430,1,0,1:0:0:0:
209,205,3509,2,0,P|169:188|144:151,1,90,8|0,0:0|0:0,0:0:0:0:
193,44,3825,6,0,L|296:30,1,90,4|0,1:0|0:0,0:0:0:0:
379,5,4298,1,0,0:0:0:0:
388,129,4456,2,0,P|343:132|305:110,1,90
379,5,4930,1,0,0:0:0:0:
446,50,5088,2,0,L|419:227,1,180,2|0,0:0|0:0,0:0:0:0:
281,362,6035,1,0,0:0:0:0:
281,362,6193,1,0,0:0:0:0:
235,284,6351,6,0,P|190:278|147:289,1,90,2|0,0:0|0:0,0:0:0:0:
58,261,6825,1,0,0:0:0:0:
58,261,7140,2,0,L|74:357,1,90
126,210,7614,2,0,P|141:168|142:123,1,90,2|0,0:0|0:0,0:0:0:0:
19,89,8088,1,2,0:0:0:0:
253,73,8561,1,2,0:0:0:0:
253,73,8719,1,0,0:0:0:0:
131,33,8877,6,0,L|141:122,1,90,4|0,1:0|0:0,0:0:0:0:
178,200,9351,1,0,0:0:0:0:
140,274,9509,2,0,P|120:284|97:287,1,45,2|0,0:0|0:0,0:0:0:0:
15,196,9825,2,0,P|38:199|58:210,1,45
28,362,10140,2,0,P|13:320|9:276,2,90,2|0|0,0:0|0:0|0:0,0:0:0:0:
242,345,11088,1,4,1:0:0:0:
289,130,11403,6,0,P|304:172|308:216,1,90,4|0,1:0|0:0,0:0:0:0:
153,308,12035,2,0,P|156:275|165:242,2,67.5,2|0|0,0:0|0:0|0:0,0:0:0:0:
229,357,12667,2,2,B|252:346|252:346|272:356|272:356|291:346|291:346|310:356|310:356|330:346|330:346|348:356|348:356|368:346|368:346|390:355,1,180,6|0,1:2|0:0,0:1:0:0:
469,373,13456,1,2,0:0:0:0:
498,297,13614,1,4,1:2:0:0:
434,246,13772,1,2,0:0:0:0:
281,258,13930,5,4,1:0:0:0:
281,258,14088,1,0,1:0:0:0:
329,77,14403,1,0,1:0:0:0:
329,77,14561,1,0,1:0:0:0:
160,156,14877,1,0,1:0:0:0:
160,156,15035,1,0,1:0:0:0:
225,338,15351,1,0,1:0:0:0:
225,338,15509,1,0,1:0:0:0:
329,180,15825,1,0,1:0:0:0:
217,27,16140,1,0,1:0:0:0:
48,107,16456,5,0,1:0:0:0:
48,107,16614,1,0,1:0:0:0:
226,182,16930,1,0,1:0:0:0:
226,182,17088,1,0,1:0:0:0:
42,209,17403,1,0,1:0:0:0:
42,209,17561,1,0,1:0:0:0:
128,43,17877,1,0,1:0:0:0:
128,43,18035,1,0,1:0:0:0:
298,124,18351,1,0,1:0:0:0:
475,59,18667,1,0,1:0:0:0:
477,244,18982,5,4,1:0:0:0:
423,210,19140,1,0,1:0:0:0:
347,201,19298,1,0,1:0:0:0:
275,251,19456,1,0,1:0:0:0:
199,317,19614,1,0,1:0:0:0:
88,341,19772,1,0,1:0:0:0:
8,243,19930,1,0,1:0:0:0:
86,128,20088,1,0,1:0:0:0:
231,170,20246,5,4,1:2:0:0:
262,166,20325,1,0,1:0:0:0:
289,151,20403,1,0,1:0:0:0:
308,126,20482,1,0,1:0:0:0:
317,96,20561,1,0,1:0:0:0:
313,65,20640,1,0,1:0:0:0:
298,38,20719,1,0,1:0:0:0:
274,18,20798,1,0,1:0:0:0:
244,9,20877,2,0,L|218:14,2,15.7499995193482,0|0|0,1:0|1:0|1:0,0:0:0:0:
200,28,21035,2,0,L|162:21,3,31.4999990386963,0|0|0|0,1:0|1:0|1:0|1:0,0:0:0:0:
98,93,21351,2,0,L|67:117,1,31.4999990386963,0|0,1:0|1:0,0:0:0:0:
141,206,21509,6,0,P|153:295|166:384,1,180,4|2,1:0|3:3,0:0:0:0:
62,254,21982,1,0,1:0:0:0:
241,270,22140,1,2,0:0:0:0:
79,338,22298,1,2,0:0:0:0:
194,146,22456,1,4,1:2:0:0:
265,376,22614,6,0,P|333:319|337:229,1,180,4|2,1:2|3:0,0:0:0:0:
286,149,23088,1,0,1:0:0:0:
216,283,23246,1,0,1:0:0:0:
421,176,23403,1,2,0:0:0:0:
187,299,23561,1,0,1:0:0:0:
425,374,23719,1,2,0:0:0:0:
271,121,23877,1,0,1:0:0:0:
510,38,24035,6,0,B|456:77|456:77|344:57,1,180,4|2,1:0|3:0,0:0:0:0:
265,149,24509,1,0,1:0:0:0:
101,57,24667,1,2,0:0:0:0:
100,199,24825,1,2,0:0:0:0:
205,71,24982,1,0,1:0:0:0:
0,119,25140,6,0,P|12:208|22:297,1,180,4|2,1:2|0:0,0:0:0:0:
177,340,25614,1,2,0:0:0:0:
73,384,25772,1,0,3:0:0:0:
100,199,25930,1,2,0:0:0:0:
239,284,26088,1,0,1:0:0:0:
239,284,26167,1,0,1:0:0:0:
239,284,26246,2,0,L|353:296,1,90,2|0,1:2|1:0,0:0:0:0:
468,377,26561,6,0,P|428:302|476:231,1,180,6|2,1:2|3:0,0:0:0:0:
417,134,27035,1,0,1:0:0:0:
328,293,27193,1,2,0:0:0:0:
511,307,27351,1,2,0:0:0:0:
403,113,27509,1,0,1:0:0:0:
179,130,27667,6,0,B|230:122|276:144|246:157|290:183|346:173,1,180,4|2,1:2|3:3,0:0:0:0:
335,56,28140,1,2,0:2:0:0:
201,215,28298,1,2,0:0:0:0:
306,50,28456,1,2,0:2:0:0:
339,274,28614,1,2,3:2:0:0:
127,281,28772,1,2,0:2:0:0:
150,57,28930,1,2,3:2:0:0:
0,172,29088,6,0,L|89:182,1,90,6|0,1:0|0:0,0:0:0:0:
38,271,29403,2,0,L|127:281,1,90,8|0,0:0|0:0,0:0:0:0:
339,274,29719,6,0,L|249:284,1,90,2|0,1:0|0:0,0:0:0:0:
301,373,30035,2,0,L|211:383,1,90,8|0,0:0|0:0,0:0:0:0:
68,348,30351,5,6,1:2:0:0:
89,182,30509,1,0,1:0:0:0:
249,284,30667,5,0,1:0:0:0:
217,108,30825,1,0,1:0:0:0:
36,249,30982,6,0,P|7:215|3:171,1,90,0|0,1:0|1:0,0:0:0:0:
66,55,31298,1,2,3:2:0:0:
174,186,31456,1,4,1:2:0:0:
289,169,31614,5,2,1:3:0:0:
289,169,31929,2,0,P|328:162|369:159,1,80.9999975280763,4|0,1:0|3:0,0:0:0:0:
418,224,32245,2,0,P|392:192|369:159,1,80.9999975280763,0|0,1:0|3:0,0:0:0:0:
401,85,32561,2,0,P|386:122|369:159,1,80.9999975280763,0|0,1:0|3:0,0:0:0:0:
319,273,32877,5,0,1:0:0:0:
387,315,33035,1,0,3:0:0:0:
310,289,33192,5,0,1:0:0:0:
390,235,33350,1,0,3:0:0:0:
300,304,33508,5,0,1:0:0:0:
296,190,33666,1,0,3:0:0:0:
291,318,33824,5,0,1:0:0:0:
184,243,33982,1,0,3:0:0:0:
83,313,34140,6,2,P|64:277|61:236,1,80.9999975280763,2|0,1:1|3:1,0:1:0:0:
161,171,34456,2,0,P|157:130|139:94,1,80.9999975280763,0|0,1:0|3:0,0:0:0:0:
75,152,34771,2,0,P|35:155|0:175,1,80.9999975280763,0|0,1:0|3:0,0:0:0:0:
151,260,35087,2,2,P|191:256|223:233,1,80.9999975280763,2|0,1:1|3:1,0:1:0:0:
322,99,35403,5,0,1:0:0:0:
221,41,35561,1,0,3:0:0:0:
161,171,35719,5,0,1:0:0:0:
311,91,35877,1,0,3:0:0:0:
337,270,36035,5,0,1:0:0:0:
139,157,36192,1,0,3:0:0:0:
101,334,36350,5,0,1:0:0:0:
312,241,36508,1,0,3:0:0:0:
221,41,36666,5,4,1:0:0:0:
221,41,36824,2,0,L|149:29,1,72,0|0,0:0|1:0,0:0:0:0:
54,18,37140,1,0,0:0:0:0:
0,152,37298,2,0,L|144:132,1,144,0|0,1:0|1:0,0:0:0:0:
243,246,37771,6,0,P|207:245|173:231,1,72,0|0,0:0|1:0,0:0:0:0:
226,157,38087,1,0,0:0:0:0:
330,233,38245,2,0,P|365:227|401:221,1,72,0|0,1:0|0:0,0:0:0:0:
418,113,38561,1,0,1:0:0:0:
321,142,38719,1,0,0:0:0:0:
209,75,38877,1,0,1:0:0:0:
95,200,39035,1,0,0:0:0:0:
202,331,39192,5,2,1:2:0:0:
202,331,39350,2,0,P|167:326|123:321,2,72,2|0|0,0:2|1:0|0:0,0:0:0:0:
337,367,39824,2,0,P|279:327|277:258,1,144,0|0,1:0|1:0,0:0:0:0:
333,173,40298,1,0,0:0:0:0:
447,235,40456,6,0,P|435:287|431:341,2,108,0|0|0,1:0|0:0|0:0,0:0:0:0:
502,104,41087,1,0,1:0:0:0:
416,71,41245,1,0,0:0:0:0:
333,173,41403,1,0,1:0:0:0:
512,181,41561,1,0,0:0:0:0:
483,19,41719,5,2,1:2:0:0:
483,19,42035,2,0,L|411:30,1,72,0|0,1:0|0:0,0:0:0:0:
294,151,42350,1,0,1:0:0:0:
276,62,42508,2,0,P|311:60|343:77,1,72,0|0,0:0|1:0,0:0:0:0:
403,190,42824,1,0,0:0:0:0:
291,329,42982,6,0,L|277:255,1,72,8|0,0:0|1:0,0:0:0:0:
117,201,43298,2,0,L|187:187,1,72,0|8,1:0|0:0,0:0:0:0:
193,366,43614,1,0,1:0:0:0:
111,305,43771,1,0,1:0:0:0:
111,305,43850,1,0,1:0:0:0:
111,305,43929,2,0,L|74:299,1,36,0|0,1:0|1:0,0:0:0:0:
187,186,44087,2,0,L|222:180,1,36,0|0,1:0|1:0,0:0:0:0:
92,49,44245,5,4,1:2:0:0:
37,224,44403,1,2,1:0:0:0:
198,280,44719,5,0,1:0:0:0:
159,101,44877,1,2,1:0:0:0:
366,147,45192,5,0,1:0:0:0:
187,186,45350,1,2,1:0:0:0:
331,301,45666,5,0,1:0:0:0:
512,330,45824,1,2,1:0:0:0:
378,237,45982,1,0,1:0:0:0:
456,217,46140,2,0,B|461:260|451:291|439:272|429:307|433:348,2,135,0|0|0,1:0|1:0|1:0,0:0:0:0:
511,110,46771,6,0,B|498:108|498:108|489:111|489:111|473:108,1,36,2|0,0:1|1:0,0:0:0:0:
457,108,47008,1,0,1:0:0:0:
438,105,47087,2,0,P|405:119|370:117,1,72,4|0,1:0|0:0,0:0:0:0:
228,16,47403,2,0,P|288:44|278:110,1,144,4|0,1:2|1:0,0:0:0:0:
120,109,47877,2,0,P|155:102|191:97,1,72,0|0,0:0|1:0,0:0:0:0:
276,213,48192,5,0,0:0:0:0:
171,195,48350,1,0,1:0:0:0:
276,213,48508,1,0,0:0:0:0:
114,289,48666,1,2,1:2:0:0:
305,312,48824,1,0,0:0:0:0:
192,377,48982,1,2,1:2:0:0:
171,195,49140,1,0,0:0:0:0:
305,312,49298,6,0,L|383:301,1,72,6|0,1:2|0:0,0:0:0:0:
486,209,49614,1,0,1:0:0:0:
475,312,49771,1,0,0:0:0:0:
388,202,49929,2,0,L|310:191,1,72,0|0,1:0|0:0,0:0:0:0:
196,105,50245,2,0,P|231:100|264:113,1,72,0|0,1:0|0:0,0:0:0:0:
186,298,50561,6,0,B|194:262|194:262|208:240|208:240|217:196,2,108,2|0|0,1:2|0:0|0:0,0:0:0:0:
101,340,51192,1,2,1:2:0:0:
134,202,51350,1,0,0:0:0:0:
270,301,51508,1,0,1:0:0:0:
196,105,51666,6,0,B|241:117|303:89|257:78|317:53|365:64,1,180,4|0,1:0|0:0,0:0:0:0:
464,189,52140,1,2,0:0:0:0:
434,198,52219,1,2,0:0:0:0:
402,197,52298,1,2,0:0:0:0:
373,185,52377,1,2,0:0:0:0:
350,165,52456,1,2,1:2:0:0:
448,16,52614,2,0,L|463:104,1,90,0|8,1:0|0:0,0:0:0:0:
497,283,52929,6,0,P|409:286|355:355,1,180,4|0,1:2|1:0,0:0:0:0:
204,204,53403,1,2,2:0:0:0:
234,201,53482,1,2,2:0:0:0:
265,211,53561,1,2,2:0:0:0:
290,230,53640,1,2,2:0:0:0:
307,255,53719,1,2,1:2:0:0:
219,360,53877,1,0,1:0:0:0:
112,247,54035,1,8,0:0:0:0:
18,373,54192,6,0,L|-1:194,1,180,4|0,1:2|1:0,0:0:0:0:
168,97,54666,1,8,0:0:0:0:
112,247,54824,1,0,3:0:0:0:
18,24,54982,5,2,1:2:0:0:
112,247,55140,1,2,1:2:0:0:
423,169,55456,1,0,1:0:0:0:
248,60,55614,6,0,P|252:30|266:4,1,60,2|0,0:0|0:0,0:0:0:0:
295,136,55824,2,0,P|266:147|236:147,1,60,2|0,0:0|0:0,0:0:0:0:
332,58,56035,2,0,P|357:73|375:96,1,60,2|0,0:0|0:0,0:0:0:0:
423,169,56245,6,0,L|412:241,1,71.9999978027344,2|0,0:0|0:0,0:0:0:0:
263,244,56456,2,0,L|330:218,1,71.9999978027344,2|0,0:2|0:3,0:3:0:0:
409,348,56666,2,0,L|350:306,1,71.9999978027344,2|0,0:3|0:3,0:3:0:0:
208,358,56877,6,0,B|221:360|221:360|230:350|230:350|242:352|242:352|248:342|248:342|258:343|258:343|263:332,1,72,4|0,1:0|0:0,0:1:0:0:
159,97,57508,6,0,L|150:170,2,53.9999983520508,6|0|0,1:2|0:0|3:0,0:0:0:0:
77,90,57982,2,0,L|70:143,1,53.9999983520508,0|0,0:0|3:0,0:0:0:0:
60,224,58298,1,0,3:0:0:0:
140,231,58456,1,0,1:0:0:0:
220,239,58614,1,0,3:0:0:0:
295,161,58771,6,0,L|402:150,1,107.999996704102,2|0,0:0|3:0,0:0:0:0:
469,196,59245,1,0,0:0:0:0:
406,247,59403,2,0,L|352:253,1,53.9999983520508,0|0,3:0|0:0,0:0:0:0:
289,305,59719,1,2,1:2:0:0:
289,305,59877,1,2,0:0:0:0:
219,346,60035,6,0,P|166:349|123:317,1,107.999996704102,0|0,3:0|3:0,0:0:0:0:
87,245,60508,1,0,0:0:0:0:
24,296,60666,2,0,L|29:377,2,80.9999975280763,2|0|0,0:0|1:0|1:0,0:0:0:0:
7,216,61298,5,2,1:0:0:0:
75,169,61456,1,0,3:0:0:0:
75,169,61535,1,0,3:0:0:0:
75,169,61614,2,0,L|76:142,2,26.9999991760254,0|0|0,1:0|3:0|1:0,0:0:0:0:
208,221,61929,6,0,B|223:221|223:221|232:193|232:193|243:216|243:216|262:230|262:230|272:214|272:214|276:188|276:188|298:211|298:211|348:215|384:168|366:108,1,315,0|0,3:3|0:0,0:0:0:0:
340,78,62561,6,0,L|224:69,1,107.999996704102,6|0,1:2|3:0,0:0:0:0:
177,8,63035,1,0,3:0:0:0:
99,31,63192,2,0,P|93:57|96:83,1,53.9999983520508,0|0,3:0|3:0,0:0:0:0:
120,166,63508,1,2,1:2:0:0:
120,166,63666,1,2,0:0:0:0:
61,250,63824,6,0,P|113:264|166:253,1,107.999996704102,2|0,0:2|3:0,0:0:0:0:
227,199,64298,1,0,3:0:0:0:
294,243,64456,2,0,L|288:308,2,53.9999983520508,0|0|0,1:0|0:0|3:0,0:0:0:0:
362,199,64929,1,0,1:0:0:0:
459,245,65087,6,0,L|495:250,3,26.9999991760254,2|2|2|2,3:0|3:0|3:0|3:0,0:0:0:0:
443,214,65403,1,0,3:0:0:0:
445,187,65482,1,0,3:0:0:0:
447,160,65561,1,0,3:0:0:0:
449,133,65640,1,0,3:0:0:0:
451,106,65719,6,0,P|401:74|341:81,2,121.499996292114,4|0|0,1:0|1:0|1:0,0:0:0:0:
361,198,66350,2,0,P|319:201|282:184,1,80.9999975280763,2|0,0:0|0:0,0:0:0:0:
220,73,66666,1,0,1:0:0:0:
154,152,66824,1,0,1:0:0:0:
71,69,66982,6,0,P|48:103|39:142,1,80.9999975280763,2|0,0:0|3:0,0:0:0:0:
44,166,67219,1,0,3:0:0:0:
51,189,67297,1,0,1:0:0:0:
5,318,67455,1,0,3:0:0:0:
156,290,67613,2,0,L|77:272,1,80.9999975280763,2|0,0:0|0:0,0:0:0:0:
153,382,67929,1,0,3:0:0:0:
220,217,68087,6,0,B|259:206|313:226|275:245|333:267|369:255,1,161.999995056153,4|0,1:0|1:0,0:0:0:0:
493,189,68561,1,0,1:0:0:0:
432,328,68719,1,0,1:0:0:0:
243,298,68876,1,0,1:0:0:0:
357,174,69034,1,0,1:0:0:0:
330,345,69192,6,0,L|326:364,4,20.2499993820191,0|0|0|0|4,1:0|1:0|1:0|1:0|1:2,0:0:0:0:
115,231,69666,6,0,L|89:239,4,26.9999991760254,2|2|2|2|2,0:0|0:0|0:0|0:0|0:0,0:0:0:0:
217,50,70140,6,0,L|196:32,4,26.9999991760254,2|2|2|2|2,0:0|0:0|0:0|0:0|0:0,0:0:0:0:
423,182,70771,6,0,P|448:106|379:38,1,161.999995056153,4|0,1:0|0:0,0:0:0:0:
325,41,71087,2,0,P|271:46|217:51,1,107.999996704102,8|0,0:0|0:0,0:0:0:0:
90,240,71403,2,0,P|152:249|192:223,1,107.999996704102,0|0,1:0|0:0,0:0:0:0:
122,34,71719,1,8,0:0:0:0:
8,104,71876,5,0,3:0:0:0:
8,104,71955,1,0,3:0:0:0:
8,104,72034,2,0,L|17:212,1,107.999996704102,2|0,1:3|0:0,0:0:0:0:
16,288,72271,1,2,0:3:0:0:
11,314,72350,1,8,0:0:0:0:
134,176,72508,1,2,0:3:0:0:
216,362,72666,2,0,P|164:346|111:338,1,107.999996704102,0|0,1:0|0:0,0:0:0:0:
221,213,72982,1,8,0:0:0:0:
495,259,73140,5,2,0:0:0:0:
495,259,73219,1,2,0:0:0:0:
495,259,73297,2,0,P|416:261|361:205,1,161.999995056153,0|0,1:0|0:0,0:0:0:0:
317,144,73613,2,0,L|302:250,1,107.999996704102,8|0,0:0|0:0,0:0:0:0:
175,109,73929,2,0,L|160:2,1,107.999996704102,0|0,1:0|0:0,0:0:0:0:
58,207,74245,1,8,0:0:0:0:
275,61,74403,5,0,3:3:0:0:
275,61,74482,1,0,3:3:0:0:
275,61,74561,2,0,B|329:40|401:66|350:86|428:113|481:89,1,215.999993408203,2|8,1:3|0:0,0:0:0:0:
317,143,75034,1,2,0:3:0:0:
437,5,75192,1,0,1:0:0:0:
305,159,75350,1,2,3:0:0:0:
167,60,75508,1,8,0:0:0:0:
8,205,75666,5,2,0:0:0:0:
8,205,75745,1,2,0:0:0:0:
8,205,75824,2,0,P|51:174|102:186,1,107.999996704102,4|0,1:2|0:0,0:0:0:0:
159,236,76061,1,2,0:3:0:0:
185,232,76140,1,8,0:0:0:0:
305,159,76297,1,2,0:3:0:0:
180,326,76455,2,0,L|73:315,1,107.999996704102,0|0,1:0|0:0,0:0:0:0:
273,235,76771,1,8,0:0:0:0:
468,284,76929,5,2,0:0:0:0:
468,284,77008,1,2,0:0:0:0:
468,284,77087,2,0,P|465:336|425:371,1,107.999996704102,4|0,1:2|0:0,0:0:0:0:
348,364,77324,1,2,0:3:0:0:
322,359,77403,1,8,0:0:0:0:
167,195,77561,1,2,0:3:0:0:
345,282,77719,1,0,1:0:0:0:
254,128,77876,1,0,1:0:0:0:
99,312,78034,2,0,L|60:316,6,26.9999991760254,8|0|0|0|0|0|0,0:0|1:0|1:0|1:0|1:0|1:0|1:0,0:0:0:0:
180,294,78350,6,0,P|173:244|167:195,1,99.0000030212403,4|0,1:0|0:0,0:0:0:0:
10,30,78666,2,0,P|6:79|2:128,1,99.0000030212403,2|0,0:0|0:0,0:0:0:0:
212,50,78982,6,0,L|315:40,1,99.0000030212403,2|0,1:3|0:0,0:0:0:0:
355,100,79219,2,0,L|458:90,1,99.0000030212403,2|0,1:3|0:0,0:0:0:0:
500,33,79455,1,0,1:0:0:0:
490,305,79613,5,2,1:1:0:0:
279,362,79771,1,0,1:0:0:0:
242,147,79929,1,8,0:0:0:0:
453,90,80087,1,0,1:0:0:0:
381,276,80245,1,2,1:1:0:0:
242,147,80403,1,0,1:0:0:0:
182,363,80561,1,8,0:0:0:0:
143,332,80640,1,0,1:0:0:0:
95,325,80719,1,0,1:0:0:0:
50,343,80797,1,0,1:0:0:0:
17,378,80876,6,0,P|8:297|0:216,1,161.999995056153,4|0,1:0|0:0,0:0:0:0:
2,140,81192,2,0,P|56:123|105:145,1,107.999996704102,8|0,0:0|0:0,0:0:0:0:
271,294,81508,2,0,P|218:281|165:270,1,107.999996704102,0|0,1:0|0:0,0:0:0:0:
254,95,81824,1,8,0:0:0:0:
454,173,81982,5,2,0:0:0:0:
454,173,82061,1,2,0:0:0:0:
454,173,82140,2,0,L|471:36,1,107.999996704102,2|0,1:3|0:0,0:0:0:0:
414,12,82376,1,2,0:3:0:0:
388,21,82455,1,8,0:0:0:0:
367,236,82613,1,2,0:3:0:0:
222,189,82771,2,0,P|220:136|253:94,1,107.999996704102,0|0,1:0|0:0,0:0:0:0:
350,216,83087,1,8,0:0:0:0:
384,373,83245,5,2,0:0:0:0:
384,373,83324,1,2,0:0:0:0:
384,373,83403,2,0,L|198:353,1,161.999995056153,0|0,1:2|0:0,0:0:0:0:
152,326,83719,2,0,P|98:325|52:351,1,107.999996704102,8|0,0:0|0:0,0:0:0:0:
0,188,84034,2,0,L|107:175,1,107.999996704102,0|0,1:0|0:0,0:0:0:0:
266,66,84350,1,8,0:0:0:0:
53,5,84508,5,0,3:0:0:0:
53,5,84587,1,0,3:0:0:0:
53,5,84666,2,0,P|46:57|68:106,1,107.999996704102,2|0,1:3|0:0,0:0:0:0:
107,174,84903,1,2,0:3:0:0:
133,171,84982,1,8,0:0:0:0:
274,260,85140,1,2,0:3:0:0:
111,361,85297,1,2,1:2:0:0:
242,156,85455,1,2,0:0:0:0:
42,266,85613,1,10,0:0:0:0:
234,380,85771,1,2,0:0:0:0:
462,353,85929,6,0,P|489:306|489:253,1,107.999996704102,4|0,1:2|0:0,0:0:0:0:
445,188,86166,1,2,0:3:0:0:
419,197,86245,1,8,0:0:0:0:
347,308,86403,1,2,0:3:0:0:
242,156,86561,2,0,P|289:129|343:130,1,107.999996704102,0|0,1:0|0:0,0:0:0:0:
242,291,86876,1,8,0:0:0:0:
171,200,87034,5,2,0:0:0:0:
171,200,87113,1,2,0:0:0:0:
171,200,87192,1,4,1:2:0:0:
125,369,87350,1,0,1:0:0:0:
49,137,87508,1,0,1:0:0:0:
0,345,87666,1,0,1:0:0:0:
191,301,87824,1,0,1:0:0:0:
242,291,87903,1,0,1:0:0:0:
276,250,87982,1,0,1:0:0:0:
276,197,88061,1,0,1:0:0:0:
242,156,88140,2,0,L|247:109,4,26.9999991760254,0|0|0|0|0,1:0|1:0|1:0|1:0|1:0,0:0:0:0:
399,93,88455,6,0,B|356:105|280:79|334:58|263:36|214:48,1,198.000006042481,4|2,1:0|0:3,0:0:0:0:
104,180,88929,2,0,P|182:226|241:157,1,198.000006042481,0|0,1:0|0:0,0:0:0:0:
122,83,89403,1,4,1:2:0:0:
75,297,89561,1,4,1:2:0:0:
146,363,89719,6,0,L|356:333,1,198.000006042481,2|0,0:0|0:0,0:0:0:0:
430,374,90192,1,0,3:0:0:0:
511,260,90350,2,0,P|419:272|383:187,1,198.000006042481,2|2,3:0|0:0,0:0:0:0:
430,104,90824,1,0,0:0:0:0:
268,43,90982,6,0,L|281:157,1,99.0000030212403,4|0,1:2|0:0,0:0:0:0:
220,298,91297,2,0,B|187:326|130:323|97:284|97:284|56:299|56:299|11:272|5:209|5:209|36:224|79:213,1,360,2|0,0:0|0:0,0:0:0:0:
33,71,92245,6,0,L|44:143,1,72,4|0,1:2|0:0,0:0:0:0:
166,237,92561,2,0,L|177:166,1,72,2|0,0:0|0:0,0:0:0:0:
146,38,92876,1,12,3:3:0:0:
146,38,93192,2,0,P|182:44|217:48,1,72,4|0,1:0|0:0,0:0:0:0:
442,236,93508,5,8,0:0:0:0:
177,165,93666,1,2,1:0:0:0:
380,62,93982,5,8,0:0:0:0:
330,327,94140,1,2,1:0:0:0:
79,258,94455,5,8,0:0:0:0:
343,201,94613,1,2,1:0:0:0:
117,56,94929,5,8,0:0:0:0:
230,301,95087,2,0,P|254:263|254:218,1,90,2|0,1:0|1:0,0:0:0:0:
41,38,95403,5,4,1:3:0:0:
4,120,95561,1,4,1:3:0:0:
89,150,95719,1,4,1:3:0:0:
126,68,95876,1,4,1:3:0:0:
