osu file format v14

[General]
AudioFilename: audio.ogg
AudioLeadIn: 0
PreviewTime: 70694
Countdown: 0
SampleSet: Soft
StackLeniency: 0.7
Mode: 0
LetterboxInBreaks: 0
WidescreenStoryboard: 1

[Editor]
DistanceSpacing: 1
BeatDivisor: 4
GridSize: 8
TimelineZoom: 1

[Metadata]
Title:Vitalization (TV Size)
TitleUnicode:Vitalization (TV Size)
Artist:Nana Mizuki
ArtistUnicode:水樹奈々
Creator:xHappy-
Version:Easy
Source:戦姫絶唱シンフォギアG
Tags:anime op opening rock japanese jrock j-rock Senki Zesshou Symphogear G THE MUSEUM Ⅲ III p_kung freezinganimenz [_lost_] conner c_o_n_n_e_r Sarawatlism Xahlt Gweon Sua gweon_sua Kuon-
BeatmapID:4127502
BeatmapSetID:1986582

[Difficulty]
HPDrainRate:2
CircleSize:3
OverallDifficulty:2
ApproachRate:3
SliderMultiplier:0.899999999999999
SliderTickRate:1

[Events]
//Background and Video events
0,0,"bg.jpg",0,0
Video,-290,"video.mp4"
//Break Periods
2,4025,12490
//Storyboard Layer 0 (Background)
//Storyboard Layer 1 (Fail)
//Storyboard Layer 2 (Pass)
//Storyboard Layer 3 (Foreground)
//Storyboard Layer 4 (Overlay)
//Storyboard Sound Samples

[TimingPoints]
1299,315.789473684211,4,2,1,60,1,0
3825,315.789473684211,4,2,1,40,1,0
3825,-100,4,2,1,40,0,0
13930,-105.263157894737,4,2,1,50,0,0
19298,-105.263157894737,4,2,1,40,0,0
19614,-105.263157894737,4,2,1,50,0,0
19930,-105.263157894737,4,2,1,60,0,0
20246,-105.263157894737,4,2,1,40,0,0
21509,-100,4,2,1,70,0,0
31614,315.789473684211,4,2,1,40,1,0
31929,-111.111111111111,4,2,1,40,0,0
34140,-111.111111111111,4,2,1,50,0,0
36035,-111.111111111111,4,2,1,60,0,0
36350,-111.111111111111,4,2,1,70,0,0
36666,-105.263157894737,4,2,1,50,0,0
44245,-100,4,2,1,60,0,0
46771,-100,4,2,1,60,0,0
47087,-105.263157894737,4,2,1,60,0,0
51666,-100,4,2,1,70,0,0
57508,-111.111111111111,4,2,1,50,0,0
61929,-111.111111111111,4,2,1,70,0,0
62482,-111.111111111111,4,2,1,5,0,0
62561,-111.111111111111,4,2,1,50,0,0
65719,315.789473684211,4,2,1,60,1,0
65719,-105.263157894737,4,2,1,60,0,0
68087,-100,4,2,1,60,0,0
69350,-100,4,2,1,40,0,0
70771,-95.2380952380952,4,2,1,80,0,1
91297,-95.2380952380952,4,2,1,60,0,1
93508,-100,4,2,1,70,0,0
95403,-100,4,2,1,60,0,0

[Colours]
Combo1 : 252,101,206
Combo2 : 238,225,72
Combo3 : 96,232,30
Combo4 : 123,37,169

[HitObjects]
41,313,1299,6,0,P|75:340|119:342,1,89.9999999999999,8|2,0:0|1:2,0:0:0:0:
191,288,1930,2,0,L|289:295,1,89.9999999999999,2|0,1:2|1:0,0:0:0:0:
356,343,2562,2,0,P|415:276|427:188,1,180,0|0,1:0|1:0,0:0:0:0:
379,112,3509,1,8,0:0:0:0:
289,120,3825,1,6,1:2:0:0:
94,106,13930,6,0,L|66:231,1,128.249996575355,4|0,1:0|1:0,0:0:0:0:
29,354,14877,2,0,L|154:326,1,128.249996575355,0|0,1:0|1:0,0:0:0:0:
276,363,15825,1,0,1:0:0:0:
350,320,16140,1,0,1:0:0:0:
421,366,16456,6,0,P|433:305|401:251,1,128.249996575355,0|0,1:0|1:0,0:0:0:0:
274,237,17403,2,0,P|261:175|293:121,1,128.249996575355,0|0,1:0|1:0,0:0:0:0:
411,71,18351,1,0,1:0:0:0:
478,123,18667,1,0,1:0:0:0:
432,195,18982,6,0,L|346:188,1,85.4999977169037,4|0,1:0|1:0,0:0:0:0:
293,121,19614,2,0,L|207:127,1,85.4999977169037,0|0,1:0|1:0,0:0:0:0:
160,56,20246,2,0,P|122:129|161:201,1,170.999995433807,4|0,1:2|1:0,0:0:0:0:
241,232,21193,1,0,1:0:0:0:
199,311,21509,6,0,L|90:295,1,89.9999999999999,4|2,1:0|3:3,0:0:0:0:
38,352,22140,2,0,P|65:292|39:231,1,135,2|4,0:0|1:2,0:0:0:0:
0,102,23088,1,0,1:0:0:0:
61,35,23403,1,2,0:0:0:0:
148,57,23719,1,2,0:0:0:0:
230,20,24035,6,0,L|324:29,1,89.9999999999999,4|2,1:0|3:0,0:0:0:0:
409,32,24667,2,0,P|467:60|477:124,1,135,2|4,0:0|1:2,0:0:0:0:
409,240,25614,1,2,0:0:0:0:
471,303,25930,2,0,P|435:327|390:326,1,89.9999999999999,2|2,0:0|1:2,0:0:0:0:
301,312,26561,6,0,L|294:222,1,89.9999999999999,6|2,1:2|3:0,0:0:0:0:
281,132,27193,2,0,P|217:113|156:137,1,135,2|4,0:0|1:2,0:0:0:0:
41,208,28140,1,0,3:2:0:0:
4,290,28456,1,2,0:2:0:0:
75,344,28772,1,2,0:2:0:0:
146,289,29088,6,0,L|235:294,1,89.9999999999999,6|8,1:0|0:0,0:0:0:0:
302,356,29719,2,0,L|391:350,1,89.9999999999999,2|8,1:0|0:0,0:0:0:0:
481,349,30351,1,6,1:2:0:0:
497,260,30667,1,0,1:0:0:0:
421,211,30982,2,0,P|414:166|429:125,1,89.9999999999999,0|2,1:0|3:2,0:0:0:0:
466,42,31614,1,2,1:3:0:0:
394,4,31929,6,0,L|311:13,1,80.9999975280762,4|0,1:0|1:0,0:0:0:0:
250,64,32561,2,0,L|167:55,1,80.9999975280762,0|0,1:0|1:0,0:0:0:0:
89,38,33192,1,0,1:0:0:0:
18,77,33508,1,0,1:0:0:0:
22,157,33824,1,0,1:0:0:0:
98,184,34140,6,0,P|131:163|171:164,1,80.9999975280762,2|0,1:0|1:0,0:0:0:0:
240,207,34771,2,0,P|273:228|313:227,1,80.9999975280762,0|2,1:0|1:0,0:0:0:0:
388,196,35403,1,0,1:0:0:0:
455,241,35719,1,0,1:0:0:0:
452,322,36035,1,0,1:0:0:0:
380,359,36350,1,0,1:0:0:0:
305,317,36666,6,0,L|135:338,1,170.999995433807,4|0,1:0|1:0,0:0:0:0:
0,232,37929,2,0,P|0:148|62:93,1,170.999995433807,0|0,1:0|1:0,0:0:0:0:
143,70,38877,1,0,1:0:0:0:
226,88,39192,6,0,L|217:2,2,85.4999977169037,2|0|0,1:2|1:0|1:0,0:0:0:0:
397,89,40456,2,0,L|405:3,2,85.4999977169037,0|0|0,1:0|1:0|1:0,0:0:0:0:
462,144,41403,1,0,1:0:0:0:
510,214,41719,6,0,P|495:295|423:336,1,170.999995433807,2|0,1:2|1:0,0:0:0:0:
253,350,42982,1,8,0:0:0:0:
175,313,43298,1,0,1:0:0:0:
94,341,43614,2,0,P|89:298|107:260,1,85.4999977169037,0|0,1:0|1:0,0:0:0:0:
173,199,44245,6,0,P|240:202|303:177,1,135,4|0,1:2|1:0,0:0:0:0:
367,58,45192,2,0,P|300:60|237:35,1,135,0|0,1:0|1:0,0:0:0:0:
105,6,46140,2,0,P|50:44|29:107,1,135,0|0,1:0|1:0,0:0:0:0:
28,235,47087,6,0,L|38:319,1,85.4999977169037,4|4,1:0|1:2,0:0:0:0:
113,361,47719,1,0,1:0:0:0:
184,314,48035,2,0,P|259:281|327:326,1,170.999995433807,0|2,1:0|1:2,0:0:0:0:
401,368,48982,1,2,1:2:0:0:
479,334,49298,6,0,P|497:296|489:254,1,85.4999977169037,6|0,1:2|1:0,0:0:0:0:
421,202,49929,2,0,L|431:117,1,85.4999977169037,0|0,1:0|1:0,0:0:0:0:
494,58,50561,2,0,P|414:35|350:86,1,170.999995433807,2|2,1:2|1:2,0:0:0:0:
257,185,51666,6,0,L|122:172,1,135,4|2,1:0|0:0,0:0:0:0:
32,168,52456,1,2,1:2:0:0:
0,299,52929,2,0,L|134:311,1,135,4|2,1:2|2:0,0:0:0:0:
225,316,53719,1,2,1:2:0:0:
359,333,54192,6,0,P|416:365|480:350,2,135,4|8|2,1:2|0:0|1:2,0:0:0:0:
256,245,55614,2,0,L|77:266,1,180,2|2,0:0|0:0,0:0:0:0:
0,103,56877,1,6,1:2:0:0:
159,132,57508,6,0,P|231:159|293:112,1,161.999995056152,6|0,1:2|3:0,0:0:0:0:
274,33,58456,1,0,1:0:0:0:
195,13,58771,2,0,L|34:29,1,161.999995056152,2|0,0:0|3:0,0:0:0:0:
0,187,60035,6,0,P|67:227|143:205,1,161.999995056152,0|2,3:0|0:0,0:0:0:0:
260,93,61298,1,2,1:0:0:0:
408,156,61929,2,0,L|392:317,1,161.999995056152,0|6,3:3|1:2,0:0:0:0:
235,361,63192,6,0,L|146:353,1,80.9999975280762,0|2,3:0|1:2,0:0:0:0:
73,347,63824,2,0,P|70:268|128:215,1,161.999995056152,2|0,0:0|1:0,0:0:0:0:
287,245,65087,2,0,L|367:237,1,80.9999975280762,2|0,3:0|3:0,0:0:0:0:
436,287,65719,6,0,P|445:205|384:151,1,170.999995433807,4|2,1:0|0:0,0:0:0:0:
328,85,66666,1,0,1:0:0:0:
258,135,66982,2,0,P|175:144|116:86,1,170.999995433807,2|2,0:0|0:0,0:0:0:0:
8,6,68087,6,0,L|24:149,1,135,4|0,1:0|1:0,0:0:0:0:
94,194,68876,2,0,L|78:337,1,135,0|4,1:0|1:2,0:0:0:0:
487,209,70771,6,0,P|452:183|399:181,1,94.4999971160888,4|8,1:0|0:0,0:0:0:0:
335,247,71403,1,0,1:0:0:0:
240,257,71719,1,8,0:0:0:0:
175,326,72034,2,0,P|144:252|206:171,1,188.999994232178,2|0,1:3|1:0,0:0:0:0:
292,135,72982,1,8,0:0:0:0:
260,45,73297,6,0,L|162:54,1,94.4999971160888,0|8,1:0|0:0,0:0:0:0:
83,6,73929,1,0,1:0:0:0:
14,70,74245,1,8,0:0:0:0:
47,158,74561,2,0,L|38:252,2,94.4999971160888,2|8|0,1:3|0:0|1:1,0:0:0:0:
140,146,75508,1,8,0:0:0:0:
225,186,75824,6,0,P|303:137|391:161,1,188.999994232178,6|0,1:2|1:0,0:0:0:0:
470,214,76771,1,8,0:0:0:0:
419,293,77087,2,0,P|340:341|252:317,1,188.999994232178,6|0,1:2|1:0,0:0:0:0:
173,264,78034,1,8,0:0:0:0:
106,331,78350,6,0,P|80:293|80:246,1,94.4999971160888,4|2,1:0|0:0,0:0:0:0:
102,153,78982,2,0,P|15:139|5:51,1,188.999994232178,2|2,1:3|1:1,0:0:0:0:
89,9,79929,1,8,0:0:0:0:
179,36,80245,1,2,1:1:0:0:
269,8,80561,1,8,0:0:0:0:
360,32,80876,6,0,L|351:139,1,94.4999971160888,4|8,1:0|0:0,0:0:0:0:
437,165,81508,1,0,1:0:0:0:
450,258,81824,1,8,0:0:0:0:
382,323,82140,2,0,P|306:373|219:343,1,188.999994232178,2|0,1:3|1:0,0:0:0:0:
133,305,83087,1,8,0:0:0:0:
63,368,83403,6,0,P|41:325|46:274,1,94.4999971160888,0|8,1:2|0:0,0:0:0:0:
90,197,84034,1,0,1:0:0:0:
182,218,84350,1,8,0:0:0:0:
231,137,84666,2,0,P|320:114|386:176,1,188.999994232178,2|0,1:3|1:0,0:0:0:0:
437,253,85613,1,8,0:0:0:0:
509,192,85929,6,0,L|497:4,1,188.999994232178,6|0,1:2|1:0,0:0:0:0:
411,44,86876,1,8,0:0:0:0:
318,24,87192,2,0,L|216:17,1,94.4999971160888,4|0,1:2|1:0,0:0:0:0:
128,17,87824,1,0,1:0:0:0:
99,107,88140,1,0,1:0:0:0:
19,157,88455,6,0,P|-2:223|32:283,1,141.749995674133,4|0,1:0|1:0,0:0:0:0:
142,372,89403,1,4,1:2:0:0:
227,332,89719,2,0,P|315:348|373:279,1,188.999994232178,2|2,0:0|3:0,0:0:0:0:
402,188,90666,1,2,0:0:0:0:
334,121,90982,1,4,1:2:0:0:
258,177,91297,6,0,L|70:157,1,188.999994232178,2|2,0:0|0:0,0:0:0:0:
61,62,92245,2,0,L|248:83,1,188.999994232178,4|12,1:2|3:3,0:0:0:0:
327,30,93192,1,4,1:0:0:0:
411,61,93508,6,0,P|436:123|419:187,1,135,8|8,0:0|0:0,0:0:0:0:
432,321,94455,2,0,P|366:311|318:265,1,135,8|8,0:0|0:0,0:0:0:0:
195,207,95403,2,0,P|234:153|298:135,1,135,4|4,1:3|1:3,0:0:0:0:
