osu file format v14

[General]
AudioFilename: audio.mp3
AudioLeadIn: 0
PreviewTime: 216950
Countdown: 0
SampleSet: Soft
StackLeniency: 0.7
Mode: 0
LetterboxInBreaks: 0
WidescreenStoryboard: 1

[Editor]
Bookmarks: 25417,40134,55842,68436,77492,88813,99002,110323,121643,145417,151926,165370,177115,187304,197492,208813,217021,240511,256360,267681,276738,290323,300511,310559
DistanceSpacing: 1.1
BeatDivisor: 4
GridSize: 4
TimelineZoom: 3.399999

[Metadata]
Title:VIRGIN CODE
TitleUnicode:VIRGIN CODE
Artist:Nana Mizuki
ArtistUnicode:水樹奈々
Creator:ShiraKai
Version:GENESIS
Source:
Tags:kacha nasya n_a_s_y_a SUPERNAL LIBERTY Hibiki 上松範康 agematsu noriyasu 藤田淳平 fujita junpei elements garden
BeatmapID:1052795
BeatmapSetID:494430

[Difficulty]
HPDrainRate:6.4
CircleSize:3.8
OverallDifficulty:8.8
ApproachRate:9.4
SliderMultiplier:1.7
SliderTickRate:1

[Events]
//Background and Video events
0,0,"BG.png",0,0
//Break Periods
2,7220,16952
2,145616,151385
2,267880,275631
//Storyboard Layer 0 (Background)
//Storyboard Layer 1 (Fail)
//Storyboard Layer 2 (Pass)
//Storyboard Layer 3 (Foreground)
//Storyboard Sound Samples

[TimingPoints]
2209,283.018867924528,4,2,1,57,1,0
17492,283.018867924528,4,2,7,37,1,0
17492,-142.857142857143,4,2,7,37,0,0
22020,-142.857142857143,4,2,7,47,0,0
25699,-142.857142857143,4,2,7,37,0,0
25982,-100,4,2,1,42,0,0
26265,-100,4,2,1,47,0,0
26547,-100,4,2,7,57,0,0
27113,-100,4,2,1,57,0,0
31075,-100,4,2,7,57,0,0
31641,-100,4,2,1,57,0,0
34756,-133.333333333333,4,2,1,57,0,0
35605,-100,4,2,7,57,0,0
35887,-100,4,2,1,57,0,0
40133,-100,4,2,7,57,0,0
40275,-100,4,2,1,57,0,0
42397,-83.3333333333333,4,2,1,70,0,0
42680,-100,4,2,1,70,0,0
42822,-83.3333333333333,4,2,1,70,0,0
43105,-100,4,2,1,70,0,0
43246,-83.3333333333333,4,2,1,70,0,0
43529,-100,4,2,1,70,0,0
43671,-83.3333333333333,4,2,1,70,0,0
43954,-100,4,2,1,70,0,0
44237,-100,4,2,1,37,0,0
44661,-83.3333333333333,4,2,1,70,0,0
44944,-100,4,2,1,70,0,0
45086,-83.3333333333333,4,2,1,70,0,0
45369,-100,4,2,1,70,0,0
45510,-83.3333333333333,4,2,1,70,0,0
45793,-100,4,2,1,70,0,0
45935,-83.3333333333333,4,2,1,70,0,0
46218,-100,4,2,1,70,0,0
46359,-100,4,2,1,70,0,0
46784,-100,4,2,1,57,0,0
109473,-200,4,2,1,57,0,0
110039,-100,4,2,1,57,0,0
117114,-166.666666666667,4,2,1,37,0,0
119803,-125,4,2,1,47,0,0
120369,-100,4,2,1,57,0,0
121076,-100,4,2,1,62,0,0
121359,-100,4,2,1,67,0,0
121925,-100,4,2,1,57,0,0
122633,-100,4,2,1,77,0,1
131407,-100,4,2,1,77,0,0
131690,-100,4,2,1,77,0,1
134661,-83.3333333333333,4,2,1,77,0,1
134944,-100,4,2,1,77,0,1
140322,-83.3333333333333,4,2,1,77,0,1
140605,-90.9090909090909,4,2,1,77,0,1
140888,-100,4,2,1,67,0,0
144283,-100,4,2,7,67,0,0
144566,-100,4,2,1,67,0,0
145415,-100,4,2,7,67,0,0
151925,-100,4,2,1,57,0,0
154190,-83.3333333333333,4,2,1,57,0,0
154472,-100,4,2,7,57,0,0
154684,-100,4,2,1,57,0,0
159000,-100,4,2,7,57,0,0
159283,-100,4,2,1,57,0,0
161265,-83.3333333333333,4,2,1,70,0,0
161548,-100,4,2,1,70,0,0
161690,-83.3333333333333,4,2,1,70,0,0
161973,-100,4,2,1,70,0,0
162114,-83.3333333333333,4,2,1,70,0,0
162397,-100,4,2,1,70,0,0
162539,-83.3333333333333,4,2,1,70,0,0
162822,-100,4,2,1,70,0,0
163105,-100,4,2,1,37,0,0
163529,-83.3333333333333,4,2,1,70,0,0
163812,-100,4,2,1,70,0,0
163954,-83.3333333333333,4,2,1,70,0,0
164237,-100,4,2,1,70,0,0
164378,-83.3333333333333,4,2,1,70,0,0
164661,-100,4,2,1,70,0,0
164803,-83.3333333333333,4,2,1,70,0,0
165086,-100,4,2,1,70,0,0
165227,-100,4,2,1,70,0,0
165652,-66.6666666666667,4,2,1,57,0,0
165935,-100,4,2,1,57,0,0
167916,-133.333333333333,4,2,1,57,0,0
168341,-83.3333333333333,4,2,1,57,0,0
168624,-100,4,2,1,57,0,0
172444,-133.333333333333,4,2,2,57,0,0
174850,-100,4,2,1,57,0,0
176548,-76.9230769230769,4,2,1,57,0,0
176973,-100,4,2,1,57,0,0
177397,-71.4285714285714,4,2,1,57,0,0
177680,-100,4,2,1,57,0,0
181642,-111.111111111111,4,2,1,57,0,0
186171,-100,4,2,1,57,0,0
207397,-125,4,2,1,57,0,0
207963,-142.857142857143,4,2,1,57,0,0
208812,-100,4,2,1,57,0,0
209095,-133.333333333333,4,2,1,57,0,0
209378,-200,4,2,1,57,0,0
209661,-100,4,2,1,57,0,0
215605,-100,4,2,4,57,0,0
215675,-100,4,2,1,57,0,0
215888,-100,4,2,4,57,0,0
215958,-100,4,2,1,57,0,0
216171,-100,4,2,4,57,0,0
216312,-100,4,2,1,57,0,0
216595,-100,4,2,5,57,0,0
216878,-100,4,2,1,57,0,0
217020,-142.857142857143,4,2,1,57,0,0
217303,-58.8235294117647,4,2,1,57,0,0
217444,-200,4,2,1,57,0,0
217727,-100,4,2,1,77,0,1
221760,-100,4,2,1,77,0,0
221831,-58.8235294117647,4,2,1,77,0,1
221973,-200,4,2,1,77,0,1
222185,-200,4,2,1,77,0,0
222256,-100,4,2,1,77,0,1
226501,-100,4,2,1,77,0,0
226784,-100,4,2,1,77,0,1
235982,-100,4,2,1,67,0,0
238246,-100,4,2,6,67,0,0
238529,-100,4,2,1,67,0,0
242775,-100,4,2,6,67,0,0
243058,-100,4,2,1,67,0,0
246737,-133.333333333333,4,2,1,67,0,0
247303,-100,4,2,1,67,0,0
263152,-100,4,2,1,77,0,1
267680,-100,4,2,1,47,0,0
276171,-133.333333333333,4,2,2,47,0,0
282679,-200,4,2,1,57,0,0
283246,-100,4,2,1,57,0,0
286076,-100,4,2,1,57,0,0
290322,-142.857142857143,4,2,6,37,0,0
292586,-111.111111111111,4,2,5,57,0,0
292868,-111.111111111111,4,2,1,57,0,0
293717,-111.111111111111,4,2,4,57,0,0
293858,-111.111111111111,4,2,1,57,0,0
294849,-111.111111111111,4,2,3,57,0,0
295132,-111.111111111111,4,2,1,57,0,0
295981,-111.111111111111,4,2,2,57,0,0
296123,-111.111111111111,4,2,1,57,0,0
296831,-76.9230769230769,4,2,1,57,0,0
297114,-100,4,2,7,57,0,0
297396,-100,4,2,1,57,0,0
301501,-100,4,2,1,77,0,1
307303,-83.3333333333333,4,2,1,77,0,1
307869,-100,4,2,1,77,0,1
310275,-100,4,2,1,77,0,0
310558,-100,4,2,1,77,0,1
319756,-100,4,2,1,77,0,0
321878,-100,4,2,1,67,0,0
325416,-100,4,2,1,47,0,0
326548,-100,4,2,1,37,0,0
327114,-100,4,2,1,17,0,0
327751,-100,4,2,1,7,0,0

[Colours]
Combo1 : 206,206,255
Combo2 : 128,255,255
Combo3 : 128,255,128
Combo4 : 0,128,255

[HitObjects]
256,192,2208,12,2,7020,0:0:0:0:
208,184,17492,6,0,P|203:235|197:266,1,59.4999981842042,8|0,0:3|0:0,0:0:0:0:
112,322,17775,2,0,P|107:292|105:262,1,59.4999981842042
11,198,18058,2,0,P|56:192|117:139,1,118.999996368408,2|2,0:0|0:0,0:0:0:0:
123,125,18624,5,2,0:0:0:0:
206,183,18765,2,0,P|246:191|278:196,1,59.4999981842042,0|0,0:0|0:0,0:0:0:0:
358,149,19048,2,0,P|413:141|477:103,2,118.999996368408,2|2|0,0:0|0:0|0:0,0:0:0:0:
289,53,19756,6,0,P|282:84|269:114,1,59.4999981842042,2|0,0:0|0:0,0:0:0:0:
206,183,20039,2,0,P|213:214|226:244,1,59.4999981842042,0|0,0:0|0:0,0:0:0:0:
286,323,20322,2,0,P|330:313|420:310,1,118.999996368408,2|2,0:0|0:0,0:0:0:0:
493,282,20746,1,0,0:0:0:0:
376,230,20888,6,0,P|333:223|299:221,1,59.4999981842042,2|0,0:0|0:0,0:0:0:0:
223,239,21171,1,0,0:0:0:0:
360,149,21312,2,0,P|415:157|479:195,2,118.999996368408,2|2|0,0:0|0:0|0:0,0:0:0:0:
271,109,22020,5,8,0:3:0:0:
256,192,22091,12,0,25416,0:0:0:0:
256,247,25699,6,0,L|248:283,3,29.7499990921021
376,216,25982,2,0,L|360:168,3,42.5
412,328,26265,2,0,L|395:383,3,42.5
280,352,26548,6,0,L|252:164,1,170,12|0,0:3|0:0,0:0:0:0:
254,183,27114,2,0,L|160:216,1,85,2|8,0:0|0:0,0:0:0:0:
3,262,27397,1,0,0:0:0:0:
65,79,27539,1,0,0:0:0:0:
172,296,27680,2,0,P|256:292|316:216,2,170,8|8|2,0:0|0:0|0:0,0:0:0:0:
416,152,28388,1,2,0:0:0:0:
416,152,28458,1,2,0:0:0:0:
416,152,28529,2,0,P|432:224|436:268,1,85,2|2,0:0|0:0,0:0:0:0:
326,340,28812,6,0,P|242:292|134:312,1,170,4|0,0:0|0:0,0:0:0:0:
171,295,29378,2,0,L|191:195,1,85,2|8,0:0|0:0,0:0:0:0:
162,44,29661,1,0,0:0:0:0:
297,135,29803,1,0,0:0:0:0:
67,224,29944,5,8,0:0:0:0:
409,290,30227,2,0,L|427:230,3,42.5,2|0|2|0,0:0|0:0|0:0|0:0,0:0:0:0:
316,201,30510,2,0,L|275:217,3,42.5,2|0|2|0,0:0|0:0|0:0|0:0,0:0:0:0:
226,325,30793,2,0,L|238:381,3,42.5,2|0|2|0,0:0|0:0|0:0|0:0,0:0:0:0:
316,288,31076,6,0,L|336:96,1,170,12|0,0:3|0:0,0:0:0:0:
333,118,31642,2,0,P|380:128|432:140,1,85,2|8,0:0|0:0,0:0:0:0:
472,248,31925,1,0,0:0:0:0:
512,56,32067,1,8,0:0:0:0:
304,224,32208,6,0,L|292:128,1,85,8|0,0:0|0:0,0:0:0:0:
160,236,32491,2,0,L|152:320,1,85,8|0,0:0|0:0,0:0:0:0:
340,344,32775,2,0,L|356:164,1,170,2|2,0:0|0:0,0:0:0:0:
272,24,33199,1,2,0:0:0:0:
68,224,33341,6,0,P|150:236|221:192,1,170,4|0,0:0|0:0,0:0:0:0:
352,88,33765,2,0,L|336:36,2,42.5,4|0|2,0:3|0:0|0:0,0:0:0:0:
320,256,34048,1,0,0:0:0:0:
164,112,34190,1,8,0:0:0:0:
164,112,34473,6,0,L|148:196,1,85,0|2,0:0|0:0,0:0:0:0:
256,360,34756,2,0,L|245:297,1,63.7500024318696,0|2,0:0|0:0,0:0:0:0:
245,297,35039,1,2,0:0:0:0:
280,140,35322,1,4,0:3:0:0:
245,297,35463,1,4,0:3:0:0:
410,259,35605,6,0,L|234:299,1,170,12|2,0:3|0:0,0:0:0:0:
112,192,36029,1,0,0:0:0:0:
288,80,36171,2,0,L|276:188,1,85,2|8,0:0|0:0,0:0:0:0:
416,312,36454,2,0,L|396:212,1,85,2|8,0:0|0:0,0:0:0:0:
296,296,36737,1,8,0:0:0:0:
152,112,37020,1,8,0:0:0:0:
48,336,37303,2,0,L|64:384,3,42.5,2|0|0|0,0:0|0:0|0:0|0:0,0:0:0:0:
140,288,37586,2,0,L|124:240,3,42.5,2|0|0|0,0:0|0:0|0:0|0:0,0:0:0:0:
240,324,37869,6,0,L|412:288,1,170,4|2,0:0|0:0,0:0:0:0:
456,144,38293,1,0,0:0:0:0:
260,72,38435,2,0,P|240:132|236:168,1,85,2|8,0:0|0:0,0:0:0:0:
332,344,38718,2,0,P|344:308|352:252,1,85,2|0,0:0|0:0,0:0:0:0:
140,288,39001,1,8,0:0:0:0:
88,80,39284,1,8,0:0:0:0:
314,192,39567,2,0,L|298:132,3,42.5,2|0|0|0,0:0|0:0|0:0|0:0,0:0:0:0:
236,80,39850,2,0,L|247:39,3,42.5,2|0|0|0,0:0|0:0|0:0|0:0,0:0:0:0:
161,155,40133,6,0,P|117:164|74:165,1,85,12|0,0:3|0:0,0:0:0:0:
0,238,40416,1,8,0:0:0:0:
205,284,40558,1,0,0:0:0:0:
122,376,40699,6,0,P|109:328|109:286,1,85,2|0,0:0|0:0,0:0:0:0:
161,155,40982,1,8,0:0:0:0:
0,238,41124,1,0,0:0:0:0:
205,284,41265,6,0,P|249:293|292:294,1,85,2|0,0:0|0:0,0:0:0:0:
464,266,41548,1,8,0:0:0:0:
299,192,41690,1,0,0:0:0:0:
410,111,41831,2,0,P|406:140|401:168,3,42.5,2|0|0|0,0:0|0:0|0:0|0:0,0:0:0:0:
373,247,42114,2,0,P|377:276|382:304,3,42.5,8|0|0|0,0:0|0:0|0:0|0:0,0:0:0:0:
394,376,42397,6,0,P|451:348|460:258,1,152.999995330811,4|0,0:0|0:0,0:0:0:0:
458,231,42680,2,0,L|505:219,1,42.5,8|0,0:0|0:0,0:0:0:0:
410,111,42822,6,0,B|342:95|342:95|324:104|324:104|261:93,1,152.999995330811,4|0,0:0|0:0,0:0:0:0:
229,81,43105,2,0,L|215:142,1,42.5,8|0,0:0|0:0,0:0:0:0:
127,230,43246,6,0,P|124:154|76:97,1,152.999995330811,4|0,0:0|0:0,0:0:0:0:
44,86,43529,2,0,L|37:143,1,42.5,8|0,0:0|0:0,0:0:0:0:
2,273,43671,6,0,B|58:261|58:261|176:281,1,152.999995330811,4|0,0:0|0:0,0:0:0:0:
173,304,43954,2,0,L|236:297,1,42.5,8|0,0:0|0:0,0:0:0:0:
340,286,44095,5,12,0:0:0:0:
269,147,44237,1,2,0:0:0:0:
252,144,44308,1,2,0:0:0:0:
235,148,44378,1,2,0:0:0:0:
221,158,44449,1,2,0:0:0:0:
209,170,44520,1,2,0:0:0:0:
204,186,44591,1,2,0:0:0:0:
209,205,44661,6,0,L|366:181,1,152.999995330811,6|0,0:0|0:0,0:0:0:0:
391,168,44944,2,0,L|407:225,1,42.5,8|0,0:0|0:0,0:0:0:0:
491,309,45086,6,0,L|334:285,1,152.999995330811,4|0,0:0|0:0,0:0:0:0:
309,272,45369,2,0,L|293:329,1,42.5,8|0,0:0|0:0,0:0:0:0:
170,378,45510,6,0,P|113:377|54:301,1,152.999995330811,4|0,0:0|0:0,0:0:0:0:
45,274,45793,2,0,L|96:258,1,42.5,8|0,0:0|0:0,0:0:0:0:
209,205,45935,6,0,B|228:113|186:139|217:39,1,152.999995330811,4|0,0:0|0:0,0:0:0:0:
240,33,46218,2,0,P|276:49|306:57,1,42.5,8|0,0:0|0:0,0:0:0:0:
391,101,46359,5,8,0:0:0:0:
119,169,46501,1,8,0:0:0:0:
119,169,46784,6,0,P|68:118|134:66,1,170,4|0,0:0|0:0,0:0:0:0:
207,204,47208,2,0,P|213:246|228:286,1,85,8|0,0:0|0:0,0:0:0:0:
408,112,47491,2,0,P|367:122|325:128,1,85,2|2,0:0|0:0,0:0:0:0:
383,384,47775,2,0,P|397:344|403:302,1,85,8|0,0:0|0:0,0:0:0:0:
496,181,48058,6,0,P|435:205|317:220,1,170,2|8,0:0|0:0,0:0:0:0:
273,367,48482,1,0,0:0:0:0:
403,301,48624,2,0,P|464:290|494:287,1,85,2|2,0:0|0:0,0:0:0:0:
208,204,48907,2,0,P|147:193|117:190,1,85,8|0,0:0|0:0,0:0:0:0:
340,119,49190,6,0,P|399:100|477:91,1,127.5,2|0,0:0|0:0,0:0:0:0:
492,73,49473,2,0,P|428:61|385:45,1,85,8|0,0:0|0:0,0:0:0:0:
332,220,49756,1,2,0:0:0:0:
233,113,49897,2,0,P|221:68|216:15,1,85,2|8,0:0|0:0,0:0:0:0:
164,196,50180,6,0,B|140:162|140:162|140:143|140:143|118:104|131:24,1,170,4|0,0:0|0:0,0:0:0:0:
53,212,50605,2,0,P|45:253|43:301,1,85,12|0,0:0|0:0,0:0:0:0:
212,374,50888,1,2,0:1:0:0:
250,195,51029,1,2,0:1:0:0:
127,269,51171,1,8,0:0:0:0:
313,346,51312,6,0,P|386:355|443:252,1,170,2|0,0:1|0:0,0:0:0:0:
250,195,51737,2,0,P|235:253|231:301,1,85,12|0,0:0|0:0,0:0:0:0:
377,108,52020,1,2,0:0:0:0:
467,191,52161,1,2,0:0:0:0:
361,276,52303,2,0,P|346:218|342:170,1,85,8|0,0:0|0:0,0:0:0:0:
361,16,52586,6,0,P|427:27|464:65,2,113.333333333333,2|2|2,0:1|0:1|0:1,0:0:0:0:
158,93,53152,2,0,L|25:86,2,113.333333333333,2|2|2,0:1|0:1|0:1,0:0:0:0:
255,254,53718,6,0,P|270:195|272:139,1,85,4|0,0:0|0:0,0:0:0:0:
358,122,53930,1,0,0:0:0:0:
376,98,54001,2,0,P|370:56|359:16,1,85,8|0,0:0|0:0,0:0:0:0:
256,87,54284,1,6,0:0:0:0:
378,209,54425,1,0,0:0:0:0:
378,209,54496,1,0,0:0:0:0:
378,209,54567,1,8,0:0:0:0:
325,335,54708,1,4,0:0:0:0:
158,210,54850,6,2,P|132:217|105:228,3,42.5
133,322,55133,2,2,P|107:310|73:301,3,42.5
13,337,55416,5,10,0:0:0:0:
72,140,55558,1,2,0:1:0:0:
72,140,55841,6,0,L|248:172,1,170,4|2,0:0|0:0,0:0:0:0:
416,280,56265,2,0,L|432:176,1,85,8|0,0:0|0:0,0:0:0:0:
324,60,56548,1,2,0:0:0:0:
260,228,56690,1,2,0:0:0:0:
420,184,56831,2,0,P|460:192|528:204,1,85,8|0,0:0|0:0,0:0:0:0:
275,347,57114,6,0,L|260:264,1,85,2|2,0:0|0:0,0:0:0:0:
212,52,57397,1,8,0:0:0:0:
0,228,57539,2,0,P|64:175|147:178,1,170,0|2,0:0|0:0,0:0:0:0:
244,300,57963,2,0,P|252:341|263:382,1,85,8|0,0:0|0:0,0:0:0:0:
473,322,58246,6,0,L|485:190,1,127.5,2|0,0:0|0:0,0:0:0:0:
488,199,58529,2,0,L|397:214,1,85,12|0,0:0|0:0,0:0:0:0:
180,158,58812,2,0,L|27:180,1,127.5,2|0,0:0|0:0,0:0:0:0:
34,258,59095,2,0,L|54:174,1,85,12|0,0:0|0:0,0:0:0:0:
152,36,59378,5,4,0:0:0:0:
296,232,59520,1,2,0:0:0:0:
296,232,59591,1,0,0:0:0:0:
296,232,59661,1,8,0:0:0:0:
120,328,59803,2,0,L|144:152,1,170,4|2,0:0|0:0,0:0:0:0:
272,0,60227,1,8,0:0:0:0:
352,160,60369,1,2,0:0:0:0:
176,252,60510,6,0,L|72:232,1,85,12|0,0:0|0:0,0:0:0:0:
250,90,60793,1,0,0:0:0:0:
364,240,60935,2,0,L|380:332,1,85,8|2,0:0|0:0,0:0:0:0:
254,81,61218,1,0,0:0:0:0:
123,330,61359,6,0,P|231:322|275:266,1,170,12|0,0:0|0:0,0:0:0:0:
192,111,61784,2,0,P|183:153|176:207,1,85,8|2,0:0|0:0,0:0:0:0:
51,144,62067,1,2,0:0:0:0:
353,328,62208,2,0,L|333:236,1,85,8|0,0:0|0:0,0:0:0:0:
344,88,62491,1,2,0:0:0:0:
181,273,62633,1,2,0:0:0:0:
464,240,62775,6,0,P|368:244|304:196,1,170,12|0,0:0|0:0,0:0:0:0:
181,273,63199,2,0,P|189:313|197:377,1,85,12|2,0:0|0:0,0:0:0:0:
412,144,63482,1,2,0:0:0:0:
128,60,63624,6,0,P|196:6|307:26,1,170,12|2,0:0|0:0,0:0:0:0:
392,252,64048,2,0,L|372:364,1,85,12|2,0:0|0:0,0:0:0:0:
232,120,64331,1,2,0:0:0:0:
116,312,64473,6,2,B|128:313|168:265|168:265|224:265|224:265|264:249,1,170,8|2,0:0|0:0,0:1:0:0:
332,176,64826,1,0,0:0:0:0:
332,176,64897,2,0,L|316:112,1,42.5,2|0,0:0|0:0,0:0:0:0:
284,24,65039,6,0,P|380:28|440:96,1,170,12|0,0:0|0:0,0:0:0:0:
256,296,65463,2,0,L|232:188,1,85,4|0,0:3|0:3,0:0:0:0:
112,136,65746,1,2,0:0:0:0:
400,248,65888,1,12,0:0:0:0:
400,248,67303,6,0,L|420:154,1,85,0|0,3:0|3:0,0:0:0:0:
312,96,67586,1,0,3:0:0:0:
249,297,67727,2,0,P|309:249|421:257,1,170,0|0,3:0|3:0,0:0:0:0:
508,140,68152,2,0,P|456:132|400:120,1,85,4|0,0:0|0:0,0:0:0:0:
278,110,68435,6,0,P|272:70|272:46,3,42.5,2|0|0|0,0:0|0:0|0:0|0:0,0:0:0:0:
184,169,68718,2,0,P|181:190|177:210,3,42.5,2|0|0|0,0:0|0:0|0:0|0:0,0:0:0:0:
100,106,69001,2,0,P|79:102|56:89,3,42.5,2|0|0|0,0:0|0:0|0:0|0:0,0:0:0:0:
7,229,69284,2,0,P|26:220|51:213,1,42.5,2|0,0:0|0:0,0:0:0:0:
140,297,69425,6,0,P|196:309|282:227,1,170,6|2,0:0|0:0,0:0:0:0:
406,138,69850,2,0,P|412:186|424:239,1,85,8|0,0:0|0:0,0:0:0:0:
490,337,70133,1,2,0:0:0:0:
366,292,70275,1,2,0:0:0:0:
497,192,70416,2,0,P|500:139|500:97,1,85,8|0,0:0|0:0,0:0:0:0:
371,23,70699,6,0,P|320:64|293:125,1,127.5,2|0,0:0|0:0,0:0:0:0:
258,143,70982,2,0,P|217:123|160:112,1,85,8|0,0:0|0:0,0:0:0:0:
93,31,71265,2,0,P|64:87|38:116,1,85,2|2,0:0|0:0,0:0:0:0:
17,236,71548,2,0,P|58:216|115:205,1,85,8|0,0:0|0:0,0:0:0:0:
228,301,71831,6,0,P|263:237|255:137,1,170,2|8,0:0|0:0,0:0:0:0:
139,293,72256,2,0,P|134:348|141:393,1,85,0|2,0:0|0:0,0:0:0:0:
349,274,72539,2,0,P|350:225|344:180,1,85,2|8,0:0|0:0,0:0:0:0:
212,76,72822,6,0,P|203:159|241:234,1,170,2|2,0:0|0:0,0:0:0:0:
435,220,73246,1,12,0:0:0:0:
363,363,73388,1,0,0:0:0:0:
512,262,73529,1,2,0:0:0:0:
348,104,73671,2,0,P|343:146|344:188,1,85,2|8,0:0|0:0,0:0:0:0:
282,327,73954,6,0,P|348:279|426:306,1,170,6|2,0:0|0:0,0:0:0:0:
512,158,74378,2,0,P|461:150|423:138,1,85,8|0,0:0|0:0,0:0:0:0:
254,91,74661,1,2,0:0:0:0:
369,18,74803,2,0,P|409:6|451:0,1,85,2|8,0:0|0:0,0:0:0:0:
293,175,75086,6,0,P|233:185|160:94,1,170,2|2,0:0|0:0,0:0:0:0:
29,237,75510,2,0,P|79:217|125:209,1,85,8|0,0:0|0:0,0:0:0:0:
202,347,75793,2,0,P|202:295|207:250,1,85,2|2,0:0|0:0,0:0:0:0:
254,91,76076,1,8,0:0:0:0:
365,214,76218,1,0,0:0:0:0:
491,146,76359,6,0,P|422:140|364:218,1,170,6|8,0:0|0:0,0:0:0:0:
288,341,76784,1,0,0:0:0:0:
458,248,76925,1,2,0:0:0:0:
394,364,77067,1,2,0:0:0:0:
291,185,77208,1,8,0:0:0:0:
278,372,77350,1,0,0:0:0:0:
108,292,77491,6,0,L|220:272,1,85,4|0,0:2|0:0,0:0:0:0:
408,144,77775,2,0,L|315:125,1,85,8|0,0:0|0:0,0:0:0:0:
224,20,78058,1,2,0:1:0:0:
265,273,78199,1,2,3:1:0:0:
265,273,78482,1,2,0:0:0:0:
228,120,78624,1,8,0:3:0:0:
116,228,78765,5,2,0:0:0:0:
116,228,78836,1,0,0:0:0:0:
116,228,78907,2,0,P|185:279|285:263,1,170,12|2,0:0|0:0,0:0:0:0:
340,88,79331,1,2,0:0:0:0:
420,264,79473,2,0,L|400:364,1,85,8|0,0:0|0:0,0:0:0:0:
232,84,79756,6,0,P|184:96|148:104,1,85,2|2,0:0|0:0,0:0:0:0:
260,336,80039,2,0,P|251:294|248:252,1,85,8|0,0:0|0:0,0:0:0:0:
36,144,80322,1,2,0:0:0:0:
80,304,80463,1,0,0:0:0:0:
236,176,80605,2,0,P|282:162|339:149,1,85,8|0,0:0|0:0,0:0:0:0:
300,336,80888,6,0,P|200:341|137:268,1,170,2|8,0:0|0:0,0:0:0:0:
276,132,81312,2,0,L|263:226,1,85,0|2,0:0|0:0,0:0:0:0:
32,176,81595,1,2,0:0:0:0:
150,298,81737,2,0,P|142:222|142:186,1,85,12|0,0:0|0:0,0:0:0:0:
209,27,82020,5,4,0:0:0:0:
356,232,82161,1,2,0:0:0:0:
356,232,82232,1,0,0:0:0:0:
356,232,82303,2,0,L|456:244,1,85,8|0,0:0|0:0,0:0:0:0:
188,144,82586,1,8,0:0:0:0:
195,323,82727,1,0,0:0:0:0:
195,323,82798,1,8,0:0:0:0:
195,323,82869,1,4,0:3:0:0:
352,228,83010,1,2,0:0:0:0:
116,96,83152,6,0,P|108:140|104:200,1,85,4|0,0:0|0:0,0:0:0:0:
259,351,83435,2,0,P|267:307|271:247,1,85,2|2,0:0|0:0,0:0:0:0:
268,69,83718,2,0,P|160:61|100:121,1,170,12|0,0:0|0:0,0:0:0:0:
64,244,84142,1,2,0:0:0:0:
256,288,84284,2,0,L|244:196,1,85,4|8,0:0|0:0,0:0:0:0:
336,80,84567,2,0,L|352:188,1,85,2|2,0:0|0:0,0:0:0:0:
152,348,84850,2,0,L|128:156,1,170,12|8,0:0|0:0,0:0:0:0:
428,136,85275,6,0,P|340:136|244:192,1,170,4|2,0:0|0:0,0:0:0:0:
112,104,85699,1,4,0:0:0:0:
192,280,85841,1,0,0:0:0:0:
344,184,85982,2,0,L|324:60,1,85,8|0,0:0|0:0,0:0:0:0:
184,196,86265,2,0,L|170:279,1,85,8|0,0:0|0:0,0:0:0:0:
36,56,86548,6,0,P|92:16|164:16,2,113.333333333333,2|2|2,0:1|0:1|0:1,0:0:0:0:
264,128,87114,2,0,L|236:264,2,113.333333333333,2|2|2,0:1|0:1|0:1,0:0:0:0:
168,352,87680,6,0,L|152:300,3,42.5,4|0|0|0,0:0|0:0|0:0|0:0,0:0:0:0:
328,320,87963,2,0,L|276:304,3,42.5,2|0|0|0,0:0|0:0|0:0|0:0,0:0:0:0:
364,200,88246,2,0,L|372:144,3,42.5,2|0|0|0,0:0|0:0|0:0|0:0,0:0:0:0:
464,68,88529,2,0,L|512:132,3,42.5,2|0|0|0,0:0|0:0|0:0|0:0,0:0:0:0:
352,0,88812,1,8,0:0:0:0:
352,0,89803,6,0,P|346:94|332:178,1,170,4|2,0:0|0:0,0:0:0:0:
187,296,90227,2,0,P|177:251|171:210,1,85,8|0,0:0|0:0,0:0:0:0:
225,116,90510,1,2,0:0:0:0:
370,244,90652,2,0,P|364:286|355:328,1,85,2|8,0:0|0:0,0:0:0:0:
270,377,90935,6,0,B|272:349|264:321|264:321|275:274|275:274|268:237|266:190,1,170,4|2,0:0|0:0,0:0:0:0:
161,42,91359,2,0,P|143:80|120:115,1,85,8|0,0:0|0:0,0:0:0:0:
34,170,91642,1,2,0:0:0:0:
184,226,91784,2,0,P|234:219|271:208,1,85,2|8,0:0|0:0,0:0:0:0:
410,117,92067,6,0,B|347:109|347:109|301:123|301:123|243:114,1,170,4|2,0:0|0:0,0:0:0:0:
382,255,92491,2,0,P|399:312|403:347,1,85,8|0,0:0|0:0,0:0:0:0:
267,209,92775,1,2,0:0:0:0:
410,117,92916,2,0,P|445:149|471:194,1,85,2|8,0:0|0:0,0:0:0:0:
270,377,93199,6,0,B|272:349|264:321|264:321|275:274|275:274|268:237|266:190,1,170,4|2,0:0|0:0,0:0:0:0:
386,35,93624,2,0,P|399:89|415:127,1,85,8|0,0:0|0:0,0:0:0:0:
506,244,93907,6,2,P|476:231|465:229,3,42.5
439,202,94190,1,10,0:0:0:0:
436,239,94260,1,2,0:0:0:0:
440,277,94331,1,2,0:0:0:0:
450,314,94402,1,2,0:0:0:0:
473,344,94473,6,0,P|413:331|287:320,1,170,6|12,0:0|0:0,0:0:0:0:
122,280,94897,1,0,0:0:0:0:
268,207,95039,2,0,P|318:188|356:179,1,85,2|2,0:0|0:0,0:0:0:0:
190,36,95322,2,0,P|179:74|172:125,1,85,8|0,0:0|0:0,0:0:0:0:
58,224,95605,6,0,P|98:201|188:223,1,127.5,2|0,0:0|0:0,0:0:0:0:
201,247,95888,2,0,P|202:289|206:331,1,85,8|0,0:0|0:0,0:0:0:0:
348,180,96171,1,2,0:0:0:0:
419,267,96312,1,2,0:0:0:0:
309,366,96454,2,0,P|310:323|314:281,1,85,8|0,0:0|0:0,0:0:0:0:
272,129,96737,6,0,P|307:97|400:104,1,127.5,2|0,0:0|0:0,0:0:0:0:
425,83,97020,2,0,P|377:68|334:49,1,85,8|0,0:0|0:0,0:0:0:0:
186,11,97303,2,0,P|188:59|195:114,1,85,2|2,0:0|0:0,0:0:0:0:
330,197,97586,2,0,P|323:239|313:281,1,85,8|0,0:0|0:0,0:0:0:0:
220,378,97869,6,0,P|192:323|173:206,1,170,2|8,0:0|0:0,0:0:0:0:
112,380,98293,1,0,0:0:0:0:
164,212,98435,1,2,0:0:0:0:
281,297,98576,1,2,0:0:0:0:
77,269,98718,2,0,P|32:258|-14:251,1,85,8|0,0:0|0:0,0:0:0:0:
120,85,99001,6,0,P|204:77|280:153,1,170,4|8,0:0|0:0,0:0:0:0:
327,257,99425,1,0,0:0:0:0:
476,328,99567,2,0,P|463:289|456:228,1,85,2|2,0:0|0:0,0:0:0:0:
248,104,99850,2,0,L|238:214,1,85,8|0,0:0|0:0,0:0:0:0:
108,292,100133,6,0,P|124:349|128:393,1,85,2|0,0:0|0:0,0:0:0:0:
327,257,100416,2,0,L|338:157,1,85,8|0,0:0|0:0,0:0:0:0:
265,8,100699,1,2,0:0:0:0:
152,144,100841,1,2,0:0:0:0:
320,220,100982,2,0,P|400:204|416:200,1,85,8|2,0:0|0:0,0:0:0:0:
360,88,101265,5,12,0:0:0:0:
292,340,101407,2,0,P|220:324|196:320,1,85,2|2,0:0|0:0,0:0:0:0:
140,172,101690,1,12,0:0:0:0:
320,68,101831,1,2,0:0:0:0:
296,260,101973,1,2,0:0:0:0:
88,240,102114,6,0,L|120:48,1,170,12|8,0:0|0:0,0:0:0:0:
115,72,102680,1,8,0:0:0:0:
256,184,102822,1,2,0:0:0:0:
176,320,102963,5,4,0:3:0:0:
176,320,103034,1,4,0:3:0:0:
176,320,103105,1,4,0:3:0:0:
388,248,103246,1,2,0:0:0:0:
196,128,103388,1,2,0:0:0:0:
388,248,103529,6,0,L|398:332,1,85,12|2,0:0|0:0,0:0:0:0:
304,80,103812,1,2,0:0:0:0:
168,248,103954,2,0,P|116:240|68:220,1,85,12|2,0:0|0:0,0:0:0:0:
80,52,104237,1,2,0:0:0:0:
276,200,104378,6,0,L|288:320,1,85,12|0,0:0|0:0,0:0:0:0:
152,368,104661,1,2,0:0:0:0:
112,152,104803,1,12,0:0:0:0:
332,264,104944,2,0,P|380:244|436:232,1,85,0|2,0:0|0:0,0:0:0:0:
144,268,105227,5,8,0:0:0:0:
321,368,105369,1,2,0:0:0:0:
332,160,105510,2,0,L|305:44,1,85,8|2,0:0|0:0,0:0:0:0:
108,304,105793,6,0,L|144:128,1,170,12|2,0:0|0:0,0:0:0:0:
64,20,106218,1,12,0:0:0:0:
248,212,106359,2,0,P|328:228|352:228,1,85,2|2,0:0|0:0,0:0:0:0:
36,216,106642,1,12,0:0:0:0:
128,356,106784,1,0,0:0:0:0:
248,212,106925,6,0,L|260:84,2,113.333333333333,8|8|8,0:0|0:0|0:0,0:0:0:0:
435,254,107491,2,0,P|383:278|319:294,1,113.333333333333,8|4,0:0|0:3,0:0:0:0:
134,152,107869,1,2,0:0:0:0:
44,364,108058,6,0,P|126:301|222:303,1,170,4|8,0:0|0:0,0:0:0:0:
305,359,108482,1,4,0:0:0:0:
313,363,108907,2,0,L|301:307,3,42.5,4|0|0|0,0:0|0:0|0:0|0:0,0:0:0:0:
178,248,109190,2,0,L|189:199,3,42.5
292,127,109473,6,2,L|268:2,1,127.5,4|0,0:0|0:0,0:1:0:0:
284,242,110039,2,0,P|229:224|186:196,1,85,4|4,0:3|0:3,0:0:0:0:
151,71,110322,5,8,0:0:0:0:
147,46,110605,1,8,0:0:0:0:
136,24,110888,1,8,0:0:0:0:
92,246,111029,1,8,0:0:0:0:
208,172,111171,1,0,0:0:0:0:
64,91,111312,1,8,0:0:0:0:
231,18,111454,6,0,P|262:59|282:137,1,113.333333333333,4|0,0:3|0:0,0:0:0:0:
304,158,111737,2,8,P|349:144|367:141,2,56.6666666666667
146,261,112020,2,8,P|119:251|91:245,2,56.6666666666667
378,299,112303,2,8,P|423:285|441:282,2,56.6666666666667
252,380,112586,5,6,0:0:0:0:
252,380,112869,2,0,P|260:338|263:295,1,85,8|0,0:0|0:0,0:0:0:0:
208,172,113152,1,2,0:0:0:0:
60,272,113293,2,0,P|102:264|145:260,1,85,2|8,0:0|0:0,0:0:0:0:
272,125,113576,6,0,P|225:93|131:169,1,170,6|2,0:0|0:0,0:0:0:0:
331,215,114001,2,0,P|383:224|427:227,1,85,8|0,0:0|0:0,0:0:0:0:
512,143,114284,1,2,0:0:0:0:
414,335,114425,2,0,P|334:342|252:282,1,170,2|2,0:0|0:0,0:0:0:0:
51,154,114850,6,0,P|92:146|135:142,1,85,4|0,0:0|0:0,0:0:0:0:
378,56,115133,2,0,P|364:109|349:152,1,85,8|0,0:0|0:0,0:0:0:0:
235,319,115416,1,2,0:0:0:0:
248,104,115558,1,2,0:0:0:0:
115,325,115699,1,10,0:0:0:0:
356,250,115841,1,4,0:0:0:0:
321,48,117114,5,0,3:0:0:0:
256,340,118246,5,0,0:0:0:0:
29,157,119378,6,0,B|64:151|64:151|99:161|99:161|123:155|148:160,1,101.999996887207,0|0,3:0|0:0,0:0:0:0:
224,243,119803,6,0,P|241:209|267:178,1,68,4|0,0:3|0:0,0:0:0:0:
306,66,120086,2,0,P|323:100|349:131,1,68,4|0,0:3|0:0,0:0:0:0:
505,222,120369,6,0,B|480:231|480:231|455:222|455:222|408:234|328:228,1,170,4|0,0:0|0:0,0:0:0:0:
167,89,120793,1,2,0:0:0:0:
341,123,120935,1,2,0:0:0:0:
87,241,121076,1,10,0:0:0:0:
259,185,121218,1,10,0:0:0:0:
55,55,121359,1,10,0:0:0:0:
113,348,121501,1,10,0:0:0:0:
168,189,121642,1,14,0:0:0:0:
168,189,121925,6,0,L|187:307,1,85
339,361,122208,1,0,0:0:0:0:
407,157,122350,1,0,0:0:0:0:
411,148,122633,6,0,P|308:145|248:201,1,170,4|2,0:0|0:0,0:0:0:0:
108,352,123058,2,0,L|132:252,1,85,8|0,0:0|0:0,0:0:0:0:
88,120,123341,1,2,0:0:0:0:
246,258,123482,1,2,0:0:0:0:
320,64,123624,2,0,P|279:75|238:88,1,85,8|0,0:0|0:0,0:0:0:0:
280,352,123907,6,0,P|363:347|419:285,1,170,2|8,0:0|0:0,0:0:0:0:
429,126,124331,1,0,0:0:0:0:
258,57,124473,2,0,L|244:162,1,85,2|2,0:0|0:0,0:0:0:0:
136,332,124756,2,0,P|125:293|108:227,1,85,8|0,0:0|0:0,0:0:0:0:
332,220,125039,1,2,0:0:0:0:
332,220,125322,6,0,L|428:232,1,85,8|0,0:0|0:0,0:0:0:0:
228,32,125605,2,0,P|180:48|129:69,1,85,2|0,0:0|0:0,0:0:0:0:
22,185,125888,1,8,0:0:0:0:
175,358,126029,6,0,L|212:157,1,170,4|2,0:0|0:0,0:0:0:0:
384,208,126454,2,0,P|372:167|361:126,1,85,12|0,0:0|0:0,0:0:0:0:
216,50,126737,1,2,0:0:0:0:
284,271,126878,1,0,0:0:0:0:
284,271,126949,1,0,0:0:0:0:
284,271,127020,1,8,0:0:0:0:
481,145,127161,6,0,P|420:91|307:108,1,170,4|2,0:0|0:0,0:0:0:0:
171,206,127586,2,0,P|132:218|70:241,1,85,8|0,0:0|0:0,0:0:0:0:
140,69,127869,1,2,0:0:0:0:
259,300,128010,1,2,0:0:0:0:
380,91,128152,2,0,P|387:132|393:175,1,85,12|0,0:0|0:0,0:0:0:0:
194,374,128435,6,0,L|166:174,1,170,4|8,0:0|0:0,0:0:0:0:
300,264,128859,1,0,0:0:0:0:
52,216,129001,2,0,L|64:120,1,85,2|2,0:0|0:0,0:0:0:0:
324,48,129284,1,8,0:0:0:0:
304,268,129425,1,0,0:0:0:0:
200,136,129567,5,4,0:0:0:0:
384,240,129708,1,2,0:0:0:0:
160,288,129850,1,8,0:0:0:0:
416,136,129991,1,2,0:0:0:0:
112,328,130133,6,0,L|96:216,1,85,12|2,0:0|0:0,0:0:0:0:
233,60,130416,1,2,0:0:0:0:
382,277,130558,2,0,P|287:277|224:216,1,170,12|0,0:0|0:0,0:0:0:0:
116,80,130982,1,12,0:0:0:0:
45,304,131124,1,8,0:0:0:0:
45,304,131194,1,8,0:0:0:0:
45,304,131265,1,2,0:1:0:0:
318,202,131407,1,2,3:1:0:0:
318,202,131690,6,0,L|290:18,1,170,4|2,0:0|0:0,0:0:0:0:
112,0,132114,1,8,0:0:0:0:
56,204,132256,1,0,0:0:0:0:
56,204,132326,1,0,0:0:0:0:
56,204,132397,2,0,P|98:192|164:176,1,85,2|2,0:0|0:0,0:0:0:0:
320,264,132680,1,8,0:0:0:0:
256,96,132822,1,0,0:0:0:0:
144,272,132963,6,0,P|140:312|140:380,1,85,2|2,0:0|0:0,0:0:0:0:
392,252,133246,2,0,L|376:152,1,85,8|0,0:0|0:0,0:0:0:0:
275,21,133529,1,2,0:0:0:0:
243,238,133671,1,2,0:0:0:0:
376,132,133812,2,0,P|424:144|464:152,1,85,8|0,0:0|0:0,0:0:0:0:
189,148,134095,6,0,P|136:109|51:122,1,127.5,2|0,0:0|0:0,0:0:0:0:
38,131,134378,2,0,L|13:235,1,85,12|0,0:0|0:0,0:0:0:0:
301,334,134661,2,2,P|356:289|453:290,1,152.999995330811,2|0,0:0|0:0,0:1:0:0:
456,367,134944,2,0,L|432:271,1,85,12|0,0:0|0:0,0:0:0:0:
424,64,135227,5,4,0:0:0:0:
264,240,135369,1,2,0:0:0:0:
264,240,135440,1,8,0:0:0:0:
264,240,135510,1,8,0:0:0:0:
196,16,135652,1,4,0:0:0:0:
408,168,135793,2,2,B|516:144,1,85,0|2,0:0|0:0,0:1:0:0:
268,112,136076,1,8,0:0:0:0:
232,352,136218,1,2,0:0:0:0:
388,276,136359,5,12,0:0:0:0:
176,192,136501,2,0,P|167:228|160:300,1,85,2|2,0:0|0:0,0:0:0:0:
304,120,136784,5,8,0:0:0:0:
36,216,136925,2,0,P|31:159|22:112,1,85,2|2,0:0|0:0,0:0:0:0:
280,248,137208,2,0,P|284:288|296:348,1,85,8|2,0:0|0:0,0:0:0:0:
392,76,137491,6,0,P|324:31|224:54,2,170,12|8|8,0:0|0:0|0:0,0:0:0:0:
364,344,138270,1,4,0:3:0:0:
364,344,138482,6,0,P|464:328|492:236,1,170,4|2,0:0|0:0,0:0:0:0:
332,180,138907,2,0,P|293:191|232:208,1,85,8|0,0:0|0:0,0:0:0:0:
48,56,139190,2,0,L|164:80,1,85,2|2,0:0|0:0,0:0:0:0:
250,202,139473,1,8,0:0:0:0:
64,360,139614,6,0,L|92:168,1,170,4|2,0:0|0:0,0:0:0:0:
250,202,140039,1,2,0:0:0:0:
250,202,140109,1,2,0:0:0:0:
250,202,140180,2,0,L|318:182,1,42.5,2|0,0:0|0:0,0:0:0:0:
328,48,140322,6,0,L|265:34,1,50.9999984436036,8|0,0:0|0:0,0:0:0:0:
156,156,140463,2,0,L|225:174,1,50.9999984436036,4|0,0:3|0:0,0:0:0:0:
356,256,140605,2,0,L|298:270,1,46.7500014266968,8|0,0:0|0:0,0:0:0:0:
180,356,140746,2,0,L|244:381,1,46.7500014266968,2|0,0:0|0:0,0:0:0:0:
412,384,140888,5,4,0:0:0:0:
96,260,142020,1,4,0:0:0:0:
365,197,143010,6,0,P|294:153|188:163,1,170,4|0,0:0|0:0,0:0:0:0:
180,322,143435,2,0,L|211:148,1,170,8|0,0:0|0:0,0:0:0:0:
161,46,143859,1,4,0:3:0:0:
289,266,144142,1,8,0:0:0:0:
98,210,144284,6,0,L|270:178,1,170,8|2,0:3|0:0,0:0:0:0:
424,372,144708,2,0,L|308:348,1,85,4|0,0:3|0:0,0:0:0:0:
180,322,144991,1,4,0:3:0:0:
352,228,145133,2,0,P|360:192|364:128,1,85,2|0,0:0|0:0,0:0:0:0:
356,0,145416,5,12,0:3:0:0:
2,263,151925,6,0,P|29:205|43:138,1,127.5,12|0,0:0|0:0,0:0:0:0:
69,110,152208,6,2,P|65:67|67:47,2,42.5
98,333,152491,1,8,0:0:0:0:
172,156,152633,6,2,P|179:130|184:112,2,42.5
239,307,152916,1,0,0:0:0:0:
298,110,153058,6,2,P|291:82|281:62,2,42.5
375,342,153341,1,0,0:0:0:0:
431,151,153482,6,2,P|444:109|453:92,2,42.5,2|2|8,0:0|0:0|0:0,0:0:0:0:
510,314,153765,1,0,0:0:0:0:
321,225,153907,5,2,0:0:0:0:
321,225,153977,1,2,0:0:0:0:
321,225,154048,1,2,0:0:0:0:
321,225,154119,1,2,0:0:0:0:
321,225,154190,2,0,B|267:239|267:239|234:228|234:228|201:229|146:216,1,152.999995330811,6|0,0:0|0:0,0:0:0:0:
110,153,154473,6,0,P|44:170|23:244,1,127.5,12|0,0:3|0:0,0:0:0:0:
5,250,154756,2,0,P|55:243|100:240,1,85,8|0,0:0|0:0,0:0:0:0:
224,105,155039,2,0,P|270:123|311:143,1,85,2|0,0:0|0:0,0:0:0:0:
473,236,155322,2,0,P|435:254|396:270,1,85,8|0,0:0|0:0,0:0:0:0:
223,350,155605,6,0,P|152:338|50:326,1,170,2|8,0:0|0:0,0:0:0:0:
263,240,156029,1,0,0:0:0:0:
404,360,156171,2,0,P|468:326|472:233,1,170,2|8,0:0|0:0,0:0:0:0:
276,72,156595,6,0,B|282:156|282:156|279:199|259:248,1,170
459,76,157020,2,0,P|468:122|487:161,1,85,8|0,0:0|0:0,0:0:0:0:
373,13,157303,2,0,L|368:163,1,127.5,2|0,0:0|0:0,0:0:0:0:
363,174,157586,2,0,P|327:159|273:149,1,85,8|0,0:0|0:0,0:0:0:0:
110,71,157869,5,2,0:0:0:0:
262,34,158010,1,0,0:0:0:0:
132,200,158152,1,8,0:0:0:0:
7,150,158293,1,0,0:0:0:0:
176,12,158435,2,0,P|189:57|194:107,1,85,2|0,0:0|0:0,0:0:0:0:
206,270,158718,1,8,0:0:0:0:
31,231,158859,1,0,0:0:0:0:
158,356,159001,6,0,P|241:355|297:294,1,170,12|8,0:3|0:0,0:0:0:0:
436,252,159425,1,0,0:0:0:0:
280,200,159567,2,0,P|230:188|182:168,1,85,2|0,0:0|0:0,0:0:0:0:
446,128,159850,1,10,0:0:0:0:
446,128,159921,1,2,0:0:0:0:
446,128,159991,1,2,0:0:0:0:
446,128,160062,1,2,0:0:0:0:
446,128,160133,6,0,L|268:108,1,170,6|8,0:0|0:0,0:0:0:0:
137,51,160558,1,0,0:0:0:0:
59,207,160699,2,2,L|53:158,3,42.5
160,284,160982,2,2,L|166:235,3,42.5,10|2|2|2,0:0|0:0|0:0|0:0,0:0:0:0:
280,200,161265,6,0,P|346:185|397:267,1,152.999995330811,4|0,0:0|0:0,0:0:0:0:
415,273,161548,2,0,L|403:322,1,42.5,8|0,0:0|0:0,0:0:0:0:
252,374,161690,6,0,B|242:312|242:312|257:212,1,152.999995330811,4|0,0:0|0:0,0:0:0:0:
280,200,161973,2,0,L|275:157,1,42.5,8|0,0:0|0:0,0:0:0:0:
169,23,162114,6,0,P|110:28|84:129,1,152.999995330811,4|0,0:0|0:0,0:0:0:0:
83,139,162397,2,0,L|136:126,1,42.5,8|0,0:0|0:0,0:0:0:0:
352,79,162539,6,0,P|411:84|437:185,1,152.999995330811,4|0,0:0|0:0,0:0:0:0:
438,195,162822,2,0,L|385:182,1,42.5,8|0,0:0|0:0,0:0:0:0:
235,131,162963,5,12,0:0:0:0:
157,314,163105,1,2,0:0:0:0:
135,327,163175,1,2,0:0:0:0:
109,331,163246,1,2,0:0:0:0:
83,327,163317,1,2,0:0:0:0:
61,312,163388,1,2,0:0:0:0:
50,288,163458,1,2,0:0:0:0:
46,261,163529,6,0,P|79:212|170:226,1,152.999995330811,6|0,0:0|0:0,0:0:0:0:
183,248,163812,2,0,P|185:278|192:313,1,42.5,8|0,0:0|0:0,0:0:0:0:
308,360,163954,6,0,P|359:341|459:330,1,152.999995330811,4|0,0:0|0:0,0:0:0:0:
484,310,164237,2,0,P|450:297|423:290,1,42.5,8|0,0:0|0:0,0:0:0:0:
312,223,164378,6,0,B|322:173|322:173|318:124|318:124|330:58,1,152.999995330811,4|0,0:0|0:0,0:0:0:0:
353,49,164661,2,0,P|375:58|404:67,1,42.5,8|0,0:0|0:0,0:0:0:0:
221,130,164803,6,0,P|154:145|64:154,1,152.999995330811,4|0,0:0|0:0,0:0:0:0:
45,124,165086,2,0,P|76:128|107:137,1,42.5,8|0,0:0|0:0,0:0:0:0:
181,254,165227,5,12,0:0:0:0:
242,36,165369,2,0,P|195:42|147:62,1,85,12|0,0:0|0:0,0:0:0:0:
181,254,165652,6,0,L|317:286,1,127.500004863739,4|0,0:0|0:0,0:0:0:0:
456,168,165935,1,8,0:0:0:0:
456,168,166006,1,2,0:0:0:0:
456,168,166076,1,2,0:0:0:0:
456,168,166147,1,2,0:0:0:0:
456,168,166218,1,2,0:0:0:0:
456,168,166289,1,2,0:0:0:0:
456,168,166359,1,2,0:0:0:0:
456,168,166430,1,2,0:0:0:0:
456,168,166501,1,2,0:0:0:0:
456,168,166572,1,2,0:0:0:0:
456,168,166642,5,12,0:0:0:0:
268,323,166784,1,12,0:0:0:0:
414,308,166925,5,2,0:0:0:0:
414,308,166996,1,2,0:0:0:0:
414,308,167067,1,12,0:0:0:0:
187,195,167208,1,12,0:0:0:0:
154,338,167350,5,2,0:0:0:0:
154,338,167421,1,2,0:0:0:0:
154,338,167491,1,8,0:0:0:0:
273,102,167633,2,0,L|256:8,1,85,8|4,0:3|0:3,0:0:0:0:
69,150,167916,6,2,P|118:178|187:195,1,127.500004863739,2|2,0:0|0:0,0:1:0:0:
508,232,168341,6,2,P|462:160|322:167,1,203.999993774414,12|2,0:0|0:0,0:1:0:0:
272,24,168765,1,2,0:0:0:0:
174,178,168907,2,0,P|171:220|168:263,1,85,8|0,0:0|0:0,0:0:0:0:
400,216,169190,2,0,P|450:204|492:190,1,85,2|2,0:0|0:0,0:0:0:0:
252,120,169473,1,8,0:0:0:0:
288,312,169614,1,0,0:0:0:0:
90,250,169756,2,0,L|114:82,1,170,2|8,0:0|0:0,0:0:0:0:
283,17,170180,1,0,0:0:0:0:
379,186,170322,6,0,P|299:198|263:214,1,85,2|0,0:0|0:0,0:0:0:0:
156,328,170605,1,8,0:0:0:0:
36,172,170746,2,0,P|92:124|212:148,2,170,0|2|2,0:0|0:0|0:0,0:0:0:0:
312,204,171454,6,0,P|324:124|328:84,1,85,0|2,3:0|0:0,0:0:0:0:
188,24,171737,1,12,0:0:0:0:
128,224,171878,1,0,0:0:0:0:
128,224,171949,1,0,0:0:0:0:
128,224,172020,2,0,L|136:316,1,85,8|4,0:0|0:3,0:0:0:0:
268,152,172303,1,2,0:0:0:0:
352,320,172444,6,0,P|440:300|472:252,1,127.500004863739,2|0,3:0|0:0,0:0:0:0:
456,136,172869,2,0,P|404:148|376:152,1,63.7500024318696,2|0,0:0|0:0,0:0:0:0:
253,249,173152,2,0,P|249:285|249:329,2,63.7500024318696,2|0|0,0:0|0:0|0:0,0:0:0:0:
168,144,173576,6,0,P|104:112|36:128,1,127.500004863739,2|0,0:0|0:0,0:0:0:0:
252,32,174001,2,0,P|285:25|340:4,1,63.7500024318696
388,128,174284,2,0,L|380:208,2,63.7500024318696,2|0|2,0:0|0:0|0:0,0:0:0:0:
248,232,174708,5,0,3:3:0:0:
248,232,174779,1,0,3:3:0:0:
248,232,174850,2,0,L|267:338,1,85,8|8,0:0|0:0,0:0:0:0:
138,119,175133,1,2,0:0:0:0:
36,320,175275,6,0,L|156:288,1,85,8|8,0:0|0:0,0:0:0:0:
360,368,175558,1,2,0:0:0:0:
396,92,175699,6,8,L|373:192,1,85
156,12,175982,1,2,0:0:0:0:
56,276,176124,6,0,L|157:232,1,85,8|8,0:0|0:0,0:0:0:0:
372,364,176407,1,2,0:0:0:0:
479,140,176548,6,2,L|335:180,1,110.499994941712,8|8,0:0|0:0,0:1:0:0:
175,40,176831,1,0,0:0:0:0:
154,371,176973,6,2,P|220:370|300:288,1,170,8|2,0:0|0:0,0:1:0:0:
266,58,177397,6,0,P|188:94|233:240,1,237.999992736817,4|2,0:0|0:0,0:0:0:0:
425,180,177822,1,2,0:0:0:0:
425,180,177963,2,0,P|413:118|411:48,1,127.5,8|0,0:0|0:0,0:0:0:0:
397,13,178246,6,0,P|343:36|305:45,1,85,2|0,0:0|0:0,0:0:0:0:
161,187,178529,2,0,P|107:164|69:155,1,85,8|0,0:0|0:0,0:0:0:0:
218,28,178812,2,0,P|225:69|234:111,1,85,2|2,0:0|0:0,0:0:0:0:
280,314,179095,1,8,0:0:0:0:
330,148,179237,1,0,0:0:0:0:
196,342,179378,6,0,P|143:339|36:290,1,170,2|8,0:0|0:0,0:0:0:0:
341,245,179803,2,0,B|391:230|438:231|438:231|417:249|394:259,1,127.5,2|0,0:0|0:0,0:0:0:0:
280,314,180086,2,0,P|256:273|243:225,1,85,2|8,0:0|0:0,0:0:0:0:
318,67,180369,6,0,P|399:64|450:157,1,170,4|2,0:0|0:0,0:0:0:0:
495,307,180793,1,12,0:0:0:0:
356,151,180935,1,0,0:0:0:0:
280,314,181076,1,2,0:0:0:0:
414,248,181218,1,2,0:0:0:0:
414,248,181289,1,2,0:0:0:0:
414,248,181359,1,8,0:0:0:0:
252,143,181501,1,0,0:0:0:0:
433,22,181642,6,0,L|423:117,1,76.4999976654053,6|0,0:0|0:0,0:0:0:0:
333,241,181925,2,0,L|324:164,1,76.4999976654053,2|0,0:0|0:0,0:0:0:0:
223,62,182208,2,0,P|168:61|93:124,1,152.999995330811,8|0,0:0|0:0,0:0:0:0:
37,243,182633,1,2,0:0:0:0:
200,343,182775,6,0,P|206:299|211:262,1,76.4999976654053,0|8,0:0|0:0,0:0:0:0:
324,164,183058,2,0,P|318:120|313:83,1,76.4999976654053,2|2,0:0|0:0,0:0:0:0:
160,5,183341,2,0,P|139:56|186:144,1,152.999995330811,8|0,0:0|0:0,0:0:0:0:
287,232,183765,6,0,P|353:219|443:219,1,152.999995330811,4|2,0:0|0:0,0:0:0:0:
512,106,184190,2,0,P|464:97|426:84,1,76.4999976654053,0|2,0:0|0:0,0:0:0:0:
317,19,184473,2,0,P|315:78|305:133,1,114.749996498108,8|0,0:0|0:0,0:0:0:0:
275,156,184756,2,0,P|280:209|290:239,1,76.4999976654053,2|0,0:0|0:0,0:0:0:0:
371,367,185039,5,2,0:1:0:0:
512,228,185227,5,2,0:1:0:0:
305,132,185416,5,2,0:1:0:0:
141,344,185605,5,2,0:1:0:0:
78,110,185793,5,2,0:1:0:0:
286,231,185982,5,2,0:1:0:0:
61,268,186171,6,2,P|33:274|3:278,3,42.5,6|2|2|2,0:0|0:0|0:0|0:0,0:0:0:0:
146,166,186454,2,2,L|142:224,3,42.5
219,281,186737,2,2,L|223:339,3,42.5
266,359,187020,5,10,0:0:0:0:
304,362,187091,1,10,0:0:0:0:
339,349,187161,1,10,0:0:0:0:
367,323,187232,1,10,0:0:0:0:
383,288,187303,1,14,0:0:0:0:
383,288,188293,6,0,L|196:320,1,170,4|2,0:0|0:0,0:0:0:0:
64,208,188718,2,0,P|76:136|80:104,1,85,8|0,0:0|0:0,0:0:0:0:
256,40,189001,1,2,0:0:0:0:
204,296,189142,1,2,0:0:0:0:
204,296,189425,6,0,L|376:264,1,170,4|2,0:0|0:0,0:0:0:0:
448,100,189850,2,0,P|380:80|328:64,1,85,8|0,0:0|0:0,0:0:0:0:
180,128,190133,1,2,0:0:0:0:
336,344,190275,1,2,0:0:0:0:
336,344,190558,6,0,L|312:168,1,170,4|2,0:0|0:0,0:0:0:0:
108,136,190982,2,0,L|120:44,1,85,12|2,0:0|0:0,0:0:0:0:
336,148,191265,1,2,0:0:0:0:
164,344,191407,1,2,0:0:0:0:
164,344,191690,6,0,L|193:159,1,170,4|2,0:0|0:0,0:0:0:0:
396,196,192114,2,0,P|344:212|304:220,1,85,12|0,0:0|0:0,0:0:0:0:
192,72,192397,1,2,0:0:0:0:
120,252,192539,2,0,L|112:300,2,42.5,2|0|2,0:0|0:0|0:0,0:0:0:0:
300,128,192822,5,2,0:0:0:0:
300,128,192892,1,0,0:0:0:0:
300,128,192963,2,0,P|293:71|280:20,1,85,4|0,0:0|0:0,0:0:0:0:
128,208,193246,2,0,P|132:264|144:320,1,85,8|0,0:0|0:0,0:0:0:0:
221,99,193529,1,2,0:0:0:0:
384,288,193671,2,0,L|396:188,1,85,2|0,0:0|0:0,0:0:0:0:
179,292,193954,6,0,P|75:288|27:224,1,170,8|2,0:0|0:0,0:0:0:0:
48,72,194378,2,0,P|92:64|148:52,1,85,8|0,0:0|0:0,0:0:0:0:
280,184,194661,2,0,L|294:278,1,85,2|2,0:0|0:0,0:0:0:0:
414,110,194944,1,8,0:0:0:0:
470,249,195086,1,8,0:0:0:0:
257,352,195227,6,0,L|281:176,1,170,4|8,0:0|0:0,0:0:0:0:
153,244,195652,1,0,0:0:0:0:
389,276,195793,2,0,P|449:256|481:244,2,85,2|2|0,0:0|0:0|0:0,0:0:0:0:
284,88,196218,6,0,P|216:36|120:52,1,170,8|2,0:0|0:0,0:0:0:0:
24,188,196642,1,0,0:0:0:0:
168,312,196784,2,0,P|176:252|184:208,1,85,8|0,0:0|3:0,0:0:0:0:
280,44,197067,1,2,0:0:0:0:
423,185,197208,1,8,0:0:0:0:
407,229,197279,1,8,0:0:0:0:
367,257,197350,1,8,0:0:0:0:
323,269,197421,1,8,0:0:0:0:
279,261,197491,6,0,L|275:81,1,170,4|8,0:0|0:0,0:0:0:0:
423,185,197916,1,0,0:0:0:0:
310,353,198058,2,0,P|318:300|323:266,1,85,2|2,0:0|0:0,0:0:0:0:
180,227,198341,2,0,P|172:174|167:140,1,85,2|8,0:0|0:0,0:0:0:0:
363,86,198624,6,0,P|356:128|350:170,1,85,2|0,0:0|0:0,0:0:0:0:
228,332,198907,2,0,P|221:289|215:247,1,85,8|0,0:0|0:0,0:0:0:0:
58,160,199190,2,0,P|83:118|115:82,1,85,2|2,0:0|0:0,0:0:0:0:
209,13,199473,1,8,0:0:0:0:
280,196,199614,1,0,0:0:0:0:
501,124,199756,6,0,P|473:83|361:87,1,170,4|0,0:0|0:0,0:0:0:0:
387,315,200180,2,0,B|412:261|412:261|418:143,1,170,12|0,0:0|0:0,0:0:0:0:
238,39,200605,2,0,L|250:168,1,127.5,12|0,0:0|0:0,0:0:0:0:
280,196,200888,6,2,L|276:249,2,42.5,10|2|2,0:0|0:0|0:0,0:0:0:0:
151,136,201171,1,8,0:0:0:0:
362,85,201312,1,0,0:0:0:0:
253,331,201454,1,10,0:0:0:0:
238,39,201595,1,2,0:0:0:0:
372,185,201737,1,8,0:0:0:0:
130,258,201878,1,8,0:0:0:0:
130,258,201949,1,0,0:0:0:0:
130,258,202020,6,0,L|25:241,1,85,4|0,0:0|0:0,0:0:0:0:
237,87,202303,1,8,0:0:0:0:
365,286,202444,2,0,P|370:328|370:370,1,85,4|0,0:0|0:0,0:0:0:0:
196,203,202727,1,0,0:0:0:0:
395,127,202869,2,0,P|452:102|490:93,1,85,12|0,0:0|0:0,0:0:0:0:
208,57,203152,5,2,0:0:0:0:
285,319,203293,2,0,B|276:280|282:232|282:232|304:200|314:151,1,170,12|0,0:0|0:0,0:0:0:0:
130,258,203718,2,0,L|25:241,1,85,6|0,0:0|0:0,0:0:0:0:
208,57,204001,2,0,P|213:108|225:159,1,85,12|0,0:0|0:0,0:0:0:0:
364,261,204284,6,0,P|405:252|442:139,1,170,6|2,0:0|0:0,0:0:0:0:
305,37,204708,1,12,0:0:0:0:
207,224,204850,2,0,P|208:268|221:335,1,85,2|2,0:0|0:0,0:0:0:0:
362,177,205133,2,0,P|368:134|369:92,1,85,12|0,0:0|0:0,0:0:0:0:
184,20,205416,6,0,P|185:62|189:94,1,56.6666666666667,2|0,0:0|0:0,0:0:0:0:
282,153,205605,2,0,P|280:195|277:227,1,56.6666666666667,2|0,0:0|0:0,0:0:0:0:
214,327,205793,2,0,P|188:318|158:310,1,56.6666666666667,2|0,0:0|0:0,0:0:0:0:
22,261,205982,6,0,P|48:252|78:244,1,56.6666666666667,8|0,0:0|0:0,0:0:0:0:
153,167,206171,2,0,P|179:176|209:184,1,56.6666666666667,2|0,0:0|0:0,0:0:0:0:
300,285,206359,2,0,P|326:276|356:268,1,56.6666666666667,2|0,0:0|0:0,0:0:0:0:
490,213,206548,6,0,P|478:295|452:390,1,170,4|8,0:0|0:0,0:0:0:0:
399,172,206973,1,4,0:0:0:0:
399,172,207397,6,0,B|414:135|403:101|403:101|379:106|365:127|365:127|356:106|334:95|334:95|317:134|323:165,1,238,8|0,0:0|0:0,0:0:0:0:
239,201,207963,6,2,B|231:132|258:70|270:32|270:32|216:32|183:21|183:21|173:54|162:84,1,327.249990013123,6|0,0:1|0:0,0:1:0:0:
69,159,208812,6,0,L|81:119,3,42.5,8|8|8|8,0:0|0:0|0:0|0:0,0:0:0:0:
149,218,209095,2,0,L|161:251,3,31.8750012159348,2|0|2|0,0:0|0:0|0:0|0:0,0:0:0:0:
77,305,209378,2,0,L|67:332,3,21.25,4|4|4|4,0:3|0:3|0:3|0:3,0:0:0:0:
186,367,209661,2,0,L|294:339,1,85,8|0,0:3|0:0,0:0:0:0:
456,348,209944,6,2,B|440:320|444:280|444:280|408:240|408:240|406:159,2,170,2|8|2,0:0|0:3|0:0,0:1:0:0:
356,88,210652,1,8,0:0:0:0:
356,88,210723,1,8,0:0:0:0:
356,88,210793,2,0,L|420:68,1,42.5,8|0,0:3|0:0,0:0:0:0:
500,228,210935,2,0,L|436:248,1,42.5,2|2,0:0|0:0,0:0:0:0:
266,310,211076,6,0,L|290:134,1,170,4|8,0:0|0:0,0:0:0:0:
288,141,211642,1,2,0:0:0:0:
88,256,211784,2,0,P|152:268|192:280,1,85,2|8,0:0|0:0,0:0:0:0:
442,106,212067,6,0,P|350:98|286:158,1,170,4|2,0:0|0:0,0:0:0:0:
413,327,212491,1,8,0:0:0:0:
413,327,212775,2,0,L|397:219,1,85,2|2,3:2|0:0,0:0:0:0:
131,115,213058,1,8,0:0:0:0:
131,115,213341,6,0,L|300:148,1,170,4|8,0:0|0:0,0:0:0:0:
488,240,213765,1,0,0:0:0:0:
361,347,213907,2,0,P|351:305|343:264,1,85,2|2,0:0|3:2,0:0:0:0:
308,104,214190,1,8,0:0:0:0:
194,350,214331,6,0,P|111:351|39:277,1,170,4|2,0:0|0:0,0:0:0:0:
155,91,214756,2,0,P|169:139|173:189,1,85,8|0,0:0|0:0,0:0:0:0:
364,352,215039,2,0,L|384:244,1,85,2|2,0:0|0:0,0:0:0:0:
396,56,215322,1,8,0:0:0:0:
232,232,215463,1,2,0:0:0:0:
472,308,215605,6,0,L|488:256,3,42.5,12|0|2|0,0:3|0:0|0:0|0:0,0:0:0:0:
382,192,215888,2,0,L|366:140,3,42.5,8|0|2|0,0:3|0:0|0:0|0:0,0:0:0:0:
276,76,216171,2,0,L|176:108,1,85,8|2,0:3|0:0,0:0:0:0:
20,96,216454,1,8,0:0:0:0:
152,356,216595,6,0,L|180:171,1,170,12|2,0:3|0:0,0:0:0:0:
409,87,217020,6,0,P|409:44|388:3,1,89.2499972763062,4|0,0:0|0:0,0:0:0:0:
334,221,217303,6,2,P|326:277|323:311,1,72.2500013780594,12|0,0:0|0:0,0:1:0:0:
237,105,217444,6,0,P|221:77|184:51,1,63.75,4|0,0:0|0:0,0:0:0:0:
45,27,217727,6,0,L|67:195,1,170,4|2,0:0|0:0,0:0:0:0:
241,339,218152,2,0,L|256:221,1,85,8|0,0:0|0:0,0:0:0:0:
342,94,218435,1,2,0:0:0:0:
159,220,218576,1,2,0:0:0:0:
377,349,218718,2,0,P|415:326|444:289,1,85,8|0,0:0|0:0,0:0:0:0:
223,73,219001,6,0,P|219:120|213:160,1,85,2|0,0:0|0:0,0:0:0:0:
67,195,219284,2,0,P|78:235|81:293,1,85,8|0,0:0|0:0,0:0:0:0:
343,305,219567,2,0,P|339:258|333:218,1,85,2|2,0:0|0:0,0:0:0:0:
480,215,219850,2,0,P|491:174|494:132,1,85,8|0,0:0|0:0,0:0:0:0:
322,60,220133,5,2,0:0:0:0:
322,60,220416,1,8,0:0:0:0:
422,275,220558,1,0,0:0:0:0:
208,189,220699,1,2,0:0:0:0:
403,109,220841,2,0,P|415:61|417:19,1,85,2|8,0:0|0:0,0:0:0:0:
113,138,221124,6,0,P|124:219|161:328,1,170,6|2,0:0|0:0,0:0:0:0:
382,194,221548,2,0,L|286:176,1,85,12|0,0:0|0:0,0:0:0:0:
42,152,221831,6,0,P|76:142|112:137,1,72.2500013780594,4|0,0:0|0:0,0:0:0:0:
221,89,221973,6,0,P|225:57|234:27,1,63.75,8|0,0:0|0:0,0:0:0:0:
298,178,222256,6,0,P|362:188|414:97,1,170,6|2,0:0|0:0,0:0:0:0:
110,243,222680,2,0,P|49:231|14:230,1,85,8|0,0:0|0:0,0:0:0:0:
225,361,222963,1,2,0:0:0:0:
339,111,223105,1,2,0:0:0:0:
194,169,223246,2,0,L|205:253,1,85,8|0,0:0|0:0,0:0:0:0:
436,370,223529,6,0,B|467:315|467:315|477:185,1,170,2|8,0:0|0:0,0:0:0:0:
233,42,223954,2,0,L|257:225,1,170,2|2,0:0|0:0,0:0:0:0:
316,318,224378,1,8,0:0:0:0:
418,125,224520,1,0,0:0:0:0:
179,235,224661,5,6,0:0:0:0:
395,247,224803,1,2,0:0:0:0:
119,133,224944,1,10,0:0:0:0:
348,30,225086,1,2,0:0:0:0:
277,370,225227,6,0,L|266:277,1,85,6|0,0:0|0:0,0:0:0:0:
246,132,225510,1,8,0:0:0:0:
490,237,225652,2,0,P|448:324|370:333,1,170,6|2,0:0|0:0,0:0:0:0:
267,285,226076,1,8,0:0:0:0:
429,157,226218,1,2,0:0:0:0:
429,157,226289,1,2,0:0:0:0:
429,157,226359,1,10,0:0:0:0:
181,46,226501,1,8,0:0:0:0:
168,34,226784,6,0,P|248:23|344:-4,1,170,4|0,0:0|0:0,0:0:0:0:
69,227,227208,2,0,P|51:164|56:127,1,85,8|0,0:0|0:0,0:0:0:0:
243,379,227491,2,0,P|261:316|256:279,1,85,2|2,0:0|0:0,0:0:0:0:
409,158,227775,1,8,0:0:0:0:
409,158,228058,5,2,0:0:0:0:
199,234,228199,1,2,0:0:0:0:
461,267,228341,1,10,0:0:0:0:
327,366,228482,2,0,B|316:307|316:307|326:260|326:260|316:227|311:186,1,170,2|2,0:0|0:0,0:0:0:0:
382,39,228907,1,8,0:0:0:0:
224,100,229048,1,0,0:0:0:0:
418,219,229190,6,0,P|438:173|456:79,1,127.5,2|0,0:0|0:0,0:0:0:0:
422,69,229473,2,0,P|472:78|532:74,1,85,12|0,0:0|0:0,0:0:0:0:
185,192,229756,2,0,P|119:176|25:179,1,127.5,2|0,0:0|0:0,0:0:0:0:
20,157,230039,2,0,P|28:212|35:264,1,85,12|0,0:0|0:0,0:0:0:0:
154,354,230322,5,6,0:0:0:0:
272,209,230463,1,8,0:0:0:0:
281,171,230534,1,8,0:0:0:0:
277,132,230605,1,8,0:0:0:0:
270,94,230675,1,8,0:0:0:0:
276,56,230746,1,12,0:0:0:0:
132,244,230888,5,2,0:0:0:0:
375,100,231029,1,0,0:0:0:0:
274,326,231171,1,8,0:0:0:0:
163,135,231312,1,0,0:0:0:0:
359,23,231454,6,0,P|428:37|436:149,1,170,4|8,0:0|0:0,0:0:0:0:
328,253,231878,2,0,P|287:239|245:236,1,85,2|0,0:0|0:0,0:0:0:0:
44,187,232161,1,2,0:0:0:0:
151,93,232303,2,0,P|191:79|233:76,1,85,12|0,0:0|0:0,0:0:0:0:
494,181,232586,6,0,P|428:159|342:169,1,127.5,4|0,0:0|0:0,0:0:0:0:
339,133,232869,2,0,L|363:282,1,127.5,8|0,0:0|0:0,0:0:0:0:
401,267,233152,2,0,P|398:314|378:353,1,85,2|0,0:0|0:0,0:0:0:0:
343,367,233364,2,0,P|268:348|239:346,1,85,8|0,0:0|0:0,0:0:0:0:
244,307,233576,6,0,P|165:349|68:336,1,170,4|2,0:0|0:0,0:0:0:0:
7,185,234001,2,0,L|124:201,1,85,8|0,0:0|0:0,0:0:0:0:
316,151,234284,1,2,0:0:0:0:
152,75,234425,1,2,0:0:0:0:
150,264,234567,1,8,0:0:0:0:
388,188,234708,6,0,P|394:119|301:71,1,170,6|2,0:0|0:0,0:0:0:0:
255,262,235133,1,10,0:0:0:0:
262,286,235204,1,2,0:0:0:0:
277,306,235275,1,2,0:0:0:0:
297,320,235345,1,2,0:0:0:0:
320,329,235416,1,2,0:0:0:0:
345,332,235487,1,2,0:0:0:0:
370,330,235558,1,2,0:0:0:0:
393,321,235628,1,2,0:0:0:0:
415,309,235699,2,2,L|425:261,3,42.5,10|2|2|2,0:0|0:0|0:0|0:0,0:0:0:0:
494,199,235982,5,6,0:0:0:0:
52,220,238246,6,0,L|220:268,1,170,12|8,0:3|0:0,0:0:0:0:
424,40,238812,2,0,P|360:76|248:84,1,170,2|8,0:0|0:0,0:0:0:0:
104,344,239378,2,0,P|168:300|280:312,1,170,2|2,0:0|0:0,0:0:0:0:
408,168,239803,1,8,0:0:0:0:
236,80,239944,2,2,L|216:204,1,85,2|0,0:0|0:0,0:1:0:0:
368,348,240227,2,2,L|356:236,1,85,2|0,0:0|0:0,0:1:0:0:
116,288,240510,6,0,L|96:104,1,170,4|2,0:0|0:0,0:0:0:0:
469,76,241076,2,0,P|392:111|308:120,1,170,2|2,0:0|0:0,0:0:0:0:
55,258,241642,2,0,P|140:256|216:312,1,170,2|2,0:0|0:0,0:0:0:0:
124,88,242067,1,8,0:0:0:0:
260,176,242208,2,2,L|284:64,1,85,2|0,0:0|0:0,0:1:0:0:
84,264,242491,2,2,L|96:384,1,85,2|0,0:0|0:1,0:1:0:0:
400,336,242775,6,0,L|372:156,1,170,12|8,0:3|0:0,0:0:0:0:
412,28,243199,1,8,0:0:0:0:
194,267,243341,2,0,P|242:255|282:243,1,85,2|0,0:0|0:0,0:0:0:0:
491,183,243624,1,8,0:0:0:0:
276,244,243765,1,8,0:0:0:0:
332,93,243907,6,0,P|268:39|158:51,1,170,2|8,0:0|0:0,0:0:0:0:
47,132,244331,1,8,0:0:0:0:
237,331,244473,2,2,P|215:250|215:232,1,85,2|0,0:0|0:0,0:1:0:0:
329,123,244756,2,10,L|340:38,1,85,8|2,0:0|0:0,0:1:0:0:
0,244,245039,6,0,P|104:232|172:168,1,170,4|8,0:0|0:0,0:0:0:0:
176,16,245463,1,8,0:0:0:0:
360,224,245605,2,0,L|344:315,1,85,2|0,0:0|0:0,0:0:0:0:
152,160,245888,1,8,0:0:0:0:
360,224,246029,1,8,0:0:0:0:
352,20,246171,6,0,P|300:41|248:53,1,85,2|0,0:0|0:0,0:0:0:0:
144,368,246454,2,2,P|196:347|248:335,1,85,8|0,0:0|0:0,0:1:0:0:
385,173,246737,6,2,P|353:168|312:152,1,63.7500024318696,8|0,0:0|0:0,0:1:0:0:
126,210,247020,2,2,P|158:215|200:232,1,63.7500024318696,8|0,0:0|0:0,0:1:0:0:
406,341,247303,6,0,L|382:157,1,170,4|8,0:0|0:0,0:0:0:0:
408,16,247727,1,0,0:0:0:0:
208,184,247869,2,0,P|254:196|328:216,1,85,2|2,0:0|0:0,0:0:0:0:
464,320,248152,2,0,B|484:237,1,85,8|0,0:0|0:0,0:0:0:0:
342,48,248435,6,0,P|297:55|249:71,1,85,2|2,0:0|0:0,0:0:0:0:
126,210,248718,2,0,L|138:310,1,85,8|0,0:0|0:0,0:0:0:0:
484,188,249001,2,0,P|381:133|314:153,1,170,2|8,0:0|0:0,0:0:0:0:
238,358,249425,6,0,P|352:330|383:269,1,170,4|2,0:0|0:0,0:0:0:0:
130,58,249850,2,0,L|107:160,1,85,8|0,0:0|0:0,0:0:0:0:
288,288,250133,1,2,3:2:0:0:
288,288,250204,1,0,3:0:0:0:
288,288,250275,1,2,3:2:0:0:
308,120,250416,1,8,3:2:0:0:
160,184,250558,1,4,3:2:0:0:
387,215,250699,6,0,L|482:192,1,85,0|2,3:0|3:2,0:0:0:0:
300,48,250982,2,0,L|214:73,1,85,8|0,3:2|3:0,0:0:0:0:
125,257,251265,2,0,L|111:369,1,85,2|2,3:2|3:2,0:0:0:0:
0,207,251548,1,8,0:0:0:0:
258,297,251690,6,0,P|307:232|283:119,1,170,4|2,0:0|0:0,0:0:0:0:
147,40,252114,1,8,0:0:0:0:
223,204,252256,1,0,0:0:0:0:
401,123,252397,2,0,L|425:18,1,85,2|2,0:0|0:0,0:0:0:0:
497,209,252680,1,8,0:0:0:0:
289,56,252822,6,0,P|217:46|126:117,1,170,4|2,0:0|0:0,0:0:0:0:
15,214,253246,2,0,L|123:245,1,85,12|0,0:0|0:0,0:0:0:0:
282,299,253529,1,2,0:0:0:0:
236,92,253671,1,2,0:0:0:0:
439,276,253812,2,0,L|423:368,1,85,12|0,0:0|0:0,0:0:0:0:
383,136,254095,5,8,0:0:0:0:
127,246,254237,1,8,0:0:0:0:
108,240,254520,5,8,0:0:0:0:
402,142,254661,1,8,0:0:0:0:
422,149,254944,5,8,0:0:0:0:
88,233,255086,1,8,0:0:0:0:
0,205,255510,6,0,P|52:157|168:181,1,170,4|8,0:0|0:0,0:0:0:0:
168,189,255864,1,8,0:0:0:0:
187,217,255935,1,8,0:3:0:0:
216,237,256006,1,0,0:0:0:0:
248,253,256076,1,8,0:3:0:0:
280,261,256147,1,0,0:0:0:0:
316,261,256218,1,2,0:0:0:0:
348,257,256289,1,2,0:0:0:0:
380,245,256359,6,0,L|396:105,1,127.5,4|0,0:0|0:0,0:0:0:0:
436,110,256642,2,0,P|427:68|410:29,1,85,8|0,0:0|0:0,0:0:0:0:
298,160,256925,1,2,0:0:0:0:
298,160,257067,1,2,0:0:0:0:
485,269,257208,2,0,P|498:228|503:186,1,85,8|0,0:0|0:0,0:0:0:0:
321,329,257491,6,0,L|297:148,1,170,4|8,0:0|0:0,0:0:0:0:
197,43,257916,1,0,0:0:0:0:
42,239,258058,2,0,P|90:229|136:226,1,85,2|2,0:0|0:0,0:0:0:0:
298,160,258341,1,8,0:0:0:0:
137,334,258482,6,0,P|142:249|156:166,1,170,4|2,0:0|0:0,0:0:0:0:
307,75,258907,1,8,0:0:0:0:
382,275,259048,1,0,0:0:0:0:
489,182,259190,1,2,0:0:0:0:
489,182,259331,1,2,0:0:0:0:
338,350,259473,1,8,0:0:0:0:
236,168,259614,6,0,B|301:179|301:179|339:169|339:169|403:176,1,170,6|2,0:0|0:0,0:0:0:0:
138,335,260039,2,0,L|39:343,1,85,8|0,0:0|0:0,0:0:0:0:
294,271,260322,1,2,0:0:0:0:
84,206,260463,1,2,0:0:0:0:
270,117,260605,1,8,0:0:0:0:
89,13,260746,6,0,P|36:38|22:146,1,170,4|2,0:0|0:0,0:0:0:0:
188,259,261171,2,0,P|199:204|201:146,1,85,8|0,0:0|0:0,0:0:0:0:
0,286,261454,1,2,0:0:0:0:
0,286,261595,2,0,P|4:328|13:369,1,85,2|8,0:0|0:0,0:0:0:0:
289,167,261878,6,0,P|261:104|147:102,1,170,4|0,0:0|0:0,0:0:0:0:
412,218,262303,2,0,L|514:201,1,85,8|0,0:0|0:0,0:0:0:0:
321,293,262586,1,2,0:0:0:0:
365,83,262727,1,2,0:0:0:0:
510,201,262869,1,10,0:0:0:0:
308,302,263010,1,2,0:0:0:0:
367,64,263152,6,0,L|469:81,1,85,6|0,0:0|0:0,0:0:0:0:
117,148,263435,1,8,0:0:0:0:
250,374,263576,2,0,L|263:268,1,85,6|0,0:0|0:0,0:0:0:0:
287,67,263859,1,8,0:0:0:0:
28,190,264001,2,0,L|17:105,1,85,6|0,0:0|0:0,0:0:0:0:
162,341,264284,5,8,0:0:0:0:
434,206,264425,2,0,L|351:185,1,85,4|0,0:0|0:0,0:0:0:0:
195,34,264708,1,8,0:0:0:0:
37,280,264850,2,0,L|120:259,1,85,4|0,0:0|0:0,0:0:0:0:
362,99,265133,1,12,0:0:0:0:
250,374,265275,1,0,0:0:0:0:
152,134,265416,5,4,0:0:0:0:
378,293,265558,1,2,0:0:0:0:
378,293,265628,1,2,0:0:0:0:
378,293,265699,1,10,0:0:0:0:
119,259,265841,5,6,0:0:0:0:
410,170,265982,1,2,0:0:0:0:
182,15,266124,1,2,0:0:0:0:
250,374,266265,1,14,0:0:0:0:
256,192,266336,12,0,267680,0:0:0:0:
196,64,276171,6,0,P|188:96|184:136,1,63.7500024318696
320,236,276454,2,0,P|312:204|308:164,1,63.7500024318696
128,340,276737,2,0,P|200:340|256:304,1,127.500004863739,2|0,0:0|0:0,0:0:0:0:
424,200,277303,2,0,L|404:344,1,127.500004863739,2|0,0:0|0:0,0:0:0:0:
212,296,277869,6,0,P|148:252|84:252,1,127.500004863739,2|0,0:0|0:0,0:0:0:0:
100,248,278293,1,2,0:0:0:0:
372,80,278718,1,2,0:0:0:0:
372,80,279001,6,0,P|304:96|240:124,1,127.500004863739,2|0,0:0|0:0,0:0:0:0:
192,340,279567,2,0,P|228:264|240:200,1,127.500004863739,2|0,0:0|0:0,0:0:0:0:
176,64,280133,1,2,0:0:0:0:
352,252,280699,1,2,0:0:0:0:
144,280,280982,6,0,L|216:260,1,63.7500024318696,2|0,0:0|0:0,0:0:0:0:
392,164,281265,2,0,P|312:156|256:120,1,127.500004863739,2|0,0:0|0:0,0:0:0:0:
216,24,281690,1,2,0:0:0:0:
251,324,282114,1,2,0:0:0:0:
251,324,282680,6,2,B|243:269|243:269|277:168,1,148.75,4|0,0:0|0:0,0:1:0:0:
240,56,283246,2,0,P|200:65|128:92,1,85,4|4,0:3|0:3,0:0:0:0:
104,224,283529,5,8,0:0:0:0:
104,224,283624,2,0,L|112:292,2,56.6666666666667,2|4|2,0:0|0:3|0:0,0:0:0:0:
240,56,283954,2,0,L|256:-4,2,42.5,8|2|4,0:0|0:0|0:3,0:0:0:0:
248,192,284237,6,0,L|306:212,1,42.5,2|8,0:0|0:0,0:0:0:0:
456,280,284378,2,0,P|444:240|431:175,1,85,2|0,0:0|0:0,0:0:0:0:
364,16,284661,5,12,0:0:0:0:
248,192,284850,2,0,L|261:253,2,56.6666666666667,8|0|8,0:0|0:0|0:0,0:0:0:0:
374,128,285227,5,8,0:3:0:0:
122,218,285416,2,0,L|54:205,2,56.6666666666667,4|0|4,0:3|0:0|0:3,0:0:0:0:
416,268,285793,1,4,0:0:0:0:
416,268,286076,6,0,L|392:156,1,85,8|0,0:0|0:0,0:0:0:0:
300,42,286359,1,2,0:0:0:0:
177,140,286501,1,2,0:0:0:0:
304,248,286642,1,8,0:0:0:0:
68,340,286784,6,0,L|104:140,1,170,4|2,0:0|0:0,0:0:0:0:
44,28,287208,1,8,0:0:0:0:
384,224,287491,2,0,L|284:256,1,85,2|2,0:0|0:0,0:0:0:0:
98,172,287775,1,8,0:0:0:0:
164,332,287916,1,2,0:0:0:0:
296,56,288058,6,0,L|292:148,1,85,6|0,0:0|0:0,0:0:0:0:
32,268,288341,2,0,L|120:300,1,85,8|0,0:0|0:0,0:0:0:0:
272,263,288624,1,8,0:0:0:0:
308,253,288694,1,8,0:0:0:0:
346,252,288765,1,2,0:0:0:0:
384,263,288836,1,2,0:0:0:0:
416,282,288907,1,4,0:3:0:0:
441,310,288977,1,4,0:3:0:0:
456,344,289048,1,4,0:0:0:0:
456,344,290322,5,8,3:3:0:0:
418,243,290605,1,0,3:0:0:0:
372,145,290888,1,0,3:0:0:0:
299,229,291029,2,0,L|417:242,1,118.999996368408,0|0,3:0|3:0,0:0:0:0:
242,310,291454,6,0,P|193:329|115:309,1,118.999996368408,8|0,0:3|0:0,0:0:0:0:
54,147,292020,2,0,L|60:206,1,59.4999981842042,0|0,3:0|0:0,0:0:0:0:
179,247,292303,2,0,L|185:187,1,59.4999981842042,0|0,3:0|0:0,0:0:0:0:
310,183,292586,6,0,P|319:114|226:65,1,152.999995330811,12|8,0:3|0:0,0:0:0:0:
54,147,293010,2,0,B|51:214|51:214|62:302,1,152.999995330811,6|2,0:0|0:0,0:0:0:0:
224,376,293435,2,0,L|312:358,1,76.4999976654053,12|0,0:0|0:0,0:0:0:0:
475,252,293718,6,0,L|387:234,1,76.4999976654053,12|0,0:3|0:0,0:0:0:0:
247,139,294001,1,8,0:0:0:0:
231,291,294142,2,0,L|246:138,1,152.999995330811,2|2,0:0|0:0,0:0:0:0:
453,57,294567,2,0,L|461:133,1,76.4999976654053,8|0,0:0|0:0,0:0:0:0:
379,318,294850,6,0,P|334:289|333:183,1,152.999995330811,12|8,0:3|0:0,0:0:0:0:
368,37,295275,2,0,P|285:54|191:54,1,152.999995330811,4|2,0:0|0:0,0:0:0:0:
32,6,295699,2,0,L|42:98,1,76.4999976654053,12|0,0:0|0:0,0:0:0:0:
207,171,295982,6,0,L|198:247,1,76.4999976654053,12|0,0:3|0:0,0:0:0:0:
109,347,296265,1,8,0:0:0:0:
0,212,296407,1,0,0:0:0:0:
139,135,296548,1,2,0:0:0:0:
139,135,296619,1,2,0:0:0:0:
139,135,296690,1,2,0:0:0:0:
139,135,296760,1,2,0:0:0:0:
139,135,296831,6,0,B|162:85|170:40|130:11|96:51|117:87,1,165.749992412568,10|0,0:0|0:0,0:0:0:0:
159,176,297114,6,0,P|230:183|319:102,1,170,12|8,0:3|0:0,0:0:0:0:
433,250,297539,1,0,0:0:0:0:
271,368,297680,2,0,P|252:324|246:276,1,85,2|2,0:0|0:0,0:0:0:0:
307,128,297963,1,8,0:0:0:0:
149,269,298105,6,0,P|78:276|12:183,1,170,6|2,0:0|0:0,0:0:0:0:
368,346,298529,2,0,P|407:339|467:337,1,85,8|0,0:0|0:0,0:0:0:0:
240,189,298812,1,2,0:0:0:0:
160,354,298954,1,2,0:0:0:0:
348,250,299095,1,8,0:0:0:0:
137,359,299237,6,0,L|109:183,1,170,6|2,0:0|0:0,0:0:0:0:
398,66,299661,2,0,L|386:151,1,85,12|0,0:0|0:0,0:0:0:0:
315,284,299944,5,2,0:0:0:0:
207,59,300086,1,2,0:0:0:0:
469,261,300227,1,14,0:0:0:0:
137,359,300369,1,2,0:0:0:0:
243,195,300510,5,4,0:3:0:0:
243,195,300581,1,4,0:3:0:0:
243,195,300652,2,0,L|304:203,1,42.5,2|2,0:0|0:0,0:0:0:0:
228,21,300793,2,2,L|140:44,1,85,4|2,0:3|0:0,0:1:0:0:
416,112,301076,1,12,0:0:0:0:
148,312,301218,1,12,0:0:0:0:
148,312,301501,6,0,P|224:304|312:380,1,170,4|2,0:0|0:0,0:0:0:0:
460,256,301925,2,0,L|432:148,1,85,8|0,0:0|0:0,0:0:0:0:
288,268,302208,1,2,0:0:0:0:
438,173,302350,1,2,0:0:0:0:
300,48,302491,2,0,P|228:80|188:96,1,85,8|0,0:0|0:0,0:0:0:0:
56,304,302775,6,0,P|132:304|216:228,1,170,2|8,0:0|0:0,0:0:0:0:
300,48,303199,1,0,0:0:0:0:
376,204,303341,2,0,P|380:240|392:312,1,85,2|2,0:0|0:0,0:0:0:0:
144,184,303624,1,8,0:0:0:0:
252,344,303765,1,0,0:0:0:0:
368,124,303907,6,0,P|296:148|268:156,1,85,2|2,0:0|0:0,0:0:0:0:
172,280,304190,1,8,0:0:0:0:
124,88,304331,1,0,0:0:0:0:
348,248,304473,2,0,P|336:312|328:360,1,85,2|2,0:0|0:0,0:0:0:0:
496,216,304756,1,8,0:0:0:0:
416,48,304897,6,0,P|340:40|272:112,1,170,4|2,0:0|0:0,0:0:0:0:
68,280,305322,2,0,L|176:240,1,85,12|0,0:0|0:0,0:0:0:0:
275,100,305605,1,2,0:0:0:0:
147,250,305746,1,2,0:0:0:0:
328,344,305888,1,8,0:0:0:0:
72,128,306029,6,0,P|126:68|248:76,1,170,4|2,0:0|0:0,0:0:0:0:
436,240,306454,2,0,L|324:208,1,85,12|0,0:0|0:0,0:0:0:0:
192,324,306737,1,2,0:0:0:0:
354,216,306878,1,2,0:0:0:0:
192,72,307020,2,0,P|186:99|173:154,1,85,8|0,0:0|0:0,0:0:0:0:
448,48,307303,6,0,P|408:60|344:76,1,101.999996887207,12|2,0:0|0:0,0:0:0:0:
158,299,307586,2,0,P|208:283|266:267,1,101.999996887207,12|2,0:0|0:0,0:0:0:0:
456,320,307869,1,12,0:0:0:0:
349,74,308010,1,2,0:0:0:0:
255,269,308152,1,12,0:0:0:0:
80,144,308293,5,2,0:0:0:0:
80,144,308364,1,2,0:0:0:0:
80,144,308435,1,8,0:0:0:0:
420,299,308576,1,2,0:0:0:0:
127,384,308718,2,0,P|139:328|143:284,1,85,8|0,0:0|0:0,0:0:0:0:
368,99,309001,2,0,L|387:181,1,85,4|2,0:3|0:0,0:0:0:0:
148,8,309284,1,8,0:0:0:0:
64,324,309425,6,0,P|148:320|224:268,1,170,4|2,0:0|0:0,0:0:0:0:
415,92,309850,2,0,P|367:77|305:63,1,85,12|0,0:0|0:0,0:0:0:0:
77,95,310133,1,8,0:0:0:0:
347,343,310275,1,2,0:0:0:0:
347,343,310558,6,0,B|368:292|368:292|370:240|370:240|391:210|405:169,1,170,4|2,0:0|0:0,0:0:0:0:
105,175,310982,2,0,P|85:131|77:86,1,85,8|0,0:0|0:0,0:0:0:0:
302,8,311265,1,2,0:0:0:0:
217,297,311407,1,2,0:0:0:0:
170,98,311548,1,8,0:0:0:0:
356,178,311690,1,0,0:0:0:0:
123,263,311831,6,0,P|57:270|15:270,1,85,2|0,0:0|0:0,0:0:0:0:
255,158,312114,1,8,0:0:0:0:
393,315,312256,2,0,P|437:317|461:207,1,170,2|2,0:0|0:0,0:0:0:0:
217,297,312680,2,0,P|223:338|237:397,1,85,8|0,0:0|0:0,0:0:0:0:
356,177,312963,6,0,P|378:118|378:43,1,127.5,2|0,0:0|0:0,0:0:0:0:
342,35,313246,2,0,P|391:34|436:11,1,85,12|0,0:0|0:0,0:0:0:0:
204,209,313529,2,0,P|187:160|124:110,1,127.5,2|0,0:0|0:0,0:0:0:0:
88,107,313812,2,0,P|131:81|154:39,1,85,12|0,0:0|0:0,0:0:0:0:
11,319,314095,5,4,0:0:0:0:
224,285,314237,1,2,0:0:0:0:
224,285,314308,1,2,0:0:0:0:
224,285,314378,1,10,0:0:0:0:
95,184,314520,1,6,0:0:0:0:
356,114,314661,2,0,P|355:156|350:198,1,85,2|0,0:0|0:0,0:0:0:0:
311,349,314944,1,8,0:0:0:0:
110,300,315086,1,0,0:0:0:0:
349,212,315227,6,0,L|461:194,1,85,12|0,0:0|0:0,0:0:0:0:
227,362,315510,1,2,0:0:0:0:
117,142,315652,2,0,L|5:124,1,85,8|2,0:0|0:0,0:0:0:0:
264,266,315935,1,2,0:0:0:0:
385,78,316076,2,0,L|497:60,1,85,12|0,0:0|0:0,0:0:0:0:
202,8,316359,6,0,P|204:64|226:151,1,127.5,12|0,0:0|0:0,0:0:0:0:
236,171,316642,2,0,P|296:167|305:109,1,127.5,8|0,0:0|0:0,0:0:0:0:
295,68,316925,2,0,L|197:92,1,85,2|0,0:0|0:0,0:0:0:0:
181,118,317138,2,0,L|83:94,1,85,8|0,0:0|0:0,0:0:0:0:
66,69,317350,6,0,P|57:144|65:256,1,170,6|2,0:0|0:0,0:0:0:0:
188,356,317775,2,0,P|240:344|302:337,1,85,8|0,0:0|0:0,0:0:0:0:
462,312,318058,1,2,0:0:0:0:
328,174,318199,2,0,P|207:192|195:253,1,170,2|2,0:0|0:0,0:0:0:0:
367,357,318624,5,10,0:0:0:0:
369,331,318694,1,2,0:0:0:0:
369,305,318765,1,2,0:0:0:0:
369,279,318836,1,2,0:0:0:0:
370,253,318907,2,2,L|420:231,3,42.5
430,194,319190,5,10,0:0:0:0:
436,156,319260,1,2,0:0:0:0:
413,124,319331,1,2,0:0:0:0:
379,104,319402,1,2,0:0:0:0:
340,106,319473,1,2,0:0:0:0:
307,125,319543,1,2,0:0:0:0:
277,149,319614,1,2,0:0:0:0:
239,156,319685,1,2,0:0:0:0:
201,150,319756,5,14,0:0:0:0:
9,220,320888,1,8,0:0:0:0:
201,150,321878,6,0,P|141:80|88:124,1,170,4|0,0:0|0:0,0:0:0:0:
14,245,322303,1,8,0:0:0:0:
18,270,322374,1,8,0:0:0:0:
23,294,322444,1,8,0:0:0:0:
28,319,322515,1,8,0:0:0:0:
32,344,322586,2,2,P|57:335|86:330,3,42.5,10|2|2|2,0:0|0:0|0:0|0:0,0:0:0:0:
174,269,322869,2,2,P|195:276|217:280,3,42.5
312,364,323152,6,0,P|341:303|335:222,1,127.5,4|0,0:0|0:0,0:0:0:0:
322,210,323435,2,8,L|366:200,1,42.5
442,296,323576,2,8,L|457:249,1,42.5
512,166,323718,2,8,L|497:119,3,42.5
480,82,324001,5,2,0:0:0:0:
439,106,324072,1,2,0:0:0:0:
393,111,324142,1,2,0:0:0:0:
347,99,324213,1,2,0:0:0:0:
316,63,324284,1,14,0:0:0:0:
256,192,324355,12,0,327751,0:0:0:0:
