osu file format v12

[General]
AudioFilename: Koi no yokushiryoku - Nana Mizuki - Metal Gear Solid Character Song.mp3
AudioLeadIn: 0
PreviewTime: 95730
Countdown: 1
SampleSet: Soft
StackLeniency: 0.7
Mode: 0
LetterboxInBreaks: 1
StoryFireInFront: 0
CountdownOffset: 1
WidescreenStoryboard: 1

[Editor]
DistanceSpacing: 1
BeatDivisor: 4
GridSize: 4
TimelineZoom: 1.4

[Metadata]
Title:Koi no yokushiryoku
TitleUnicode:Koi no yokushiryoku
Artist:Nana Mizuki
ArtistUnicode:Nana Mizuki
Creator:dalollypop
Version:Normal
Source:Metal gear solid peace walker
Tags:metal gear solid peace walker hideo kojima paz kaz snake ocelot miller PMC zeke the big boss outer haven cipher mgs m1223961117
BeatmapID:298763
BeatmapSetID:115581

[Difficulty]
HPDrainRate:5
CircleSize:4
OverallDifficulty:3
ApproachRate:6
SliderMultiplier:1.00000000596046
SliderTickRate:2

[Events]
//Background and Video events
0,0,"paaaz.jpg",0,0
Video,0,"KOINOY~12.FLV"
//Break Periods
2,52793,55465
2,81813,93308
2,104362,106837
2,158215,170224
//Storyboard Layer 0 (Background)
//Storyboard Layer 1 (Fail)
//Storyboard Layer 2 (Pass)
//Storyboard Layer 3 (Foreground)
//Storyboard Sound Samples
//Background Colour Transformations
3,100,163,162,255

[TimingPoints]
18282,500,4,2,0,100,1,0
34282,558.139534883721,4,2,0,100,1,0
35398,631.578947368421,4,2,0,100,1,0
36661,750,4,2,0,100,1,0
39661,392.156862745098,4,2,0,100,1,0
39759,-66.6666666666667,4,2,0,100,0,0
40829,392.156862745098,4,2,0,100,1,0
40829,-66.6666666666667,4,2,0,100,0,1
55338,-100,4,2,0,100,0,0
65537,-80,4,2,0,100,0,0
68672,-100,4,2,0,100,0,0
93770,-66.6666666666667,4,2,0,100,0,0
95730,-66.6666666666667,4,2,0,100,0,1
106711,-66.6666666666667,4,2,0,100,0,0
108279,-66.6666666666667,4,2,0,100,0,1
117103,-100,4,2,0,100,0,1
126319,-100,4,2,0,100,0,0
152202,465.116279069767,4,2,0,100,1,0
159643,500,4,2,0,100,1,0
170643,631.578947368421,4,2,0,100,1,0
171906,545.454545454546,4,2,0,100,1,0
176269,727.272727272727,4,2,0,100,1,0

[Colours]
Combo1 : 255,128,0
Combo2 : 5,240,5
Combo3 : 70,70,255
Combo4 : 210,3,3

[HitObjects]
172,60,18282,6,0,P|96:120|96:128,1,100.000000596046
160,188,19282,2,0,P|204:244|208:288,1,100.000000596046
308,264,20282,2,0,P|392:220|400:200,1,100.000000596046
392,172,21032,2,0,L|352:128,1,50.000000298023
260,152,21782,2,0,B|220:196|220:196|223:286|223:286|184:320,1,200.000001192092
136,304,23032,2,0,B|88:268|84:208|160:176|156:108|100:76,1,250.000001490115
304,168,25282,6,0,P|256:160|204:168,1,100.000000596046
176,260,26282,2,0,P|186:307|228:330,1,100.000000596046
280,328,27032,2,0,P|328:296|328:244,1,100.000000596046
424,304,28032,5,0,0:0:0:0:
456,268,28282,2,0,L|492:220,1,50.000000298023
488,176,28782,2,0,L|444:120,1,50.000000298023
424,100,29282,1,0,0:0:0:0:
336,280,30282,6,0,B|400:253|405:231|405:199|405:199,1,100.000000596046
384,168,31032,1,0,0:0:0:0:
384,168,31282,2,0,P|352:136|292:140,1,100.000000596046
220,196,32282,2,0,P|208:120|148:84,1,150.000000894069
148,84,33282,1,0,0:0:0:0:
88,160,33782,6,0,P|96:192|164:232,1,100.000000596046
148,232,34561,1,0,0:0:0:0:
256,192,34840,12,0,39286,0:0:0:0:
96,276,40829,6,0,P|164:320|496:240,1,450.000019848345
388,136,42397,2,0,P|348:48|160:52,1,300.00001323223
156,120,43378,1,0,0:0:0:0:
156,120,43574,2,0,P|77:114|76:112,1,75.0000033080576
16,112,43966,6,0,P|68:240|200:352,1,300.00001323223
420,64,45730,5,0,0:0:0:0:
316,172,46123,1,0,0:0:0:0:
424,280,46515,1,0,0:0:0:0:
232,160,47103,2,0,P|232:312|280:160,1,450.000019848345
80,60,48868,5,0,0:0:0:0:
116,280,49260,2,0,P|192:340|320:312,1,225.000009924173
208,208,50240,2,0,P|161:155|149:73,1,150.000006616115,0|0,0:0|0:0,2:0:0:0:
296,96,51025,2,0,P|352:144|388:224,1,150.000006616115
396,360,51809,2,0,P|336:328|290:261,1,150.000006616115
256,116,52593,1,0,0:0:0:0:
384,244,56515,6,0,P|308:304|212:280,1,200.000001192092
224,232,57495,1,0,0:0:0:0:
176,216,57691,2,0,L|164:160,1,50.000000298023
196,128,58083,2,0,P|227:114|261:130,2,50.000000298023
148,120,58672,2,0,P|80:128|56:200,1,150.000000894069
168,264,59652,2,0,P|192:304|248:324,1,100.000000596046
340,316,60436,2,0,P|388:304|424:260,1,100.000000596046
348,200,61221,2,0,P|296:208|260:240,1,100.000000596046
168,204,62005,2,0,P|224:128|328:96,1,200.000001192092
368,176,63181,2,0,L|336:176|304:176,2,50.000000298023
332,268,63966,2,0,P|332:352|316:376,1,100.000000596046
232,332,64750,2,0,P|181:329|122:294,1,100.000000596046
260,260,65730,6,0,B|36:44|68:20|220:-60|252:-100|260:172|276:-4|228:172|316:4|292:-108|452:-4|516:44|260:268,1,875.000005215402
256,160,68868,5,0,0:0:0:0:
232,208,69064,2,0,L|176:304,1,100.000000596046
160,336,69652,1,0,0:0:0:0:
260,336,70044,5,0,0:0:0:0:
308,336,70240,2,0,L|420:336,1,100.000000596046
460,336,70829,5,0,0:0:0:0:
460,236,71221,1,0,0:0:0:0:
456,140,71613,5,0,0:0:0:0:
416,108,71809,2,0,L|360:68,1,50.000000298023
336,48,72201,5,0,0:0:0:0:
312,92,72397,1,0,0:0:0:0:
312,92,72593,2,0,L|256:188,1,100.000000596046
240,224,73181,1,0,0:0:0:0:
240,224,73378,2,0,P|183:176|171:138,1,100.000000596046,0|0,0:0|0:0,2:0:0:0:
84,112,74162,2,0,P|60:208|116:284,1,200.000001192092
164,304,75142,1,0,0:0:0:0:
212,320,75338,2,0,P|264:332|308:312,1,100.000000596046
404,312,76123,2,0,P|384:264|332:236,1,100.000000596046
296,220,76711,1,0,0:0:0:0:
248,208,76907,2,0,P|204:184|190:136,1,100.000000596046
288,128,77691,6,0,L|288:244,1,100.000000596046
308,280,78279,1,0,0:0:0:0:
280,324,78476,1,0,0:0:0:0:
160,264,79064,1,0,0:0:0:0:
192,224,79260,1,0,0:0:0:0:
48,188,79848,1,0,0:0:0:0:
80,156,80044,1,0,0:0:0:0:
204,144,80436,2,0,P|304:136|316:232,1,200.000001192092
256,192,81613,1,0,0:0:0:0:
272,184,94358,53,0,0:0:0:0:
272,184,94946,5,0,0:0:0:0:
208,176,95730,6,0,P|336:192|208:192,1,375.000016540288
92,296,97103,1,0,0:0:0:0:
92,296,97299,2,0,P|160:312|256:296,1,150.000006616115
308,276,97887,2,0,P|256:216|192:136,1,150.000006616115
104,56,98476,5,0,0:0:0:0:
80,128,98672,1,0,0:0:0:0:
160,120,98868,2,0,P|236:180|156:244,1,225.000009924173
308,260,99848,1,0,0:0:0:0:
308,112,100240,1,0,0:0:0:0:
432,192,100632,1,0,0:0:0:0:
356,192,100829,2,0,L|276:192,1,75.0000033080576
84,88,101613,6,0,B|352:152|-132:288|236:296,1,375.000016540288
204,296,102985,1,0,0:0:0:0:
52,300,103378,1,0,0:0:0:0:
52,300,103770,1,0,0:0:0:0:
104,248,103966,2,0,L|160:192,1,75.0000033080576
160,280,107887,5,0,0:0:0:0:
236,276,108083,1,0,0:0:0:0:
308,260,108279,2,0,P|344:208|308:124,1,150.000006616115
252,168,108868,2,0,B|204:112|252:48|300:64,1,150.000006616115
296,64,109652,5,0,0:0:0:0:
148,64,110044,1,0,0:0:0:0:
48,176,110436,5,0,0:0:0:0:
124,180,110632,2,0,P|144:224|248:296,1,150.000006616115
292,292,111221,1,0,0:0:0:0:
368,288,111417,2,0,P|428:245|465:180,1,150.000006616115
428,116,112005,6,0,P|352:180|228:216,1,225.000009924173
176,164,112789,1,0,0:0:0:0:
364,192,114554,6,0,P|452:232|444:288,1,150.000006616115
384,260,115142,1,0,0:0:0:0:
400,328,115338,2,0,P|312:288|320:232,1,150.000006616115
248,204,115927,5,0,0:0:0:0:
196,148,116123,2,0,P|159:113|116:108,1,75.0000033080576
180,44,116515,2,0,P|320:12|444:96,1,300.00001323223
348,128,117691,6,0,P|208:148|324:96,1,400.000002384184
312,88,119456,5,0,0:0:0:0:
344,144,119652,1,0,0:0:0:0:
336,208,119848,1,0,0:0:0:0:
280,248,120044,1,0,0:0:0:0:
216,232,120240,1,0,0:0:0:0:
192,176,120436,1,0,0:0:0:0:
208,112,120632,1,0,0:0:0:0:
264,80,120829,1,0,0:0:0:0:
224,88,123966,6,0,P|259:106|325:114,1,100.000000596046,0|0,0:0|0:0,3:0:0:0:
384,40,124750,2,0,P|432:64|472:108,1,100.000000596046
404,176,125534,2,0,P|380:240|388:280,1,100.000000596046
284,272,126319,2,0,P|236:280|184:260,1,100.000000596046
220,168,127103,6,0,P|152:204|152:236,1,100.000000596046
148,268,127691,1,0,0:0:0:0:
308,76,128672,2,0,P|368:92|416:92,1,100.000000596046
456,92,129260,1,0,0:0:0:0:
428,340,130240,2,0,P|380:324|332:272,1,100.000000596046
312,252,130829,1,0,0:0:0:0:
224,20,131809,2,0,P|178:34|137:90,1,100.000000596046
184,104,132397,2,0,B|235:114|266:104|258:59|295:47|331:73,1,150.000000894069
464,96,133574,5,0,0:0:0:0:
476,144,133770,2,0,P|484:192|464:248,1,100.000000596046
436,280,134358,1,0,0:0:0:0:
388,276,134554,2,0,P|356:244|336:183,1,100.000000596046
324,144,135142,1,0,0:0:0:0:
272,60,135534,1,0,0:0:0:0:
224,44,135730,2,0,P|176:56|156:116,1,100.000000596046
164,200,136515,2,0,P|112:196|92:156,2,100.000000596046
200,304,137691,6,0,P|312:152|172:36,1,400.000002384184
120,116,139652,6,0,L|184:212,1,100.000000596046
204,240,140240,1,0,0:0:0:0:
420,120,141221,6,0,L|348:208,1,100.000000596046
324,236,141809,1,0,0:0:0:0:
256,24,142789,2,0,L|256:136,1,100.000000596046
256,176,143378,1,0,0:0:0:0:
336,232,143770,5,0,0:0:0:0:
236,232,144162,1,0,0:0:0:0:
136,232,144554,1,0,0:0:0:0:
136,232,144946,2,0,P|288:336|392:224,1,350.000002086161
144,336,147495,38,0,L|244:208,1,150.000000894069
368,336,148672,2,0,L|272:212,1,150.000000894069
256,192,150044,2,0,L|256:28,1,150.000000894069
256,40,151025,1,0,0:0:0:0:
84,228,152202,2,0,P|68:276|84:324,1,100.000000596046
164,264,153132,2,0,P|176:215|164:167,1,100.000000596046
68,188,154062,2,0,P|55:139|67:91,1,100.000000596046
68,92,154760,1,0,0:0:0:0:
256,192,155457,12,0,158015,0:0:0:0:
176,172,171274,6,0,L|176:244,1,50.000000298023
228,248,171906,2,0,L|228:144,1,100.000000596046
272,124,172724,2,0,L|272:284,1,150.000000894069
272,272,174087,1,0,0:0:0:0:
80,176,174906,5,0,0:0:0:0:
80,176,175178,2,0,P|256:264|440:172,1,400.000002384184
384,160,177723,2,0,P|340:140|296:164,1,100.000000596046
256,192,178814,1,0,0:0:0:0:
256,192,178996,12,0,183178,0:0:0:0:
