osu file format v12

[General]
AudioFilename: Koi no yokushiryoku - Nana Mizuki - Metal Gear Solid Character Song.mp3
AudioLeadIn: 0
PreviewTime: 95730
Countdown: 1
SampleSet: Soft
StackLeniency: 0.7
Mode: 0
LetterboxInBreaks: 1
StoryFireInFront: 0
CountdownOffset: 1
WidescreenStoryboard: 1

[Editor]
DistanceSpacing: 1.3
BeatDivisor: 4
GridSize: 4
TimelineZoom: 1

[Metadata]
Title:Koi no yokushiryoku
TitleUnicode:Koi no yokushiryoku
Artist:Nana Mizuki
ArtistUnicode:Nana Mizuki
Creator:dalollypop
Version:Hard
Source:Metal gear solid peace walker
Tags:metal gear solid peace walker hideo kojima paz kaz snake ocelot miller PMC zeke the big boss outer haven cipher mgs m1223961117
BeatmapID:303696
BeatmapSetID:115581

[Difficulty]
HPDrainRate:6
CircleSize:4
OverallDifficulty:6
ApproachRate:7
SliderMultiplier:1.70000000596046
SliderTickRate:2

[Events]
//Background and Video events
0,0,"paaaz.jpg",0,0
Video,0,"KOINOY~12.FLV"
//Break Periods
2,52793,55419
2,81813,86007
2,167968,170374
//Storyboard Layer 0 (Background)
//Storyboard Layer 1 (Fail)
//Storyboard Layer 2 (Pass)
//Storyboard Layer 3 (Foreground)
//Storyboard Sound Samples
//Background Colour Transformations
3,100,163,162,255

[TimingPoints]
18282,500,4,2,0,100,1,0
34282,558.139534883721,4,2,0,100,1,0
35398,631.578947368421,4,2,0,100,1,0
36661,750,4,2,0,100,1,0
39661,392.156862745098,4,2,0,100,1,0
39759,-80,4,2,0,100,0,0
40829,392.156862745098,4,2,0,100,1,0
40829,-80,4,2,0,100,0,1
55338,-100,4,2,0,100,0,0
65436,-133.333333333333,4,2,0,100,0,0
68672,-100,4,2,0,100,0,0
93770,-80,4,2,0,100,0,0
95730,-80,4,2,0,100,0,1
106711,-80,4,2,0,100,0,0
108279,-80,4,2,0,100,0,1
117103,-100,4,2,0,100,0,1
126319,-100,4,2,0,100,0,0
152202,465.116279069767,4,2,0,100,1,0
159643,500,4,2,0,100,1,0
170643,631.578947368421,4,2,0,100,1,0
171906,545.454545454546,4,2,0,100,1,0
176269,727.272727272727,4,2,0,100,1,0

[Colours]
Combo1 : 255,128,0
Combo2 : 5,240,5
Combo3 : 70,70,255
Combo4 : 210,3,3

[HitObjects]
208,72,18282,6,0,P|124:80|76:160,1,170.000000596046
288,208,19282,2,0,P|360:168|368:88,1,170.000000596046
156,152,20282,2,0,P|94:205|106:286,1,170.000000596046
216,296,21032,2,0,P|284:332|372:308,1,170.000000596046
400,204,21782,1,0,0:0:0:0:
292,120,22032,1,0,0:0:0:0:
292,232,22282,2,0,L|292:324,1,85.000000298023
184,204,22782,1,0,0:0:0:0:
256,192,23032,12,0,24282,0:0:0:0:
396,96,25032,5,0,0:0:0:0:
464,184,25282,2,0,P|396:228|328:180,1,170.000000596046
232,124,26032,1,0,0:0:0:0:
124,100,26282,2,0,P|64:172|80:248,1,170.000000596046
168,304,27032,2,0,P|224:312|296:220,1,170.000000596046
396,188,27782,2,0,P|433:188|473:160,1,85.000000298023
404,76,28282,2,0,B|244:100|184:200,1,255.000000894069
84,236,29282,2,0,B|84:280|112:308|172:304|172:304|227:345,1,170.000000596046
308,288,30032,1,0,0:0:0:0:
408,240,30282,2,0,P|472:228|444:128,1,170.000000596046
360,108,31032,1,0,0:0:0:0:
252,136,31282,2,0,P|264:76|244:24,1,85.000000298023
152,72,31782,2,0,P|104:96|88:140,1,85.000000298023
172,196,32282,1,0,0:0:0:0:
504,192,33032,1,0,0:0:0:0:
392,192,33282,2,0,P|328:240|264:188,1,170.000000596046
208,96,34032,2,0,P|176:148|200:280,1,170.000000596046
256,192,34700,12,0,36345,0:0:0:0:
128,216,36661,6,0,P|256:312|384:216,1,340.000001192092
116,180,40445,1,0,0:0:0:0:
140,152,40543,1,0,0:0:0:0:
168,128,40641,1,0,0:0:0:0:
200,108,40739,1,0,0:0:0:0:
232,96,40829,2,0,B|300:64|332:96|332:96|336:212,1,212.500000745058
328,340,41417,1,0,0:0:0:0:
452,276,41613,2,0,P|434:210|375:185,1,106.250000372529
280,248,42005,2,0,P|244:312|172:312,1,106.250000372529
76,352,42397,2,0,P|60:302|99:230,1,106.250000372529
156,140,42789,5,0,0:0:0:0:
288,100,42985,1,0,0:0:0:0:
423,73,43181,2,0,P|474:172|410:283,1,212.500000745058
316,200,43770,1,0,0:0:0:0:
200,272,43966,2,0,P|134:254|109:195,1,106.250000372529
148,92,44358,2,0,P|184:156|256:156,1,106.250000372529
336,104,44750,2,0,P|342:156|312:204,1,106.250000372529
244,320,45142,2,0,P|168:308|104:196,1,212.500000745058
156,68,45730,5,0,0:0:0:0:
432,72,46123,1,0,0:0:0:0:
300,316,46515,1,0,0:0:0:0:
388,272,46711,1,0,0:0:0:0:
388,236,46809,1,0,0:0:0:0:
384,200,46907,1,0,0:0:0:0:
372,164,47005,1,0,0:0:0:0:
352,132,47103,2,0,P|256:96|136:128,1,212.500000745058
28,184,47691,1,0,0:0:0:0:
132,276,47887,2,0,P|156:340|236:364,1,106.250000372529
192,224,48279,2,0,P|232:156|276:144,1,106.250000372529
252,280,48672,2,0,P|292:348|336:360,1,106.250000372529
376,236,49064,1,0,0:0:0:0:
376,236,49260,2,0,P|472:200|468:104,1,212.500000745058
384,52,49848,2,0,P|276:64|200:136,1,212.500000745058
72,176,50632,2,0,P|80:240|208:332,1,212.500000745058
188,328,51417,1,0,0:0:0:0:
272,256,51809,2,0,P|336:248|428:120,1,212.500000745058
428,140,52593,1,0,0:0:0:0:
448,280,56319,6,0,P|356:352|264:276,1,255.000000894069
160,244,57103,1,0,0:0:0:0:
160,244,57299,6,0,L|143:160,1,85.000000298023
212,72,57691,2,0,L|332:48,1,85.000000298023
396,96,58083,2,0,L|420:184,2,85.000000298023
396,96,58672,1,0,0:0:0:0:
158,336,59260,2,0,P|152:252|188:176,1,170.000000596046
256,264,59848,1,0,0:0:0:0:
352,340,60044,2,0,P|357:256|322:179,1,170.000000596046
256,268,60632,2,0,L|256:183,1,85.000000298023
216,80,61025,2,0,P|256:64|292:80,2,85.000000298023
132,152,61613,2,0,P|117:191|123:233,1,85.000000298023
208,304,62005,2,0,P|250:311|344:92,1,340.000001192092
128,112,63181,2,0,L|50:62,2,85.000000298023
240,116,63770,2,0,L|317:66,2,85.000000298023
160,196,64358,6,0,P|128:227|120:269,1,85.000000298023
232,264,64750,2,0,P|232:308|256:344,1,85.000000298023
344,276,65142,2,0,P|375:307|417:315,1,85.000000298023
416,232,65534,1,0,0:0:0:0:
388,152,65730,5,0,0:0:0:0:
388,152,65927,2,0,P|360:100|296:64,1,127.500005310774
120,152,66515,1,0,0:0:0:0:
120,152,66711,2,0,P|148:100|212:64,1,127.500005310774
256,132,67299,5,0,0:0:0:0:
256,216,67495,2,0,P|324:192|352:136,1,127.500005310774
256,216,68083,2,0,P|188:192|160:136,1,127.500005310774
372,80,68868,5,0,0:0:0:0:
372,80,69064,2,0,P|428:152|440:236,1,170.000000596046
336,192,69652,1,0,0:0:0:0:
116,192,70044,5,0,0:0:0:0:
204,256,70240,2,0,P|240:316|288:336,1,85.000000298023
280,216,70632,2,0,P|332:172|376:168,1,85.000000298023
356,280,71025,2,0,P|384:312|428:332,1,85.000000298023
456,112,71613,5,0,0:0:0:0:
256,296,72201,5,0,0:0:0:0:
336,320,72397,1,0,0:0:0:0:
424,312,72593,1,0,0:0:0:0:
456,232,72789,1,0,0:0:0:0:
456,144,72985,1,0,0:0:0:0:
456,232,73181,6,0,L|344:232,1,85.000000298023
224,320,73770,1,0,0:0:0:0:
136,320,73966,1,0,0:0:0:0:
96,248,74162,2,0,P|56:280|56:160,1,255.000000894069
112,120,74946,5,0,0:0:0:0:
168,184,75142,1,0,0:0:0:0:
224,120,75338,1,0,0:0:0:0:
312,192,75927,1,0,0:0:0:0:
312,192,76123,2,0,L|360:264,1,85.000000298023
368,344,76515,5,0,0:0:0:0:
280,344,76711,1,0,0:0:0:0:
192,344,76907,2,0,L|96:344,1,85.000000298023
112,256,77299,1,0,0:0:0:0:
112,168,77495,1,0,0:0:0:0:
112,80,77691,2,0,L|248:88,1,127.500000447035
336,168,78279,6,0,L|280:264,1,85.000000298023
272,328,78868,1,0,0:0:0:0:
184,328,79064,1,0,0:0:0:0:
96,320,79260,2,0,P|48:280|104:256,1,127.500000447035
136,192,79848,1,0,0:0:0:0:
216,168,80044,1,0,0:0:0:0:
272,240,80436,5,0,0:0:0:0:
272,240,80632,2,0,P|336:288|408:216,1,170.000000596046
256,192,81613,1,0,0:0:0:0:
80,56,86907,5,0,0:0:0:0:
168,56,87103,2,0,L|304:56,1,127.500000447035
424,56,87691,2,0,L|296:56,1,127.500000447035
296,56,88279,1,0,0:0:0:0:
296,56,88476,2,0,L|296:232,1,170.000000596046
112,120,89358,6,0,L|432:168,1,297.500001043081
240,176,90632,1,0,0:0:0:0:
72,200,91025,2,0,P|176:312|320:288,1,297.500001043081
308,295,92005,1,0,0:0:0:0:
308,295,92201,1,0,0:0:0:0:
308,295,92397,1,0,0:0:0:0:
256,192,92593,12,0,93770,0:0:0:0:
272,184,94358,5,0,0:0:0:0:
272,184,94946,5,0,0:0:0:0:
272,184,95240,6,0,P|336:224|424:280,1,159.375000558793
304,280,95730,1,0,0:0:0:0:
88,272,96123,5,0,0:0:0:0:
88,272,96319,1,0,0:0:0:0:
88,56,96711,1,0,0:0:0:0:
152,256,97103,1,0,0:0:0:0:
144,96,97397,1,0,0:0:0:0:
208,240,97691,1,0,0:0:0:0:
208,136,97887,1,0,0:0:0:0:
480,40,98476,5,0,0:0:0:0:
464,144,98672,1,0,0:0:0:0:
424,240,98868,2,0,P|288:320|160:312,1,265.625000931322
104,304,99848,1,0,0:0:0:0:
184,112,100240,5,0,0:0:0:0:
296,296,100632,1,0,0:0:0:0:
344,200,100829,1,0,0:0:0:0:
376,96,101025,1,0,0:0:0:0:
64,32,101613,6,0,B|96:88|0:112|64:168,1,106.250000372529
64,232,102005,1,0,0:0:0:0:
272,264,102397,1,0,0:0:0:0:
328,176,102593,1,0,0:0:0:0:
112,160,102985,1,0,0:0:0:0:
328,176,103378,1,0,0:0:0:0:
424,72,103672,1,0,0:0:0:0:
424,72,103966,2,0,L|424:320,1,212.500000745058
104,272,104946,1,0,0:0:0:0:
104,168,105142,2,0,L|336:56,1,212.500000745058
472,32,107887,5,0,0:0:0:0:
344,24,108083,1,0,0:0:0:0:
408,136,108279,1,0,0:0:0:0:
448,256,108672,1,0,0:0:0:0:
448,256,108868,2,0,B|368:336|248:208|168:288,1,265.625000931322
288,136,109652,1,0,0:0:0:0:
72,128,110044,1,0,0:0:0:0:
64,208,110436,6,0,L|288:320,1,212.500000745058
256,304,111221,1,0,0:0:0:0:
256,304,111417,2,0,L|440:192,1,212.500000745058
336,176,112005,1,0,0:0:0:0:
184,160,112397,1,0,0:0:0:0:
184,160,112593,1,0,0:0:0:0:
184,160,112789,1,0,0:0:0:0:
376,64,113181,1,0,0:0:0:0:
368,168,113378,2,0,L|248:168,1,106.250000372529
472,256,115142,6,0,P|472:128|392:160,1,212.500000745058
272,272,115927,1,0,0:0:0:0:
168,304,116123,2,0,P|152:256|192:192,1,106.250000372529
232,120,116515,1,0,0:0:0:0:
144,56,116711,1,0,0:0:0:0:
320,176,117887,6,0,L|280:256,1,85.000000298023
281,252,118279,2,0,L|200:224,1,85.000000298023
201,224,118672,2,0,L|264:96,1,127.500000447035
312,88,119456,5,0,0:0:0:0:
344,144,119652,1,0,0:0:0:0:
336,208,119848,1,0,0:0:0:0:
280,248,120044,1,0,0:0:0:0:
216,232,120240,1,0,0:0:0:0:
192,176,120436,1,0,0:0:0:0:
208,112,120632,1,0,0:0:0:0:
264,80,120829,1,0,0:0:0:0:
344,56,121025,2,0,P|408:112|256:40,1,935.000003278253
256,192,123574,5,0,0:0:0:0:
344,192,123770,1,0,0:0:0:0:
472,80,124162,2,0,L|472:176,1,85.000000298023
472,165,124554,2,0,L|472:256,1,85.000000298023
472,250,124946,2,0,L|472:352,1,85.000000298023
384,336,125338,2,0,L|289:336,1,85.000000298023
299,336,125730,2,0,L|209:336,1,85.000000298023
214,336,126123,2,0,L|129:336,1,85.000000298023
112,168,126711,5,0,0:0:0:0:
112,80,126907,1,0,0:0:0:0:
184,120,127103,1,0,0:0:0:0:
344,72,127495,2,0,P|376:56|432:88,1,85.000000298023
440,240,128083,5,0,0:0:0:0:
384,304,128279,1,0,0:0:0:0:
304,320,128476,1,0,0:0:0:0:
216,320,128672,2,0,P|136:288|128:272,1,85.000000298023
88,224,129064,1,0,0:0:0:0:
88,136,129260,1,0,0:0:0:0:
224,32,129652,5,0,0:0:0:0:
216,120,129848,1,0,0:0:0:0:
160,184,130044,1,0,0:0:0:0:
160,280,130240,2,0,P|64:208|56:72,1,255.000000894069
144,224,131221,5,0,0:0:0:0:
200,288,131417,1,0,0:0:0:0:
280,328,131613,1,0,0:0:0:0:
368,328,131809,2,0,P|424:280|400:208,1,127.500000447035
424,232,132397,1,0,0:0:0:0:
256,56,133574,6,0,L|256:144,1,85.000000298023
256,144,133966,1,0,0:0:0:0:
304,192,134162,2,0,L|360:272,1,85.000000298023
352,264,134554,1,0,0:0:0:0:
200,192,134946,2,0,L|152:288,1,85.000000298023
160,272,135338,1,0,0:0:0:0:
256,296,135534,1,0,0:0:0:0:
256,208,135730,2,0,L|256:-8,1,212.500000745058
192,32,136515,6,0,P|312:184|160:296,2,425.000001490115
192,32,138672,1,0,0:0:0:0:
56,136,139064,5,0,0:0:0:0:
128,176,139260,1,0,0:0:0:0:
192,232,139456,1,0,0:0:0:0:
256,288,139652,1,0,0:0:0:0:
256,288,139848,1,0,0:0:0:0:
256,288,140044,1,0,0:0:0:0:
320,232,140240,2,0,L|400:144,1,85.000000298023
496,48,140829,5,0,0:0:0:0:
504,136,141025,1,0,0:0:0:0:
504,224,141221,1,0,0:0:0:0:
504,224,141417,1,0,0:0:0:0:
504,224,141613,1,0,0:0:0:0:
496,312,141809,2,0,L|408:352,1,85.000000298023
384,184,142397,5,0,0:0:0:0:
336,112,142593,1,0,0:0:0:0:
256,80,142789,1,0,0:0:0:0:
256,80,142985,1,0,0:0:0:0:
256,80,143181,1,0,0:0:0:0:
256,168,143378,2,0,L|256:280,1,85.000000298023
256,256,143770,5,0,0:0:0:0:
336,104,144162,1,0,0:0:0:0:
176,104,144554,1,0,0:0:0:0:
144,272,144946,2,0,P|216:144|400:288,1,425.000001490115
144,336,147103,5,0,0:0:0:0:
144,336,147299,2,0,L|248:200,1,170.000000596046
368,336,148476,5,0,0:0:0:0:
368,336,148672,2,0,L|256:200,1,170.000000596046
256,192,149848,5,0,0:0:0:0:
256,192,150044,2,0,L|256:8,1,170.000000596046
256,24,151025,1,0,0:0:0:0:
312,136,151613,5,0,0:0:0:0:
256,200,151809,1,0,0:0:0:0:
192,256,152005,1,0,0:0:0:0:
120,248,152201,5,0,0:0:0:0:
120,160,152783,1,0,0:0:0:0:
120,72,153248,1,0,0:0:0:0:
400,72,153713,1,0,0:0:0:0:
400,160,154178,1,0,0:0:0:0:
400,208,154527,1,0,0:0:0:0:
400,248,154760,1,0,0:0:0:0:
256,192,155457,12,0,158132,0:0:0:0:
280,208,158481,5,0,0:0:0:0:
216,152,158713,2,0,P|272:336|336:136,1,510.000001788138
288,88,160393,1,0,0:0:0:0:
32,48,161393,5,0,0:0:0:0:
48,128,161643,1,0,0:0:0:0:
120,232,162018,1,0,0:0:0:0:
224,304,162393,1,0,0:0:0:0:
312,304,162643,1,0,0:0:0:0:
256,56,163393,6,0,P|272:320|264:56,1,807.500002831219
480,48,166393,5,0,0:0:0:0:
464,128,166643,1,0,0:0:0:0:
392,232,167018,1,0,0:0:0:0:
288,304,167518,1,0,0:0:0:0:
200,304,167768,1,0,0:0:0:0:
192,64,171274,5,0,0:0:0:0:
224,144,171590,1,0,0:0:0:0:
280,64,171906,1,0,0:0:0:0:
312,144,172178,1,0,0:0:0:0:
312,144,172587,2,0,P|296:224|232:128,1,255.000000894069
256,96,174087,1,0,0:0:0:0:
16,192,174906,5,0,0:0:0:0:
56,264,175178,1,0,0:0:0:0:
160,344,175587,1,0,0:0:0:0:
288,352,175996,1,0,0:0:0:0:
352,352,176269,2,0,P|456:312|496:152,1,255.000000894069
503,184,177541,2,0,L|264:184,1,212.500000745058
248,184,178814,1,0,0:0:0:0:
256,192,178996,12,0,183359,0:0:0:0:
