osu file format v12

[General]
AudioFilename: Koi no yokushiryoku - Nana Mizuki - Metal Gear Solid Character Song.mp3
AudioLeadIn: 0
PreviewTime: 95730
Countdown: 1
SampleSet: None
StackLeniency: 0.7
Mode: 0
LetterboxInBreaks: 1
StoryFireInFront: 0
CountdownOffset: 1
WidescreenStoryboard: 1

[Editor]
Bookmarks: 26052
DistanceSpacing: 0.9
BeatDivisor: 4
GridSize: 4
TimelineZoom: 1.1

[Metadata]
Title:Koi no yokushiryoku
TitleUnicode:Koi no yokushiryoku
Artist:Nana Mizuki
ArtistUnicode:Nana Mizuki
Creator:dalollypop
Version:Easy
Source:Metal gear solid peace walker
Tags:metal gear solid peace walker hideo kojima paz kaz snake ocelot miller PMC zeke the big boss outer haven cipher mgs m1223961117
BeatmapID:392414
BeatmapSetID:115581

[Difficulty]
HPDrainRate:5
CircleSize:3
OverallDifficulty:1
ApproachRate:3
SliderMultiplier:0.900000005960464
SliderTickRate:2

[Events]
//Background and Video events
0,0,"paaaz.jpg",0,0
Video,0,"KOINOY~12.FLV"
//Break Periods
2,53578,55075
2,81813,92918
2,158448,169834
//Storyboard Layer 0 (Background)
//Storyboard Layer 1 (Fail)
//Storyboard Layer 2 (Pass)
//Storyboard Layer 3 (Foreground)
//Storyboard Sound Samples
//Background Colour Transformations
3,100,163,162,255

[TimingPoints]
18282,500,4,2,1,35,1,0
34282,558.139534883721,4,2,1,20,1,0
35398,631.578947368421,4,2,1,20,1,0
36661,750,4,2,1,20,1,0
39661,392.156862745098,4,2,1,100,1,0
39759,-66.6666666666667,4,2,0,100,0,1
40829,392.156862745098,4,2,1,100,1,0
40829,-66.6666666666667,4,2,0,100,0,1
55730,-100,4,2,0,100,0,0
95730,-66.6666666666667,4,2,0,100,0,1
106711,-66.6666666666667,4,2,0,100,0,0
108279,-66.6666666666667,4,2,0,100,0,1
126319,-66.6666666666667,4,2,0,100,0,0
151809,-100,4,2,0,100,0,0
152202,465.116279069767,4,2,1,100,1,0
159643,500,4,2,1,35,1,0
170643,631.578947368421,4,2,1,35,1,0
171906,545.454545454546,4,2,1,35,1,0
176269,727.272727272727,4,2,1,35,1,0

[Colours]
Combo1 : 255,128,0
Combo2 : 5,240,5
Combo3 : 70,70,255
Combo4 : 210,3,3

[HitObjects]
96,152,18282,6,0,P|200:144|256:192,1,180.000001192093
216,264,19782,2,0,P|256:296|312:296,1,90.0000005960464
352,248,20782,1,0,0:0:0:0:
376,168,21282,1,0,0:0:0:0:
344,96,21782,2,0,P|264:80|240:88,1,90.0000005960464
272,160,22782,2,0,P|216:256|152:160,1,270.000001788139
296,80,25282,2,0,P|328:96|352:160,1,90.0000005960464
280,184,26282,2,0,P|248:248|136:264,1,180.000001192093
192,192,27782,1,0,0:0:0:0:
232,112,28282,2,0,P|145:122|100:197,1,180.000001192093
208,72,30282,6,0,P|264:72|360:152,1,180.000001192093
328,224,31782,1,0,0:0:0:0:
248,200,32282,2,0,P|248:264|272:288,1,90.0000005960464
184,312,33282,1,0,0:0:0:0:
136,248,33782,1,0,0:0:0:0:
112,176,34282,1,0,0:0:0:0:
256,192,34561,12,0,39661,0:0:0:0:
192,280,40829,6,0,P|336:216|448:136,1,270.000012087822
192,88,42397,2,0,P|128:136|104:200,1,135.000006043911
216,240,43181,2,0,P|272:312|328:328,1,135.000006043911
400,240,43966,2,0,P|416:176|256:56,1,270.000012087822
88,200,45534,1,0,0:0:0:0:
184,272,45927,1,0,0:0:0:0:
280,200,46319,1,0,0:0:0:0:
376,272,46711,1,0,0:0:0:0:
392,152,47103,2,0,P|256:116|132:152,1,270.000012087822
40,224,48279,1,0,0:0:0:0:
36,344,48672,1,0,0:0:0:0:
156,340,49064,2,0,P|148:276|164:204,1,135.000006043911
252,288,49848,2,0,L|252:256|252:216,2,67.5000030219556
264,160,50632,2,0,P|256:64|240:160,1,270.000012087822
256,192,51809,12,0,53378,0:0:0:0:
56,336,56515,6,0,L|192:216,1,180.000001192093
256,168,57691,1,0,0:0:0:0:
256,248,58083,2,0,L|256:280|256:308,3,45.0000002980232
224,176,59260,5,0,0:0:0:0:
304,176,59652,1,0,0:0:0:0:
264,108,60044,1,0,0:0:0:0:
188,76,60436,2,0,P|264:28|340:80,1,180.000001192093
380,136,61613,1,0,0:0:0:0:
380,216,62005,1,0,0:0:0:0:
136,208,63181,2,0,P|108:288|112:300,1,90.0000005960464
188,288,63966,2,0,P|240:300|284:280,1,90.0000005960464
248,212,64750,2,0,P|242:178|256:116,1,90.0000005960464
256,288,65927,6,0,B|104:192|115:114|227:97|227:103|250:220|256:153|227:220|289:103|267:103|384:103|401:187|250:293,1,540.000003576278
104,304,69064,6,0,P|88:256|84:208,1,90.0000005960464
84,180,69652,1,0,0:0:0:0:
260,280,70632,6,0,P|305:287|364:281,1,90.0000005960464
392,280,71221,1,0,0:0:0:0:
464,92,72201,6,0,P|476:144|476:196,1,90.0000005960464
476,220,72790,1,0,0:0:0:0:
288,296,73770,6,0,P|242:303|183:297,1,90.0000005960464
160,296,74359,1,0,0:0:0:0:
112,184,74946,6,0,P|176:176|208:184,1,90.0000005960464
280,192,75730,1,0,0:0:0:0:
348,144,76123,1,0,0:0:0:0:
412,192,76515,1,0,0:0:0:0:
348,244,76907,1,0,0:0:0:0:
272,272,77299,2,0,P|184:276|132:200,1,180.000001192093
128,128,78476,5,0,0:0:0:0:
288,128,79260,5,0,0:0:0:0:
360,168,79652,1,0,0:0:0:0:
420,220,80044,2,0,P|364:304|264:200,1,270.000001788139
260,136,81613,1,0,0:0:0:0:
260,196,94358,5,0,0:0:0:0:
260,196,94946,1,0,0:0:0:0:
496,196,95730,6,0,P|460:304|304:296,1,270.000012087822
392,212,96907,1,0,0:0:0:0:
272,188,97299,2,0,L|200:188,3,67.5000030219556
88,300,98476,5,0,0:0:0:0:
208,300,98868,1,0,0:0:0:0:
148,196,99260,1,0,0:0:0:0:
260,148,99652,2,0,P|324:128|388:148,1,135.000006043911
464,240,100436,2,0,P|456:276|424:300,3,67.5000030219556
280,196,101613,5,0,0:0:0:0:
224,304,102005,2,0,P|177:279|166:224,2,101.250004532933
344,308,102985,1,0,0:0:0:0:
440,232,103378,1,0,0:0:0:0:
368,132,103770,2,0,P|416:108|496:140,1,135.000006043911
428,32,107887,5,0,0:0:0:0:
428,92,108083,1,0,0:0:0:0:
428,152,108279,2,0,L|428:304,1,135.000006043911
368,288,108868,2,0,B|240:288|240:168|132:168,1,270.000012087822
372,224,110436,6,0,P|255:326|138:218,1,337.500015109778
232,148,111809,2,0,P|274:172|353:144,1,135.000006043911
472,136,112593,2,0,P|428:113|350:146,1,135.000006043911
180,160,113574,1,0,0:0:0:0:
456,32,114554,6,0,P|412:64|392:160,1,135.000006043911
480,216,115338,2,0,P|464:268|392:304,1,135.000006043911
272,304,116123,1,0,0:0:0:0:
160,260,116515,1,0,0:0:0:0:
60,188,116907,1,0,0:0:0:0:
276,296,117691,2,0,P|295:110|353:298,1,540.000024175645
112,260,120044,1,0,0:0:0:0:
64,148,120436,1,0,0:0:0:0:
144,56,120829,2,0,P|408:56|456:288,1,540.000024175645
472,340,123966,2,0,P|414:366|343:333,1,135.000006043911
440,260,124750,2,0,P|459:199|420:119,1,135.000006043911
356,228,125534,2,0,P|291:240|227:221,1,135.000006043911
116,168,126319,1,0,0:0:0:0:
344,252,127103,6,0,P|288:284|216:296,1,135.000006043911
104,320,127887,1,0,0:0:0:0:
60,208,128279,1,0,0:0:0:0:
120,112,128672,6,0,P|148:68|245:45,1,135.000006043911
248,160,129457,1,0,0:0:0:0:
248,280,129849,1,0,0:0:0:0:
148,308,130240,6,0,P|112:256|144:196,1,135.000006043911
72,112,131024,1,0,0:0:0:0:
192,112,131417,1,0,0:0:0:0:
312,112,131809,2,0,B|364:216|364:216|304:220|304:220|304:320,1,270.000012087822
448,64,133378,6,0,L|448:340,1,270.000012087822
208,308,134946,1,0,0:0:0:0:
208,188,135338,1,0,0:0:0:0:
208,68,135730,1,0,0:0:0:0:
208,308,136515,2,0,P|320:172|188:24,2,405.000018131733
228,64,139652,2,0,L|228:360,1,270.000012087822
468,304,141221,2,0,L|320:60,1,270.000012087822
288,312,142789,2,0,L|8:312,1,270.000012087822
48,132,144162,5,0,0:0:0:0:
160,80,144554,1,0,0:0:0:0:
280,68,144946,2,0,L|368:192,1,135.000006043911
416,348,145927,2,0,L|260:192,1,202.500009065867
96,348,147495,2,0,L|252:192,1,202.500009065867
256,212,149064,2,0,L|256:4,1,202.500009065867
120,276,152201,5,0,0:0:0:0:
120,196,152667,1,0,0:0:0:0:
120,116,153132,1,0,0:0:0:0:
392,116,153597,5,0,0:0:0:0:
392,196,154062,1,0,0:0:0:0:
392,276,154528,1,0,0:0:0:0:
256,192,155457,12,0,158248,0:0:0:0:
256,156,171274,5,0,0:0:0:0:
196,228,171906,2,0,P|268:324|316:228,1,270.000001788139
256,156,174087,1,0,0:0:0:0:
136,48,175178,2,0,B|104:88|104:88|128:136,1,90.0000005960464
156,168,176269,2,0,B|156:228|160:228|240:224,1,112.500000745058
284,224,177723,2,0,B|344:224|344:228|340:308,1,112.500000745058
256,192,179178,12,0,183178,0:0:0:0:
